999
DXF file: RVEALAN.dxf
999
Pro/ENGINEER 2016010 by Parametric Technology Corporation
  0
SECTION
  2
HEADER
  9
$ACADVER
  1
AC1021
  9
$DWGCODEPAGE
  3
ANSI_1252
  9
$EXTMAX
 10
17.0
 20
11.0
 30
0.0
  9
$EXTMIN
 10
0.0
 20
0.0
 30
0.0
  9
$LIMMIN
 10
0.0
 20
0.0
  9
$LIMMAX
 10
17.0
 20
11.0
  9
$VIEWCTR
 10
8.5
 20
5.5
  9
$VIEWSIZE
 40
11.0
  9
$CLAYER
  8
0
  9
$LTSCALE
 40
0.935
  9
$CELTYPE
  6
BYLAYER
  9
$DIMSCALE
 40
1.0
  9
$DIMASZ
 40
0.1875
  9
$DIMEXO
 40
0.0625
  9
$DIMDLI
 40
0.646
  9
$DIMEXE
 40
0.125
  9
$DIMCEN
 40
0.153
  9
$DIMLFAC
 40
1.0
  9
$DIMBLK
  1
_FILLED
  9
$DIMALT
 70
0
  9
$DIMALTF
 40
25.4
  9
$DIMTXT
 40
0.125
  9
$DIMTOL
 70
0
  9
$DIMLIM
 70
0
  9
$DIMTFAC
 40
1.0
  9
$DIMGAP
 40
0.09
  9
$DIMDSEP
 70
46
  9
$AUNITS
 70
0
  9
$PDMODE
 70
3
  9
$PDSIZE
 40
0.3125
  9
$HANDSEED
  5
365
  9
$TILEMODE
 70
1
  9
$MEASUREMENT
 70
0
  9
$INSUNITS
 70
1
  0
ENDSEC
  0
SECTION
  2
CLASSES
  0
CLASS
  1
ACDBDICTIONARYWDFLT
  2
AcDbDictionaryWithDefault
  3
AutoCAD 2000
 90
0
 91
1
280
0
281
0
  0
CLASS
  1
ACDBPLACEHOLDER
  2
AcDbPlaceHolder
  3
AutoCAD 2000
 90
0
 91
1
280
0
281
0
  0
CLASS
  1
LAYOUT
  2
AcDbLayout
  3
AutoCAD 2000
 90
0
 91
0
280
0
281
0
  0
ENDSEC
  0
SECTION
  2
TABLES
  0
TABLE
  2
VPORT
  5
8
100
AcDbSymbolTable
 70
2
  0
VPORT
  5
1F4
100
AcDbSymbolTableRecord
100
AcDbViewportTableRecord
  2
*ACTIVE
 70
0
 10
0.0
 20
0.0
 11
1.0
 21
1.0
 12
8.5
 22
5.5
 13
0.0
 23
0.0
 14
1.0
 24
1.0
 15
0.0
 25
0.0
 16
0.0
 26
0.0
 36
1.0
 17
0.0
 27
0.0
 37
0.0
 40
11.0
 41
1.5454545455
 42
50.0
 43
0.0
 44
0.0
 50
0.0
 51
0.0
 71
0
 72
100
 73
1
 74
1
 75
0
 76
0
 77
0
 78
0
  0
ENDTAB
  0
TABLE
  2
LTYPE
  5
5
100
AcDbSymbolTable
 70
6
  0
LTYPE
  5
14
100
AcDbSymbolTableRecord
100
AcDbLinetypeTableRecord
  2
BYBLOCK
 70
0
  3

 72
65
 73
0
 40
0.0
  0
LTYPE
  5
15
100
AcDbSymbolTableRecord
100
AcDbLinetypeTableRecord
  2
BYLAYER
 70
0
  3

 72
65
 73
0
 40
0.0
  0
LTYPE
  5
16
100
AcDbSymbolTableRecord
100
AcDbLinetypeTableRecord
  2
CONTINUOUS
 70
64
  3
Solid line
 72
65
 73
0
 40
0.0
  0
LTYPE
  5
1F5
100
AcDbSymbolTableRecord
100
AcDbLinetypeTableRecord
  2
CENTER
 70
64
  3
____ _ ____ _ ____ _ ____ _ ____ _ ____ _ ____
 72
65
 73
4
 40
0.6
 49
0.375
 74
0
 49
-0.075
 74
0
 49
0.075
 74
0
 49
-0.075
 74
0
  0
LTYPE
  5
1F6
100
AcDbSymbolTableRecord
100
AcDbLinetypeTableRecord
  2
HIDDEN
 70
64
  3
- - - - - - - - - - - - - - - - - - - -
 72
65
 73
2
 40
0.2
 49
0.1
 74
0
 49
-0.1
 74
0
  0
LTYPE
  5
1F7
100
AcDbSymbolTableRecord
100
AcDbLinetypeTableRecord
  2
PHANTOM
 70
64
  3
_____ _ _ _____ _ _ _____ _ _ _____
 72
65
 73
6
 40
0.8
 49
0.45
 74
0
 49
-0.05
 74
0
 49
0.1
 74
0
 49
-0.05
 74
0
 49
0.1
 74
0
 49
-0.05
 74
0
  0
LTYPE
  5
1F8
100
AcDbSymbolTableRecord
100
AcDbLinetypeTableRecord
  2
DOT
 70
64
  3
. . . . . . . . . . . . . . . . . . . .
 72
65
 73
2
 40
0.2
 49
0.1
 74
0
 49
-0.1
 74
0
  0
LTYPE
  5
1F9
100
AcDbSymbolTableRecord
100
AcDbLinetypeTableRecord
  2
DASHED
 70
64
  3
- - - - - - - - - - - - - - - - - - - -
 72
65
 73
2
 40
0.2
 49
0.1
 74
0
 49
-0.1
 74
0
  0
ENDTAB
  0
TABLE
  2
LAYER
  5
2
100
AcDbSymbolTable
 70
36
  0
LAYER
  5
10
100
AcDbSymbolTableRecord
100
AcDbLayerTableRecord
  2
0
 70
0
 62
7
  6
CONTINUOUS
370
-3
390
F
  0
LAYER
  5
1FA
100
AcDbSymbolTableRecord
100
AcDbLayerTableRecord
  2
DEFAULT_1
 70
0
 62
7
  6
CENTER
370
-3
390
F
  0
LAYER
  5
1FB
100
AcDbSymbolTableRecord
100
AcDbLayerTableRecord
  2
DEFAULT_2
 70
0
 62
8
  6
HIDDEN
370
-3
390
F
  0
LAYER
  5
1FC
100
AcDbSymbolTableRecord
100
AcDbLayerTableRecord
  2
DEFAULT_3
 70
0
 62
7
  6
PHANTOM
370
-3
390
F
  0
LAYER
  5
1FD
100
AcDbSymbolTableRecord
100
AcDbLayerTableRecord
  2
01_ALL_DTM_PLN
 70
0
 62
7
  6
CONTINUOUS
370
-3
390
F
  0
LAYER
  5
1FE
100
AcDbSymbolTableRecord
100
AcDbLayerTableRecord
  2
01__ASM_ALL_DTM_PLN
 70
0
 62
7
  6
CONTINUOUS
370
-3
390
F
  0
LAYER
  5
1FF
100
AcDbSymbolTableRecord
100
AcDbLayerTableRecord
  2
01__ASM_DEF_DTM_PLN
 70
0
 62
7
  6
CONTINUOUS
370
-3
390
F
  0
LAYER
  5
200
100
AcDbSymbolTableRecord
100
AcDbLayerTableRecord
  2
01___PRT_ALL_DTM_PLN
 70
0
 62
7
  6
CONTINUOUS
370
-3
390
F
  0
LAYER
  5
201
100
AcDbSymbolTableRecord
100
AcDbLayerTableRecord
  2
01___PRT_DEF_DTM_PLN
 70
0
 62
7
  6
CONTINUOUS
370
-3
390
F
  0
LAYER
  5
202
100
AcDbSymbolTableRecord
100
AcDbLayerTableRecord
  2
02_ALL_AXES
 70
0
 62
7
  6
CONTINUOUS
370
-3
390
F
  0
LAYER
  5
203
100
AcDbSymbolTableRecord
100
AcDbLayerTableRecord
  2
02__ASM_ALL_AXES
 70
0
 62
7
  6
CONTINUOUS
370
-3
390
F
  0
LAYER
  5
204
100
AcDbSymbolTableRecord
100
AcDbLayerTableRecord
  2
02___PRT_ALL_AXES
 70
0
 62
7
  6
CONTINUOUS
370
-3
390
F
  0
LAYER
  5
205
100
AcDbSymbolTableRecord
100
AcDbLayerTableRecord
  2
03_ALL_CURVES
 70
0
 62
7
  6
CONTINUOUS
370
-3
390
F
  0
LAYER
  5
206
100
AcDbSymbolTableRecord
100
AcDbLayerTableRecord
  2
03__ASM_ALL_CURVES
 70
0
 62
7
  6
CONTINUOUS
370
-3
390
F
  0
LAYER
  5
207
100
AcDbSymbolTableRecord
100
AcDbLayerTableRecord
  2
03___PRT_ALL_CURVES
 70
0
 62
7
  6
CONTINUOUS
370
-3
390
F
  0
LAYER
  5
208
100
AcDbSymbolTableRecord
100
AcDbLayerTableRecord
  2
04_ALL_DTM_PNT
 70
0
 62
7
  6
CONTINUOUS
370
-3
390
F
  0
LAYER
  5
209
100
AcDbSymbolTableRecord
100
AcDbLayerTableRecord
  2
04__ASM_ALL_DTM_PNT
 70
0
 62
7
  6
CONTINUOUS
370
-3
390
F
  0
LAYER
  5
20A
100
AcDbSymbolTableRecord
100
AcDbLayerTableRecord
  2
04___PRT_ALL_DTM_PNT
 70
0
 62
7
  6
CONTINUOUS
370
-3
390
F
  0
LAYER
  5
20B
100
AcDbSymbolTableRecord
100
AcDbLayerTableRecord
  2
05_ALL_DTM_CSYS
 70
0
 62
7
  6
CONTINUOUS
370
-3
390
F
  0
LAYER
  5
20C
100
AcDbSymbolTableRecord
100
AcDbLayerTableRecord
  2
05__ASM_ALL_DTM_CSYS
 70
0
 62
7
  6
CONTINUOUS
370
-3
390
F
  0
LAYER
  5
20D
100
AcDbSymbolTableRecord
100
AcDbLayerTableRecord
  2
05__ASM_DEF_DTM_CSYS
 70
0
 62
7
  6
CONTINUOUS
370
-3
390
F
  0
LAYER
  5
20E
100
AcDbSymbolTableRecord
100
AcDbLayerTableRecord
  2
05___PRT_ALL_DTM_CSYS
 70
0
 62
7
  6
CONTINUOUS
370
-3
390
F
  0
LAYER
  5
20F
100
AcDbSymbolTableRecord
100
AcDbLayerTableRecord
  2
05___PRT_DEF_DTM_CSYS
 70
0
 62
7
  6
CONTINUOUS
370
-3
390
F
  0
LAYER
  5
210
100
AcDbSymbolTableRecord
100
AcDbLayerTableRecord
  2
06_ALL_SURFS
 70
0
 62
7
  6
CONTINUOUS
370
-3
390
F
  0
LAYER
  5
211
100
AcDbSymbolTableRecord
100
AcDbLayerTableRecord
  2
06__ASM_ALL_SURFS
 70
0
 62
7
  6
CONTINUOUS
370
-3
390
F
  0
LAYER
  5
212
100
AcDbSymbolTableRecord
100
AcDbLayerTableRecord
  2
06___PRT_ALL_SURFS
 70
0
 62
7
  6
CONTINUOUS
370
-3
390
F
  0
LAYER
  5
213
100
AcDbSymbolTableRecord
100
AcDbLayerTableRecord
  2
07__ASM_ALL_SKELETONS
 70
0
 62
7
  6
CONTINUOUS
370
-3
390
F
  0
LAYER
  5
214
100
AcDbSymbolTableRecord
100
AcDbLayerTableRecord
  2
127-001_FEATURES
 70
0
 62
7
  6
CONTINUOUS
370
-3
390
F
  0
LAYER
  5
215
100
AcDbSymbolTableRecord
100
AcDbLayerTableRecord
  2
127-001_REF_GEOMETRY
 70
0
 62
7
  6
CONTINUOUS
370
-3
390
F
  0
LAYER
  5
216
100
AcDbSymbolTableRecord
100
AcDbLayerTableRecord
  2
127-004_FEATURES
 70
0
 62
7
  6
CONTINUOUS
370
-3
390
F
  0
LAYER
  5
217
100
AcDbSymbolTableRecord
100
AcDbLayerTableRecord
  2
127-004_REF_GEOMETRY
 70
0
 62
7
  6
CONTINUOUS
370
-3
390
F
  0
LAYER
  5
218
100
AcDbSymbolTableRecord
100
AcDbLayerTableRecord
  2
127-008_FEATURES
 70
0
 62
7
  6
CONTINUOUS
370
-3
390
F
  0
LAYER
  5
219
100
AcDbSymbolTableRecord
100
AcDbLayerTableRecord
  2
127-008_REF_GEOMETRY
 70
0
 62
7
  6
CONTINUOUS
370
-3
390
F
  0
LAYER
  5
21A
100
AcDbSymbolTableRecord
100
AcDbLayerTableRecord
  2
127-410_FEATURES
 70
0
 62
7
  6
CONTINUOUS
370
-3
390
F
  0
LAYER
  5
21B
100
AcDbSymbolTableRecord
100
AcDbLayerTableRecord
  2
127-410_REF_GEOMETRY
 70
0
 62
7
  6
CONTINUOUS
370
-3
390
F
  0
LAYER
  5
21C
100
AcDbSymbolTableRecord
100
AcDbLayerTableRecord
  2
127-411_FEATURES
 70
0
 62
7
  6
CONTINUOUS
370
-3
390
F
  0
LAYER
  5
21D
100
AcDbSymbolTableRecord
100
AcDbLayerTableRecord
  2
127-411_REF_GEOMETRY
 70
0
 62
7
  6
CONTINUOUS
370
-3
390
F
  0
LAYER
  5
21E
100
AcDbSymbolTableRecord
100
AcDbLayerTableRecord
  2
127-412_FEATURES
 70
0
 62
7
  6
CONTINUOUS
370
-3
390
F
  0
LAYER
  5
21F
100
AcDbSymbolTableRecord
100
AcDbLayerTableRecord
  2
127-412_REF_GEOMETRY
 70
0
 62
7
  6
CONTINUOUS
370
-3
390
F
  0
LAYER
  5
220
100
AcDbSymbolTableRecord
100
AcDbLayerTableRecord
  2
127-413_FEATURES
 70
0
 62
7
  6
CONTINUOUS
370
-3
390
F
  0
LAYER
  5
221
100
AcDbSymbolTableRecord
100
AcDbLayerTableRecord
  2
127-413_REF_GEOMETRY
 70
0
 62
7
  6
CONTINUOUS
370
-3
390
F
  0
LAYER
  5
222
100
AcDbSymbolTableRecord
100
AcDbLayerTableRecord
  2
127-414_FEATURES
 70
0
 62
7
  6
CONTINUOUS
370
-3
390
F
  0
LAYER
  5
223
100
AcDbSymbolTableRecord
100
AcDbLayerTableRecord
  2
127-414_REF_GEOMETRY
 70
0
 62
7
  6
CONTINUOUS
370
-3
390
F
  0
LAYER
  5
224
100
AcDbSymbolTableRecord
100
AcDbLayerTableRecord
  2
127-415_FEATURES
 70
0
 62
7
  6
CONTINUOUS
370
-3
390
F
  0
LAYER
  5
225
100
AcDbSymbolTableRecord
100
AcDbLayerTableRecord
  2
127-415_REF_GEOMETRY
 70
0
 62
7
  6
CONTINUOUS
370
-3
390
F
  0
LAYER
  5
226
100
AcDbSymbolTableRecord
100
AcDbLayerTableRecord
  2
127-416_FEATURES
 70
0
 62
7
  6
CONTINUOUS
370
-3
390
F
  0
LAYER
  5
227
100
AcDbSymbolTableRecord
100
AcDbLayerTableRecord
  2
127-416_REF_GEOMETRY
 70
0
 62
7
  6
CONTINUOUS
370
-3
390
F
  0
LAYER
  5
228
100
AcDbSymbolTableRecord
100
AcDbLayerTableRecord
  2
250-NPTF_PORT
 70
0
 62
7
  6
CONTINUOUS
370
-3
390
F
  0
LAYER
  5
229
100
AcDbSymbolTableRecord
100
AcDbLayerTableRecord
  2
COPY_GEO_FET
 70
0
 62
7
  6
CONTINUOUS
370
-3
390
F
  0
LAYER
  5
22A
100
AcDbSymbolTableRecord
100
AcDbLayerTableRecord
  2
COSMETIC
 70
0
 62
7
  6
CONTINUOUS
370
-3
390
F
  0
LAYER
  5
22B
100
AcDbSymbolTableRecord
100
AcDbLayerTableRecord
  2
COSM_REF
 70
0
 62
7
  6
CONTINUOUS
370
-3
390
F
  0
LAYER
  5
22C
100
AcDbSymbolTableRecord
100
AcDbLayerTableRecord
  2
CURVES
 70
0
 62
7
  6
CONTINUOUS
370
-3
390
F
  0
LAYER
  5
22D
100
AcDbSymbolTableRecord
100
AcDbLayerTableRecord
  2
CUT_REF_SURF
 70
0
 62
7
  6
CONTINUOUS
370
-3
390
F
  0
LAYER
  5
22E
100
AcDbSymbolTableRecord
100
AcDbLayerTableRecord
  2
DATUM
 70
0
 62
7
  6
CONTINUOUS
370
-3
390
F
  0
LAYER
  5
22F
100
AcDbSymbolTableRecord
100
AcDbLayerTableRecord
  2
DATUMCURVES
 70
0
 62
7
  6
CONTINUOUS
370
-3
390
F
  0
LAYER
  5
230
100
AcDbSymbolTableRecord
100
AcDbLayerTableRecord
  2
DATUM_ADDED_230
 70
0
 62
7
  6
CONTINUOUS
370
-3
390
F
  0
LAYER
  5
231
100
AcDbSymbolTableRecord
100
AcDbLayerTableRecord
  2
DATUM_ADDED_280-022
 70
0
 62
7
  6
CONTINUOUS
370
-3
390
F
  0
LAYER
  5
232
100
AcDbSymbolTableRecord
100
AcDbLayerTableRecord
  2
DIMENSIONS
 70
0
 62
7
  6
CONTINUOUS
370
-3
390
F
  0
LAYER
  5
233
100
AcDbSymbolTableRecord
100
AcDbLayerTableRecord
  2
DRAWINGNOTES
 70
0
 62
7
  6
CONTINUOUS
370
-3
390
F
  0
LAYER
  5
234
100
AcDbSymbolTableRecord
100
AcDbLayerTableRecord
  2
DTM
 70
0
 62
7
  6
CONTINUOUS
370
-3
390
F
  0
LAYER
  5
235
100
AcDbSymbolTableRecord
100
AcDbLayerTableRecord
  2
DTM230
 70
0
 62
7
  6
CONTINUOUS
370
-3
390
F
  0
LAYER
  5
236
100
AcDbSymbolTableRecord
100
AcDbLayerTableRecord
  2
DTM325
 70
0
 62
7
  6
CONTINUOUS
370
-3
390
F
  0
LAYER
  5
237
100
AcDbSymbolTableRecord
100
AcDbLayerTableRecord
  2
DTM_280-022
 70
0
 62
7
  6
CONTINUOUS
370
-3
390
F
  0
LAYER
  5
238
100
AcDbSymbolTableRecord
100
AcDbLayerTableRecord
  2
DTM_500001
 70
0
 62
7
  6
CONTINUOUS
370
-3
390
F
  0
LAYER
  5
239
100
AcDbSymbolTableRecord
100
AcDbLayerTableRecord
  2
DTM_500002
 70
0
 62
7
  6
CONTINUOUS
370
-3
390
F
  0
LAYER
  5
23A
100
AcDbSymbolTableRecord
100
AcDbLayerTableRecord
  2
DTM_515002
 70
0
 62
7
  6
CONTINUOUS
370
-3
390
F
  0
LAYER
  5
23B
100
AcDbSymbolTableRecord
100
AcDbLayerTableRecord
  2
DTM_530-102
 70
0
 62
7
  6
CONTINUOUS
370
-3
390
F
  0
LAYER
  5
23C
100
AcDbSymbolTableRecord
100
AcDbLayerTableRecord
  2
DTM_700-003
 70
0
 62
7
  6
CONTINUOUS
370
-3
390
F
  0
LAYER
  5
23D
100
AcDbSymbolTableRecord
100
AcDbLayerTableRecord
  2
DTM_800001
 70
0
 62
7
  6
CONTINUOUS
370
-3
390
F
  0
LAYER
  5
23E
100
AcDbSymbolTableRecord
100
AcDbLayerTableRecord
  2
DTM_BALLHOLDER
 70
0
 62
7
  6
CONTINUOUS
370
-3
390
F
  0
LAYER
  5
23F
100
AcDbSymbolTableRecord
100
AcDbLayerTableRecord
  2
DTM_ORIFICE_SEAT
 70
0
 62
7
  6
CONTINUOUS
370
-3
390
F
  0
LAYER
  5
240
100
AcDbSymbolTableRecord
100
AcDbLayerTableRecord
  2
DTM_SPRING_RH
 70
0
 62
7
  6
CONTINUOUS
370
-3
390
F
  0
LAYER
  5
241
100
AcDbSymbolTableRecord
100
AcDbLayerTableRecord
  2
DTM_SP_RH_CONSTR
 70
0
 62
7
  6
CONTINUOUS
370
-3
390
F
  0
LAYER
  5
242
100
AcDbSymbolTableRecord
100
AcDbLayerTableRecord
  2
FACE1
 70
0
 62
7
  6
CONTINUOUS
370
-3
390
F
  0
LAYER
  5
243
100
AcDbSymbolTableRecord
100
AcDbLayerTableRecord
  2
FACE2
 70
0
 62
7
  6
CONTINUOUS
370
-3
390
F
  0
LAYER
  5
244
100
AcDbSymbolTableRecord
100
AcDbLayerTableRecord
  2
FACE3
 70
0
 62
7
  6
CONTINUOUS
370
-3
390
F
  0
LAYER
  5
245
100
AcDbSymbolTableRecord
100
AcDbLayerTableRecord
  2
FACE4
 70
0
 62
7
  6
CONTINUOUS
370
-3
390
F
  0
LAYER
  5
246
100
AcDbSymbolTableRecord
100
AcDbLayerTableRecord
  2
GEOMETRICTOLERANCES
 70
0
 62
7
  6
CONTINUOUS
370
-3
390
F
  0
LAYER
  5
247
100
AcDbSymbolTableRecord
100
AcDbLayerTableRecord
  2
HIDDEN
 70
0
 62
7
  6
CONTINUOUS
370
-3
390
F
  0
LAYER
  5
248
100
AcDbSymbolTableRecord
100
AcDbLayerTableRecord
  2
HIDDEN_DRW
 70
0
 62
7
  6
CONTINUOUS
370
-3
390
F
  0
LAYER
  5
249
100
AcDbSymbolTableRecord
100
AcDbLayerTableRecord
  2
HOLE_FEATURES
 70
0
 62
7
  6
CONTINUOUS
370
-3
390
F
  0
LAYER
  5
24A
100
AcDbSymbolTableRecord
100
AcDbLayerTableRecord
  2
LAY0001
 70
0
 62
7
  6
CONTINUOUS
370
-3
390
F
  0
LAYER
  5
24B
100
AcDbSymbolTableRecord
100
AcDbLayerTableRecord
  2
PARAMETERDIMENSIONS
 70
0
 62
7
  6
CONTINUOUS
370
-3
390
F
  0
LAYER
  5
24C
100
AcDbSymbolTableRecord
100
AcDbLayerTableRecord
  2
PART
 70
0
 62
7
  6
CONTINUOUS
370
-3
390
F
  0
LAYER
  5
24D
100
AcDbSymbolTableRecord
100
AcDbLayerTableRecord
  2
PLANE
 70
0
 62
7
  6
CONTINUOUS
370
-3
390
F
  0
LAYER
  5
24E
100
AcDbSymbolTableRecord
100
AcDbLayerTableRecord
  2
PROTRUSIONS
 70
0
 62
7
  6
CONTINUOUS
370
-3
390
F
  0
LAYER
  5
24F
100
AcDbSymbolTableRecord
100
AcDbLayerTableRecord
  2
SUN_SAE-4_PORT
 70
0
 62
7
  6
CONTINUOUS
370
-3
390
F
  0
LAYER
  5
250
100
AcDbSymbolTableRecord
100
AcDbLayerTableRecord
  2
TEXT
 70
0
 62
7
  6
CONTINUOUS
370
-3
390
F
  0
LAYER
  5
251
100
AcDbSymbolTableRecord
100
AcDbLayerTableRecord
  2
THREAD
 70
0
 62
7
  6
CONTINUOUS
370
-3
390
F
  0
LAYER
  5
252
100
AcDbSymbolTableRecord
100
AcDbLayerTableRecord
  2
XSEC_DATUMS
 70
0
 62
7
  6
CONTINUOUS
370
-3
390
F
  0
ENDTAB
  0
TABLE
  2
STYLE
  5
3
100
AcDbSymbolTable
 70
1
  0
STYLE
  5
11
100
AcDbSymbolTableRecord
100
AcDbTextStyleTableRecord
  2
STANDARD
 70
0
 40
0.0
 41
0.8
 50
0.0
 71
0
 42
0.2
  3
txt
  4

  0
STYLE
  5
253
100
AcDbSymbolTableRecord
100
AcDbTextStyleTableRecord
  2
TEXTSTYLE_1
 70
0
 40
0.0
 41
0.8
 50
0.0
 71
0
 42
0.2
  3
gdt
  4

  0
ENDTAB
  0
TABLE
  2
VIEW
  5
6
100
AcDbSymbolTable
 70
0
  0
ENDTAB
  0
TABLE
  2
UCS
  5
7
100
AcDbSymbolTable
 70
0
  0
ENDTAB
  0
TABLE
  2
APPID
  5
9
100
AcDbSymbolTable
 70
1
  0
APPID
  5
254
100
AcDbSymbolTableRecord
100
AcDbRegAppTableRecord
  2
ACAD
 70
0
  0
ENDTAB
  0
TABLE
  2
BLOCK_RECORD
  5
1
100
AcDbSymbolTable
 70
0
  0
BLOCK_RECORD
  5
255
100
AcDbSymbolTableRecord
100
AcDbBlockTableRecord
  2
*Model_Space
  0
BLOCK_RECORD
  5
256
100
AcDbSymbolTableRecord
100
AcDbBlockTableRecord
  2
*Paper_Space
  0
BLOCK_RECORD
  5
257
100
AcDbSymbolTableRecord
100
AcDbBlockTableRecord
  2
_FILLED
  0
BLOCK_RECORD
  5
258
100
AcDbSymbolTableRecord
100
AcDbBlockTableRecord
  2
*D0
  0
ENDTAB
  0
TABLE
  2
DIMSTYLE
  5
A
100
AcDbSymbolTable
 70
1
100
AcDbDimStyleTable
 71
0
  0
DIMSTYLE
105
259
100
AcDbSymbolTableRecord
100
AcDbDimStyleTableRecord
  2
STANDARD
 70
0
  3

  4

 40
1.0
 41
0.1875
 42
0.0625
 43
0.38
 44
0.125
 45
0.0
 46
0.0
 47
0.001
 48
0.001
140
0.125
141
0.09
142
0.0
143
25.4
144
1.0
145
0.0
146
1.0
147
0.09
 71
0.0
 72
0.0
 73
1
 74
1
 75
0
 76
0
 77
0
 78
4
170
0
171
2
172
0
173
0
174
0
175
0
176
0
177
0
178
0
270
2
271
3
272
3
273
2
274
2
275
0
280
0
281
0
282
0
283
1
284
4
285
0
286
0
287
3
288
0
340
11
278
46
341
257
342
257
343
257
344
257
  0
DIMSTYLE
105
25A
100
AcDbSymbolTableRecord
100
AcDbDimStyleTableRecord
  2
DIMSTYLE_1
 70
0
  3

  4

 40
1.0
 41
0.1875
 42
0.0625
 43
0.38
 44
0.125
 45
0.0
 46
0.0
 47
0.0
 48
0.0
140
0.125
141
0.09
142
0.0
143
25.4
144
1.0
145
0.0
146
1.0
147
0.0625
 71
0.0
 72
0.0
 73
1
 74
1
 75
0
 76
0
 77
0
 78
4
170
0
171
2
172
0
173
0
174
0
175
0
176
0
177
0
178
0
270
2
271
2
272
2
273
2
274
2
275
0
280
0
281
0
282
0
283
1
284
4
285
0
286
0
287
3
288
0
340
11
278
46
341
257
342
257
343
257
344
257
  0
ENDTAB
  0
ENDSEC
  0
SECTION
  2
BLOCKS
  0
BLOCK
  5
20
100
AcDbEntity
  8
0
100
AcDbBlockBegin
  2
*Model_Space
 70
0
 10
0.0
 20
0.0
 30
0.0
  3
*Model_Space
  1

  0
ENDBLK
  5
21
100
AcDbEntity
  8
0
100
AcDbBlockEnd
  0
BLOCK
  5
1C
100
AcDbEntity
  8
0
100
AcDbBlockBegin
  2
*Paper_Space
 70
0
 10
0.0
 20
0.0
 30
0.0
  3
*Paper_Space
  1

  0
ENDBLK
  5
1D
100
AcDbEntity
  8
0
100
AcDbBlockEnd
  0
BLOCK
  5
25B
100
AcDbEntity
  8
0
100
AcDbBlockBegin
  2
_FILLED
 70
64
 10
0.0
 20
0.0
  3
_FILLED
  1

  0
SOLID
  5
25C
100
AcDbEntity
  8
0
  6
BYBLOCK
 62
0
100
AcDbTrace
 10
0.0
 20
0.0
 11
-1.0
 21
0.1666666667
 12
-1.0
 22
-0.1666666667
 13
-1.0
 23
-0.1666666667
  0
ENDBLK
  5
25D
100
AcDbEntity
  8
0
  6
BYBLOCK
 62
0
100
AcDbBlockEnd
  0
BLOCK
  5
25E
100
AcDbEntity
  8
0
100
AcDbBlockBegin
 62
6
  6
CONTINUOUS
  2
*D0
 70
65
 10
0.0
 20
0.0
  3
*D0
  1

  0
MTEXT
  5
25F
100
AcDbEntity
  8
0
100
AcDbMText
 62
6
  6
CONTINUOUS
  7
STANDARD
 71
1
 72
1
 10
5.9685
 20
8.3505
 30
0.0
 11
1.0
 21
0.0
 31
0.0
 44
0.9
  1
2.81 in (71,4 mm)
 40
0.125
 41
1.7
  0
LINE
  5
260
100
AcDbEntity
  8
0
100
AcDbLine
 62
6
  6
CONTINUOUS
 10
5.7185
 20
7.6005
 11
5.7185
 21
8.413
  0
LINE
  5
261
100
AcDbEntity
  8
0
100
AcDbLine
 62
6
  6
CONTINUOUS
 10
2.9055000181
 20
7.0625
 11
2.9055000181
 21
8.413
  0
LINE
  5
262
100
AcDbEntity
  8
0
100
AcDbLine
 62
6
  6
CONTINUOUS
 10
5.7185
 20
8.288
 11
4.3120000091
 21
8.288
  0
LINE
  5
263
100
AcDbEntity
  8
0
100
AcDbLine
 62
6
  6
CONTINUOUS
 10
4.3120000091
 20
8.288
 11
5.906
 21
8.288
  0
LINE
  5
264
100
AcDbEntity
  8
0
100
AcDbLine
 62
6
  6
CONTINUOUS
 10
2.9055000181
 20
8.288
 11
4.3120000091
 21
8.288
  0
INSERT
  5
265
100
AcDbEntity
  8
0
100
AcDbBlockReference
 62
6
  6
CONTINUOUS
  2
_FILLED
 10
5.7185
 20
8.288
 41
0.1875
 42
0.1875
 43
0.1875
  0
INSERT
  5
266
100
AcDbEntity
  8
0
100
AcDbBlockReference
 62
6
  6
CONTINUOUS
  2
_FILLED
 10
2.9055000181
 20
8.288
 41
0.1875
 42
0.1875
 43
0.1875
 50
180.0
  0
ENDBLK
  5
267
100
AcDbEntity
  8
0
  6
BYBLOCK
 62
0
100
AcDbBlockEnd
  0
ENDSEC
  0
SECTION
  2
ENTITIES
  0
DIMENSION
  5
268
100
AcDbEntity
  8
0
100
AcDbDimension
 62
6
  6
CONTINUOUS
  2
*D0
 10
2.9055000181
 20
8.288
 11
6.8185
 21
8.288
 70
160
 71
1
 42
2.8129999819
  1
<> in (71,4 mm)
  3
DIMSTYLE_1
100
AcDbAlignedDimension
 13
5.7185
 23
7.538
 14
2.9055000181
 24
7.0
 50
180.0
100
AcDbRotatedDimension
  0
MTEXT
  5
269
100
AcDbEntity
  8
0
100
AcDbMText
 62
2
  6
CONTINUOUS
  7
STANDARD
 71
1
 72
1
 10
7.4685
 20
7.0625
 30
0.0
 11
1.0
 21
0.0
 31
0.0
 44
0.6
  1
Port 1\PInlet
 40
0.125
 41
0.6
  0
MTEXT
  5
26A
100
AcDbEntity
  8
0
100
AcDbMText
 62
2
  6
CONTINUOUS
  7
STANDARD
 71
1
 72
1
 10
6.2685
 20
6.3125
 30
0.0
 11
1.0
 21
0.0
 31
0.0
 44
0.6
  1
Port 2\POutlet
 40
0.125
 41
0.6
  0
MTEXT
  5
26B
100
AcDbEntity
  8
0
100
AcDbMText
 62
2
  6
CONTINUOUS
  7
STANDARD
 71
1
 72
1
 10
5.1985
 20
6.3125
 30
0.0
 11
1.0
 21
0.0
 31
0.0
 44
0.6
  1
Port 3\PVent
 40
0.125
 41
0.6
  0
MTEXT
  5
26C
100
AcDbEntity
  8
0
100
AcDbMText
 62
2
  6
CONTINUOUS
  7
STANDARD
 71
1
 72
1
 10
5.9685
 20
8.1005
 30
0.0
 11
1.0
 21
0.0
 31
0.0
 44
0.6
  1
 LOCATING SHOULDER
 40
0.125
 41
1.8
  0
LINE
  5
26D
100
AcDbEntity
  8
0
100
AcDbLine
 62
7
  6
CONTINUOUS
 10
2.9055
 20
7.153
 11
2.9055
 21
6.847
  0
LINE
  5
26E
100
AcDbEntity
  8
0
100
AcDbLine
 62
7
  6
CONTINUOUS
 10
2.9225
 20
7.17
 11
2.9225
 21
6.83
  0
LINE
  5
26F
100
AcDbEntity
  8
0
100
AcDbLine
 62
7
  6
CONTINUOUS
 10
2.9365
 20
7.184
 11
2.9365
 21
6.816
  0
LINE
  5
270
100
AcDbEntity
  8
0
100
AcDbLine
 62
7
  6
CONTINUOUS
 10
3.1355
 20
7.184
 11
3.1355
 21
6.816
  0
LINE
  5
271
100
AcDbEntity
  8
0
100
AcDbLine
 62
7
  6
CONTINUOUS
 10
3.137
 20
6.8386370925
 11
3.137
 21
6.8575659722
  0
LINE
  5
272
100
AcDbEntity
  8
0
100
AcDbLine
 62
7
  6
CONTINUOUS
 10
3.137
 20
7.1424340278
 11
3.137
 21
7.1614512129
  0
LINE
  5
273
100
AcDbEntity
  8
0
100
AcDbLine
 62
7
  6
CONTINUOUS
 10
3.172
 20
6.8386370925
 11
3.172
 21
6.8575659722
  0
LINE
  5
274
100
AcDbEntity
  8
0
100
AcDbLine
 62
7
  6
CONTINUOUS
 10
3.172
 20
7.1424340278
 11
3.172
 21
7.1614512129
  0
LINE
  5
275
100
AcDbEntity
  8
0
100
AcDbLine
 62
7
  6
CONTINUOUS
 10
3.1735
 20
7.184
 11
3.1735
 21
6.816
  0
LINE
  5
276
100
AcDbEntity
  8
0
100
AcDbLine
 62
7
  6
CONTINUOUS
 10
3.4065
 20
6.7523459131
 11
3.4065
 21
7.2476540869
  0
LINE
  5
277
100
AcDbEntity
  8
0
100
AcDbLine
 62
7
  6
CONTINUOUS
 10
2.9055
 20
7.153
 11
2.9365
 21
7.184
  0
LINE
  5
278
100
AcDbEntity
  8
0
100
AcDbLine
 62
7
  6
CONTINUOUS
 10
2.9055
 20
6.847
 11
2.9365
 21
6.816
  0
LINE
  5
279
100
AcDbEntity
  8
0
100
AcDbLine
 62
7
  6
CONTINUOUS
 10
3.4685
 20
6.729
 11
3.4685
 21
7.271
  0
LINE
  5
27A
100
AcDbEntity
  8
0
100
AcDbLine
 62
7
  6
CONTINUOUS
 10
3.4745
 20
6.729
 11
3.4745
 21
7.271
  0
LINE
  5
27B
100
AcDbEntity
  8
0
100
AcDbLine
 62
7
  6
CONTINUOUS
 10
3.48
 20
7.2655
 11
3.48
 21
6.7345
  0
LINE
  5
27C
100
AcDbEntity
  8
0
100
AcDbLine
 62
7
  6
CONTINUOUS
 10
3.496
 20
7.2655
 11
3.496
 21
6.7345
  0
LINE
  5
27D
100
AcDbEntity
  8
0
100
AcDbLine
 62
7
  6
CONTINUOUS
 10
3.6875
 20
7.271
 11
3.6875
 21
6.729
  0
LINE
  5
27E
100
AcDbEntity
  8
0
100
AcDbLine
 62
7
  6
CONTINUOUS
 10
3.7185
 20
6.5650118568
 11
3.7185
 21
7.4349881432
  0
LINE
  5
27F
100
AcDbEntity
  8
0
100
AcDbLine
 62
7
  6
CONTINUOUS
 10
3.7805
 20
6.503
 11
3.7805
 21
7.497
  0
LINE
  5
280
100
AcDbEntity
  8
0
100
AcDbLine
 62
7
  6
CONTINUOUS
 10
3.5549708513
 20
7.3244708513
 11
3.496
 21
7.2655
  0
LINE
  5
281
100
AcDbEntity
  8
0
100
AcDbLine
 62
7
  6
CONTINUOUS
 10
3.7805
 20
7.497
 11
3.7185
 21
7.435
  0
LINE
  5
282
100
AcDbEntity
  8
0
100
AcDbLine
 62
7
  6
CONTINUOUS
 10
3.5549708513
 20
6.6755291487
 11
3.496
 21
6.7345
  0
LINE
  5
283
100
AcDbEntity
  8
0
100
AcDbLine
 62
7
  6
CONTINUOUS
 10
3.7805
 20
6.503
 11
3.7185
 21
6.565
  0
LINE
  5
284
100
AcDbEntity
  8
0
100
AcDbLine
 62
7
  6
CONTINUOUS
 10
3.6875
 20
6.729
 11
3.6566285896
 21
6.6755291487
  0
LINE
  5
285
100
AcDbEntity
  8
0
100
AcDbLine
 62
7
  6
CONTINUOUS
 10
3.6875
 20
7.271
 11
3.6566285896
 21
7.3244708513
  0
LINE
  5
286
100
AcDbEntity
  8
0
100
AcDbLine
 62
7
  6
CONTINUOUS
 10
4.2236926419
 20
7.5639939196
 11
4.2185
 21
7.555
  0
LINE
  5
287
100
AcDbEntity
  8
0
100
AcDbLine
 62
7
  6
CONTINUOUS
 10
3.48
 20
6.7345
 11
3.4745
 21
6.729
  0
LINE
  5
288
100
AcDbEntity
  8
0
100
AcDbLine
 62
7
  6
CONTINUOUS
 10
3.48
 20
7.2655
 11
3.4745
 21
7.271
  0
LINE
  5
289
100
AcDbEntity
  8
0
100
AcDbLine
 62
7
  6
CONTINUOUS
 10
4.2236926419
 20
6.4360060804
 11
4.2185
 21
6.445
  0
LINE
  5
28A
100
AcDbEntity
  8
0
100
AcDbLine
 62
7
  6
CONTINUOUS
 10
4.2185
 20
6.445
 11
4.2185
 21
7.555
  0
LINE
  5
28B
100
AcDbEntity
  8
0
100
AcDbLine
 62
7
  6
CONTINUOUS
 10
4.2641106713
 20
7.5624834998
 11
4.2641106713
 21
7.534572037
  0
LINE
  5
28C
100
AcDbEntity
  8
0
100
AcDbLine
 62
7
  6
CONTINUOUS
 10
4.2641106713
 20
6.4375165002
 11
4.2641106713
 21
6.465427963
  0
LINE
  5
28D
100
AcDbEntity
  8
0
100
AcDbLine
 62
7
  6
CONTINUOUS
 10
4.2641106713
 20
6.9720885372
 11
4.2641106713
 21
7.0279114628
  0
LINE
  5
28E
100
AcDbEntity
  8
0
100
AcDbLine
 62
7
  6
CONTINUOUS
 10
5.7398564063
 20
6.484830127
 11
5.7423564065
 21
6.4855
  0
LINE
  5
28F
100
AcDbEntity
  8
0
100
AcDbLine
 62
7
  6
CONTINUOUS
 10
4.2228303327
 20
6.4375165002
 11
4.8923547127
 21
6.4375165002
  0
LINE
  5
290
100
AcDbEntity
  8
0
100
AcDbLine
 62
7
  6
CONTINUOUS
 10
5.7155
 20
6.462
 11
5.6535
 21
6.462
  0
LINE
  5
291
100
AcDbEntity
  8
0
100
AcDbLine
 62
7
  6
CONTINUOUS
 10
5.2795
 20
6.462
 11
5.2345
 21
6.462
  0
LINE
  5
292
100
AcDbEntity
  8
0
100
AcDbLine
 62
7
  6
CONTINUOUS
 10
5.0935
 20
6.462
 11
4.9065
 21
6.462
  0
LINE
  5
293
100
AcDbEntity
  8
0
100
AcDbLine
 62
7
  6
CONTINUOUS
 10
5.0935
 20
6.4635
 11
5.1435
 21
6.4635
  0
LINE
  5
294
100
AcDbEntity
  8
0
100
AcDbLine
 62
7
  6
CONTINUOUS
 10
4.8510743742
 20
6.465427963
 11
4.2641106713
 21
6.465427963
  0
LINE
  5
295
100
AcDbEntity
  8
THREAD
100
AcDbLine
 62
7
  6
CONTINUOUS
 10
5.7655
 20
6.4855
 11
5.7423564065
 21
6.4855
  0
LINE
  5
296
100
AcDbEntity
  8
0
100
AcDbLine
 62
7
  6
CONTINUOUS
 10
5.8355
 20
6.488
 11
5.8855
 21
6.488
  0
LINE
  5
297
100
AcDbEntity
  8
0
100
AcDbLine
 62
7
  6
CONTINUOUS
 10
4.2185
 20
6.503
 11
3.7805
 21
6.503
  0
LINE
  5
298
100
AcDbEntity
  8
THREAD
100
AcDbLine
 62
7
  6
CONTINUOUS
 10
6.1995
 20
6.504
 11
5.9284393102
 21
6.504
  0
LINE
  5
299
100
AcDbEntity
  8
0
100
AcDbLine
 62
7
  6
CONTINUOUS
 10
5.2345
 20
6.5175
 11
5.2135
 21
6.5175
  0
LINE
  5
29A
100
AcDbEntity
  8
THREAD
100
AcDbLine
 62
7
  6
CONTINUOUS
 10
5.8989944465
 20
6.542
 11
5.8855
 21
6.542
  0
LINE
  5
29B
100
AcDbEntity
  8
0
100
AcDbLine
 62
7
  6
CONTINUOUS
 10
5.4665
 20
6.542
 11
5.3009359354
 21
6.542
  0
LINE
  5
29C
100
AcDbEntity
  8
THREAD
100
AcDbLine
 62
7
  6
CONTINUOUS
 10
6.3275
 20
6.548
 11
6.2471882028
 21
6.548
  0
LINE
  5
29D
100
AcDbEntity
  8
0
100
AcDbLine
 62
7
  6
CONTINUOUS
 10
7.0785
 20
6.5635
 11
7.0355
 21
6.5635
  0
LINE
  5
29E
100
AcDbEntity
  8
0
100
AcDbLine
 62
7
  6
CONTINUOUS
 10
6.834
 20
6.5635
 11
6.784
 21
6.5635
  0
LINE
  5
29F
100
AcDbEntity
  8
0
100
AcDbLine
 62
7
  6
CONTINUOUS
 10
6.8375
 20
6.564
 11
6.8875
 21
6.564
  0
LINE
  5
2A0
100
AcDbEntity
  8
0
100
AcDbLine
 62
7
  6
CONTINUOUS
 10
6.9575
 20
6.564
 11
7.0075
 21
6.564
  0
LINE
  5
2A1
100
AcDbEntity
  8
0
100
AcDbLine
 62
7
  6
CONTINUOUS
 10
7.0075
 20
6.618
 11
7.0355
 21
6.618
  0
LINE
  5
2A2
100
AcDbEntity
  8
0
100
AcDbLine
 62
7
  6
CONTINUOUS
 10
6.3435
 20
6.626
 11
6.6085
 21
6.626
  0
LINE
  5
2A3
100
AcDbEntity
  8
0
100
AcDbLine
 62
7
  6
CONTINUOUS
 10
6.7645
 20
6.626
 11
6.7805
 21
6.626
  0
LINE
  5
2A4
100
AcDbEntity
  8
0
100
AcDbLine
 62
7
  6
CONTINUOUS
 10
3.6566285896
 20
6.6755291487
 11
3.5549708513
 21
6.6755291487
  0
LINE
  5
2A5
100
AcDbEntity
  8
0
100
AcDbLine
 62
6
  6
CONTINUOUS
 10
5.8925
 20
6.7185
 11
6.0945
 21
6.7185
  0
LINE
  5
2A6
100
AcDbEntity
  8
0
100
AcDbLine
 62
7
  6
CONTINUOUS
 10
3.7185
 20
6.729
 11
3.6875
 21
6.729
  0
LINE
  5
2A7
100
AcDbEntity
  8
0
100
AcDbLine
 62
7
  6
CONTINUOUS
 10
3.4745
 20
6.729
 11
3.4685
 21
6.729
  0
LINE
  5
2A8
100
AcDbEntity
  8
0
100
AcDbLine
 62
7
  6
CONTINUOUS
 10
5.6225633881
 20
6.5001829412
 11
5.4665
 21
6.542
  0
LINE
  5
2A9
100
AcDbEntity
  8
0
100
AcDbLine
 62
7
  6
CONTINUOUS
 10
4.8510743742
 20
7.5624834998
 11
4.8510743742
 21
7.534572037
  0
LINE
  5
2AA
100
AcDbEntity
  8
0
100
AcDbLine
 62
7
  6
CONTINUOUS
 10
4.8510743742
 20
6.4375165002
 11
4.8510743742
 21
6.465427963
  0
LINE
  5
2AB
100
AcDbEntity
  8
0
100
AcDbLine
 62
7
  6
CONTINUOUS
 10
4.8510743742
 20
6.9720885372
 11
4.8510743742
 21
7.0279114628
  0
LINE
  5
2AC
100
AcDbEntity
  8
0
100
AcDbLine
 62
7
  6
CONTINUOUS
 10
3.496
 20
6.7345
 11
3.48
 21
6.7345
  0
LINE
  5
2AD
100
AcDbEntity
  8
0
100
AcDbLine
 62
7
  6
CONTINUOUS
 10
2.9365
 20
6.816
 11
3.1355
 21
6.816
  0
LINE
  5
2AE
100
AcDbEntity
  8
0
100
AcDbLine
 62
7
  6
CONTINUOUS
 10
3.1735
 20
6.816
 11
3.4065
 21
6.816
  0
LINE
  5
2AF
100
AcDbEntity
  8
DEFAULT_2
100
AcDbLine
 62
8
  6
HIDDEN
 10
3.1355
 20
6.83
 11
3.1393029724
 21
6.83
  0
LINE
  5
2B0
100
AcDbEntity
  8
DEFAULT_2
100
AcDbLine
 62
8
  6
HIDDEN
 10
3.1696970276
 20
6.83
 11
3.1735
 21
6.83
  0
LINE
  5
2B1
100
AcDbEntity
  8
0
100
AcDbLine
 62
7
  6
CONTINUOUS
 10
3.6566285896
 20
6.8377645744
 11
3.5549708513
 21
6.8377645744
  0
LINE
  5
2B2
100
AcDbEntity
  8
0
100
AcDbLine
 62
7
  6
CONTINUOUS
 10
3.1355
 20
6.849
 11
3.137
 21
6.849
  0
LINE
  5
2B3
100
AcDbEntity
  8
0
100
AcDbLine
 62
7
  6
CONTINUOUS
 10
3.172
 20
6.849
 11
3.1735
 21
6.849
  0
LINE
  5
2B4
100
AcDbEntity
  8
0
100
AcDbLine
 62
7
  6
CONTINUOUS
 10
4.9065
 20
6.462
 11
4.9065
 21
7.538
  0
LINE
  5
2B5
100
AcDbEntity
  8
0
100
AcDbLine
 62
7
  6
CONTINUOUS
 10
4.8510743742
 20
6.9720885372
 11
4.2641106713
 21
6.9720885372
  0
LINE
  5
2B6
100
AcDbEntity
  8
0
100
AcDbLine
 62
7
  6
CONTINUOUS
 10
5.0935
 20
6.4620094035
 11
5.0935
 21
7.5379905965
  0
LINE
  5
2B7
100
AcDbEntity
  8
0
100
AcDbLine
 62
7
  6
CONTINUOUS
 10
5.1435
 20
7.5365
 11
5.1435
 21
6.4635
  0
LINE
  5
2B8
100
AcDbEntity
  8
0
100
AcDbLine
 62
7
  6
CONTINUOUS
 10
4.8510743742
 20
7.0279114628
 11
4.2641106713
 21
7.0279114628
  0
LINE
  5
2B9
100
AcDbEntity
  8
0
100
AcDbLine
 62
7
  6
CONTINUOUS
 10
3.1355
 20
7.151
 11
3.137
 21
7.151
  0
LINE
  5
2BA
100
AcDbEntity
  8
0
100
AcDbLine
 62
7
  6
CONTINUOUS
 10
3.172
 20
7.151
 11
3.1735
 21
7.151
  0
LINE
  5
2BB
100
AcDbEntity
  8
0
100
AcDbLine
 62
7
  6
CONTINUOUS
 10
3.6566285896
 20
7.1622354256
 11
3.5549708513
 21
7.1622354256
  0
LINE
  5
2BC
100
AcDbEntity
  8
0
100
AcDbLine
 62
7
  6
CONTINUOUS
 10
5.2135
 20
7.5175
 11
5.2135
 21
6.4825
  0
LINE
  5
2BD
100
AcDbEntity
  8
0
100
AcDbLine
 62
7
  6
CONTINUOUS
 10
5.2345
 20
6.462
 11
5.2345
 21
7.538
  0
LINE
  5
2BE
100
AcDbEntity
  8
0
100
AcDbLine
 62
7
  6
CONTINUOUS
 10
5.2795
 20
6.462
 11
5.2795
 21
7.538
  0
LINE
  5
2BF
100
AcDbEntity
  8
0
100
AcDbLine
 62
7
  6
CONTINUOUS
 10
5.3009359354
 20
6.542
 11
5.3009359354
 21
7.458
  0
LINE
  5
2C0
100
AcDbEntity
  8
0
100
AcDbLine
 62
7
  6
CONTINUOUS
 10
4.9065
 20
6.462
 11
4.8914924035
 21
6.4360060804
  0
LINE
  5
2C1
100
AcDbEntity
  8
DEFAULT_2
100
AcDbLine
 62
8
  6
HIDDEN
 10
3.1355
 20
7.17
 11
3.1393029724
 21
7.17
  0
LINE
  5
2C2
100
AcDbEntity
  8
DEFAULT_2
100
AcDbLine
 62
8
  6
HIDDEN
 10
3.1696970276
 20
7.17
 11
3.1735
 21
7.17
  0
LINE
  5
2C3
100
AcDbEntity
  8
0
100
AcDbLine
 62
7
  6
CONTINUOUS
 10
2.9365
 20
7.184
 11
3.1355
 21
7.184
  0
LINE
  5
2C4
100
AcDbEntity
  8
0
100
AcDbLine
 62
7
  6
CONTINUOUS
 10
3.1735
 20
7.184
 11
3.4065
 21
7.184
  0
LINE
  5
2C5
100
AcDbEntity
  8
0
100
AcDbLine
 62
7
  6
CONTINUOUS
 10
3.496
 20
7.2655
 11
3.48
 21
7.2655
  0
LINE
  5
2C6
100
AcDbEntity
  8
0
100
AcDbLine
 62
7
  6
CONTINUOUS
 10
3.7185
 20
7.271
 11
3.6875
 21
7.271
  0
LINE
  5
2C7
100
AcDbEntity
  8
0
100
AcDbLine
 62
7
  6
CONTINUOUS
 10
3.4745
 20
7.271
 11
3.4685
 21
7.271
  0
LINE
  5
2C8
100
AcDbEntity
  8
0
100
AcDbLine
 62
6
  6
CONTINUOUS
 10
5.8925
 20
7.2815
 11
6.0945
 21
7.2815
  0
LINE
  5
2C9
100
AcDbEntity
  8
0
100
AcDbLine
 62
7
  6
CONTINUOUS
 10
4.9065
 20
7.538
 11
4.8914924035
 21
7.5639939196
  0
LINE
  5
2CA
100
AcDbEntity
  8
0
100
AcDbLine
 62
7
  6
CONTINUOUS
 10
5.3009359354
 20
6.542
 11
5.2795
 21
6.462
  0
LINE
  5
2CB
100
AcDbEntity
  8
0
100
AcDbLine
 62
7
  6
CONTINUOUS
 10
5.6225633881
 20
7.4998170588
 11
5.601
 21
7.4940391664
  0
LINE
  5
2CC
100
AcDbEntity
  8
0
100
AcDbLine
 62
7
  6
CONTINUOUS
 10
5.554
 20
7.4814455543
 11
5.4665
 21
7.458
  0
LINE
  5
2CD
100
AcDbEntity
  8
0
100
AcDbLine
 62
7
  6
CONTINUOUS
 10
3.6566285896
 20
7.3244708513
 11
3.5549708513
 21
7.3244708513
  0
LINE
  5
2CE
100
AcDbEntity
  8
0
100
AcDbLine
 62
7
  6
CONTINUOUS
 10
6.3435
 20
7.374
 11
6.6085
 21
7.374
  0
LINE
  5
2CF
100
AcDbEntity
  8
0
100
AcDbLine
 62
7
  6
CONTINUOUS
 10
6.7645
 20
7.374
 11
6.7805
 21
7.374
  0
LINE
  5
2D0
100
AcDbEntity
  8
0
100
AcDbLine
 62
7
  6
CONTINUOUS
 10
7.0075
 20
7.382
 11
7.0355
 21
7.382
  0
LINE
  5
2D1
100
AcDbEntity
  8
0
100
AcDbLine
 62
7
  6
CONTINUOUS
 10
6.286
 20
7.4108581236
 11
6.245
 21
7.4108581236
  0
LINE
  5
2D2
100
AcDbEntity
  8
0
100
AcDbLine
 62
7
  6
CONTINUOUS
 10
6.8375
 20
7.436
 11
6.8875
 21
7.436
  0
LINE
  5
2D3
100
AcDbEntity
  8
0
100
AcDbLine
 62
7
  6
CONTINUOUS
 10
6.9575
 20
7.436
 11
7.0075
 21
7.436
  0
LINE
  5
2D4
100
AcDbEntity
  8
0
100
AcDbLine
 62
7
  6
CONTINUOUS
 10
7.0785
 20
7.4365
 11
7.0355
 21
7.4365
  0
LINE
  5
2D5
100
AcDbEntity
  8
0
100
AcDbLine
 62
7
  6
CONTINUOUS
 10
6.834
 20
7.4365
 11
6.784
 21
7.4365
  0
LINE
  5
2D6
100
AcDbEntity
  8
THREAD
100
AcDbLine
 62
7
  6
CONTINUOUS
 10
6.3275
 20
7.452
 11
6.286
 21
7.452
  0
LINE
  5
2D7
100
AcDbEntity
  8
0
100
AcDbLine
 62
7
  6
CONTINUOUS
 10
5.3009359354
 20
7.458
 11
5.2795
 21
7.538
  0
LINE
  5
2D8
100
AcDbEntity
  8
0
100
AcDbLine
 62
7
  6
CONTINUOUS
 10
5.4665
 20
6.542
 11
5.4665
 21
7.458
  0
LINE
  5
2D9
100
AcDbEntity
  8
0
100
AcDbLine
 62
7
  6
CONTINUOUS
 10
5.6535
 20
7.538
 11
5.6508476594
 21
7.5281013301
  0
LINE
  5
2DA
100
AcDbEntity
  8
THREAD
100
AcDbLine
 62
7
  6
CONTINUOUS
 10
5.9284393102
 20
7.496
 11
5.9102527763
 21
7.4644999993
  0
LINE
  5
2DB
100
AcDbEntity
  8
THREAD
100
AcDbLine
 62
7
  6
CONTINUOUS
 10
5.8989944465
 20
7.458
 11
5.8855
 21
7.458
  0
LINE
  5
2DC
100
AcDbEntity
  8
0
100
AcDbLine
 62
7
  6
CONTINUOUS
 10
5.4665
 20
7.458
 11
5.3009359354
 21
7.458
  0
LINE
  5
2DD
100
AcDbEntity
  8
0
100
AcDbLine
 62
7
  6
CONTINUOUS
 10
5.2345
 20
7.4825
 11
5.2135
 21
7.4825
  0
LINE
  5
2DE
100
AcDbEntity
  8
THREAD
100
AcDbLine
 62
7
  6
CONTINUOUS
 10
6.1995
 20
7.496
 11
5.9284393102
 21
7.496
  0
LINE
  5
2DF
100
AcDbEntity
  8
0
100
AcDbLine
 62
7
  6
CONTINUOUS
 10
4.2185
 20
7.497
 11
3.7805
 21
7.497
  0
LINE
  5
2E0
100
AcDbEntity
  8
0
100
AcDbLine
 62
7
  6
CONTINUOUS
 10
5.8355
 20
7.512
 11
5.8855
 21
7.512
  0
LINE
  5
2E1
100
AcDbEntity
  8
THREAD
100
AcDbLine
 62
7
  6
CONTINUOUS
 10
5.7655
 20
7.5145
 11
5.7423564065
 21
7.5145
  0
LINE
  5
2E2
100
AcDbEntity
  8
0
100
AcDbLine
 62
7
  6
CONTINUOUS
 10
4.8510743742
 20
7.534572037
 11
4.2641106713
 21
7.534572037
  0
LINE
  5
2E3
100
AcDbEntity
  8
0
100
AcDbLine
 62
7
  6
CONTINUOUS
 10
5.0935
 20
7.5365
 11
5.1435
 21
7.5365
  0
LINE
  5
2E4
100
AcDbEntity
  8
0
100
AcDbLine
 62
7
  6
CONTINUOUS
 10
5.7155
 20
7.538
 11
5.6535
 21
7.538
  0
LINE
  5
2E5
100
AcDbEntity
  8
0
100
AcDbLine
 62
7
  6
CONTINUOUS
 10
5.2795
 20
7.538
 11
5.2345
 21
7.538
  0
LINE
  5
2E6
100
AcDbEntity
  8
0
100
AcDbLine
 62
7
  6
CONTINUOUS
 10
5.0935
 20
7.538
 11
4.9065
 21
7.538
  0
LINE
  5
2E7
100
AcDbEntity
  8
0
100
AcDbLine
 62
7
  6
CONTINUOUS
 10
4.2228303327
 20
7.5624834998
 11
4.8923547127
 21
7.5624834998
  0
LINE
  5
2E8
100
AcDbEntity
  8
THREAD
100
AcDbLine
 62
7
  6
CONTINUOUS
 10
5.9284393102
 20
6.504
 11
5.9102527763
 21
6.5355000007
  0
LINE
  5
2E9
100
AcDbEntity
  8
0
100
AcDbLine
 62
7
  6
CONTINUOUS
 10
5.6535
 20
6.462
 11
5.6508476594
 21
6.4718986699
  0
LINE
  5
2EA
100
AcDbEntity
  8
0
100
AcDbLine
 62
7
  6
CONTINUOUS
 10
5.6225633881
 20
6.5001829412
 11
5.6225633881
 21
7.4998170588
  0
LINE
  5
2EB
100
AcDbEntity
  8
0
100
AcDbLine
 62
7
  6
CONTINUOUS
 10
5.6508476594
 20
6.4718986699
 11
5.6508476594
 21
7.5281013301
  0
LINE
  5
2EC
100
AcDbEntity
  8
0
100
AcDbLine
 62
7
  6
CONTINUOUS
 10
5.6535
 20
6.462
 11
5.6535
 21
7.538
  0
LINE
  5
2ED
100
AcDbEntity
  8
0
100
AcDbLine
 62
7
  6
CONTINUOUS
 10
5.7155
 20
7.538
 11
5.7155
 21
6.462
  0
LINE
  5
2EE
100
AcDbEntity
  8
0
100
AcDbLine
 62
7
  6
CONTINUOUS
 10
5.7185
 20
7.5349999749
 11
5.7185
 21
6.4650000251
  0
LINE
  5
2EF
100
AcDbEntity
  8
0
100
AcDbLine
 62
7
  6
CONTINUOUS
 10
5.7210000001
 20
6.4739433757
 11
5.7210000001
 21
7.5260566243
  0
LINE
  5
2F0
100
AcDbEntity
  8
0
100
AcDbLine
 62
7
  6
CONTINUOUS
 10
5.7398564062
 20
6.4848301269
 11
5.7398564062
 21
7.5151698731
  0
LINE
  5
2F1
100
AcDbEntity
  8
0
100
AcDbLine
 62
7
  6
CONTINUOUS
 10
5.7398564063
 20
7.515169873
 11
5.7423564065
 21
7.5145
  0
LINE
  5
2F2
100
AcDbEntity
  8
0
100
AcDbLine
 62
7
  6
CONTINUOUS
 10
5.7423564065
 20
6.4855
 11
5.7423564065
 21
7.5145
  0
LINE
  5
2F3
100
AcDbEntity
  8
THREAD
100
AcDbLine
 62
7
  6
CONTINUOUS
 10
5.7655
 20
6.4855
 11
5.7655
 21
7.5145
  0
LINE
  5
2F4
100
AcDbEntity
  8
0
100
AcDbLine
 62
7
  6
CONTINUOUS
 10
5.8355
 20
7.512
 11
5.8355
 21
6.488
  0
LINE
  5
2F5
100
AcDbEntity
  8
0
100
AcDbLine
 62
7
  6
CONTINUOUS
 10
5.8855
 20
7.512
 11
5.8855
 21
6.488
  0
LINE
  5
2F6
100
AcDbEntity
  8
THREAD
100
AcDbLine
 62
7
  6
CONTINUOUS
 10
5.7398564063
 20
6.484830127
 11
5.7210000001
 21
6.4739433758
  0
LINE
  5
2F7
100
AcDbEntity
  8
THREAD
100
AcDbLine
 62
7
  6
CONTINUOUS
 10
5.7398564063
 20
7.515169873
 11
5.7210000001
 21
7.5260566242
  0
LINE
  5
2F8
100
AcDbEntity
  8
0
100
AcDbLine
 62
7
  6
CONTINUOUS
 10
5.8925
 20
6.7185
 11
5.8925
 21
7.2815
  0
LINE
  5
2F9
100
AcDbEntity
  8
THREAD
100
AcDbLine
 62
7
  6
CONTINUOUS
 10
5.8989944465
 20
6.542
 11
5.8989944465
 21
7.458
  0
LINE
  5
2FA
100
AcDbEntity
  8
THREAD
100
AcDbLine
 62
7
  6
CONTINUOUS
 10
5.9102527763
 20
6.5355000008
 11
5.9102527763
 21
7.4644999992
  0
LINE
  5
2FB
100
AcDbEntity
  8
THREAD
100
AcDbLine
 62
7
  6
CONTINUOUS
 10
5.9284393102
 20
6.504
 11
5.9284393102
 21
7.496
  0
LINE
  5
2FC
100
AcDbEntity
  8
0
100
AcDbLine
 62
7
  6
CONTINUOUS
 10
6.784
 20
7.4365
 11
6.7805
 21
7.433
  0
LINE
  5
2FD
100
AcDbEntity
  8
0
100
AcDbLine
 62
7
  6
CONTINUOUS
 10
6.784
 20
6.5635
 11
6.7805
 21
6.567
  0
LINE
  5
2FE
100
AcDbEntity
  8
0
100
AcDbLine
 62
7
  6
CONTINUOUS
 10
6.0945
 20
6.7185
 11
6.0945
 21
7.2815
  0
LINE
  5
2FF
100
AcDbEntity
  8
THREAD
100
AcDbLine
 62
7
  6
CONTINUOUS
 10
6.1995
 20
6.504
 11
6.1995
 21
7.496
  0
LINE
  5
300
100
AcDbEntity
  8
127-412_FEATURES
100
AcDbLine
 62
7
  6
CONTINUOUS
 10
6.2435
 20
6.5481432707
 11
6.2435
 21
7.4518567293
  0
LINE
  5
301
100
AcDbEntity
  8
127-412_FEATURES
100
AcDbLine
 62
7
  6
CONTINUOUS
 10
6.245
 20
7.4108581236
 11
6.245
 21
7.451912759
  0
LINE
  5
302
100
AcDbEntity
  8
0
100
AcDbLine
 62
7
  6
CONTINUOUS
 10
6.286
 20
7.4108581236
 11
6.286
 21
7.452
  0
LINE
  5
303
100
AcDbEntity
  8
THREAD
100
AcDbLine
 62
7
  6
CONTINUOUS
 10
6.2119225592
 20
6.5164225592
 11
6.1995
 21
6.504
  0
LINE
  5
304
100
AcDbEntity
  8
0
100
AcDbLine
 62
7
  6
CONTINUOUS
 10
6.3435
 20
6.564
 11
6.3275
 21
6.548
  0
LINE
  5
305
100
AcDbEntity
  8
THREAD
100
AcDbLine
 62
7
  6
CONTINUOUS
 10
6.2119225592
 20
7.4835774408
 11
6.1995
 21
7.496
  0
LINE
  5
306
100
AcDbEntity
  8
0
100
AcDbLine
 62
7
  6
CONTINUOUS
 10
6.3435
 20
7.436
 11
6.3275
 21
7.452
  0
LINE
  5
307
100
AcDbEntity
  8
0
100
AcDbLine
 62
7
  6
CONTINUOUS
 10
6.3275
 20
6.548
 11
6.3275
 21
7.452
  0
LINE
  5
308
100
AcDbEntity
  8
0
100
AcDbLine
 62
7
  6
CONTINUOUS
 10
6.3435
 20
6.5640118841
 11
6.3435
 21
7.4359881159
  0
LINE
  5
309
100
AcDbEntity
  8
0
100
AcDbLine
 62
7
  6
CONTINUOUS
 10
6.8375
 20
6.567
 11
6.834
 21
6.5635
  0
LINE
  5
30A
100
AcDbEntity
  8
0
100
AcDbLine
 62
7
  6
CONTINUOUS
 10
6.8375
 20
7.433
 11
6.834
 21
7.4365
  0
LINE
  5
30B
100
AcDbEntity
  8
0
100
AcDbLine
 62
7
  6
CONTINUOUS
 10
6.6115
 20
6.9796936172
 11
6.6115
 21
7.0203026306
  0
LINE
  5
30C
100
AcDbEntity
  8
0
100
AcDbLine
 62
7
  6
CONTINUOUS
 10
6.6555
 20
6.779351826
 11
6.6555
 21
6.7908002893
  0
LINE
  5
30D
100
AcDbEntity
  8
0
100
AcDbLine
 62
7
  6
CONTINUOUS
 10
6.6555
 20
6.9287402702
 11
6.6555
 21
7.071258378
  0
LINE
  5
30E
100
AcDbEntity
  8
0
100
AcDbLine
 62
7
  6
CONTINUOUS
 10
6.6555
 20
7.2091996962
 11
6.6555
 21
7.2206429071
  0
LINE
  5
30F
100
AcDbEntity
  8
0
100
AcDbLine
 62
7
  6
CONTINUOUS
 10
6.6625
 20
7.2218288019
 11
6.6625
 21
7.2071350406
  0
LINE
  5
310
100
AcDbEntity
  8
0
100
AcDbLine
 62
7
  6
CONTINUOUS
 10
6.6625
 20
7.0737059799
 11
6.6625
 21
6.9262931852
  0
LINE
  5
311
100
AcDbEntity
  8
0
100
AcDbLine
 62
7
  6
CONTINUOUS
 10
6.6625
 20
6.7928649607
 11
6.6625
 21
6.7781708764
  0
LINE
  5
312
100
AcDbEntity
  8
0
100
AcDbLine
 62
7
  6
CONTINUOUS
 10
6.6725
 20
7.2231941696
 11
6.6725
 21
7.2048278461
  0
LINE
  5
313
100
AcDbEntity
  8
0
100
AcDbLine
 62
7
  6
CONTINUOUS
 10
6.6725
 20
7.0764342162
 11
6.6725
 21
6.923565696
  0
LINE
  5
314
100
AcDbEntity
  8
0
100
AcDbLine
 62
7
  6
CONTINUOUS
 10
6.6725
 20
6.795172141
 11
6.6725
 21
6.7768024025
  0
LINE
  5
315
100
AcDbEntity
  8
0
100
AcDbLine
 62
7
  6
CONTINUOUS
 10
6.6795
 20
6.7764386041
 11
6.6795
 21
6.7958419297
  0
LINE
  5
316
100
AcDbEntity
  8
0
100
AcDbLine
 62
7
  6
CONTINUOUS
 10
6.6795
 20
6.9227823929
 11
6.6795
 21
7.0772166532
  0
LINE
  5
317
100
AcDbEntity
  8
0
100
AcDbLine
 62
7
  6
CONTINUOUS
 10
6.6795
 20
7.2041580639
 11
6.6795
 21
7.2235596819
  0
LINE
  5
318
100
AcDbEntity
  8
0
100
AcDbLine
 62
7
  6
CONTINUOUS
 10
6.7235
 20
6.7808859585
 11
6.7235
 21
6.7882799081
  0
LINE
  5
319
100
AcDbEntity
  8
0
100
AcDbLine
 62
7
  6
CONTINUOUS
 10
6.7235
 20
6.9317029601
 11
6.7235
 21
7.0682956762
  0
LINE
  5
31A
100
AcDbEntity
  8
0
100
AcDbLine
 62
7
  6
CONTINUOUS
 10
6.7235
 20
7.2117200765
 11
6.7235
 21
7.2191084784
  0
LINE
  5
31B
100
AcDbEntity
  8
0
100
AcDbLine
 62
7
  6
CONTINUOUS
 10
6.7305
 20
7.216841626
 11
6.7305
 21
7.2153722951
  0
LINE
  5
31C
100
AcDbEntity
  8
0
100
AcDbLine
 62
7
  6
CONTINUOUS
 10
6.7305
 20
7.0638817427
 11
6.7305
 21
6.9361177403
  0
LINE
  5
31D
100
AcDbEntity
  8
0
100
AcDbLine
 62
7
  6
CONTINUOUS
 10
6.7305
 20
6.7846277039
 11
6.7305
 21
6.7831604791
  0
LINE
  5
31E
100
AcDbEntity
  8
0
100
AcDbLine
 62
7
  6
CONTINUOUS
 10
6.7405
 20
7.0556414549
 11
6.7405
 21
6.9443579435
  0
LINE
  5
31F
100
AcDbEntity
  8
0
100
AcDbLine
 62
7
  6
CONTINUOUS
 10
6.7475
 20
6.9514320975
 11
6.7475
 21
7.0485696922
  0
LINE
  5
320
100
AcDbEntity
  8
0
100
AcDbLine
 62
7
  6
CONTINUOUS
 10
6.7805
 20
6.567
 11
6.7805
 21
7.433
  0
LINE
  5
321
100
AcDbEntity
  8
0
100
AcDbLine
 62
7
  6
CONTINUOUS
 10
6.784
 20
6.5635
 11
6.784
 21
7.4365
  0
LINE
  5
322
100
AcDbEntity
  8
0
100
AcDbLine
 62
7
  6
CONTINUOUS
 10
6.834
 20
6.5635
 11
6.834
 21
7.4365
  0
LINE
  5
323
100
AcDbEntity
  8
0
100
AcDbLine
 62
7
  6
CONTINUOUS
 10
6.8375
 20
7.436
 11
6.8375
 21
6.564
  0
LINE
  5
324
100
AcDbEntity
  8
0
100
AcDbLine
 62
7
  6
CONTINUOUS
 10
6.8875
 20
7.436
 11
6.8875
 21
6.564
  0
LINE
  5
325
100
AcDbEntity
  8
0
100
AcDbLine
 62
7
  6
CONTINUOUS
 10
7.0945
 20
6.5795
 11
7.0785
 21
6.5635
  0
LINE
  5
326
100
AcDbEntity
  8
0
100
AcDbLine
 62
7
  6
CONTINUOUS
 10
7.0945
 20
7.4205
 11
7.0785
 21
7.4365
  0
LINE
  5
327
100
AcDbEntity
  8
0
100
AcDbLine
 62
7
  6
CONTINUOUS
 10
6.9575
 20
7.436
 11
6.9575
 21
6.564
  0
LINE
  5
328
100
AcDbEntity
  8
0
100
AcDbLine
 62
7
  6
CONTINUOUS
 10
7.0075
 20
7.436
 11
7.0075
 21
6.564
  0
LINE
  5
329
100
AcDbEntity
  8
0
100
AcDbLine
 62
7
  6
CONTINUOUS
 10
7.0355
 20
6.5635
 11
7.0355
 21
7.4365
  0
LINE
  5
32A
100
AcDbEntity
  8
0
100
AcDbLine
 62
7
  6
CONTINUOUS
 10
7.0785
 20
6.5635
 11
7.0785
 21
7.4365
  0
LINE
  5
32B
100
AcDbEntity
  8
0
100
AcDbLine
 62
7
  6
CONTINUOUS
 10
7.0945
 20
6.5795
 11
7.0945
 21
7.4205
  0
ARC
  5
32C
100
AcDbEntity
  8
127-412_FEATURES
100
AcDbCircle
 62
7
  6
CONTINUOUS
 10
6.2169051785
 20
8.1839463933
 40
0.7325725634
100
AcDbArc
 50
272.0804845969
 51
272.1978840526
  0
ARC
  5
32D
100
AcDbEntity
  8
0
100
AcDbCircle
 62
7
  6
CONTINUOUS
 10
6.6864986711
 20
7.0608038485
 40
0.1631213459
100
AcDbArc
 50
89.9995332137
 51
92.47462901
  0
ARC
  5
32E
100
AcDbEntity
  8
0
100
AcDbCircle
 62
7
  6
CONTINUOUS
 10
6.6864919895
 20
6.9388905553
 40
0.1628157498
100
AcDbArc
 50
267.5232010436
 51
270.0028189541
  0
ARC
  5
32F
100
AcDbEntity
  8
0
100
AcDbCircle
 62
7
  6
CONTINUOUS
 10
3.4685
 20
6.823
 40
0.094
100
AcDbArc
 50
228.732572619
 51
270.0
  0
ARC
  5
330
100
AcDbEntity
  8
0
100
AcDbCircle
 62
7
  6
CONTINUOUS
 10
3.4685
 20
7.177
 40
0.094
100
AcDbArc
 50
90.0
 51
131.267427381
  0
CIRCLE
  5
331
100
AcDbEntity
  8
0
100
AcDbCircle
 62
7
  6
CONTINUOUS
 10
6.6865
 20
7.0
 40
0.078
  0
ARC
  5
332
100
AcDbEntity
  8
0
100
AcDbCircle
 62
7
  6
CONTINUOUS
 10
5.6122106263
 20
7.5384540919
 40
0.04
100
AcDbArc
 50
285.0
 51
345.0
  0
ARC
  5
333
100
AcDbEntity
  8
0
100
AcDbCircle
 62
7
  6
CONTINUOUS
 10
5.6122106263
 20
6.4615459081
 40
0.04
100
AcDbArc
 50
15.0
 51
75.0
  0
ARC
  5
334
100
AcDbEntity
  8
0
100
AcDbCircle
 62
7
  6
CONTINUOUS
 10
3.1545
 20
7.1615
 40
0.0175
100
AcDbArc
 50
0.0
 51
180.0
  0
ARC
  5
335
100
AcDbEntity
  8
0
100
AcDbCircle
 62
7
  6
CONTINUOUS
 10
3.1545
 20
6.8385
 40
0.0175
100
AcDbArc
 50
180.0
 51
360.0
  0
ARC
  5
336
100
AcDbEntity
  8
THREAD
100
AcDbCircle
 62
7
  6
CONTINUOUS
 10
5.8989944465
 20
6.529
 40
0.013
100
AcDbArc
 50
30.0000035347
 51
90.0
  0
ARC
  5
337
100
AcDbEntity
  8
THREAD
100
AcDbCircle
 62
7
  6
CONTINUOUS
 10
5.8989944465
 20
7.471
 40
0.013
100
AcDbArc
 50
270.0
 51
329.9999964653
  0
ARC
  5
338
100
AcDbEntity
  8
0
100
AcDbCircle
 62
7
  6
CONTINUOUS
 10
5.7235
 20
7.5303867513
 40
0.005
100
AcDbArc
 50
180.0000035594
 51
240.0000017825
  0
ARC
  5
339
100
AcDbEntity
  8
0
100
AcDbCircle
 62
7
  6
CONTINUOUS
 10
5.7235
 20
6.4696132487
 40
0.005
100
AcDbArc
 50
119.9999982175
 51
179.9999964405
  0
ARC
  5
33A
100
AcDbEntity
  8
0
100
AcDbCircle
 62
7
  6
CONTINUOUS
 10
5.7155
 20
7.535
 40
0.003
100
AcDbArc
 50
359.9999216731
 51
90.0
  0
ARC
  5
33B
100
AcDbEntity
  8
0
100
AcDbCircle
 62
7
  6
CONTINUOUS
 10
5.7155
 20
6.465
 40
0.003
100
AcDbArc
 50
270.0
 51
0.0000783269
  0
SPLINE
  5
33C
100
AcDbEntity
  8
0
100
AcDbSpline
 62
7
  6
CONTINUOUS
 70
0
 71
3
 72
29
 73
25
 74
0
 42
0.0000001
 43
0.0000001
 44
0.0000000001
 40
0.0
 40
0.0
 40
0.0
 40
0.0
 40
0.0699814326
 40
0.1378931693
 40
0.2035483063
 40
0.2668301071
 40
0.3277577624
 40
0.3574096745
 40
0.3865762134
 40
0.4153250756
 40
0.4437427141
 40
0.4719307121
 40
0.5000000301
 40
0.5280693453
 40
0.5562573422
 40
0.5846749808
 40
0.6134238382
 40
0.6425903726
 40
0.6722422822
 40
0.7331699209
 40
0.796451712
 40
0.8621068357
 40
0.9300185679
 40
1.0
 40
1.0
 40
1.0
 40
1.0
 10
3.5549708513
 20
7.1622354256
 30
0.0
 10
3.5518560267
 20
7.1653502502
 30
0.0
 10
3.5458485704
 20
7.171620498
 30
0.0
 10
3.5374837005
 20
7.1813347699
 30
0.0
 10
3.5300144878
 20
7.1912347025
 30
0.0
 10
3.5235857871
 20
7.2013263651
 30
0.0
 10
3.5191793193
 20
7.2099734854
 30
0.0
 10
3.516352393
 20
7.2169651849
 30
0.0
 10
3.5146052759
 20
7.2221969955
 30
0.0
 10
3.5132274621
 20
7.2274580884
 30
0.0
 10
3.5122350053
 20
7.2327430445
 30
0.0
 10
3.5116348105
 20
7.238043924
 30
0.0
 10
3.5114327377
 20
7.243353144
 30
0.0
 10
3.5116348076
 20
7.2486623643
 30
0.0
 10
3.51223501
 20
7.2539632427
 30
0.0
 10
3.5132274641
 20
7.2592481987
 30
0.0
 10
3.5146052762
 20
7.2645092916
 30
0.0
 10
3.5163523974
 20
7.2697411001
 30
0.0
 10
3.5191793222
 20
7.2767327984
 30
0.0
 10
3.5235857895
 20
7.2853799171
 30
0.0
 10
3.5300144902
 20
7.2954715767
 30
0.0
 10
3.5374837013
 20
7.3053715083
 30
0.0
 10
3.5458485708
 20
7.3150857791
 30
0.0
 10
3.5518560267
 20
7.3213560267
 30
0.0
 10
3.5549708513
 20
7.3244708513
 30
0.0
  0
SPLINE
  5
33D
100
AcDbEntity
  8
0
100
AcDbSpline
 62
7
  6
CONTINUOUS
 70
0
 71
3
 72
25
 73
21
 74
0
 42
0.0000001
 43
0.0000001
 44
0.0000000001
 40
0.0
 40
0.0
 40
0.0
 40
0.0
 40
0.0659343996
 40
0.1307786338
 40
0.1945190869
 40
0.2571884297
 40
0.3188803748
 40
0.3494111547
 40
0.3797624252
 40
0.4400381959
 40
0.5000000142
 40
0.5599618336
 40
0.6202376013
 40
0.6505888715
 40
0.68111965
 40
0.7428115909
 40
0.8054809287
 40
0.8692213713
 40
0.9340656013
 40
1.0
 40
1.0
 40
1.0
 40
1.0
 10
3.6566285896
 20
6.6755291487
 30
0.0
 10
3.658516559
 20
6.6787992076
 30
0.0
 10
3.6621349301
 20
6.6853595679
 30
0.0
 10
3.667066339
 20
6.6953530604
 30
0.0
 10
3.6713954557
 20
6.7054202562
 30
0.0
 10
3.6750566079
 20
6.7155586034
 30
0.0
 10
3.6775068654
 20
6.7240922681
 30
0.0
 10
3.6790671299
 20
6.7309378364
 30
0.0
 10
3.6803474037
 20
6.7377586365
 30
0.0
 10
3.6814342196
 20
6.7463242762
 30
0.0
 10
3.681871496
 20
6.756646864
 30
0.0
 10
3.6814342204
 20
6.7669694518
 30
0.0
 10
3.6803474027
 20
6.7755350912
 30
0.0
 10
3.6790671279
 20
6.7823558908
 30
0.0
 10
3.6775068664
 20
6.7892014594
 30
0.0
 10
3.6750566054
 20
6.7977351226
 30
0.0
 10
3.6713954555
 20
6.8078734694
 30
0.0
 10
3.6670663383
 20
6.8179406637
 30
0.0
 10
3.6621349298
 20
6.8279341554
 30
0.0
 10
3.658516559
 20
6.8344945155
 30
0.0
 10
3.6566285896
 20
6.8377645744
 30
0.0
  0
SPLINE
  5
33E
100
AcDbEntity
  8
0
100
AcDbSpline
 62
7
  6
CONTINUOUS
 70
0
 71
3
 72
29
 73
25
 74
0
 42
0.0000001
 43
0.0000001
 44
0.0000000001
 40
0.0
 40
0.0
 40
0.0
 40
0.0
 40
0.0699814326
 40
0.1378931693
 40
0.2035483063
 40
0.2668301071
 40
0.3277577624
 40
0.3574096745
 40
0.3865762134
 40
0.4153250756
 40
0.4437427141
 40
0.4719307121
 40
0.5000000301
 40
0.5280693453
 40
0.5562573422
 40
0.5846749808
 40
0.6134238382
 40
0.6425903726
 40
0.6722422822
 40
0.7331699209
 40
0.796451712
 40
0.8621068357
 40
0.9300185679
 40
1.0
 40
1.0
 40
1.0
 40
1.0
 10
3.5549708513
 20
6.6755291487
 30
0.0
 10
3.5518560267
 20
6.6786439733
 30
0.0
 10
3.5458485704
 20
6.684914221
 30
0.0
 10
3.5374837005
 20
6.694628493
 30
0.0
 10
3.5300144878
 20
6.7045284256
 30
0.0
 10
3.5235857871
 20
6.7146200881
 30
0.0
 10
3.5191793193
 20
6.7232672085
 30
0.0
 10
3.516352393
 20
6.7302589079
 30
0.0
 10
3.5146052759
 20
6.7354907185
 30
0.0
 10
3.5132274621
 20
6.7407518115
 30
0.0
 10
3.5122350053
 20
6.7460367676
 30
0.0
 10
3.5116348105
 20
6.751337647
 30
0.0
 10
3.5114327377
 20
6.756646867
 30
0.0
 10
3.5116348076
 20
6.7619560874
 30
0.0
 10
3.51223501
 20
6.7672569657
 30
0.0
 10
3.5132274641
 20
6.7725419217
 30
0.0
 10
3.5146052762
 20
6.7778030147
 30
0.0
 10
3.5163523974
 20
6.7830348231
 30
0.0
 10
3.5191793222
 20
6.7900265215
 30
0.0
 10
3.5235857895
 20
6.7986736402
 30
0.0
 10
3.5300144902
 20
6.8087652997
 30
0.0
 10
3.5374837013
 20
6.8186652314
 30
0.0
 10
3.5458485708
 20
6.8283795022
 30
0.0
 10
3.5518560267
 20
6.8346497498
 30
0.0
 10
3.5549708513
 20
6.8377645744
 30
0.0
  0
SPLINE
  5
33F
100
AcDbEntity
  8
0
100
AcDbSpline
 62
7
  6
CONTINUOUS
 70
0
 71
3
 72
25
 73
21
 74
0
 42
0.0000001
 43
0.0000001
 44
0.0000000001
 40
0.0
 40
0.0
 40
0.0
 40
0.0
 40
0.1249859891
 40
0.1874862541
 40
0.2499858822
 40
0.2812379746
 40
0.3124899424
 40
0.3437420673
 40
0.3749949169
 40
0.4374972714
 40
0.5000000149
 40
0.5625027595
 40
0.6250051101
 40
0.6562579591
 40
0.6875100837
 40
0.7187620486
 40
0.750014138
 40
0.8125137618
 40
0.8750140159
 40
1.0
 40
1.0
 40
1.0
 40
1.0
 10
3.6566285896
 20
6.8377645744
 30
0.0
 10
3.6604350268
 20
6.8509504595
 30
0.0
 10
3.6656657731
 20
6.8708762575
 30
0.0
 10
3.6714293362
 20
6.8977181122
 30
0.0
 10
3.6744738555
 20
6.914607377
 30
0.0
 10
3.6765429788
 20
6.9281774237
 30
0.0
 10
3.6779051271
 20
6.9383826107
 30
0.0
 10
3.6790702724
 20
6.9486123073
 30
0.0
 10
3.6803521573
 20
6.9622797041
 30
0.0
 10
3.681436007
 20
6.9794089268
 30
0.0
 10
3.6818709837
 20
7.000000005
 30
0.0
 10
3.6814360078
 20
7.0205910829
 30
0.0
 10
3.6803521563
 20
7.0377203051
 30
0.0
 10
3.6790702703
 20
7.0513877012
 30
0.0
 10
3.6779051274
 20
7.0616173977
 30
0.0
 10
3.6765429781
 20
7.071822584
 30
0.0
 10
3.6744738535
 20
7.0853926293
 30
0.0
 10
3.6714293361
 20
7.1022818924
 30
0.0
 10
3.6656657721
 20
7.1291237446
 30
0.0
 10
3.6604350266
 20
7.1490495411
 30
0.0
 10
3.6566285896
 20
7.1622354256
 30
0.0
  0
SPLINE
  5
340
100
AcDbEntity
  8
0
100
AcDbSpline
 62
7
  6
CONTINUOUS
 70
0
 71
3
 72
29
 73
25
 74
0
 42
0.0000001
 43
0.0000001
 44
0.0000000001
 40
0.0
 40
0.0
 40
0.0
 40
0.0
 40
0.0624904563
 40
0.124986907
 40
0.1874824592
 40
0.2499774484
 40
0.3124737491
 40
0.343727532
 40
0.3749816508
 40
0.4062351141
 40
0.4374899104
 40
0.4687452438
 40
0.5000000338
 40
0.5312548209
 40
0.562510151
 40
0.5937649481
 40
0.6250184069
 40
0.6562725173
 40
0.6875262971
 40
0.7500225805
 40
0.8125175578
 40
0.8750130976
 40
0.937509544
 40
1.0
 40
1.0
 40
1.0
 40
1.0
 10
3.5549708513
 20
6.8377645744
 30
0.0
 10
3.5518128872
 20
6.8440805025
 30
0.0
 10
3.5457161719
 20
6.8568246313
 30
0.0
 10
3.5373492137
 20
6.8762947767
 30
0.0
 10
3.5298856662
 20
6.8961319207
 30
0.0
 10
3.5234741834
 20
6.9163355535
 30
0.0
 10
3.5191318882
 20
6.9334620213
 30
0.0
 10
3.5163365363
 20
6.9473104666
 30
0.0
 10
3.5145940873
 20
6.9577634496
 30
0.0
 10
3.5132206746
 20
6.968271489
 30
0.0
 10
3.5122319259
 20
6.9788229566
 30
0.0
 10
3.5116341443
 20
6.9894039589
 30
0.0
 10
3.5114329292
 20
7.0000000111
 30
0.0
 10
3.5116341413
 20
7.0105960632
 30
0.0
 10
3.5122319307
 20
7.0211770644
 30
0.0
 10
3.5132206767
 20
7.0317285313
 30
0.0
 10
3.5145940874
 20
7.0422365698
 30
0.0
 10
3.5163365409
 20
7.0526895502
 30
0.0
 10
3.5191318911
 20
7.0665379924
 30
0.0
 10
3.5234741857
 20
7.0836644567
 30
0.0
 10
3.5298856688
 20
7.1038680844
 30
0.0
 10
3.5373492145
 20
7.1237052256
 30
0.0
 10
3.5457161724
 20
7.1431753692
 30
0.0
 10
3.5518128872
 20
7.1559194975
 30
0.0
 10
3.5549708513
 20
7.1622354256
 30
0.0
  0
SPLINE
  5
341
100
AcDbEntity
  8
0
100
AcDbSpline
 62
7
  6
CONTINUOUS
 70
0
 71
3
 72
25
 73
21
 74
0
 42
0.0000001
 43
0.0000001
 44
0.0000000001
 40
0.0
 40
0.0
 40
0.0
 40
0.0
 40
0.0659343996
 40
0.1307786338
 40
0.1945190869
 40
0.2571884297
 40
0.3188803748
 40
0.3494111547
 40
0.3797624252
 40
0.4400381959
 40
0.5000000142
 40
0.5599618336
 40
0.6202376013
 40
0.6505888715
 40
0.68111965
 40
0.7428115909
 40
0.8054809287
 40
0.8692213713
 40
0.9340656013
 40
1.0
 40
1.0
 40
1.0
 40
1.0
 10
3.6566285896
 20
7.1622354256
 30
0.0
 10
3.658516559
 20
7.1655054845
 30
0.0
 10
3.6621349301
 20
7.1720658448
 30
0.0
 10
3.667066339
 20
7.1820593374
 30
0.0
 10
3.6713954557
 20
7.1921265331
 30
0.0
 10
3.6750566079
 20
7.2022648803
 30
0.0
 10
3.6775068654
 20
7.210798545
 30
0.0
 10
3.6790671299
 20
7.2176441133
 30
0.0
 10
3.6803474037
 20
7.2244649134
 30
0.0
 10
3.6814342196
 20
7.2330305531
 30
0.0
 10
3.681871496
 20
7.243353141
 30
0.0
 10
3.6814342204
 20
7.2536757287
 30
0.0
 10
3.6803474027
 20
7.2622413681
 30
0.0
 10
3.6790671279
 20
7.2690621677
 30
0.0
 10
3.6775068664
 20
7.2759077364
 30
0.0
 10
3.6750566054
 20
7.2844413995
 30
0.0
 10
3.6713954555
 20
7.2945797463
 30
0.0
 10
3.6670663383
 20
7.3046469406
 30
0.0
 10
3.6621349298
 20
7.3146404323
 30
0.0
 10
3.658516559
 20
7.3212007924
 30
0.0
 10
3.6566285896
 20
7.3244708513
 30
0.0
  0
SPLINE
  5
342
100
AcDbEntity
  8
0
100
AcDbSpline
 62
7
  6
CONTINUOUS
 70
0
 71
3
 72
9
 73
5
 74
0
 42
0.0000001
 43
0.0000001
 44
0.0000000001
 40
0.0
 40
0.0
 40
0.0
 40
0.0
 40
0.2448590911
 40
1.0
 40
1.0
 40
1.0
 40
1.0
 10
6.7324391425
 20
7.216441956
 30
0.0
 10
6.7317364313
 20
7.2167101212
 30
0.0
 10
6.7288521444
 20
7.2177673273
 30
0.0
 10
6.725914694
 20
7.2186777367
 30
0.0
 10
6.7236779078
 20
7.2192919651
 30
0.0
  0
SPLINE
  5
343
100
AcDbEntity
  8
0
100
AcDbSpline
 62
7
  6
CONTINUOUS
 70
0
 71
3
 72
11
 73
7
 74
0
 42
0.0000001
 43
0.0000001
 44
0.0000000001
 40
0.0
 40
0.0
 40
0.0
 40
0.0
 40
0.2389699026
 40
0.4871126703
 40
0.7419859224
 40
1.0
 40
1.0
 40
1.0
 40
1.0
 10
6.7236779078
 20
7.2192919651
 30
0.0
 10
6.7207922419
 20
7.2200843779
 30
0.0
 10
6.7148405249
 20
7.2214530428
 30
0.0
 10
6.7056528343
 20
7.2228818048
 30
0.0
 10
6.6961551941
 20
7.2237355829
 30
0.0
 10
6.6897309679
 20
7.2239251943
 30
0.0
 10
6.6865
 20
7.2239251943
 30
0.0
  0
SPLINE
  5
344
100
AcDbEntity
  8
0
100
AcDbSpline
 62
7
  6
CONTINUOUS
 70
0
 71
3
 72
20
 73
16
 74
0
 42
0.0000001
 43
0.0000001
 44
0.0000000001
 40
0.0
 40
0.0
 40
0.0
 40
0.0
 40
0.0505067163
 40
0.1024378562
 40
0.1560935513
 40
0.2116510006
 40
0.3285319972
 40
0.3899218948
 40
0.4530803223
 40
0.5178488344
 40
0.5840546214
 40
0.7198535422
 40
0.8590351705
 40
0.9294628112
 40
1.0
 40
1.0
 40
1.0
 40
1.0
 10
6.6085
 20
7.2644579381
 30
0.0
 10
6.6085
 20
7.2626280867
 30
0.0
 10
6.6087634531
 20
7.2589124403
 30
0.0
 10
6.6099072782
 20
7.2533591605
 30
0.0
 10
6.6117932624
 20
7.2478182338
 30
0.0
 10
6.6153199393
 20
7.2404087758
 30
0.0
 10
6.6202119404
 20
7.2334052345
 30
0.0
 10
6.6261917156
 20
7.2270106468
 30
0.0
 10
6.6313273127
 20
7.2224484979
 30
0.0
 10
6.6369878272
 20
7.2182585017
 30
0.0
 10
6.6452371131
 20
7.2132022738
 30
0.0
 10
6.6565771392
 20
7.2081258131
 30
0.0
 10
6.6687562865
 20
7.2049851521
 30
0.0
 10
6.6788344679
 20
7.2037060546
 30
0.0
 10
6.6839444473
 20
7.2034882816
 30
0.0
 10
6.6865
 20
7.2034882816
 30
0.0
  0
SPLINE
  5
345
100
AcDbEntity
  8
0
100
AcDbSpline
 62
7
  6
CONTINUOUS
 70
0
 71
3
 72
21
 73
17
 74
0
 42
0.0000001
 43
0.0000001
 44
0.0000000001
 40
0.0
 40
0.0
 40
0.0
 40
0.0
 40
0.0386814182
 40
0.1477191714
 40
0.2233951264
 40
0.3095192227
 40
0.4028947889
 40
0.4512135365
 40
0.5000012411
 40
0.5487886416
 40
0.5971068348
 40
0.6904818057
 40
0.776606078
 40
0.8522821732
 40
0.9613188068
 40
1.0
 40
1.0
 40
1.0
 40
1.0
 10
6.7645
 20
7.374
 30
0.0
 10
6.7625166964
 20
7.3735862436
 30
0.0
 10
6.7549307075
 20
7.3720616108
 30
0.0
 10
6.7433940096
 20
7.3700823194
 30
0.0
 10
6.729330786
 20
7.3682039205
 30
0.0
 10
6.7160281923
 20
7.3668770137
 30
0.0
 10
6.7041146151
 20
7.3661412734
 30
0.0
 10
6.6941416927
 20
7.3658300136
 30
0.0
 10
6.6864998209
 20
7.3657486965
 30
0.0
 10
6.6788579778
 20
7.3658300038
 30
0.0
 10
6.6688851327
 20
7.3661412992
 30
0.0
 10
6.6569716065
 20
7.3668770293
 30
0.0
 10
6.6436690282
 20
7.3682039457
 30
0.0
 10
6.6296058461
 20
7.3700823374
 30
0.0
 10
6.6180692125
 20
7.37206163
 30
0.0
 10
6.6104832923
 20
7.3735862474
 30
0.0
 10
6.6085
 20
7.374
 30
0.0
  0
SPLINE
  5
346
100
AcDbEntity
  8
0
100
AcDbSpline
 62
7
  6
CONTINUOUS
 70
0
 71
3
 72
11
 73
7
 74
0
 42
0.0000001
 43
0.0000001
 44
0.0000000001
 40
0.0
 40
0.0
 40
0.0
 40
0.0
 40
0.2580115861
 40
0.512887608
 40
0.7610305183
 40
1.0
 40
1.0
 40
1.0
 40
1.0
 10
6.6865
 20
6.7760748057
 30
0.0
 10
6.6897305476
 20
6.7760748057
 30
0.0
 10
6.6961540027
 20
6.7762643798
 30
0.0
 10
6.705650513
 20
6.7771179385
 30
0.0
 10
6.7148371561
 20
6.7785463391
 30
0.0
 10
6.7207881964
 20
6.779914637
 30
0.0
 10
6.723673543
 20
6.7807068316
 30
0.0
  0
SPLINE
  5
347
100
AcDbEntity
  8
0
100
AcDbSpline
 62
7
  6
CONTINUOUS
 70
0
 71
3
 72
9
 73
5
 74
0
 42
0.0000001
 43
0.0000001
 44
0.0000000001
 40
0.0
 40
0.0
 40
0.0
 40
0.0
 40
0.2551382603
 40
1.0
 40
1.0
 40
1.0
 40
1.0
 10
6.723673543
 20
6.7807068316
 30
0.0
 10
6.7244295452
 20
6.780914398
 30
0.0
 10
6.7273834904
 20
6.781760658
 30
0.0
 10
6.7302995143
 20
6.782741572
 30
0.0
 10
6.7324378945
 20
6.7835575721
 30
0.0
  0
SPLINE
  5
348
100
AcDbEntity
  8
0
100
AcDbSpline
 62
7
  6
CONTINUOUS
 70
0
 71
3
 72
9
 73
5
 74
0
 42
0.0000001
 43
0.0000001
 44
0.0000000001
 40
0.0
 40
0.0
 40
0.0
 40
0.0
 40
0.5085906869
 40
1.0
 40
1.0
 40
1.0
 40
1.0
 10
6.6794555812
 20
7.2237730736
 30
0.0
 10
6.6753432446
 20
7.2235950465
 30
0.0
 10
6.6672674462
 20
7.2229386317
 30
0.0
 10
6.6592704272
 20
7.2216151953
 30
0.0
 10
6.6553831435
 20
7.2207745884
 30
0.0
  0
SPLINE
  5
349
100
AcDbEntity
  8
0
100
AcDbSpline
 62
7
  6
CONTINUOUS
 70
0
 71
3
 72
9
 73
5
 74
0
 42
0.0000001
 43
0.0000001
 44
0.0000000001
 40
0.0
 40
0.0
 40
0.0
 40
0.0
 40
0.5107429025
 40
1.0
 40
1.0
 40
1.0
 40
1.0
 10
6.6553831435
 20
7.2207745884
 30
0.0
 10
6.6528118694
 20
7.2202185624
 30
0.0
 10
6.6478111614
 20
7.2189655531
 30
0.0
 10
6.6429165221
 20
7.2173408678
 30
0.0
 10
6.6405620828
 20
7.2164424194
 30
0.0
  0
SPLINE
  5
34A
100
AcDbEntity
  8
0
100
AcDbSpline
 62
7
  6
CONTINUOUS
 70
0
 71
3
 72
20
 73
16
 74
0
 42
0.0000001
 43
0.0000001
 44
0.0000000001
 40
0.0
 40
0.0
 40
0.0
 40
0.0
 40
0.0505067162
 40
0.1024378562
 40
0.1560935513
 40
0.2116510006
 40
0.3285319972
 40
0.3899218947
 40
0.4530803223
 40
0.5178488344
 40
0.5840546214
 40
0.7198535423
 40
0.8590351705
 40
0.9294628112
 40
1.0
 40
1.0
 40
1.0
 40
1.0
 10
6.7645
 20
6.7355420619
 30
0.0
 10
6.7645
 20
6.7373719133
 30
0.0
 10
6.7642365469
 20
6.7410875597
 30
0.0
 10
6.7630927218
 20
6.7466408394
 30
0.0
 10
6.7612067376
 20
6.7521817662
 30
0.0
 10
6.7576800607
 20
6.7595912242
 30
0.0
 10
6.7527880597
 20
6.7665947655
 30
0.0
 10
6.7468082844
 20
6.7729893531
 30
0.0
 10
6.7416726873
 20
6.7775515021
 30
0.0
 10
6.7360121728
 20
6.7817414983
 30
0.0
 10
6.7277628869
 20
6.7867977262
 30
0.0
 10
6.7164228608
 20
6.7918741869
 30
0.0
 10
6.7042437135
 20
6.7950148479
 30
0.0
 10
6.6941655321
 20
6.7962939454
 30
0.0
 10
6.6890555527
 20
6.7965117184
 30
0.0
 10
6.6865
 20
6.7965117184
 30
0.0
  0
SPLINE
  5
34B
100
AcDbEntity
  8
0
100
AcDbSpline
 62
7
  6
CONTINUOUS
 70
0
 71
3
 72
9
 73
5
 74
0
 42
0.0000001
 43
0.0000001
 44
0.0000000001
 40
0.0
 40
0.0
 40
0.0
 40
0.0
 40
0.4892559206
 40
1.0
 40
1.0
 40
1.0
 40
1.0
 10
6.6405608896
 20
6.7835580319
 30
0.0
 10
6.6429161097
 20
6.7826592455
 30
0.0
 10
6.6478124213
 20
6.7810340226
 30
0.0
 10
6.6528148599
 20
6.779780706
 30
0.0
 10
6.6553870318
 20
6.7792245742
 30
0.0
  0
SPLINE
  5
34C
100
AcDbEntity
  8
0
100
AcDbSpline
 62
7
  6
CONTINUOUS
 70
0
 71
3
 72
9
 73
5
 74
0
 42
0.0000001
 43
0.0000001
 44
0.0000000001
 40
0.0
 40
0.0
 40
0.0
 40
0.0
 40
0.4914151753
 40
1.0
 40
1.0
 40
1.0
 40
1.0
 10
6.6553870318
 20
6.7792245742
 30
0.0
 10
6.6592738097
 20
6.7783842103
 30
0.0
 10
6.6672696608
 20
6.7770611497
 30
0.0
 10
6.6753442573
 20
6.7764048942
 30
0.0
 10
6.6794559338
 20
6.7762269075
 30
0.0
  0
SPLINE
  5
34D
100
AcDbEntity
  8
0
100
AcDbSpline
 62
7
  6
CONTINUOUS
 70
0
 71
3
 72
21
 73
17
 74
0
 42
0.0000001
 43
0.0000001
 44
0.0000000001
 40
0.0
 40
0.0
 40
0.0
 40
0.0
 40
0.0386814387
 40
0.1477192396
 40
0.2233952211
 40
0.3095193269
 40
0.4028949303
 40
0.4512137252
 40
0.5000014629
 40
0.5487888507
 40
0.5971070162
 40
0.690481984
 40
0.7766062839
 40
0.8522823735
 40
0.9613188872
 40
1.0
 40
1.0
 40
1.0
 40
1.0
 10
6.6085
 20
6.626
 30
0.0
 10
6.6104833047
 20
6.6264137567
 30
0.0
 10
6.6180692971
 20
6.6279383903
 30
0.0
 10
6.6296059999
 20
6.629917682
 30
0.0
 10
6.6436692279
 20
6.631796081
 30
0.0
 10
6.6569718255
 20
6.6331229881
 30
0.0
 10
6.6688854076
 20
6.6338587288
 30
0.0
 10
6.6788583362
 20
6.6341699855
 30
0.0
 10
6.6865002115
 20
6.6342513035
 30
0.0
 10
6.6941420543
 20
6.6341699968
 30
0.0
 10
6.704114897
 20
6.6338586982
 30
0.0
 10
6.716028423
 20
6.6331229677
 30
0.0
 10
6.7293310022
 20
6.6317960507
 30
0.0
 10
6.7433941791
 20
6.6299176591
 30
0.0
 10
6.7549308017
 20
6.6279383664
 30
0.0
 10
6.7625167117
 20
6.6264137515
 30
0.0
 10
6.7645
 20
6.626
 30
0.0
  0
SPLINE
  5
34E
100
AcDbEntity
  8
0
100
AcDbSpline
 62
7
  6
CONTINUOUS
 70
0
 71
3
 72
20
 73
16
 74
0
 42
0.0000001
 43
0.0000001
 44
0.0000000001
 40
0.0
 40
0.0
 40
0.0
 40
0.0
 40
0.0705371901
 40
0.1409648341
 40
0.2801464665
 40
0.4159453832
 40
0.4821511685
 40
0.5469196807
 40
0.6100781094
 40
0.6714680083
 40
0.7883490055
 40
0.8439064532
 40
0.8975621464
 40
0.9494932845
 40
1.0
 40
1.0
 40
1.0
 40
1.0
 10
6.6865
 20
6.7965117184
 30
0.0
 10
6.6839444472
 20
6.7965117184
 30
0.0
 10
6.6788344677
 20
6.7962939453
 30
0.0
 10
6.6687562859
 20
6.7950148477
 30
0.0
 10
6.6565771386
 20
6.7918741867
 30
0.0
 10
6.6452371125
 20
6.7867977259
 30
0.0
 10
6.6369878269
 20
6.7817414981
 30
0.0
 10
6.6313273124
 20
6.7775515019
 30
0.0
 10
6.6261917153
 20
6.7729893528
 30
0.0
 10
6.62021194
 20
6.7665947651
 30
0.0
 10
6.615319939
 20
6.7595912237
 30
0.0
 10
6.6117932622
 20
6.7521817657
 30
0.0
 10
6.6099072781
 20
6.7466408392
 30
0.0
 10
6.608763453
 20
6.7410875596
 30
0.0
 10
6.6084999999
 20
6.7373719133
 30
0.0
 10
6.6085
 20
6.7355420619
 30
0.0
  0
SPLINE
  5
34F
100
AcDbEntity
  8
0
100
AcDbSpline
 62
7
  6
CONTINUOUS
 70
0
 71
3
 72
20
 73
16
 74
0
 42
0.0000001
 43
0.0000001
 44
0.0000000001
 40
0.0
 40
0.0
 40
0.0
 40
0.0
 40
0.0705371901
 40
0.1409648342
 40
0.2801464665
 40
0.4159453832
 40
0.4821511685
 40
0.5469196806
 40
0.6100781093
 40
0.6714680082
 40
0.7883490055
 40
0.8439064532
 40
0.8975621463
 40
0.9494932844
 40
1.0
 40
1.0
 40
1.0
 40
1.0
 10
6.6865
 20
7.2034882816
 30
0.0
 10
6.6890555528
 20
7.2034882816
 30
0.0
 10
6.6941655323
 20
7.2037060547
 30
0.0
 10
6.7042437141
 20
7.2049851523
 30
0.0
 10
6.7164228614
 20
7.2081258133
 30
0.0
 10
6.7277628874
 20
7.213202274
 30
0.0
 10
6.7360121731
 20
7.2182585019
 30
0.0
 10
6.7416726875
 20
7.2224484981
 30
0.0
 10
6.7468082847
 20
7.2270106471
 30
0.0
 10
6.75278806
 20
7.2334052349
 30
0.0
 10
6.757680061
 20
7.2404087762
 30
0.0
 10
6.7612067378
 20
7.2478182342
 30
0.0
 10
6.7630927219
 20
7.2533591608
 30
0.0
 10
6.764236547
 20
7.2589124403
 30
0.0
 10
6.7645000001
 20
7.2626280866
 30
0.0
 10
6.7645
 20
7.264457938
 30
0.0
  0
SPLINE
  5
350
100
AcDbEntity
  8
0
100
AcDbSpline
 62
7
  6
CONTINUOUS
 70
0
 71
3
 72
25
 73
21
 74
0
 42
0.0000001
 43
0.0000001
 44
0.0000000001
 40
0.0
 40
0.0
 40
0.0
 40
0.0
 40
0.0750286581
 40
0.1496365582
 40
0.2231847951
 40
0.295200881
 40
0.3653199784
 40
0.4332417076
 40
0.4987446077
 40
0.5617028792
 40
0.6221280718
 40
0.6801477794
 40
0.7360211087
 40
0.7632826656
 40
0.7901635736
 40
0.8430165061
 40
0.8691649236
 40
0.895222173
 40
0.9473405202
 40
1.0
 40
1.0
 40
1.0
 40
1.0
 10
6.6865
 20
6.6862030605
 30
0.0
 10
6.6890542233
 20
6.6862030605
 30
0.0
 10
6.69414944
 20
6.6863427141
 30
0.0
 10
6.7017253828
 20
6.6869679277
 30
0.0
 10
6.7091524393
 20
6.6880091557
 30
0.0
 10
6.7163543811
 20
6.6894630804
 30
0.0
 10
6.7232641437
 20
6.6913253783
 30
0.0
 10
6.7298190698
 20
6.6935908453
 30
0.0
 10
6.7359598433
 20
6.6962523305
 30
0.0
 10
6.7416295239
 20
6.699303964
 30
0.0
 10
6.7467779828
 20
6.7027328637
 30
0.0
 10
6.7513547233
 20
6.706528631
 30
0.0
 10
6.7546846121
 20
6.7100110471
 30
0.0
 10
6.7570047938
 20
6.7129542643
 30
0.0
 10
6.7590682695
 20
6.7159582999
 30
0.0
 10
6.7608057535
 20
6.7191321419
 30
0.0
 10
6.7621802135
 20
6.7224367746
 30
0.0
 10
6.7633056131
 20
6.7258082458
 30
0.0
 10
6.7642517312
 20
6.7301771935
 30
0.0
 10
6.7645
 20
6.7337493593
 30
0.0
 10
6.7645
 20
6.7355420619
 30
0.0
  0
SPLINE
  5
351
100
AcDbEntity
  8
0
100
AcDbSpline
 62
7
  6
CONTINUOUS
 70
0
 71
3
 72
25
 73
21
 74
0
 42
0.0000001
 43
0.0000001
 44
0.0000000001
 40
0.0
 40
0.0
 40
0.0
 40
0.0
 40
0.0750286584
 40
0.1496365591
 40
0.2231847961
 40
0.2952008813
 40
0.3653199776
 40
0.433241706
 40
0.4987446054
 40
0.5617028768
 40
0.6221280696
 40
0.6801477774
 40
0.7360211069
 40
0.763282664
 40
0.7901635721
 40
0.8430165049
 40
0.8691649226
 40
0.8952221722
 40
0.9473405199
 40
1.0
 40
1.0
 40
1.0
 40
1.0
 10
6.6865
 20
7.3137969395
 30
0.0
 10
6.6839457767
 20
7.3137969395
 30
0.0
 10
6.67885056
 20
7.3136572859
 30
0.0
 10
6.6712746171
 20
7.3130320723
 30
0.0
 10
6.6638475607
 20
7.3119908443
 30
0.0
 10
6.6566456189
 20
7.3105369196
 30
0.0
 10
6.6497358563
 20
7.3086746217
 30
0.0
 10
6.6431809303
 20
7.3064091548
 30
0.0
 10
6.6370401569
 20
7.3037476696
 30
0.0
 10
6.6313704763
 20
7.3006960361
 30
0.0
 10
6.6262220174
 20
7.2972671364
 30
0.0
 10
6.6216452768
 20
7.2934713691
 30
0.0
 10
6.618315388
 20
7.2899889531
 30
0.0
 10
6.6159952062
 20
7.2870457358
 30
0.0
 10
6.6139317306
 20
7.2840417002
 30
0.0
 10
6.6121942466
 20
7.2808678582
 30
0.0
 10
6.6108197865
 20
7.2775632255
 30
0.0
 10
6.6096943869
 20
7.2741917543
 30
0.0
 10
6.6087482688
 20
7.2698228065
 30
0.0
 10
6.6085
 20
7.2662506407
 30
0.0
 10
6.6085
 20
7.2644579381
 30
0.0
  0
SPLINE
  5
352
100
AcDbEntity
  8
0
100
AcDbSpline
 62
7
  6
CONTINUOUS
 70
0
 71
3
 72
25
 73
21
 74
0
 42
0.0000001
 43
0.0000001
 44
0.0000000001
 40
0.0
 40
0.0
 40
0.0
 40
0.0
 40
0.0526594818
 40
0.104777833
 40
0.1308350845
 40
0.1569835039
 40
0.2098364396
 40
0.2367173489
 40
0.2639789068
 40
0.3198522369
 40
0.3778719449
 40
0.4382971381
 40
0.5012554098
 40
0.5667583095
 40
0.6346800385
 40
0.7047991335
 40
0.7768152152
 40
0.8503634465
 40
0.9249713429
 40
1.0
 40
1.0
 40
1.0
 40
1.0
 10
6.7645
 20
7.264457938
 30
0.0
 10
6.7644999999
 20
7.2662506407
 30
0.0
 10
6.7642517311
 20
7.2698228066
 30
0.0
 10
6.7633056129
 20
7.2741917547
 30
0.0
 10
6.7621802133
 20
7.2775632262
 30
0.0
 10
6.760805753
 20
7.280867859
 30
0.0
 10
6.7590682688
 20
7.2840417011
 30
0.0
 10
6.757004793
 20
7.2870457368
 30
0.0
 10
6.7546846111
 20
7.2899889542
 30
0.0
 10
6.7513547221
 20
7.2934713701
 30
0.0
 10
6.7467779815
 20
7.2972671373
 30
0.0
 10
6.7416295224
 20
7.3006960369
 30
0.0
 10
6.7359598418
 20
7.3037476702
 30
0.0
 10
6.7298190683
 20
7.3064091554
 30
0.0
 10
6.7232641422
 20
7.3086746221
 30
0.0
 10
6.7163543798
 20
7.3105369199
 30
0.0
 10
6.7091524383
 20
7.3119908444
 30
0.0
 10
6.7017253822
 20
7.3130320724
 30
0.0
 10
6.6941494398
 20
7.3136572859
 30
0.0
 10
6.6890542233
 20
7.3137969395
 30
0.0
 10
6.6865
 20
7.3137969395
 30
0.0
  0
SPLINE
  5
353
100
AcDbEntity
  8
0
100
AcDbSpline
 62
7
  6
CONTINUOUS
 70
0
 71
3
 72
25
 73
21
 74
0
 42
0.0000001
 43
0.0000001
 44
0.0000000001
 40
0.0
 40
0.0
 40
0.0
 40
0.0
 40
0.0526594815
 40
0.1047778323
 40
0.1308350836
 40
0.1569835028
 40
0.2098364382
 40
0.2367173474
 40
0.2639789052
 40
0.3198522351
 40
0.3778719429
 40
0.4382971358
 40
0.5012554076
 40
0.566758308
 40
0.634680038
 40
0.7047991339
 40
0.7768152163
 40
0.8503634475
 40
0.9249713432
 40
1.0
 40
1.0
 40
1.0
 40
1.0
 10
6.6085
 20
6.7355420619
 30
0.0
 10
6.6085000001
 20
6.7337493593
 30
0.0
 10
6.6087482689
 20
6.7301771933
 30
0.0
 10
6.6096943871
 20
6.7258082453
 30
0.0
 10
6.6108197867
 20
6.7224367739
 30
0.0
 10
6.6121942469
 20
6.7191321411
 30
0.0
 10
6.6139317312
 20
6.715958299
 30
0.0
 10
6.6159952069
 20
6.7129542633
 30
0.0
 10
6.6183153888
 20
6.710011046
 30
0.0
 10
6.6216452778
 20
6.70652863
 30
0.0
 10
6.6262220184
 20
6.7027328628
 30
0.0
 10
6.6313704774
 20
6.6993039632
 30
0.0
 10
6.6370401581
 20
6.6962523299
 30
0.0
 10
6.6431809316
 20
6.6935908447
 30
0.0
 10
6.6497358578
 20
6.6913253779
 30
0.0
 10
6.6566456203
 20
6.68946308
 30
0.0
 10
6.6638475618
 20
6.6880091555
 30
0.0
 10
6.6712746178
 20
6.6869679276
 30
0.0
 10
6.6788505602
 20
6.686342714
 30
0.0
 10
6.6839457768
 20
6.6862030605
 30
0.0
 10
6.6865
 20
6.6862030605
 30
0.0
  0
LINE
  5
354
100
AcDbEntity
  8
127-412_FEATURES
100
AcDbLine
 62
7
  6
CONTINUOUS
 10
6.2435
 20
6.5481432707
 11
6.2471882028
 21
6.548
  0
SPLINE
  5
355
100
AcDbEntity
  8
127-412_FEATURES
100
AcDbSpline
 62
7
  6
CONTINUOUS
 70
0
 71
3
 72
11
 73
7
 74
0
 42
0.0000001
 43
0.0000001
 44
0.0000000001
 40
0.0
 40
0.0
 40
0.0
 40
0.0
 40
0.1506117137
 40
0.5009910854
 40
0.8513918764
 40
1.0
 40
1.0
 40
1.0
 40
1.0
 10
5.601
 20
7.4940391664
 30
0.0
 10
5.5986697024
 20
7.4933039276
 30
0.0
 10
5.5909027641
 20
7.4909066821
 30
0.0
 10
5.5776178931
 20
7.4871146906
 30
0.0
 10
5.5642511948
 20
7.4837514354
 30
0.0
 10
5.5563551658
 20
7.4819616606
 30
0.0
 10
5.554
 20
7.4814455543
 30
0.0
  0
SPLINE
  5
356
100
AcDbEntity
  8
127-412_FEATURES
100
AcDbSpline
 62
7
  6
CONTINUOUS
 70
0
 71
3
 72
9
 73
5
 74
0
 42
0.0000001
 43
0.0000001
 44
0.0000000001
 40
0.0
 40
0.0
 40
0.0
 40
0.0
 40
0.5976848759
 40
1.0
 40
1.0
 40
1.0
 40
1.0
 10
6.2435
 20
7.4518567293
 30
0.0
 10
6.2369971556
 20
7.4579599558
 30
0.0
 10
6.226339756
 20
7.4684103571
 30
0.0
 10
6.2160220942
 20
7.4791930033
 30
0.0
 10
6.2119225592
 20
7.4835774408
 30
0.0
  0
SPLINE
  5
357
100
AcDbEntity
  8
127-412_FEATURES
100
AcDbSpline
 62
7
  6
CONTINUOUS
 70
0
 71
3
 72
9
 73
5
 74
0
 42
0.0000001
 43
0.0000001
 44
0.0000000001
 40
0.0
 40
0.0
 40
0.0
 40
0.0
 40
0.4023633877
 40
1.0
 40
1.0
 40
1.0
 40
1.0
 10
6.2119225592
 20
6.5164225592
 30
0.0
 10
6.216022586
 20
6.5208075229
 30
0.0
 10
6.226340263
 20
6.5315901553
 30
0.0
 10
6.2369976806
 20
6.542040537
 30
0.0
 10
6.2435
 20
6.5481432707
 30
0.0
  0
SPLINE
  5
358
100
AcDbEntity
  8
0
100
AcDbSpline
 62
7
  6
CONTINUOUS
 70
0
 71
3
 72
19
 73
15
 74
0
 42
0.0000001
 43
0.0000001
 44
0.0000000001
 40
0.0
 40
0.0
 40
0.0
 40
0.0
 40
0.1255916165
 40
0.2507124508
 40
0.3131278661
 40
0.3754661753
 40
0.437747264
 40
0.5000000224
 40
0.5622527831
 40
0.6245338701
 40
0.686872176
 40
0.7492875883
 40
0.8744083921
 40
1.0
 40
1.0
 40
1.0
 40
1.0
 10
4.2641106713
 20
6.465427963
 30
0.0
 10
4.2577691787
 20
6.4860444906
 30
0.0
 10
4.2462152666
 20
6.5275531181
 30
0.0
 10
4.235207675
 20
6.5802433331
 30
0.0
 10
4.2288560946
 20
6.6226957148
 30
0.0
 10
4.2253961475
 20
6.6546406783
 30
0.0
 10
4.2232896488
 20
6.6866758688
 30
0.0
 10
4.2225889941
 20
6.7187582622
 30
0.0
 10
4.2232896554
 20
6.7508406548
 30
0.0
 10
4.2253961418
 20
6.7828758457
 30
0.0
 10
4.2288561054
 20
6.8148208061
 30
0.0
 10
4.2352076685
 20
6.8572731839
 30
0.0
 10
4.2462152735
 20
6.9099633892
 30
0.0
 10
4.2577691791
 20
6.951472011
 30
0.0
 10
4.2641106713
 20
6.9720885372
 30
0.0
  0
SPLINE
  5
359
100
AcDbEntity
  8
0
100
AcDbSpline
 62
7
  6
CONTINUOUS
 70
0
 71
3
 72
19
 73
15
 74
0
 42
0.0000001
 43
0.0000001
 44
0.0000000001
 40
0.0
 40
0.0
 40
0.0
 40
0.0
 40
0.1255916165
 40
0.2507124508
 40
0.3131278661
 40
0.3754661753
 40
0.437747264
 40
0.5000000224
 40
0.5622527831
 40
0.6245338701
 40
0.686872176
 40
0.7492875883
 40
0.8744083921
 40
1.0
 40
1.0
 40
1.0
 40
1.0
 10
4.8510743742
 20
6.465427963
 30
0.0
 10
4.8574158667
 20
6.4860444906
 30
0.0
 10
4.8689697788
 20
6.5275531181
 30
0.0
 10
4.8799773704
 20
6.5802433331
 30
0.0
 10
4.8863289508
 20
6.6226957148
 30
0.0
 10
4.8897888979
 20
6.6546406783
 30
0.0
 10
4.8918953967
 20
6.6866758688
 30
0.0
 10
4.8925960513
 20
6.7187582622
 30
0.0
 10
4.89189539
 20
6.7508406548
 30
0.0
 10
4.8897889036
 20
6.7828758457
 30
0.0
 10
4.88632894
 20
6.8148208061
 30
0.0
 10
4.8799773769
 20
6.8572731839
 30
0.0
 10
4.8689697719
 20
6.9099633892
 30
0.0
 10
4.8574158663
 20
6.951472011
 30
0.0
 10
4.8510743742
 20
6.9720885372
 30
0.0
  0
SPLINE
  5
35A
100
AcDbEntity
  8
0
100
AcDbSpline
 62
7
  6
CONTINUOUS
 70
0
 71
3
 72
19
 73
15
 74
0
 42
0.0000001
 43
0.0000001
 44
0.0000000001
 40
0.0
 40
0.0
 40
0.0
 40
0.0
 40
0.1255916165
 40
0.2507124508
 40
0.3131278661
 40
0.3754661753
 40
0.437747264
 40
0.5000000224
 40
0.5622527831
 40
0.6245338701
 40
0.686872176
 40
0.7492875883
 40
0.8744083921
 40
1.0
 40
1.0
 40
1.0
 40
1.0
 10
4.2641106713
 20
7.0279114628
 30
0.0
 10
4.2577691787
 20
7.0485279904
 30
0.0
 10
4.2462152666
 20
7.0900366179
 30
0.0
 10
4.235207675
 20
7.1427268328
 30
0.0
 10
4.2288560946
 20
7.1851792146
 30
0.0
 10
4.2253961475
 20
7.2171241781
 30
0.0
 10
4.2232896488
 20
7.2491593685
 30
0.0
 10
4.2225889941
 20
7.2812417619
 30
0.0
 10
4.2232896554
 20
7.3133241545
 30
0.0
 10
4.2253961418
 20
7.3453593455
 30
0.0
 10
4.2288561054
 20
7.3773043058
 30
0.0
 10
4.2352076685
 20
7.4197566836
 30
0.0
 10
4.2462152735
 20
7.4724468889
 30
0.0
 10
4.2577691791
 20
7.5139555108
 30
0.0
 10
4.2641106713
 20
7.534572037
 30
0.0
  0
SPLINE
  5
35B
100
AcDbEntity
  8
0
100
AcDbSpline
 62
7
  6
CONTINUOUS
 70
0
 71
3
 72
19
 73
15
 74
0
 42
0.0000001
 43
0.0000001
 44
0.0000000001
 40
0.0
 40
0.0
 40
0.0
 40
0.0
 40
0.1255916165
 40
0.2507124508
 40
0.3131278661
 40
0.3754661753
 40
0.437747264
 40
0.5000000224
 40
0.5622527831
 40
0.6245338701
 40
0.686872176
 40
0.7492875883
 40
0.8744083921
 40
1.0
 40
1.0
 40
1.0
 40
1.0
 10
4.8510743742
 20
7.0279114628
 30
0.0
 10
4.8574158667
 20
7.0485279904
 30
0.0
 10
4.8689697788
 20
7.0900366179
 30
0.0
 10
4.8799773704
 20
7.1427268328
 30
0.0
 10
4.8863289508
 20
7.1851792146
 30
0.0
 10
4.8897888979
 20
7.2171241781
 30
0.0
 10
4.8918953967
 20
7.2491593685
 30
0.0
 10
4.8925960513
 20
7.2812417619
 30
0.0
 10
4.89189539
 20
7.3133241545
 30
0.0
 10
4.8897889036
 20
7.3453593455
 30
0.0
 10
4.88632894
 20
7.3773043058
 30
0.0
 10
4.8799773769
 20
7.4197566836
 30
0.0
 10
4.8689697719
 20
7.4724468889
 30
0.0
 10
4.8574158663
 20
7.5139555108
 30
0.0
 10
4.8510743742
 20
7.534572037
 30
0.0
  0
ELLIPSE
  5
35C
100
AcDbEntity
  8
0
100
AcDbEllipse
 62
7
  6
CONTINUOUS
 10
6.9225
 20
6.583
 30
0.0
 11
-0.0
 21
0.035
 31
0.0
 40
1.0
 41
-4.7123889804
 42
-1.5707963268
  0
ELLIPSE
  5
35D
100
AcDbEntity
  8
0
100
AcDbEllipse
 62
7
  6
CONTINUOUS
 10
6.9225
 20
7.417
 30
0.0
 11
0.035
 21
-0.0
 31
0.0
 40
1.0
 41
0.0
 42
3.1415926536
  0
ELLIPSE
  5
35E
100
AcDbEntity
  8
0
100
AcDbEllipse
 62
7
  6
CONTINUOUS
 10
5.8005
 20
6.507
 30
0.0
 11
0.035
 21
-0.0
 31
0.0
 40
1.0
 41
-2.617993878
 42
0.0
  0
ELLIPSE
  5
35F
100
AcDbEntity
  8
0
100
AcDbEllipse
 62
7
  6
CONTINUOUS
 10
5.8005
 20
6.507
 30
0.0
 11
-0.0
 21
0.035
 31
0.0
 40
1.0
 41
-4.7123889804
 42
-4.1887902048
  0
ELLIPSE
  5
360
100
AcDbEntity
  8
0
100
AcDbEllipse
 62
7
  6
CONTINUOUS
 10
5.8005
 20
7.493
 30
0.0
 11
0.035
 21
0.0
 31
0.0
 40
1.0
 41
6.2831853072
 42
9.4247779608
  0
ELLIPSE
  5
361
100
AcDbEntity
  8
0
100
AcDbEllipse
 62
7
  6
CONTINUOUS
 10
5.1785
 20
6.4825
 30
0.0
 11
-0.0
 21
0.035
 31
0.0
 40
1.0
 41
-4.7123889804
 42
-1.5707963268
  0
ELLIPSE
  5
362
100
AcDbEntity
  8
0
100
AcDbEllipse
 62
7
  6
CONTINUOUS
 10
5.1785
 20
7.5175
 30
0.0
 11
0.035
 21
-0.0
 31
0.0
 40
1.0
 41
0.0
 42
3.1415926536
  0
ENDSEC
  0
SECTION
  2
OBJECTS
  0
DICTIONARY
  5
C
100
AcDbDictionary
280
0
281
1
  3
ACAD_GROUP
350
D
  3
ACAD_MLINESTYLE
350
17
  3
ACAD_LAYOUT
350
1A
  3
ACAD_PLOTSETTINGS
350
19
  3
ACAD_PLOTSTYLENAME
350
E
  0
DICTIONARY
  5
D
102
{ACAD_REACTORS
330
C
102
}
100
AcDbDictionary
280
0
281
1
  0
ACDBDICTIONARYWDFLT
  5
E
102
{ACAD_REACTORS
330
C
102
}
100
AcDbDictionary
281
1
  3
Normal
350
F
100
AcDbDictionaryWithDefault
340
F
  0
DICTIONARY
  5
17
102
{ACAD_REACTORS
330
C
102
}
100
AcDbDictionary
280
0
281
1
  3
Standard
350
18
  0
DICTIONARY
  5
19
102
{ACAD_REACTORS
330
C
102
}
100
AcDbDictionary
281
1
  0
DICTIONARY
  5
1A
102
{ACAD_REACTORS
330
C
102
}
100
AcDbDictionary
281
1
  3
Model
350
363
  3
Layout1
350
364
  0
ACDBPLACEHOLDER
  5
F
102
{ACAD_REACTORS
330
E
102
}
  0
MLINESTYLE
  5
18
102
{ACAD_REACTORS
330
17
102
}
100
AcDbMlineStyle
  2
STANDARD
 70
0
  3

 62
256
 51
90.0
 52
90.0
 71
2
 49
0.5
 62
256
  6
BYLAYER
 49
-0.5
 62
256
  6
BYLAYER
  0
LAYOUT
  5
363
102
{ACAD_REACTORS
330
1A
102
}
100
AcDbPlotSettings
  1

  2
none_device
  4
ANSI_B_(17.00_x_11.00_Inches)
  6

 40
0.0
 41
0.0
 42
0.0
 43
0.0
 44
431.8
 45
279.4
 46
0.0
 47
0.0
 48
0.0
 49
0.0
140
0.0
141
0.0
142
1.0
143
1.0
 70
1024
 72
0
 73
0
 74
0
  7

 75
0
147
1.0
148
0.0
149
0.0
100
AcDbLayout
  1
Model
 70
0
 71
0
 10
0.0
 20
0.0
 11
17.0
 21
11.0
 12
0.0
 22
0.0
 32
0.0
 14
0.0
 24
0.0
 34
0.0
 15
0.0
 25
0.0
 35
0.0
146
0.0
 13
0.0
 23
0.0
 33
0.0
 16
1.0
 26
0.0
 36
0.0
 17
0.0
 27
1.0
 37
0.0
 76
0
330
255
345
0
346
0
  0
LAYOUT
  5
364
102
{ACAD_REACTORS
330
1A
102
}
100
AcDbPlotSettings
  1

  2
none_device
  4
ANSI_B_(17.00_x_11.00_Inches)
  6

 40
0.0
 41
0.0
 42
0.0
 43
0.0
 44
431.8
 45
279.4
 46
0.0
 47
0.0
 48
0.0
 49
0.0
140
0.0
141
0.0
142
1.0
143
1.0
 70
0
 72
0
 73
0
 74
0
  7

 75
0
147
1.0
148
0.0
149
0.0
100
AcDbLayout
  1
Layout1
 70
0
 71
1
 10
0.0
 20
0.0
 11
17.0
 21
11.0
 12
0.0
 22
0.0
 32
0.0
 14
0.0
 24
0.0
 34
0.0
 15
0.0
 25
0.0
 35
0.0
146
0.0
 13
0.0
 23
0.0
 33
0.0
 16
1.0
 26
0.0
 36
0.0
 17
0.0
 27
1.0
 37
0.0
 76
0
330
256
345
0
346
0
  0
ENDSEC
  0
EOF
