999
DXF file: RPECFAN.dxf
999
Pro/ENGINEER 2016010 by Parametric Technology Corporation
  0
SECTION
  2
HEADER
  9
$ACADVER
  1
AC1021
  9
$DWGCODEPAGE
  3
ANSI_1252
  9
$EXTMAX
 10
17.0
 20
11.0
 30
0.0
  9
$EXTMIN
 10
0.0
 20
0.0
 30
0.0
  9
$LIMMIN
 10
0.0
 20
0.0
  9
$LIMMAX
 10
17.0
 20
11.0
  9
$VIEWCTR
 10
8.5
 20
5.5
  9
$VIEWSIZE
 40
11.0
  9
$CLAYER
  8
0
  9
$LTSCALE
 40
0.935
  9
$CELTYPE
  6
BYLAYER
  9
$DIMSCALE
 40
1.0
  9
$DIMASZ
 40
0.1875
  9
$DIMEXO
 40
0.0625
  9
$DIMDLI
 40
0.646
  9
$DIMEXE
 40
0.125
  9
$DIMCEN
 40
0.153
  9
$DIMLFAC
 40
1.0
  9
$DIMBLK
  1
_FILLED
  9
$DIMALT
 70
0
  9
$DIMALTF
 40
25.4
  9
$DIMTXT
 40
0.125
  9
$DIMTOL
 70
0
  9
$DIMLIM
 70
0
  9
$DIMTFAC
 40
1.0
  9
$DIMGAP
 40
0.09
  9
$DIMDSEP
 70
46
  9
$AUNITS
 70
0
  9
$PDMODE
 70
3
  9
$PDSIZE
 40
0.3125
  9
$HANDSEED
  5
354
  9
$TILEMODE
 70
1
  9
$MEASUREMENT
 70
0
  9
$INSUNITS
 70
1
  0
ENDSEC
  0
SECTION
  2
CLASSES
  0
CLASS
  1
ACDBDICTIONARYWDFLT
  2
AcDbDictionaryWithDefault
  3
AutoCAD 2000
 90
0
 91
1
280
0
281
0
  0
CLASS
  1
ACDBPLACEHOLDER
  2
AcDbPlaceHolder
  3
AutoCAD 2000
 90
0
 91
1
280
0
281
0
  0
CLASS
  1
LAYOUT
  2
AcDbLayout
  3
AutoCAD 2000
 90
0
 91
0
280
0
281
0
  0
ENDSEC
  0
SECTION
  2
TABLES
  0
TABLE
  2
VPORT
  5
8
100
AcDbSymbolTable
 70
2
  0
VPORT
  5
1F4
100
AcDbSymbolTableRecord
100
AcDbViewportTableRecord
  2
*ACTIVE
 70
0
 10
0.0
 20
0.0
 11
1.0
 21
1.0
 12
8.5
 22
5.5
 13
0.0
 23
0.0
 14
1.0
 24
1.0
 15
0.0
 25
0.0
 16
0.0
 26
0.0
 36
1.0
 17
0.0
 27
0.0
 37
0.0
 40
11.0
 41
1.5454545455
 42
50.0
 43
0.0
 44
0.0
 50
0.0
 51
0.0
 71
0
 72
100
 73
1
 74
1
 75
0
 76
0
 77
0
 78
0
  0
ENDTAB
  0
TABLE
  2
LTYPE
  5
5
100
AcDbSymbolTable
 70
6
  0
LTYPE
  5
14
100
AcDbSymbolTableRecord
100
AcDbLinetypeTableRecord
  2
BYBLOCK
 70
0
  3

 72
65
 73
0
 40
0.0
  0
LTYPE
  5
15
100
AcDbSymbolTableRecord
100
AcDbLinetypeTableRecord
  2
BYLAYER
 70
0
  3

 72
65
 73
0
 40
0.0
  0
LTYPE
  5
16
100
AcDbSymbolTableRecord
100
AcDbLinetypeTableRecord
  2
CONTINUOUS
 70
64
  3
Solid line
 72
65
 73
0
 40
0.0
  0
LTYPE
  5
1F5
100
AcDbSymbolTableRecord
100
AcDbLinetypeTableRecord
  2
CENTER
 70
64
  3
____ _ ____ _ ____ _ ____ _ ____ _ ____ _ ____
 72
65
 73
4
 40
0.6
 49
0.375
 74
0
 49
-0.075
 74
0
 49
0.075
 74
0
 49
-0.075
 74
0
  0
LTYPE
  5
1F6
100
AcDbSymbolTableRecord
100
AcDbLinetypeTableRecord
  2
HIDDEN
 70
64
  3
- - - - - - - - - - - - - - - - - - - -
 72
65
 73
2
 40
0.2
 49
0.1
 74
0
 49
-0.1
 74
0
  0
LTYPE
  5
1F7
100
AcDbSymbolTableRecord
100
AcDbLinetypeTableRecord
  2
PHANTOM
 70
64
  3
_____ _ _ _____ _ _ _____ _ _ _____
 72
65
 73
6
 40
0.8
 49
0.45
 74
0
 49
-0.05
 74
0
 49
0.1
 74
0
 49
-0.05
 74
0
 49
0.1
 74
0
 49
-0.05
 74
0
  0
LTYPE
  5
1F8
100
AcDbSymbolTableRecord
100
AcDbLinetypeTableRecord
  2
DOT
 70
64
  3
. . . . . . . . . . . . . . . . . . . .
 72
65
 73
2
 40
0.2
 49
0.1
 74
0
 49
-0.1
 74
0
  0
LTYPE
  5
1F9
100
AcDbSymbolTableRecord
100
AcDbLinetypeTableRecord
  2
DASHED
 70
64
  3
- - - - - - - - - - - - - - - - - - - -
 72
65
 73
2
 40
0.2
 49
0.1
 74
0
 49
-0.1
 74
0
  0
ENDTAB
  0
TABLE
  2
LAYER
  5
2
100
AcDbSymbolTable
 70
36
  0
LAYER
  5
10
100
AcDbSymbolTableRecord
100
AcDbLayerTableRecord
  2
0
 70
0
 62
7
  6
CONTINUOUS
370
-3
390
F
  0
LAYER
  5
1FA
100
AcDbSymbolTableRecord
100
AcDbLayerTableRecord
  2
DEFAULT_1
 70
0
 62
7
  6
CENTER
370
-3
390
F
  0
LAYER
  5
1FB
100
AcDbSymbolTableRecord
100
AcDbLayerTableRecord
  2
DEFAULT_2
 70
0
 62
8
  6
HIDDEN
370
-3
390
F
  0
LAYER
  5
1FC
100
AcDbSymbolTableRecord
100
AcDbLayerTableRecord
  2
DEFAULT_3
 70
0
 62
7
  6
PHANTOM
370
-3
390
F
  0
LAYER
  5
1FD
100
AcDbSymbolTableRecord
100
AcDbLayerTableRecord
  2
01_ALL_DTM_PLN
 70
0
 62
7
  6
CONTINUOUS
370
-3
390
F
  0
LAYER
  5
1FE
100
AcDbSymbolTableRecord
100
AcDbLayerTableRecord
  2
01__ASM_ALL_DTM_PLN
 70
0
 62
7
  6
CONTINUOUS
370
-3
390
F
  0
LAYER
  5
1FF
100
AcDbSymbolTableRecord
100
AcDbLayerTableRecord
  2
01__ASM_DEF_DTM_PLN
 70
0
 62
7
  6
CONTINUOUS
370
-3
390
F
  0
LAYER
  5
200
100
AcDbSymbolTableRecord
100
AcDbLayerTableRecord
  2
01___PRT_ALL_DTM_PLN
 70
0
 62
7
  6
CONTINUOUS
370
-3
390
F
  0
LAYER
  5
201
100
AcDbSymbolTableRecord
100
AcDbLayerTableRecord
  2
01___PRT_DEF_DTM_PLN
 70
0
 62
7
  6
CONTINUOUS
370
-3
390
F
  0
LAYER
  5
202
100
AcDbSymbolTableRecord
100
AcDbLayerTableRecord
  2
02_ALL_AXES
 70
0
 62
7
  6
CONTINUOUS
370
-3
390
F
  0
LAYER
  5
203
100
AcDbSymbolTableRecord
100
AcDbLayerTableRecord
  2
02__ASM_ALL_AXES
 70
0
 62
7
  6
CONTINUOUS
370
-3
390
F
  0
LAYER
  5
204
100
AcDbSymbolTableRecord
100
AcDbLayerTableRecord
  2
02___PRT_ALL_AXES
 70
0
 62
7
  6
CONTINUOUS
370
-3
390
F
  0
LAYER
  5
205
100
AcDbSymbolTableRecord
100
AcDbLayerTableRecord
  2
03_ALL_CURVES
 70
0
 62
7
  6
CONTINUOUS
370
-3
390
F
  0
LAYER
  5
206
100
AcDbSymbolTableRecord
100
AcDbLayerTableRecord
  2
03__ASM_ALL_CURVES
 70
0
 62
7
  6
CONTINUOUS
370
-3
390
F
  0
LAYER
  5
207
100
AcDbSymbolTableRecord
100
AcDbLayerTableRecord
  2
03___PRT_ALL_CURVES
 70
0
 62
7
  6
CONTINUOUS
370
-3
390
F
  0
LAYER
  5
208
100
AcDbSymbolTableRecord
100
AcDbLayerTableRecord
  2
04_ALL_DTM_PNT
 70
0
 62
7
  6
CONTINUOUS
370
-3
390
F
  0
LAYER
  5
209
100
AcDbSymbolTableRecord
100
AcDbLayerTableRecord
  2
04__ASM_ALL_DTM_PNT
 70
0
 62
7
  6
CONTINUOUS
370
-3
390
F
  0
LAYER
  5
20A
100
AcDbSymbolTableRecord
100
AcDbLayerTableRecord
  2
04___PRT_ALL_DTM_PNT
 70
0
 62
7
  6
CONTINUOUS
370
-3
390
F
  0
LAYER
  5
20B
100
AcDbSymbolTableRecord
100
AcDbLayerTableRecord
  2
05_ALL_DTM_CSYS
 70
0
 62
7
  6
CONTINUOUS
370
-3
390
F
  0
LAYER
  5
20C
100
AcDbSymbolTableRecord
100
AcDbLayerTableRecord
  2
05__ASM_ALL_DTM_CSYS
 70
0
 62
7
  6
CONTINUOUS
370
-3
390
F
  0
LAYER
  5
20D
100
AcDbSymbolTableRecord
100
AcDbLayerTableRecord
  2
05__ASM_DEF_DTM_CSYS
 70
0
 62
7
  6
CONTINUOUS
370
-3
390
F
  0
LAYER
  5
20E
100
AcDbSymbolTableRecord
100
AcDbLayerTableRecord
  2
05___PRT_ALL_DTM_CSYS
 70
0
 62
7
  6
CONTINUOUS
370
-3
390
F
  0
LAYER
  5
20F
100
AcDbSymbolTableRecord
100
AcDbLayerTableRecord
  2
05___PRT_DEF_DTM_CSYS
 70
0
 62
7
  6
CONTINUOUS
370
-3
390
F
  0
LAYER
  5
210
100
AcDbSymbolTableRecord
100
AcDbLayerTableRecord
  2
06_ALL_SURFS
 70
0
 62
7
  6
CONTINUOUS
370
-3
390
F
  0
LAYER
  5
211
100
AcDbSymbolTableRecord
100
AcDbLayerTableRecord
  2
06__ASM_ALL_SURFS
 70
0
 62
7
  6
CONTINUOUS
370
-3
390
F
  0
LAYER
  5
212
100
AcDbSymbolTableRecord
100
AcDbLayerTableRecord
  2
06___PRT_ALL_SURFS
 70
0
 62
7
  6
CONTINUOUS
370
-3
390
F
  0
LAYER
  5
213
100
AcDbSymbolTableRecord
100
AcDbLayerTableRecord
  2
07__ASM_ALL_SKELETONS
 70
0
 62
7
  6
CONTINUOUS
370
-3
390
F
  0
LAYER
  5
214
100
AcDbSymbolTableRecord
100
AcDbLayerTableRecord
  2
126-002_HEX_FEATURES
 70
0
 62
7
  6
CONTINUOUS
370
-3
390
F
  0
LAYER
  5
215
100
AcDbSymbolTableRecord
100
AcDbLayerTableRecord
  2
126-002_REF_GEOMETRY
 70
0
 62
7
  6
CONTINUOUS
370
-3
390
F
  0
LAYER
  5
216
100
AcDbSymbolTableRecord
100
AcDbLayerTableRecord
  2
126-100_HEX_FEATURES
 70
0
 62
7
  6
CONTINUOUS
370
-3
390
F
  0
LAYER
  5
217
100
AcDbSymbolTableRecord
100
AcDbLayerTableRecord
  2
126-100_REF_GEOMETRY
 70
0
 62
7
  6
CONTINUOUS
370
-3
390
F
  0
LAYER
  5
218
100
AcDbSymbolTableRecord
100
AcDbLayerTableRecord
  2
126-101_HEX_FEATURES
 70
0
 62
7
  6
CONTINUOUS
370
-3
390
F
  0
LAYER
  5
219
100
AcDbSymbolTableRecord
100
AcDbLayerTableRecord
  2
126-101_REF_GEOMETRY
 70
0
 62
7
  6
CONTINUOUS
370
-3
390
F
  0
LAYER
  5
21A
100
AcDbSymbolTableRecord
100
AcDbLayerTableRecord
  2
126-102_HEX_FEATURES
 70
0
 62
7
  6
CONTINUOUS
370
-3
390
F
  0
LAYER
  5
21B
100
AcDbSymbolTableRecord
100
AcDbLayerTableRecord
  2
126-102_REF_GEOMETRY
 70
0
 62
7
  6
CONTINUOUS
370
-3
390
F
  0
LAYER
  5
21C
100
AcDbSymbolTableRecord
100
AcDbLayerTableRecord
  2
126-103_HEX_FEATURES
 70
0
 62
7
  6
CONTINUOUS
370
-3
390
F
  0
LAYER
  5
21D
100
AcDbSymbolTableRecord
100
AcDbLayerTableRecord
  2
126-103_REF_GEOMETRY
 70
0
 62
7
  6
CONTINUOUS
370
-3
390
F
  0
LAYER
  5
21E
100
AcDbSymbolTableRecord
100
AcDbLayerTableRecord
  2
126-104_HEX_FEATURES
 70
0
 62
7
  6
CONTINUOUS
370
-3
390
F
  0
LAYER
  5
21F
100
AcDbSymbolTableRecord
100
AcDbLayerTableRecord
  2
126-104_REF_GEOMETRY
 70
0
 62
7
  6
CONTINUOUS
370
-3
390
F
  0
LAYER
  5
220
100
AcDbSymbolTableRecord
100
AcDbLayerTableRecord
  2
250-19_BSPP_PORT_PER_S-186
 70
0
 62
7
  6
CONTINUOUS
370
-3
390
F
  0
LAYER
  5
221
100
AcDbSymbolTableRecord
100
AcDbLayerTableRecord
  2
COPY_GEO_FET
 70
0
 62
7
  6
CONTINUOUS
370
-3
390
F
  0
LAYER
  5
222
100
AcDbSymbolTableRecord
100
AcDbLayerTableRecord
  2
COSMESTIC
 70
0
 62
7
  6
CONTINUOUS
370
-3
390
F
  0
LAYER
  5
223
100
AcDbSymbolTableRecord
100
AcDbLayerTableRecord
  2
COSMETIC
 70
0
 62
7
  6
CONTINUOUS
370
-3
390
F
  0
LAYER
  5
224
100
AcDbSymbolTableRecord
100
AcDbLayerTableRecord
  2
COSM_REF
 70
0
 62
7
  6
CONTINUOUS
370
-3
390
F
  0
LAYER
  5
225
100
AcDbSymbolTableRecord
100
AcDbLayerTableRecord
  2
CURVES
 70
0
 62
7
  6
CONTINUOUS
370
-3
390
F
  0
LAYER
  5
226
100
AcDbSymbolTableRecord
100
AcDbLayerTableRecord
  2
CUT_REF_SURF
 70
0
 62
7
  6
CONTINUOUS
370
-3
390
F
  0
LAYER
  5
227
100
AcDbSymbolTableRecord
100
AcDbLayerTableRecord
  2
DATUM
 70
0
 62
7
  6
CONTINUOUS
370
-3
390
F
  0
LAYER
  5
228
100
AcDbSymbolTableRecord
100
AcDbLayerTableRecord
  2
DATUMCURVES
 70
0
 62
7
  6
CONTINUOUS
370
-3
390
F
  0
LAYER
  5
229
100
AcDbSymbolTableRecord
100
AcDbLayerTableRecord
  2
DATUM_ADDED_280-022
 70
0
 62
7
  6
CONTINUOUS
370
-3
390
F
  0
LAYER
  5
22A
100
AcDbSymbolTableRecord
100
AcDbLayerTableRecord
  2
DIMENSIONS
 70
0
 62
7
  6
CONTINUOUS
370
-3
390
F
  0
LAYER
  5
22B
100
AcDbSymbolTableRecord
100
AcDbLayerTableRecord
  2
DRAWINGNOTES
 70
0
 62
7
  6
CONTINUOUS
370
-3
390
F
  0
LAYER
  5
22C
100
AcDbSymbolTableRecord
100
AcDbLayerTableRecord
  2
DTM
 70
0
 62
7
  6
CONTINUOUS
370
-3
390
F
  0
LAYER
  5
22D
100
AcDbSymbolTableRecord
100
AcDbLayerTableRecord
  2
DTM_280-022
 70
0
 62
7
  6
CONTINUOUS
370
-3
390
F
  0
LAYER
  5
22E
100
AcDbSymbolTableRecord
100
AcDbLayerTableRecord
  2
DTM_500001
 70
0
 62
7
  6
CONTINUOUS
370
-3
390
F
  0
LAYER
  5
22F
100
AcDbSymbolTableRecord
100
AcDbLayerTableRecord
  2
DTM_500002
 70
0
 62
7
  6
CONTINUOUS
370
-3
390
F
  0
LAYER
  5
230
100
AcDbSymbolTableRecord
100
AcDbLayerTableRecord
  2
DTM_515002
 70
0
 62
7
  6
CONTINUOUS
370
-3
390
F
  0
LAYER
  5
231
100
AcDbSymbolTableRecord
100
AcDbLayerTableRecord
  2
DTM_700-003
 70
0
 62
7
  6
CONTINUOUS
370
-3
390
F
  0
LAYER
  5
232
100
AcDbSymbolTableRecord
100
AcDbLayerTableRecord
  2
DTM_800001
 70
0
 62
7
  6
CONTINUOUS
370
-3
390
F
  0
LAYER
  5
233
100
AcDbSymbolTableRecord
100
AcDbLayerTableRecord
  2
DTM_ADJ_SCREW
 70
0
 62
7
  6
CONTINUOUS
370
-3
390
F
  0
LAYER
  5
234
100
AcDbSymbolTableRecord
100
AcDbLayerTableRecord
  2
DTM_BALLHOLDER
 70
0
 62
7
  6
CONTINUOUS
370
-3
390
F
  0
LAYER
  5
235
100
AcDbSymbolTableRecord
100
AcDbLayerTableRecord
  2
DTM_ORIFICE_SEAT
 70
0
 62
7
  6
CONTINUOUS
370
-3
390
F
  0
LAYER
  5
236
100
AcDbSymbolTableRecord
100
AcDbLayerTableRecord
  2
DTM_SPRING_LH
 70
0
 62
7
  6
CONTINUOUS
370
-3
390
F
  0
LAYER
  5
237
100
AcDbSymbolTableRecord
100
AcDbLayerTableRecord
  2
DTM_SP_LH_CONSTR
 70
0
 62
7
  6
CONTINUOUS
370
-3
390
F
  0
LAYER
  5
238
100
AcDbSymbolTableRecord
100
AcDbLayerTableRecord
  2
FACE1
 70
0
 62
7
  6
CONTINUOUS
370
-3
390
F
  0
LAYER
  5
239
100
AcDbSymbolTableRecord
100
AcDbLayerTableRecord
  2
FACE2
 70
0
 62
7
  6
CONTINUOUS
370
-3
390
F
  0
LAYER
  5
23A
100
AcDbSymbolTableRecord
100
AcDbLayerTableRecord
  2
FACE3
 70
0
 62
7
  6
CONTINUOUS
370
-3
390
F
  0
LAYER
  5
23B
100
AcDbSymbolTableRecord
100
AcDbLayerTableRecord
  2
FACE4
 70
0
 62
7
  6
CONTINUOUS
370
-3
390
F
  0
LAYER
  5
23C
100
AcDbSymbolTableRecord
100
AcDbLayerTableRecord
  2
GEOMETRICTOLERANCES
 70
0
 62
7
  6
CONTINUOUS
370
-3
390
F
  0
LAYER
  5
23D
100
AcDbSymbolTableRecord
100
AcDbLayerTableRecord
  2
HIDDEN
 70
0
 62
7
  6
CONTINUOUS
370
-3
390
F
  0
LAYER
  5
23E
100
AcDbSymbolTableRecord
100
AcDbLayerTableRecord
  2
HIDDEN_DRW
 70
0
 62
7
  6
CONTINUOUS
370
-3
390
F
  0
LAYER
  5
23F
100
AcDbSymbolTableRecord
100
AcDbLayerTableRecord
  2
HOLE_FEATURES
 70
0
 62
7
  6
CONTINUOUS
370
-3
390
F
  0
LAYER
  5
240
100
AcDbSymbolTableRecord
100
AcDbLayerTableRecord
  2
PARAMETERDIMENSIONS
 70
0
 62
7
  6
CONTINUOUS
370
-3
390
F
  0
LAYER
  5
241
100
AcDbSymbolTableRecord
100
AcDbLayerTableRecord
  2
PLANE
 70
0
 62
7
  6
CONTINUOUS
370
-3
390
F
  0
LAYER
  5
242
100
AcDbSymbolTableRecord
100
AcDbLayerTableRecord
  2
PROTRUSIONS
 70
0
 62
7
  6
CONTINUOUS
370
-3
390
F
  0
LAYER
  5
243
100
AcDbSymbolTableRecord
100
AcDbLayerTableRecord
  2
STD_SAE-4_PORT
 70
0
 62
7
  6
CONTINUOUS
370
-3
390
F
  0
LAYER
  5
244
100
AcDbSymbolTableRecord
100
AcDbLayerTableRecord
  2
STD_SAE-6_PORT
 70
0
 62
7
  6
CONTINUOUS
370
-3
390
F
  0
LAYER
  5
245
100
AcDbSymbolTableRecord
100
AcDbLayerTableRecord
  2
T-8A_CAVITY
 70
0
 62
7
  6
CONTINUOUS
370
-3
390
F
  0
LAYER
  5
246
100
AcDbSymbolTableRecord
100
AcDbLayerTableRecord
  2
T-8A_CAVITY_REF_GEOMETRY
 70
0
 62
7
  6
CONTINUOUS
370
-3
390
F
  0
LAYER
  5
247
100
AcDbSymbolTableRecord
100
AcDbLayerTableRecord
  2
TEXT
 70
0
 62
7
  6
CONTINUOUS
370
-3
390
F
  0
LAYER
  5
248
100
AcDbSymbolTableRecord
100
AcDbLayerTableRecord
  2
THREAD
 70
0
 62
7
  6
CONTINUOUS
370
-3
390
F
  0
LAYER
  5
249
100
AcDbSymbolTableRecord
100
AcDbLayerTableRecord
  2
XSEC_DATUMS
 70
0
 62
7
  6
CONTINUOUS
370
-3
390
F
  0
ENDTAB
  0
TABLE
  2
STYLE
  5
3
100
AcDbSymbolTable
 70
1
  0
STYLE
  5
11
100
AcDbSymbolTableRecord
100
AcDbTextStyleTableRecord
  2
STANDARD
 70
0
 40
0.0
 41
0.8
 50
0.0
 71
0
 42
0.2
  3
txt
  4

  0
STYLE
  5
24A
100
AcDbSymbolTableRecord
100
AcDbTextStyleTableRecord
  2
TEXTSTYLE_1
 70
0
 40
0.0
 41
0.8
 50
0.0
 71
0
 42
0.2
  3
gdt
  4

  0
ENDTAB
  0
TABLE
  2
VIEW
  5
6
100
AcDbSymbolTable
 70
0
  0
ENDTAB
  0
TABLE
  2
UCS
  5
7
100
AcDbSymbolTable
 70
0
  0
ENDTAB
  0
TABLE
  2
APPID
  5
9
100
AcDbSymbolTable
 70
1
  0
APPID
  5
24B
100
AcDbSymbolTableRecord
100
AcDbRegAppTableRecord
  2
ACAD
 70
0
  0
ENDTAB
  0
TABLE
  2
BLOCK_RECORD
  5
1
100
AcDbSymbolTable
 70
0
  0
BLOCK_RECORD
  5
24C
100
AcDbSymbolTableRecord
100
AcDbBlockTableRecord
  2
*Model_Space
  0
BLOCK_RECORD
  5
24D
100
AcDbSymbolTableRecord
100
AcDbBlockTableRecord
  2
*Paper_Space
  0
BLOCK_RECORD
  5
24E
100
AcDbSymbolTableRecord
100
AcDbBlockTableRecord
  2
_FILLED
  0
BLOCK_RECORD
  5
24F
100
AcDbSymbolTableRecord
100
AcDbBlockTableRecord
  2
*D0
  0
ENDTAB
  0
TABLE
  2
DIMSTYLE
  5
A
100
AcDbSymbolTable
 70
1
100
AcDbDimStyleTable
 71
0
  0
DIMSTYLE
105
250
100
AcDbSymbolTableRecord
100
AcDbDimStyleTableRecord
  2
STANDARD
 70
0
  3

  4

 40
1.0
 41
0.1875
 42
0.0625
 43
0.38
 44
0.125
 45
0.0
 46
0.0
 47
0.001
 48
0.001
140
0.125
141
0.09
142
0.0
143
25.4
144
1.0
145
0.0
146
1.0
147
0.09
 71
0.0
 72
0.0
 73
1
 74
1
 75
0
 76
0
 77
0
 78
4
170
0
171
2
172
0
173
0
174
0
175
0
176
0
177
0
178
0
270
2
271
3
272
3
273
2
274
2
275
0
280
0
281
0
282
0
283
1
284
4
285
0
286
0
287
3
288
0
340
11
278
46
341
24E
342
24E
343
24E
344
24E
  0
DIMSTYLE
105
251
100
AcDbSymbolTableRecord
100
AcDbDimStyleTableRecord
  2
DIMSTYLE_1
 70
0
  3

  4

 40
1.0
 41
0.1875
 42
0.0625
 43
0.38
 44
0.125
 45
0.0
 46
0.0
 47
0.0
 48
0.0
140
0.125
141
0.09
142
0.0
143
25.4
144
1.0
145
0.0
146
1.0
147
0.0625
 71
0.0
 72
0.0
 73
1
 74
1
 75
0
 76
0
 77
0
 78
4
170
0
171
2
172
0
173
0
174
0
175
0
176
0
177
0
178
0
270
2
271
2
272
2
273
2
274
2
275
0
280
0
281
0
282
0
283
1
284
4
285
0
286
0
287
3
288
0
340
11
278
46
341
24E
342
24E
343
24E
344
24E
  0
ENDTAB
  0
ENDSEC
  0
SECTION
  2
BLOCKS
  0
BLOCK
  5
20
100
AcDbEntity
  8
0
100
AcDbBlockBegin
  2
*Model_Space
 70
0
 10
0.0
 20
0.0
 30
0.0
  3
*Model_Space
  1

  0
ENDBLK
  5
21
100
AcDbEntity
  8
0
100
AcDbBlockEnd
  0
BLOCK
  5
1C
100
AcDbEntity
  8
0
100
AcDbBlockBegin
  2
*Paper_Space
 70
0
 10
0.0
 20
0.0
 30
0.0
  3
*Paper_Space
  1

  0
ENDBLK
  5
1D
100
AcDbEntity
  8
0
100
AcDbBlockEnd
  0
BLOCK
  5
252
100
AcDbEntity
  8
0
100
AcDbBlockBegin
  2
_FILLED
 70
64
 10
0.0
 20
0.0
  3
_FILLED
  1

  0
SOLID
  5
253
100
AcDbEntity
  8
0
  6
BYBLOCK
 62
0
100
AcDbTrace
 10
0.0
 20
0.0
 11
-1.0
 21
0.1666666667
 12
-1.0
 22
-0.1666666667
 13
-1.0
 23
-0.1666666667
  0
ENDBLK
  5
254
100
AcDbEntity
  8
0
  6
BYBLOCK
 62
0
100
AcDbBlockEnd
  0
BLOCK
  5
255
100
AcDbEntity
  8
0
100
AcDbBlockBegin
 62
6
  6
CONTINUOUS
  2
*D0
 70
65
 10
0.0
 20
0.0
  3
*D0
  1

  0
MTEXT
  5
256
100
AcDbEntity
  8
0
100
AcDbMText
 62
6
  6
CONTINUOUS
  7
STANDARD
 71
1
 72
1
 10
5.238
 20
7.865
 30
0.0
 11
1.0
 21
0.0
 31
0.0
 44
0.9
  1
1.53 in (38,9 mm)
 40
0.125
 41
1.7
  0
LINE
  5
257
100
AcDbEntity
  8
0
100
AcDbLine
 62
6
  6
CONTINUOUS
 10
4.988
 20
7.49
 11
4.988
 21
7.9275
  0
LINE
  5
258
100
AcDbEntity
  8
0
100
AcDbLine
 62
6
  6
CONTINUOUS
 10
3.4530000032
 20
7.0625
 11
3.4530000032
 21
7.9275
  0
LINE
  5
259
100
AcDbEntity
  8
0
100
AcDbLine
 62
6
  6
CONTINUOUS
 10
4.988
 20
7.8025
 11
4.2205000016
 21
7.8025
  0
LINE
  5
25A
100
AcDbEntity
  8
0
100
AcDbLine
 62
6
  6
CONTINUOUS
 10
4.2205000016
 20
7.8025
 11
5.1755
 21
7.8025
  0
LINE
  5
25B
100
AcDbEntity
  8
0
100
AcDbLine
 62
6
  6
CONTINUOUS
 10
3.4530000032
 20
7.8025
 11
4.2205000016
 21
7.8025
  0
INSERT
  5
25C
100
AcDbEntity
  8
0
100
AcDbBlockReference
 62
6
  6
CONTINUOUS
  2
_FILLED
 10
4.988
 20
7.8025
 41
0.1875
 42
0.1875
 43
0.1875
  0
INSERT
  5
25D
100
AcDbEntity
  8
0
100
AcDbBlockReference
 62
6
  6
CONTINUOUS
  2
_FILLED
 10
3.4530000032
 20
7.8025
 41
0.1875
 42
0.1875
 43
0.1875
 50
180.0
  0
ENDBLK
  5
25E
100
AcDbEntity
  8
0
  6
BYBLOCK
 62
0
100
AcDbBlockEnd
  0
ENDSEC
  0
SECTION
  2
ENTITIES
  0
DIMENSION
  5
25F
100
AcDbEntity
  8
0
100
AcDbDimension
 62
6
  6
CONTINUOUS
  2
*D0
 10
3.4530000032
 20
7.8025
 11
6.088
 21
7.8025
 70
160
 71
1
 42
1.5349999968
  1
<> in (38,9 mm)
  3
DIMSTYLE_1
100
AcDbAlignedDimension
 13
4.988
 23
7.4275
 14
3.4530000032
 24
7.0
 50
180.0
100
AcDbRotatedDimension
  0
MTEXT
  5
260
100
AcDbEntity
  8
0
100
AcDbMText
 62
2
  6
CONTINUOUS
  7
STANDARD
 71
1
 72
1
 10
6.81
 20
7.0625
 30
0.0
 11
1.0
 21
0.0
 31
0.0
 44
0.6
  1
Port 1\PInlet
 40
0.125
 41
0.6
  0
MTEXT
  5
261
100
AcDbEntity
  8
0
100
AcDbMText
 62
2
  6
CONTINUOUS
  7
STANDARD
 71
1
 72
1
 10
5.8
 20
6.5005
 30
0.0
 11
1.0
 21
0.0
 31
0.0
 44
0.6
  1
Port 2\POutlet
 40
0.125
 41
0.6
  0
MTEXT
  5
262
100
AcDbEntity
  8
0
100
AcDbMText
 62
2
  6
CONTINUOUS
  7
STANDARD
 71
1
 72
1
 10
5.238
 20
7.615
 30
0.0
 11
1.0
 21
0.0
 31
0.0
 44
0.6
  1
 LOCATING SHOULDER
 40
0.125
 41
1.8
  0
LINE
  5
263
100
AcDbEntity
  8
0
100
AcDbLine
 62
7
  6
CONTINUOUS
 10
3.453
 20
6.755
 11
3.453
 21
7.245
  0
LINE
  5
264
100
AcDbEntity
  8
0
100
AcDbLine
 62
7
  6
CONTINUOUS
 10
3.4781147367
 20
7.2885
 11
3.453
 21
7.245
  0
LINE
  5
265
100
AcDbEntity
  8
0
100
AcDbLine
 62
7
  6
CONTINUOUS
 10
3.4781147367
 20
6.7115
 11
3.453
 21
6.755
  0
LINE
  5
266
100
AcDbEntity
  8
0
100
AcDbLine
 62
7
  6
CONTINUOUS
 10
3.672
 20
6.755
 11
3.672
 21
7.245
  0
LINE
  5
267
100
AcDbEntity
  8
0
100
AcDbLine
 62
7
  6
CONTINUOUS
 10
3.702
 20
6.839
 11
3.702
 21
7.161
  0
LINE
  5
268
100
AcDbEntity
  8
0
100
AcDbLine
 62
7
  6
CONTINUOUS
 10
3.712
 20
7.151
 11
3.712
 21
6.849
  0
LINE
  5
269
100
AcDbEntity
  8
0
100
AcDbLine
 62
7
  6
CONTINUOUS
 10
3.722
 20
6.839
 11
3.722
 21
7.161
  0
LINE
  5
26A
100
AcDbEntity
  8
0
100
AcDbLine
 62
7
  6
CONTINUOUS
 10
3.733
 20
6.839
 11
3.733
 21
7.161
  0
LINE
  5
26B
100
AcDbEntity
  8
0
100
AcDbLine
 62
7
  6
CONTINUOUS
 10
3.743
 20
7.151
 11
3.743
 21
6.849
  0
LINE
  5
26C
100
AcDbEntity
  8
0
100
AcDbLine
 62
7
  6
CONTINUOUS
 10
3.753
 20
6.839
 11
3.753
 21
7.161
  0
LINE
  5
26D
100
AcDbEntity
  8
0
100
AcDbLine
 62
7
  6
CONTINUOUS
 10
3.766
 20
7.161
 11
3.766
 21
6.839
  0
LINE
  5
26E
100
AcDbEntity
  8
0
100
AcDbLine
 62
7
  6
CONTINUOUS
 10
3.79
 20
6.815
 11
3.79
 21
7.185
  0
LINE
  5
26F
100
AcDbEntity
  8
0
100
AcDbLine
 62
7
  6
CONTINUOUS
 10
3.926
 20
6.7523459131
 11
3.926
 21
7.2476540869
  0
LINE
  5
270
100
AcDbEntity
  8
0
100
AcDbLine
 62
7
  6
CONTINUOUS
 10
3.988
 20
6.729
 11
3.988
 21
7.271
  0
LINE
  5
271
100
AcDbEntity
  8
0
100
AcDbLine
 62
7
  6
CONTINUOUS
 10
3.994
 20
6.729
 11
3.994
 21
7.271
  0
LINE
  5
272
100
AcDbEntity
  8
0
100
AcDbLine
 62
7
  6
CONTINUOUS
 10
3.9995
 20
7.2655
 11
3.9995
 21
6.7345
  0
LINE
  5
273
100
AcDbEntity
  8
0
100
AcDbLine
 62
7
  6
CONTINUOUS
 10
4.0155
 20
7.2655
 11
4.0155
 21
6.7345
  0
LINE
  5
274
100
AcDbEntity
  8
0
100
AcDbLine
 62
7
  6
CONTINUOUS
 10
3.672
 20
6.755
 11
3.6468852633
 21
6.7115
  0
LINE
  5
275
100
AcDbEntity
  8
0
100
AcDbLine
 62
7
  6
CONTINUOUS
 10
3.712
 20
7.151
 11
3.722
 21
7.161
  0
LINE
  5
276
100
AcDbEntity
  8
0
100
AcDbLine
 62
7
  6
CONTINUOUS
 10
3.743
 20
7.151
 11
3.753
 21
7.161
  0
LINE
  5
277
100
AcDbEntity
  8
0
100
AcDbLine
 62
7
  6
CONTINUOUS
 10
3.79
 20
7.185
 11
3.766
 21
7.161
  0
LINE
  5
278
100
AcDbEntity
  8
0
100
AcDbLine
 62
7
  6
CONTINUOUS
 10
3.712
 20
6.849
 11
3.722
 21
6.839
  0
LINE
  5
279
100
AcDbEntity
  8
0
100
AcDbLine
 62
7
  6
CONTINUOUS
 10
3.743
 20
6.849
 11
3.753
 21
6.839
  0
LINE
  5
27A
100
AcDbEntity
  8
0
100
AcDbLine
 62
7
  6
CONTINUOUS
 10
3.79
 20
6.815
 11
3.766
 21
6.839
  0
LINE
  5
27B
100
AcDbEntity
  8
0
100
AcDbLine
 62
7
  6
CONTINUOUS
 10
3.672
 20
7.245
 11
3.6468852633
 21
7.2885
  0
LINE
  5
27C
100
AcDbEntity
  8
THREAD
100
AcDbLine
 62
7
  6
CONTINUOUS
 10
4.242339952
 20
7.4375170173
 11
4.238
 21
7.43
  0
LINE
  5
27D
100
AcDbEntity
  8
0
100
AcDbLine
 62
7
  6
CONTINUOUS
 10
4.0744708513
 20
7.3244708513
 11
4.0155
 21
7.2655
  0
LINE
  5
27E
100
AcDbEntity
  8
0
100
AcDbLine
 62
7
  6
CONTINUOUS
 10
4.0744708513
 20
6.6755291487
 11
4.0155
 21
6.7345
  0
LINE
  5
27F
100
AcDbEntity
  8
THREAD
100
AcDbLine
 62
7
  6
CONTINUOUS
 10
4.242339952
 20
6.5624829827
 11
4.238
 21
6.57
  0
LINE
  5
280
100
AcDbEntity
  8
0
100
AcDbLine
 62
7
  6
CONTINUOUS
 10
4.207
 20
7.271
 11
4.207
 21
6.729
  0
LINE
  5
281
100
AcDbEntity
  8
THREAD
100
AcDbLine
 62
7
  6
CONTINUOUS
 10
4.238
 20
6.5700050384
 11
4.238
 21
7.4299949616
  0
LINE
  5
282
100
AcDbEntity
  8
0
100
AcDbLine
 62
7
  6
CONTINUOUS
 10
3.702
 20
6.839
 11
3.712
 21
6.849
  0
LINE
  5
283
100
AcDbEntity
  8
0
100
AcDbLine
 62
7
  6
CONTINUOUS
 10
3.733
 20
6.839
 11
3.743
 21
6.849
  0
LINE
  5
284
100
AcDbEntity
  8
0
100
AcDbLine
 62
7
  6
CONTINUOUS
 10
3.702
 20
7.161
 11
3.712
 21
7.151
  0
LINE
  5
285
100
AcDbEntity
  8
0
100
AcDbLine
 62
7
  6
CONTINUOUS
 10
3.733
 20
7.161
 11
3.743
 21
7.151
  0
LINE
  5
286
100
AcDbEntity
  8
THREAD
100
AcDbLine
 62
7
  6
CONTINUOUS
 10
4.2720636659
 20
6.562483966
 11
4.2720636659
 21
6.5920977523
  0
LINE
  5
287
100
AcDbEntity
  8
THREAD
100
AcDbLine
 62
7
  6
CONTINUOUS
 10
4.2720636659
 20
6.9703862137
 11
4.2720636659
 21
7.0296137863
  0
LINE
  5
288
100
AcDbEntity
  8
THREAD
100
AcDbLine
 62
7
  6
CONTINUOUS
 10
4.2720636659
 20
7.4079022477
 11
4.2720636659
 21
7.437516034
  0
LINE
  5
289
100
AcDbEntity
  8
0
100
AcDbLine
 62
7
  6
CONTINUOUS
 10
4.207
 20
6.729
 11
4.1761285896
 21
6.6755291487
  0
LINE
  5
28A
100
AcDbEntity
  8
0
100
AcDbLine
 62
7
  6
CONTINUOUS
 10
4.207
 20
7.271
 11
4.1761285896
 21
7.3244708513
  0
LINE
  5
28B
100
AcDbEntity
  8
0
100
AcDbLine
 62
7
  6
CONTINUOUS
 10
3.9995
 20
6.7345
 11
3.994
 21
6.729
  0
LINE
  5
28C
100
AcDbEntity
  8
THREAD
100
AcDbLine
 62
7
  6
CONTINUOUS
 10
4.2423393843
 20
6.562483966
 11
4.7589839658
 21
6.562483966
  0
LINE
  5
28D
100
AcDbEntity
  8
THREAD
100
AcDbLine
 62
7
  6
CONTINUOUS
 10
4.985
 20
6.5725
 11
4.935
 21
6.5725
  0
LINE
  5
28E
100
AcDbEntity
  8
THREAD
100
AcDbLine
 62
7
  6
CONTINUOUS
 10
4.915
 20
6.5725
 11
4.769
 21
6.5725
  0
LINE
  5
28F
100
AcDbEntity
  8
0
100
AcDbLine
 62
7
  6
CONTINUOUS
 10
3.9995
 20
7.2655
 11
3.994
 21
7.271
  0
LINE
  5
290
100
AcDbEntity
  8
0
100
AcDbLine
 62
7
  6
CONTINUOUS
 10
4.935
 20
7.4275
 11
4.926477962
 21
7.4181525475
  0
LINE
  5
291
100
AcDbEntity
  8
THREAD
100
AcDbLine
 62
7
  6
CONTINUOUS
 10
4.7075
 20
6.5920977523
 11
4.2720636659
 21
6.5920977523
  0
LINE
  5
292
100
AcDbEntity
  8
0
100
AcDbLine
 62
7
  6
CONTINUOUS
 10
5.035
 20
6.595
 11
5.0127224319
 21
6.595
  0
LINE
  5
293
100
AcDbEntity
  8
0
100
AcDbLine
 62
7
  6
CONTINUOUS
 10
5.105
 20
6.5955
 11
5.155
 21
6.5955
  0
LINE
  5
294
100
AcDbEntity
  8
0
100
AcDbLine
 62
7
  6
CONTINUOUS
 10
5.4435
 20
6.6125
 11
5.19636196
 21
6.6125
  0
LINE
  5
295
100
AcDbEntity
  8
0
100
AcDbLine
 62
7
  6
CONTINUOUS
 10
5.1674944465
 20
6.6495
 11
5.155
 21
6.6495
  0
LINE
  5
296
100
AcDbEntity
  8
0
100
AcDbLine
 62
7
  6
CONTINUOUS
 10
5.666
 20
6.657
 11
5.488
 21
6.657
  0
LINE
  5
297
100
AcDbEntity
  8
0
100
AcDbLine
 62
7
  6
CONTINUOUS
 10
6.532
 20
6.6575
 11
6.485
 21
6.6575
  0
LINE
  5
298
100
AcDbEntity
  8
0
100
AcDbLine
 62
7
  6
CONTINUOUS
 10
6.334
 20
6.6575
 11
6.271
 21
6.6575
  0
LINE
  5
299
100
AcDbEntity
  8
0
100
AcDbLine
 62
7
  6
CONTINUOUS
 10
6.339
 20
6.6585
 11
6.389
 21
6.6585
  0
LINE
  5
29A
100
AcDbEntity
  8
0
100
AcDbLine
 62
7
  6
CONTINUOUS
 10
4.1761285896
 20
6.6755291487
 11
4.0744708513
 21
6.6755291487
  0
LINE
  5
29B
100
AcDbEntity
  8
0
100
AcDbLine
 62
7
  6
CONTINUOUS
 10
4.935
 20
6.5725
 11
4.926477962
 21
6.5818474525
  0
LINE
  5
29C
100
AcDbEntity
  8
THREAD
100
AcDbLine
 62
7
  6
CONTINUOUS
 10
4.7075
 20
7.437516034
 11
4.7075
 21
7.4079022477
  0
LINE
  5
29D
100
AcDbEntity
  8
THREAD
100
AcDbLine
 62
7
  6
CONTINUOUS
 10
4.7075
 20
6.562483966
 11
4.7075
 21
6.5920977523
  0
LINE
  5
29E
100
AcDbEntity
  8
THREAD
100
AcDbLine
 62
7
  6
CONTINUOUS
 10
4.7075
 20
6.9703862137
 11
4.7075
 21
7.0296137863
  0
LINE
  5
29F
100
AcDbEntity
  8
THREAD
100
AcDbLine
 62
7
  6
CONTINUOUS
 10
4.769
 20
6.5725
 11
4.769
 21
7.4275
  0
LINE
  5
2A0
100
AcDbEntity
  8
0
100
AcDbLine
 62
7
  6
CONTINUOUS
 10
3.4781147367
 20
6.7115
 11
3.6468852633
 21
6.7115
  0
LINE
  5
2A1
100
AcDbEntity
  8
0
100
AcDbLine
 62
7
  6
CONTINUOUS
 10
6.459
 20
6.712
 11
6.48
 21
6.712
  0
LINE
  5
2A2
100
AcDbEntity
  8
0
100
AcDbLine
 62
7
  6
CONTINUOUS
 10
5.676
 20
6.72
 11
6.1415
 21
6.72
  0
LINE
  5
2A3
100
AcDbEntity
  8
0
100
AcDbLine
 62
7
  6
CONTINUOUS
 10
6.2505
 20
6.72
 11
6.266
 21
6.72
  0
LINE
  5
2A4
100
AcDbEntity
  8
0
100
AcDbLine
 62
7
  6
CONTINUOUS
 10
4.238
 20
6.729
 11
4.207
 21
6.729
  0
LINE
  5
2A5
100
AcDbEntity
  8
0
100
AcDbLine
 62
7
  6
CONTINUOUS
 10
3.994
 20
6.729
 11
3.988
 21
6.729
  0
LINE
  5
2A6
100
AcDbEntity
  8
0
100
AcDbLine
 62
7
  6
CONTINUOUS
 10
4.0155
 20
6.7345
 11
3.9995
 21
6.7345
  0
LINE
  5
2A7
100
AcDbEntity
  8
0
100
AcDbLine
 62
7
  6
CONTINUOUS
 10
3.926
 20
6.815
 11
3.79
 21
6.815
  0
LINE
  5
2A8
100
AcDbEntity
  8
0
100
AcDbLine
 62
7
  6
CONTINUOUS
 10
4.1761285896
 20
6.8377645744
 11
4.0744708513
 21
6.8377645744
  0
LINE
  5
2A9
100
AcDbEntity
  8
0
100
AcDbLine
 62
7
  6
CONTINUOUS
 10
3.766
 20
6.839
 11
3.753
 21
6.839
  0
LINE
  5
2AA
100
AcDbEntity
  8
0
100
AcDbLine
 62
7
  6
CONTINUOUS
 10
3.733
 20
6.839
 11
3.722
 21
6.839
  0
LINE
  5
2AB
100
AcDbEntity
  8
0
100
AcDbLine
 62
7
  6
CONTINUOUS
 10
3.702
 20
6.839
 11
3.672
 21
6.839
  0
LINE
  5
2AC
100
AcDbEntity
  8
0
100
AcDbLine
 62
7
  6
CONTINUOUS
 10
3.4781147367
 20
6.85575
 11
3.6468852633
 21
6.85575
  0
LINE
  5
2AD
100
AcDbEntity
  8
0
100
AcDbLine
 62
7
  6
CONTINUOUS
 10
4.915
 20
6.5725
 11
4.915
 21
7.4275
  0
LINE
  5
2AE
100
AcDbEntity
  8
0
100
AcDbLine
 62
7
  6
CONTINUOUS
 10
4.923522038
 20
7.4181525475
 11
4.923522038
 21
6.5818474525
  0
LINE
  5
2AF
100
AcDbEntity
  8
0
100
AcDbLine
 62
7
  6
CONTINUOUS
 10
4.926477962
 20
7.4181525475
 11
4.926477962
 21
6.5818474525
  0
LINE
  5
2B0
100
AcDbEntity
  8
0
100
AcDbLine
 62
7
  6
CONTINUOUS
 10
4.935
 20
6.5725
 11
4.935
 21
7.4275
  0
LINE
  5
2B1
100
AcDbEntity
  8
0
100
AcDbLine
 62
7
  6
CONTINUOUS
 10
4.985
 20
7.4275
 11
4.985
 21
6.5725
  0
LINE
  5
2B2
100
AcDbEntity
  8
0
100
AcDbLine
 62
7
  6
CONTINUOUS
 10
4.988
 20
7.4244999999
 11
4.988
 21
6.5755000001
  0
LINE
  5
2B3
100
AcDbEntity
  8
0
100
AcDbLine
 62
7
  6
CONTINUOUS
 10
4.9905
 20
6.5829433757
 11
4.9905
 21
7.4170566243
  0
LINE
  5
2B4
100
AcDbEntity
  8
0
100
AcDbLine
 62
7
  6
CONTINUOUS
 10
5.0102224319
 20
6.594330127
 11
5.0102224319
 21
7.405669873
  0
LINE
  5
2B5
100
AcDbEntity
  8
0
100
AcDbLine
 62
7
  6
CONTINUOUS
 10
5.0127224319
 20
6.595
 11
5.0127224319
 21
7.405
  0
LINE
  5
2B6
100
AcDbEntity
  8
0
100
AcDbLine
 62
7
  6
CONTINUOUS
 10
5.19636196
 20
7.3875
 11
5.1787527766
 21
7.3569999998
  0
LINE
  5
2B7
100
AcDbEntity
  8
126-101_HEX_FEATURES
100
AcDbLine
 62
7
  6
CONTINUOUS
 10
5.488
 20
6.9690237727
 11
5.4871135247
 21
6.9690000006
  0
LINE
  5
2B8
100
AcDbEntity
  8
THREAD
100
AcDbLine
 62
7
  6
CONTINUOUS
 10
4.7075
 20
6.9703862137
 11
4.2720636659
 21
6.9703862137
  0
LINE
  5
2B9
100
AcDbEntity
  8
0
100
AcDbLine
 62
7
  6
CONTINUOUS
 10
5.19636196
 20
6.6125
 11
5.1787527766
 21
6.6430000002
  0
LINE
  5
2BA
100
AcDbEntity
  8
0
100
AcDbLine
 62
7
  6
CONTINUOUS
 10
5.035
 20
6.5950070788
 11
5.035
 21
7.4049929212
  0
LINE
  5
2BB
100
AcDbEntity
  8
0
100
AcDbLine
 62
7
  6
CONTINUOUS
 10
5.105
 20
7.4045
 11
5.105
 21
6.5955
  0
LINE
  5
2BC
100
AcDbEntity
  8
THREAD
100
AcDbLine
 62
7
  6
CONTINUOUS
 10
4.7075
 20
7.0296137863
 11
4.2720636659
 21
7.0296137863
  0
LINE
  5
2BD
100
AcDbEntity
  8
126-101_HEX_FEATURES
100
AcDbLine
 62
7
  6
CONTINUOUS
 10
5.4871127596
 20
7.0309999996
 11
5.488
 21
7.0309762273
  0
LINE
  5
2BE
100
AcDbEntity
  8
0
100
AcDbLine
 62
7
  6
CONTINUOUS
 10
5.155
 20
7.4045
 11
5.155
 21
6.5955
  0
LINE
  5
2BF
100
AcDbEntity
  8
0
100
AcDbLine
 62
7
  6
CONTINUOUS
 10
5.1674944465
 20
6.6495000001
 11
5.1674944465
 21
7.3504999999
  0
LINE
  5
2C0
100
AcDbEntity
  8
0
100
AcDbLine
 62
7
  6
CONTINUOUS
 10
5.1787527767
 20
6.6430000001
 11
5.1787527767
 21
7.3569999999
  0
LINE
  5
2C1
100
AcDbEntity
  8
0
100
AcDbLine
 62
7
  6
CONTINUOUS
 10
5.19636196
 20
6.6125
 11
5.19636196
 21
7.3875
  0
LINE
  5
2C2
100
AcDbEntity
  8
0
100
AcDbLine
 62
7
  6
CONTINUOUS
 10
4.923522038
 20
6.5818474525
 11
4.915
 21
6.5725
  0
LINE
  5
2C3
100
AcDbEntity
  8
THREAD
100
AcDbLine
 62
7
  6
CONTINUOUS
 10
4.769
 20
6.5725
 11
4.7589821994
 21
6.5624821994
  0
LINE
  5
2C4
100
AcDbEntity
  8
0
100
AcDbLine
 62
7
  6
CONTINUOUS
 10
3.4781147367
 20
7.14425
 11
3.6468852633
 21
7.14425
  0
LINE
  5
2C5
100
AcDbEntity
  8
0
100
AcDbLine
 62
7
  6
CONTINUOUS
 10
3.766
 20
7.161
 11
3.753
 21
7.161
  0
LINE
  5
2C6
100
AcDbEntity
  8
0
100
AcDbLine
 62
7
  6
CONTINUOUS
 10
3.733
 20
7.161
 11
3.722
 21
7.161
  0
LINE
  5
2C7
100
AcDbEntity
  8
0
100
AcDbLine
 62
7
  6
CONTINUOUS
 10
3.702
 20
7.161
 11
3.672
 21
7.161
  0
LINE
  5
2C8
100
AcDbEntity
  8
0
100
AcDbLine
 62
7
  6
CONTINUOUS
 10
4.1761285896
 20
7.1622354256
 11
4.0744708513
 21
7.1622354256
  0
LINE
  5
2C9
100
AcDbEntity
  8
0
100
AcDbLine
 62
7
  6
CONTINUOUS
 10
3.926
 20
7.185
 11
3.79
 21
7.185
  0
LINE
  5
2CA
100
AcDbEntity
  8
THREAD
100
AcDbLine
 62
7
  6
CONTINUOUS
 10
4.769
 20
7.4275
 11
4.7589821994
 21
7.4375178006
  0
LINE
  5
2CB
100
AcDbEntity
  8
0
100
AcDbLine
 62
7
  6
CONTINUOUS
 10
4.923522038
 20
7.4181525475
 11
4.915
 21
7.4275
  0
LINE
  5
2CC
100
AcDbEntity
  8
0
100
AcDbLine
 62
7
  6
CONTINUOUS
 10
4.0155
 20
7.2655
 11
3.9995
 21
7.2655
  0
LINE
  5
2CD
100
AcDbEntity
  8
0
100
AcDbLine
 62
7
  6
CONTINUOUS
 10
4.238
 20
7.271
 11
4.207
 21
7.271
  0
LINE
  5
2CE
100
AcDbEntity
  8
0
100
AcDbLine
 62
7
  6
CONTINUOUS
 10
3.994
 20
7.271
 11
3.988
 21
7.271
  0
LINE
  5
2CF
100
AcDbEntity
  8
0
100
AcDbLine
 62
7
  6
CONTINUOUS
 10
5.676
 20
7.28
 11
6.1415
 21
7.28
  0
LINE
  5
2D0
100
AcDbEntity
  8
0
100
AcDbLine
 62
7
  6
CONTINUOUS
 10
6.2505
 20
7.28
 11
6.266
 21
7.28
  0
LINE
  5
2D1
100
AcDbEntity
  8
0
100
AcDbLine
 62
7
  6
CONTINUOUS
 10
6.459
 20
7.288
 11
6.48
 21
7.288
  0
LINE
  5
2D2
100
AcDbEntity
  8
0
100
AcDbLine
 62
7
  6
CONTINUOUS
 10
3.4781147367
 20
7.2885
 11
3.6468852633
 21
7.2885
  0
LINE
  5
2D3
100
AcDbEntity
  8
0
100
AcDbLine
 62
7
  6
CONTINUOUS
 10
5.612
 20
7.3229149841
 11
5.578
 21
7.3229149841
  0
LINE
  5
2D4
100
AcDbEntity
  8
0
100
AcDbLine
 62
7
  6
CONTINUOUS
 10
4.1761285896
 20
7.3244708513
 11
4.0744708513
 21
7.3244708513
  0
LINE
  5
2D5
100
AcDbEntity
  8
0
100
AcDbLine
 62
7
  6
CONTINUOUS
 10
5.0102224319
 20
6.594330127
 11
4.9905
 21
6.5829433757
  0
LINE
  5
2D6
100
AcDbEntity
  8
0
100
AcDbLine
 62
7
  6
CONTINUOUS
 10
6.339
 20
7.3415
 11
6.389
 21
7.3415
  0
LINE
  5
2D7
100
AcDbEntity
  8
0
100
AcDbLine
 62
7
  6
CONTINUOUS
 10
6.532
 20
7.3425
 11
6.485
 21
7.3425
  0
LINE
  5
2D8
100
AcDbEntity
  8
0
100
AcDbLine
 62
7
  6
CONTINUOUS
 10
6.334
 20
7.3425
 11
6.271
 21
7.3425
  0
LINE
  5
2D9
100
AcDbEntity
  8
0
100
AcDbLine
 62
7
  6
CONTINUOUS
 10
5.666
 20
7.343
 11
5.612
 21
7.343
  0
LINE
  5
2DA
100
AcDbEntity
  8
0
100
AcDbLine
 62
7
  6
CONTINUOUS
 10
5.578
 20
7.343
 11
5.488
 21
7.343
  0
LINE
  5
2DB
100
AcDbEntity
  8
0
100
AcDbLine
 62
7
  6
CONTINUOUS
 10
5.1674944465
 20
7.3505
 11
5.155
 21
7.3505
  0
LINE
  5
2DC
100
AcDbEntity
  8
0
100
AcDbLine
 62
7
  6
CONTINUOUS
 10
5.4435
 20
7.3875
 11
5.19636196
 21
7.3875
  0
LINE
  5
2DD
100
AcDbEntity
  8
0
100
AcDbLine
 62
7
  6
CONTINUOUS
 10
5.105
 20
7.4045
 11
5.155
 21
7.4045
  0
LINE
  5
2DE
100
AcDbEntity
  8
0
100
AcDbLine
 62
7
  6
CONTINUOUS
 10
5.035
 20
7.405
 11
5.0127224319
 21
7.405
  0
LINE
  5
2DF
100
AcDbEntity
  8
THREAD
100
AcDbLine
 62
7
  6
CONTINUOUS
 10
4.7075
 20
7.4079022477
 11
4.2720636659
 21
7.4079022477
  0
LINE
  5
2E0
100
AcDbEntity
  8
THREAD
100
AcDbLine
 62
7
  6
CONTINUOUS
 10
4.985
 20
7.4275
 11
4.935
 21
7.4275
  0
LINE
  5
2E1
100
AcDbEntity
  8
THREAD
100
AcDbLine
 62
7
  6
CONTINUOUS
 10
4.915
 20
7.4275
 11
4.769
 21
7.4275
  0
LINE
  5
2E2
100
AcDbEntity
  8
THREAD
100
AcDbLine
 62
7
  6
CONTINUOUS
 10
4.2423393843
 20
7.437516034
 11
4.7589839658
 21
7.437516034
  0
LINE
  5
2E3
100
AcDbEntity
  8
0
100
AcDbLine
 62
7
  6
CONTINUOUS
 10
5.0102224319
 20
7.405669873
 11
4.9905
 21
7.4170566243
  0
LINE
  5
2E4
100
AcDbEntity
  8
0
100
AcDbLine
 62
7
  6
CONTINUOUS
 10
5.4435
 20
6.6125
 11
5.4435
 21
7.3875
  0
LINE
  5
2E5
100
AcDbEntity
  8
0
100
AcDbLine
 62
7
  6
CONTINUOUS
 10
5.488
 20
7.343
 11
5.488
 21
7.0309762273
  0
LINE
  5
2E6
100
AcDbEntity
  8
0
100
AcDbLine
 62
7
  6
CONTINUOUS
 10
5.488
 20
6.657
 11
5.488
 21
6.9690237727
  0
LINE
  5
2E7
100
AcDbEntity
  8
0
100
AcDbLine
 62
7
  6
CONTINUOUS
 10
5.578
 20
7.3229149841
 11
5.578
 21
7.3429969788
  0
LINE
  5
2E8
100
AcDbEntity
  8
0
100
AcDbLine
 62
7
  6
CONTINUOUS
 10
5.612
 20
7.3229149841
 11
5.612
 21
7.3429969788
  0
LINE
  5
2E9
100
AcDbEntity
  8
0
100
AcDbLine
 62
7
  6
CONTINUOUS
 10
5.488
 20
6.657
 11
5.4435
 21
6.6125
  0
LINE
  5
2EA
100
AcDbEntity
  8
0
100
AcDbLine
 62
7
  6
CONTINUOUS
 10
6.271
 20
7.3425
 11
6.266
 21
7.3375
  0
LINE
  5
2EB
100
AcDbEntity
  8
0
100
AcDbLine
 62
7
  6
CONTINUOUS
 10
5.488
 20
7.343
 11
5.4435
 21
7.3875
  0
LINE
  5
2EC
100
AcDbEntity
  8
0
100
AcDbLine
 62
7
  6
CONTINUOUS
 10
6.271
 20
6.6575
 11
6.266
 21
6.6625
  0
LINE
  5
2ED
100
AcDbEntity
  8
0
100
AcDbLine
 62
7
  6
CONTINUOUS
 10
5.666
 20
6.657
 11
5.666
 21
7.343
  0
LINE
  5
2EE
100
AcDbEntity
  8
0
100
AcDbLine
 62
7
  6
CONTINUOUS
 10
5.676
 20
6.667
 11
5.676
 21
7.333
  0
LINE
  5
2EF
100
AcDbEntity
  8
0
100
AcDbLine
 62
7
  6
CONTINUOUS
 10
5.676
 20
6.667
 11
5.666
 21
6.657
  0
LINE
  5
2F0
100
AcDbEntity
  8
0
100
AcDbLine
 62
7
  6
CONTINUOUS
 10
5.676
 20
7.333
 11
5.666
 21
7.343
  0
LINE
  5
2F1
100
AcDbEntity
  8
0
100
AcDbLine
 62
7
  6
CONTINUOUS
 10
6.485
 20
7.3425
 11
6.48
 21
7.3375
  0
LINE
  5
2F2
100
AcDbEntity
  8
0
100
AcDbLine
 62
7
  6
CONTINUOUS
 10
6.485
 20
6.6575
 11
6.48
 21
6.6625
  0
LINE
  5
2F3
100
AcDbEntity
  8
0
100
AcDbLine
 62
7
  6
CONTINUOUS
 10
6.146
 20
6.9784774771
 11
6.146
 21
7.0215168511
  0
LINE
  5
2F4
100
AcDbEntity
  8
0
100
AcDbLine
 62
7
  6
CONTINUOUS
 10
6.153
 20
7.0332468153
 11
6.153
 21
6.9667562111
  0
LINE
  5
2F5
100
AcDbEntity
  8
0
100
AcDbLine
 62
7
  6
CONTINUOUS
 10
6.163
 20
7.043018836
 11
6.163
 21
6.9569819851
  0
LINE
  5
2F6
100
AcDbEntity
  8
0
100
AcDbLine
 62
7
  6
CONTINUOUS
 10
6.17
 20
6.8379725805
 11
6.17
 21
6.8385726899
  0
LINE
  5
2F7
100
AcDbEntity
  8
0
100
AcDbLine
 62
7
  6
CONTINUOUS
 10
6.17
 20
6.9522504426
 11
6.17
 21
7.0477519546
  0
LINE
  5
2F8
100
AcDbEntity
  8
0
100
AcDbLine
 62
7
  6
CONTINUOUS
 10
6.17
 20
7.161427304
 11
6.17
 21
7.1620287981
  0
LINE
  5
2F9
100
AcDbEntity
  8
0
100
AcDbLine
 62
7
  6
CONTINUOUS
 10
6.339
 20
6.6625
 11
6.334
 21
6.6575
  0
LINE
  5
2FA
100
AcDbEntity
  8
0
100
AcDbLine
 62
7
  6
CONTINUOUS
 10
6.339
 20
7.3375
 11
6.334
 21
7.3425
  0
LINE
  5
2FB
100
AcDbEntity
  8
0
100
AcDbLine
 62
7
  6
CONTINUOUS
 10
6.208
 20
6.8351832736
 11
6.208
 21
6.8431986965
  0
LINE
  5
2FC
100
AcDbEntity
  8
0
100
AcDbLine
 62
7
  6
CONTINUOUS
 10
6.208
 20
6.9471419127
 11
6.208
 21
7.0528576835
  0
LINE
  5
2FD
100
AcDbEntity
  8
0
100
AcDbLine
 62
7
  6
CONTINUOUS
 10
6.208
 20
7.1568012919
 11
6.208
 21
7.1648166297
  0
LINE
  5
2FE
100
AcDbEntity
  8
0
100
AcDbLine
 62
7
  6
CONTINUOUS
 10
6.215
 20
7.1637381748
 11
6.215
 21
7.1588347805
  0
LINE
  5
2FF
100
AcDbEntity
  8
0
100
AcDbLine
 62
7
  6
CONTINUOUS
 10
6.215
 20
7.0508770755
 11
6.215
 21
6.9491242028
  0
LINE
  5
300
100
AcDbEntity
  8
0
100
AcDbLine
 62
7
  6
CONTINUOUS
 10
6.215
 20
6.8411652119
 11
6.215
 21
6.8362596865
  0
LINE
  5
301
100
AcDbEntity
  8
0
100
AcDbLine
 62
7
  6
CONTINUOUS
 10
6.225
 20
7.0459319205
 11
6.225
 21
6.9540702755
  0
LINE
  5
302
100
AcDbEntity
  8
0
100
AcDbLine
 62
7
  6
CONTINUOUS
 10
6.232
 20
6.9591643303
 11
6.232
 21
7.0408325857
  0
LINE
  5
303
100
AcDbEntity
  8
0
100
AcDbLine
 62
7
  6
CONTINUOUS
 10
6.266
 20
6.6625
 11
6.266
 21
7.3375
  0
LINE
  5
304
100
AcDbEntity
  8
0
100
AcDbLine
 62
7
  6
CONTINUOUS
 10
6.271
 20
6.6575
 11
6.271
 21
7.3425
  0
LINE
  5
305
100
AcDbEntity
  8
0
100
AcDbLine
 62
7
  6
CONTINUOUS
 10
6.334
 20
6.6575
 11
6.334
 21
7.3425
  0
LINE
  5
306
100
AcDbEntity
  8
0
100
AcDbLine
 62
7
  6
CONTINUOUS
 10
6.339
 20
7.3415
 11
6.339
 21
6.6585
  0
LINE
  5
307
100
AcDbEntity
  8
0
100
AcDbLine
 62
7
  6
CONTINUOUS
 10
6.389
 20
7.3415
 11
6.389
 21
6.6585
  0
LINE
  5
308
100
AcDbEntity
  8
0
100
AcDbLine
 62
7
  6
CONTINUOUS
 10
6.547
 20
6.6725
 11
6.532
 21
6.6575
  0
LINE
  5
309
100
AcDbEntity
  8
0
100
AcDbLine
 62
7
  6
CONTINUOUS
 10
6.547
 20
7.3275
 11
6.532
 21
7.3425
  0
LINE
  5
30A
100
AcDbEntity
  8
0
100
AcDbLine
 62
7
  6
CONTINUOUS
 10
6.459
 20
7.3225
 11
6.459
 21
6.6775
  0
LINE
  5
30B
100
AcDbEntity
  8
0
100
AcDbLine
 62
7
  6
CONTINUOUS
 10
6.48
 20
6.6625
 11
6.48
 21
7.3375
  0
LINE
  5
30C
100
AcDbEntity
  8
0
100
AcDbLine
 62
7
  6
CONTINUOUS
 10
6.485
 20
6.6575
 11
6.485
 21
7.3425
  0
LINE
  5
30D
100
AcDbEntity
  8
0
100
AcDbLine
 62
7
  6
CONTINUOUS
 10
6.532
 20
6.6575
 11
6.532
 21
7.3425
  0
LINE
  5
30E
100
AcDbEntity
  8
0
100
AcDbLine
 62
7
  6
CONTINUOUS
 10
6.547
 20
6.6725
 11
6.547
 21
7.3275
  0
ARC
  5
30F
100
AcDbEntity
  8
0
100
AcDbCircle
 62
7
  6
CONTINUOUS
 10
6.1960623621
 20
6.9423200941
 40
0.1078634158
100
AcDbArc
 50
269.9668739615
 51
276.369427426
  0
ARC
  5
310
100
AcDbEntity
  8
0
100
AcDbCircle
 62
7
  6
CONTINUOUS
 10
6.1960623829
 20
7.0576803586
 40
0.1078629631
100
AcDbArc
 50
83.630536101
 51
90.0331372002
  0
ARC
  5
311
100
AcDbEntity
  8
0
100
AcDbCircle
 62
7
  6
CONTINUOUS
 10
3.988
 20
6.823
 40
0.094
100
AcDbArc
 50
228.732572619
 51
270.0
  0
ARC
  5
312
100
AcDbEntity
  8
0
100
AcDbCircle
 62
7
  6
CONTINUOUS
 10
3.988
 20
7.177
 40
0.094
100
AcDbArc
 50
90.0
 51
131.267427381
  0
ARC
  5
313
100
AcDbEntity
  8
0
100
AcDbCircle
 62
7
  6
CONTINUOUS
 10
6.1896842544
 20
7.092516876
 40
0.0724088951
100
AcDbArc
 50
105.8820885793
 51
106.5016638578
  0
ARC
  5
314
100
AcDbEntity
  8
0
100
AcDbCircle
 62
7
  6
CONTINUOUS
 10
6.1896042517
 20
6.9072074768
 40
0.0721218761
100
AcDbArc
 50
253.4978427664
 51
254.1182717897
  0
CIRCLE
  5
315
100
AcDbEntity
  8
0
100
AcDbCircle
 62
7
  6
CONTINUOUS
 10
6.196
 20
7.0
 40
0.0545
  0
ARC
  5
316
100
AcDbEntity
  8
0
100
AcDbCircle
 62
7
  6
CONTINUOUS
 10
5.1674944465
 20
7.3635
 40
0.013
100
AcDbArc
 50
270.0
 51
329.9999988053
  0
ARC
  5
317
100
AcDbEntity
  8
0
100
AcDbCircle
 62
7
  6
CONTINUOUS
 10
5.1674944465
 20
6.6365
 40
0.013
100
AcDbArc
 50
30.0000011947
 51
90.0
  0
ARC
  5
318
100
AcDbEntity
  8
0
100
AcDbCircle
 62
7
  6
CONTINUOUS
 10
4.993
 20
6.5786132487
 40
0.005
100
AcDbArc
 50
119.9999999027
 51
179.9999998052
  0
ARC
  5
319
100
AcDbEntity
  8
0
100
AcDbCircle
 62
7
  6
CONTINUOUS
 10
5.0127224319
 20
6.59
 40
0.005
100
AcDbArc
 50
90.0
 51
119.9999999834
  0
ARC
  5
31A
100
AcDbEntity
  8
0
100
AcDbCircle
 62
7
  6
CONTINUOUS
 10
4.993
 20
7.4213867513
 40
0.005
100
AcDbArc
 50
180.0000001948
 51
240.0000000973
  0
ARC
  5
31B
100
AcDbEntity
  8
0
100
AcDbCircle
 62
7
  6
CONTINUOUS
 10
5.0127224319
 20
7.41
 40
0.005
100
AcDbArc
 50
240.0000000167
 51
270.0
  0
ARC
  5
31C
100
AcDbEntity
  8
0
100
AcDbCircle
 62
7
  6
CONTINUOUS
 10
4.985
 20
6.5755
 40
0.003
100
AcDbArc
 50
270.0
 51
0.0000047502
  0
ARC
  5
31D
100
AcDbEntity
  8
0
100
AcDbCircle
 62
7
  6
CONTINUOUS
 10
4.985
 20
7.4245
 40
0.003
100
AcDbArc
 50
359.9999952498
 51
90.0
  0
ARC
  5
31E
100
AcDbEntity
  8
0
100
AcDbCircle
 62
7
  6
CONTINUOUS
 10
4.925
 20
6.5805
 40
0.002
100
AcDbArc
 50
42.3553148142
 51
137.6446851858
  0
ARC
  5
31F
100
AcDbEntity
  8
0
100
AcDbCircle
 62
7
  6
CONTINUOUS
 10
4.925
 20
7.4195
 40
0.002
100
AcDbArc
 50
222.3553148142
 51
317.6446851858
  0
SPLINE
  5
320
100
AcDbEntity
  8
0
100
AcDbSpline
 62
7
  6
CONTINUOUS
 70
0
 71
3
 72
29
 73
25
 74
0
 42
0.0000001
 43
0.0000001
 44
0.0000000001
 40
0.0
 40
0.0
 40
0.0
 40
0.0
 40
0.0699814326
 40
0.1378931693
 40
0.2035483063
 40
0.2668301071
 40
0.3277577624
 40
0.3574096745
 40
0.3865762134
 40
0.4153250756
 40
0.4437427141
 40
0.4719307121
 40
0.5000000301
 40
0.5280693453
 40
0.5562573422
 40
0.5846749808
 40
0.6134238382
 40
0.6425903726
 40
0.6722422822
 40
0.7331699209
 40
0.796451712
 40
0.8621068357
 40
0.9300185679
 40
1.0
 40
1.0
 40
1.0
 40
1.0
 10
4.0744708513
 20
7.1622354256
 30
0.0
 10
4.0713560267
 20
7.1653502502
 30
0.0
 10
4.0653485704
 20
7.171620498
 30
0.0
 10
4.0569837005
 20
7.1813347699
 30
0.0
 10
4.0495144878
 20
7.1912347025
 30
0.0
 10
4.0430857871
 20
7.2013263651
 30
0.0
 10
4.0386793193
 20
7.2099734854
 30
0.0
 10
4.035852393
 20
7.2169651849
 30
0.0
 10
4.0341052759
 20
7.2221969955
 30
0.0
 10
4.0327274621
 20
7.2274580884
 30
0.0
 10
4.0317350053
 20
7.2327430445
 30
0.0
 10
4.0311348105
 20
7.238043924
 30
0.0
 10
4.0309327377
 20
7.243353144
 30
0.0
 10
4.0311348076
 20
7.2486623643
 30
0.0
 10
4.03173501
 20
7.2539632427
 30
0.0
 10
4.0327274641
 20
7.2592481987
 30
0.0
 10
4.0341052762
 20
7.2645092916
 30
0.0
 10
4.0358523974
 20
7.2697411001
 30
0.0
 10
4.0386793222
 20
7.2767327984
 30
0.0
 10
4.0430857895
 20
7.2853799171
 30
0.0
 10
4.0495144902
 20
7.2954715767
 30
0.0
 10
4.0569837013
 20
7.3053715083
 30
0.0
 10
4.0653485708
 20
7.3150857791
 30
0.0
 10
4.0713560267
 20
7.3213560267
 30
0.0
 10
4.0744708513
 20
7.3244708513
 30
0.0
  0
SPLINE
  5
321
100
AcDbEntity
  8
0
100
AcDbSpline
 62
7
  6
CONTINUOUS
 70
0
 71
3
 72
25
 73
21
 74
0
 42
0.0000001
 43
0.0000001
 44
0.0000000001
 40
0.0
 40
0.0
 40
0.0
 40
0.0
 40
0.0659343996
 40
0.1307786338
 40
0.1945190869
 40
0.2571884297
 40
0.3188803748
 40
0.3494111547
 40
0.3797624252
 40
0.4400381959
 40
0.5000000142
 40
0.5599618336
 40
0.6202376013
 40
0.6505888715
 40
0.68111965
 40
0.7428115909
 40
0.8054809287
 40
0.8692213713
 40
0.9340656013
 40
1.0
 40
1.0
 40
1.0
 40
1.0
 10
4.1761285896
 20
6.6755291487
 30
0.0
 10
4.178016559
 20
6.6787992076
 30
0.0
 10
4.1816349301
 20
6.6853595679
 30
0.0
 10
4.186566339
 20
6.6953530604
 30
0.0
 10
4.1908954557
 20
6.7054202562
 30
0.0
 10
4.1945566079
 20
6.7155586034
 30
0.0
 10
4.1970068654
 20
6.7240922681
 30
0.0
 10
4.1985671299
 20
6.7309378364
 30
0.0
 10
4.1998474037
 20
6.7377586365
 30
0.0
 10
4.2009342196
 20
6.7463242762
 30
0.0
 10
4.201371496
 20
6.756646864
 30
0.0
 10
4.2009342204
 20
6.7669694518
 30
0.0
 10
4.1998474027
 20
6.7755350912
 30
0.0
 10
4.1985671279
 20
6.7823558908
 30
0.0
 10
4.1970068664
 20
6.7892014594
 30
0.0
 10
4.1945566054
 20
6.7977351226
 30
0.0
 10
4.1908954555
 20
6.8078734694
 30
0.0
 10
4.1865663383
 20
6.8179406637
 30
0.0
 10
4.1816349298
 20
6.8279341554
 30
0.0
 10
4.178016559
 20
6.8344945155
 30
0.0
 10
4.1761285896
 20
6.8377645744
 30
0.0
  0
SPLINE
  5
322
100
AcDbEntity
  8
0
100
AcDbSpline
 62
7
  6
CONTINUOUS
 70
0
 71
3
 72
29
 73
25
 74
0
 42
0.0000001
 43
0.0000001
 44
0.0000000001
 40
0.0
 40
0.0
 40
0.0
 40
0.0
 40
0.0699814326
 40
0.1378931693
 40
0.2035483063
 40
0.2668301071
 40
0.3277577624
 40
0.3574096745
 40
0.3865762134
 40
0.4153250756
 40
0.4437427141
 40
0.4719307121
 40
0.5000000301
 40
0.5280693453
 40
0.5562573422
 40
0.5846749808
 40
0.6134238382
 40
0.6425903726
 40
0.6722422822
 40
0.7331699209
 40
0.796451712
 40
0.8621068357
 40
0.9300185679
 40
1.0
 40
1.0
 40
1.0
 40
1.0
 10
4.0744708513
 20
6.6755291487
 30
0.0
 10
4.0713560267
 20
6.6786439733
 30
0.0
 10
4.0653485704
 20
6.684914221
 30
0.0
 10
4.0569837005
 20
6.694628493
 30
0.0
 10
4.0495144878
 20
6.7045284256
 30
0.0
 10
4.0430857871
 20
6.7146200881
 30
0.0
 10
4.0386793193
 20
6.7232672085
 30
0.0
 10
4.035852393
 20
6.7302589079
 30
0.0
 10
4.0341052759
 20
6.7354907185
 30
0.0
 10
4.0327274621
 20
6.7407518115
 30
0.0
 10
4.0317350053
 20
6.7460367676
 30
0.0
 10
4.0311348105
 20
6.751337647
 30
0.0
 10
4.0309327377
 20
6.756646867
 30
0.0
 10
4.0311348076
 20
6.7619560874
 30
0.0
 10
4.03173501
 20
6.7672569657
 30
0.0
 10
4.0327274641
 20
6.7725419217
 30
0.0
 10
4.0341052762
 20
6.7778030147
 30
0.0
 10
4.0358523974
 20
6.7830348231
 30
0.0
 10
4.0386793222
 20
6.7900265215
 30
0.0
 10
4.0430857895
 20
6.7986736402
 30
0.0
 10
4.0495144902
 20
6.8087652997
 30
0.0
 10
4.0569837013
 20
6.8186652314
 30
0.0
 10
4.0653485708
 20
6.8283795022
 30
0.0
 10
4.0713560267
 20
6.8346497498
 30
0.0
 10
4.0744708513
 20
6.8377645744
 30
0.0
  0
SPLINE
  5
323
100
AcDbEntity
  8
0
100
AcDbSpline
 62
7
  6
CONTINUOUS
 70
0
 71
3
 72
25
 73
21
 74
0
 42
0.0000001
 43
0.0000001
 44
0.0000000001
 40
0.0
 40
0.0
 40
0.0
 40
0.0
 40
0.1249859891
 40
0.1874862541
 40
0.2499858822
 40
0.2812379746
 40
0.3124899424
 40
0.3437420673
 40
0.3749949169
 40
0.4374972714
 40
0.5000000149
 40
0.5625027595
 40
0.6250051101
 40
0.6562579591
 40
0.6875100837
 40
0.7187620486
 40
0.750014138
 40
0.8125137618
 40
0.8750140159
 40
1.0
 40
1.0
 40
1.0
 40
1.0
 10
4.1761285896
 20
6.8377645744
 30
0.0
 10
4.1799350268
 20
6.8509504595
 30
0.0
 10
4.1851657731
 20
6.8708762575
 30
0.0
 10
4.1909293362
 20
6.8977181122
 30
0.0
 10
4.1939738555
 20
6.914607377
 30
0.0
 10
4.1960429788
 20
6.9281774237
 30
0.0
 10
4.1974051271
 20
6.9383826107
 30
0.0
 10
4.1985702724
 20
6.9486123073
 30
0.0
 10
4.1998521573
 20
6.9622797041
 30
0.0
 10
4.200936007
 20
6.9794089268
 30
0.0
 10
4.2013709837
 20
7.000000005
 30
0.0
 10
4.2009360078
 20
7.0205910829
 30
0.0
 10
4.1998521563
 20
7.0377203051
 30
0.0
 10
4.1985702703
 20
7.0513877012
 30
0.0
 10
4.1974051274
 20
7.0616173977
 30
0.0
 10
4.1960429781
 20
7.071822584
 30
0.0
 10
4.1939738535
 20
7.0853926293
 30
0.0
 10
4.1909293361
 20
7.1022818924
 30
0.0
 10
4.1851657721
 20
7.1291237446
 30
0.0
 10
4.1799350266
 20
7.1490495411
 30
0.0
 10
4.1761285896
 20
7.1622354256
 30
0.0
  0
SPLINE
  5
324
100
AcDbEntity
  8
0
100
AcDbSpline
 62
7
  6
CONTINUOUS
 70
0
 71
3
 72
29
 73
25
 74
0
 42
0.0000001
 43
0.0000001
 44
0.0000000001
 40
0.0
 40
0.0
 40
0.0
 40
0.0
 40
0.0624904563
 40
0.124986907
 40
0.1874824592
 40
0.2499774484
 40
0.3124737491
 40
0.343727532
 40
0.3749816508
 40
0.4062351141
 40
0.4374899104
 40
0.4687452438
 40
0.5000000338
 40
0.5312548209
 40
0.562510151
 40
0.5937649481
 40
0.6250184069
 40
0.6562725173
 40
0.6875262971
 40
0.7500225805
 40
0.8125175578
 40
0.8750130976
 40
0.937509544
 40
1.0
 40
1.0
 40
1.0
 40
1.0
 10
4.0744708513
 20
6.8377645744
 30
0.0
 10
4.0713128872
 20
6.8440805025
 30
0.0
 10
4.0652161719
 20
6.8568246313
 30
0.0
 10
4.0568492137
 20
6.8762947767
 30
0.0
 10
4.0493856662
 20
6.8961319207
 30
0.0
 10
4.0429741834
 20
6.9163355535
 30
0.0
 10
4.0386318882
 20
6.9334620213
 30
0.0
 10
4.0358365363
 20
6.9473104666
 30
0.0
 10
4.0340940873
 20
6.9577634496
 30
0.0
 10
4.0327206746
 20
6.968271489
 30
0.0
 10
4.0317319259
 20
6.9788229566
 30
0.0
 10
4.0311341443
 20
6.9894039589
 30
0.0
 10
4.0309329292
 20
7.0000000111
 30
0.0
 10
4.0311341413
 20
7.0105960632
 30
0.0
 10
4.0317319307
 20
7.0211770644
 30
0.0
 10
4.0327206767
 20
7.0317285313
 30
0.0
 10
4.0340940874
 20
7.0422365698
 30
0.0
 10
4.0358365409
 20
7.0526895502
 30
0.0
 10
4.0386318911
 20
7.0665379924
 30
0.0
 10
4.0429741857
 20
7.0836644567
 30
0.0
 10
4.0493856688
 20
7.1038680844
 30
0.0
 10
4.0568492145
 20
7.1237052256
 30
0.0
 10
4.0652161724
 20
7.1431753692
 30
0.0
 10
4.0713128872
 20
7.1559194975
 30
0.0
 10
4.0744708513
 20
7.1622354256
 30
0.0
  0
SPLINE
  5
325
100
AcDbEntity
  8
0
100
AcDbSpline
 62
7
  6
CONTINUOUS
 70
0
 71
3
 72
25
 73
21
 74
0
 42
0.0000001
 43
0.0000001
 44
0.0000000001
 40
0.0
 40
0.0
 40
0.0
 40
0.0
 40
0.0659343996
 40
0.1307786338
 40
0.1945190869
 40
0.2571884297
 40
0.3188803748
 40
0.3494111547
 40
0.3797624252
 40
0.4400381959
 40
0.5000000142
 40
0.5599618336
 40
0.6202376013
 40
0.6505888715
 40
0.68111965
 40
0.7428115909
 40
0.8054809287
 40
0.8692213713
 40
0.9340656013
 40
1.0
 40
1.0
 40
1.0
 40
1.0
 10
4.1761285896
 20
7.1622354256
 30
0.0
 10
4.178016559
 20
7.1655054845
 30
0.0
 10
4.1816349301
 20
7.1720658448
 30
0.0
 10
4.186566339
 20
7.1820593374
 30
0.0
 10
4.1908954557
 20
7.1921265331
 30
0.0
 10
4.1945566079
 20
7.2022648803
 30
0.0
 10
4.1970068654
 20
7.210798545
 30
0.0
 10
4.1985671299
 20
7.2176441133
 30
0.0
 10
4.1998474037
 20
7.2244649134
 30
0.0
 10
4.2009342196
 20
7.2330305531
 30
0.0
 10
4.201371496
 20
7.243353141
 30
0.0
 10
4.2009342204
 20
7.2536757287
 30
0.0
 10
4.1998474027
 20
7.2622413681
 30
0.0
 10
4.1985671279
 20
7.2690621677
 30
0.0
 10
4.1970068664
 20
7.2759077364
 30
0.0
 10
4.1945566054
 20
7.2844413995
 30
0.0
 10
4.1908954555
 20
7.2945797463
 30
0.0
 10
4.1865663383
 20
7.3046469406
 30
0.0
 10
4.1816349298
 20
7.3146404323
 30
0.0
 10
4.178016559
 20
7.3212007924
 30
0.0
 10
4.1761285896
 20
7.3244708513
 30
0.0
  0
SPLINE
  5
326
100
AcDbEntity
  8
0
100
AcDbSpline
 62
7
  6
CONTINUOUS
 70
0
 71
3
 72
23
 73
19
 74
0
 42
0.0000001
 43
0.0000001
 44
0.0000000001
 40
0.0
 40
0.0
 40
0.0
 40
0.0
 40
0.0659343449
 40
0.1307794788
 40
0.1945217655
 40
0.2571922343
 40
0.3188853857
 40
0.3797582935
 40
0.4400360113
 40
0.5000000248
 40
0.5599640339
 40
0.6202417525
 40
0.6811146552
 40
0.742807805
 40
0.8054782588
 40
0.8692205294
 40
0.9340656568
 40
1.0
 40
1.0
 40
1.0
 40
1.0
 10
3.4781147367
 20
7.14425
 30
0.0
 10
3.4764361075
 20
7.1471574711
 30
0.0
 10
3.473218879
 20
7.1529904214
 30
0.0
 10
3.4688341081
 20
7.1618759382
 30
0.0
 10
3.4649853289
 20
7.1708271463
 30
0.0
 10
3.4617292978
 20
7.1798415334
 30
0.0
 10
3.4591250933
 20
7.1889148898
 30
0.0
 10
3.4572197259
 20
7.1980373359
 30
0.0
 10
3.456060838
 20
7.2071966481
 30
0.0
 10
3.4556686984
 20
7.2163750036
 30
0.0
 10
3.456060838
 20
7.2255533592
 30
0.0
 10
3.4572197274
 20
7.2347126707
 30
0.0
 10
3.4591250939
 20
7.2438351167
 30
0.0
 10
3.4617293003
 20
7.2529084714
 30
0.0
 10
3.4649853289
 20
7.2619228576
 30
0.0
 10
3.4688341094
 20
7.2708740631
 30
0.0
 10
3.4732188795
 20
7.2797595789
 30
0.0
 10
3.4764361075
 20
7.285592529
 30
0.0
 10
3.4781147367
 20
7.2885
 30
0.0
  0
SPLINE
  5
327
100
AcDbEntity
  8
0
100
AcDbSpline
 62
7
  6
CONTINUOUS
 70
0
 71
3
 72
15
 73
11
 74
0
 42
0.0000001
 43
0.0000001
 44
0.0000000001
 40
0.0
 40
0.0
 40
0.0
 40
0.0
 40
0.1250021005
 40
0.2500030568
 40
0.3750019709
 40
0.5000000262
 40
0.624998077
 40
0.7499969826
 40
0.8749979069
 40
1.0
 40
1.0
 40
1.0
 40
1.0
 10
3.4781147367
 20
6.85575
 30
0.0
 10
3.474730341
 20
6.8674738906
 30
0.0
 10
3.4685298328
 20
6.8910923813
 30
0.0
 10
3.4613801429
 20
6.9270213756
 30
0.0
 10
3.4568401181
 20
6.9633829362
 30
0.0
 10
3.4552787185
 20
7.0000000072
 30
0.0
 10
3.4568401192
 20
7.0366170773
 30
0.0
 10
3.4613801447
 20
7.0729786335
 30
0.0
 10
3.4685298343
 20
7.108907623
 30
0.0
 10
3.4747303412
 20
7.1325261101
 30
0.0
 10
3.4781147367
 20
7.14425
 30
0.0
  0
SPLINE
  5
328
100
AcDbEntity
  8
0
100
AcDbSpline
 62
7
  6
CONTINUOUS
 70
0
 71
3
 72
23
 73
19
 74
0
 42
0.0000001
 43
0.0000001
 44
0.0000000001
 40
0.0
 40
0.0
 40
0.0
 40
0.0
 40
0.0659343449
 40
0.1307794788
 40
0.1945217655
 40
0.2571922343
 40
0.3188853857
 40
0.3797582935
 40
0.4400360113
 40
0.5000000248
 40
0.5599640339
 40
0.6202417525
 40
0.6811146552
 40
0.742807805
 40
0.8054782588
 40
0.8692205294
 40
0.9340656568
 40
1.0
 40
1.0
 40
1.0
 40
1.0
 10
3.4781147367
 20
6.7115
 30
0.0
 10
3.4764361075
 20
6.7144074711
 30
0.0
 10
3.473218879
 20
6.7202404214
 30
0.0
 10
3.4688341081
 20
6.7291259382
 30
0.0
 10
3.4649853289
 20
6.7380771463
 30
0.0
 10
3.4617292978
 20
6.7470915334
 30
0.0
 10
3.4591250933
 20
6.7561648898
 30
0.0
 10
3.4572197259
 20
6.7652873359
 30
0.0
 10
3.456060838
 20
6.7744466481
 30
0.0
 10
3.4556686984
 20
6.7836250036
 30
0.0
 10
3.456060838
 20
6.7928033592
 30
0.0
 10
3.4572197274
 20
6.8019626707
 30
0.0
 10
3.4591250939
 20
6.8110851167
 30
0.0
 10
3.4617293003
 20
6.8201584714
 30
0.0
 10
3.4649853289
 20
6.8291728576
 30
0.0
 10
3.4688341094
 20
6.8381240631
 30
0.0
 10
3.4732188795
 20
6.8470095789
 30
0.0
 10
3.4764361075
 20
6.852842529
 30
0.0
 10
3.4781147367
 20
6.85575
 30
0.0
  0
SPLINE
  5
329
100
AcDbEntity
  8
0
100
AcDbSpline
 62
7
  6
CONTINUOUS
 70
0
 71
3
 72
23
 73
19
 74
0
 42
0.0000001
 43
0.0000001
 44
0.0000000001
 40
0.0
 40
0.0
 40
0.0
 40
0.0
 40
0.0659343449
 40
0.1307794788
 40
0.1945217655
 40
0.2571922343
 40
0.3188853857
 40
0.3797582935
 40
0.4400360113
 40
0.5000000248
 40
0.5599640339
 40
0.6202417525
 40
0.6811146552
 40
0.742807805
 40
0.8054782588
 40
0.8692205294
 40
0.9340656568
 40
1.0
 40
1.0
 40
1.0
 40
1.0
 10
3.6468852633
 20
6.7115
 30
0.0
 10
3.6485638925
 20
6.7144074711
 30
0.0
 10
3.651781121
 20
6.7202404214
 30
0.0
 10
3.6561658919
 20
6.7291259382
 30
0.0
 10
3.6600146711
 20
6.7380771463
 30
0.0
 10
3.6632707022
 20
6.7470915334
 30
0.0
 10
3.6658749067
 20
6.7561648898
 30
0.0
 10
3.6677802741
 20
6.7652873359
 30
0.0
 10
3.668939162
 20
6.7744466481
 30
0.0
 10
3.6693313016
 20
6.7836250036
 30
0.0
 10
3.668939162
 20
6.7928033592
 30
0.0
 10
3.6677802726
 20
6.8019626707
 30
0.0
 10
3.6658749061
 20
6.8110851167
 30
0.0
 10
3.6632706997
 20
6.8201584714
 30
0.0
 10
3.6600146711
 20
6.8291728576
 30
0.0
 10
3.6561658906
 20
6.8381240631
 30
0.0
 10
3.6517811205
 20
6.8470095789
 30
0.0
 10
3.6485638925
 20
6.852842529
 30
0.0
 10
3.6468852633
 20
6.85575
 30
0.0
  0
SPLINE
  5
32A
100
AcDbEntity
  8
0
100
AcDbSpline
 62
7
  6
CONTINUOUS
 70
0
 71
3
 72
15
 73
11
 74
0
 42
0.0000001
 43
0.0000001
 44
0.0000000001
 40
0.0
 40
0.0
 40
0.0
 40
0.0
 40
0.1250021005
 40
0.2500030568
 40
0.3750019709
 40
0.5000000262
 40
0.624998077
 40
0.7499969826
 40
0.8749979069
 40
1.0
 40
1.0
 40
1.0
 40
1.0
 10
3.6468852633
 20
6.85575
 30
0.0
 10
3.650269659
 20
6.8674738906
 30
0.0
 10
3.6564701672
 20
6.8910923813
 30
0.0
 10
3.6636198571
 20
6.9270213756
 30
0.0
 10
3.6681598819
 20
6.9633829362
 30
0.0
 10
3.6697212815
 20
7.0000000072
 30
0.0
 10
3.6681598808
 20
7.0366170773
 30
0.0
 10
3.6636198553
 20
7.0729786335
 30
0.0
 10
3.6564701657
 20
7.108907623
 30
0.0
 10
3.6502696588
 20
7.1325261101
 30
0.0
 10
3.6468852633
 20
7.14425
 30
0.0
  0
SPLINE
  5
32B
100
AcDbEntity
  8
0
100
AcDbSpline
 62
7
  6
CONTINUOUS
 70
0
 71
3
 72
23
 73
19
 74
0
 42
0.0000001
 43
0.0000001
 44
0.0000000001
 40
0.0
 40
0.0
 40
0.0
 40
0.0
 40
0.0659343449
 40
0.1307794788
 40
0.1945217655
 40
0.2571922343
 40
0.3188853857
 40
0.3797582935
 40
0.4400360113
 40
0.5000000248
 40
0.5599640339
 40
0.6202417525
 40
0.6811146552
 40
0.742807805
 40
0.8054782588
 40
0.8692205294
 40
0.9340656568
 40
1.0
 40
1.0
 40
1.0
 40
1.0
 10
3.6468852633
 20
7.14425
 30
0.0
 10
3.6485638925
 20
7.1471574711
 30
0.0
 10
3.651781121
 20
7.1529904214
 30
0.0
 10
3.6561658919
 20
7.1618759382
 30
0.0
 10
3.6600146711
 20
7.1708271463
 30
0.0
 10
3.6632707022
 20
7.1798415334
 30
0.0
 10
3.6658749067
 20
7.1889148898
 30
0.0
 10
3.6677802741
 20
7.1980373359
 30
0.0
 10
3.668939162
 20
7.2071966481
 30
0.0
 10
3.6693313016
 20
7.2163750036
 30
0.0
 10
3.668939162
 20
7.2255533592
 30
0.0
 10
3.6677802726
 20
7.2347126707
 30
0.0
 10
3.6658749061
 20
7.2438351167
 30
0.0
 10
3.6632706997
 20
7.2529084714
 30
0.0
 10
3.6600146711
 20
7.2619228576
 30
0.0
 10
3.6561658906
 20
7.2708740631
 30
0.0
 10
3.6517811205
 20
7.2797595789
 30
0.0
 10
3.6485638925
 20
7.285592529
 30
0.0
 10
3.6468852633
 20
7.2885
 30
0.0
  0
SPLINE
  5
32C
100
AcDbEntity
  8
0
100
AcDbSpline
 62
7
  6
CONTINUOUS
 70
0
 71
3
 72
9
 73
5
 74
0
 42
0.0000001
 43
0.0000001
 44
0.0000000001
 40
0.0
 40
0.0
 40
0.0
 40
0.0
 40
0.4893079046
 40
1.0
 40
1.0
 40
1.0
 40
1.0
 10
6.2228819165
 20
7.1619436757
 30
0.0
 10
6.2205119649
 20
7.1626458067
 30
0.0
 10
6.215592718
 20
7.1638314861
 30
0.0
 10
6.2105921813
 20
7.1645885145
 30
0.0
 10
6.2080286226
 20
7.1648775037
 30
0.0
  0
SPLINE
  5
32D
100
AcDbEntity
  8
0
100
AcDbSpline
 62
7
  6
CONTINUOUS
 70
0
 71
3
 72
20
 73
16
 74
0
 42
0.0000001
 43
0.0000001
 44
0.0000000001
 40
0.0
 40
0.0
 40
0.0
 40
0.0
 40
0.0505654665
 40
0.1024952178
 40
0.1561006997
 40
0.2115737729
 40
0.3282451003
 40
0.389540032
 40
0.4526247254
 40
0.5173478984
 40
0.5835409393
 40
0.7194154087
 40
0.8587859029
 40
0.9293339903
 40
1.0
 40
1.0
 40
1.0
 40
1.0
 10
6.1415
 20
7.1979899689
 30
0.0
 10
6.1414999988
 20
7.1967127443
 30
0.0
 10
6.1416835865
 20
7.1941207793
 30
0.0
 10
6.1424820926
 20
7.1902490763
 30
0.0
 10
6.1437991961
 20
7.1863903149
 30
0.0
 10
6.1462624578
 20
7.1812362114
 30
0.0
 10
6.1496815162
 20
7.1763706217
 30
0.0
 10
6.1538606902
 20
7.1719350224
 30
0.0
 10
6.1574504974
 20
7.1687730264
 30
0.0
 10
6.1614072552
 20
7.1658714703
 30
0.0
 10
6.1671747953
 20
7.1623721832
 30
0.0
 10
6.1751014324
 20
7.1588643635
 30
0.0
 10
6.1836076756
 20
7.1566981736
 30
0.0
 10
6.1906462142
 20
7.1558159937
 30
0.0
 10
6.1942150591
 20
7.1556658601
 30
0.0
 10
6.196
 20
7.1556658601
 30
0.0
  0
SPLINE
  5
32E
100
AcDbEntity
  8
0
100
AcDbSpline
 62
7
  6
CONTINUOUS
 70
0
 71
3
 72
9
 73
5
 74
0
 42
0.0000001
 43
0.0000001
 44
0.0000000001
 40
0.0
 40
0.0
 40
0.0
 40
0.0
 40
0.5106930229
 40
1.0
 40
1.0
 40
1.0
 40
1.0
 10
6.2080285838
 20
6.8351224915
 30
0.0
 10
6.210592371
 20
6.8354115051
 30
0.0
 10
6.2155933425
 20
6.836168617
 30
0.0
 10
6.220513007
 20
6.8373544557
 30
0.0
 10
6.2228831488
 20
6.8380566877
 30
0.0
  0
SPLINE
  5
32F
100
AcDbEntity
  8
0
100
AcDbSpline
 62
7
  6
CONTINUOUS
 70
0
 71
3
 72
11
 73
7
 74
0
 42
0.0000001
 43
0.0000001
 44
0.0000000001
 40
0.0
 40
0.0
 40
0.0
 40
0.0
 40
0.2579290647
 40
0.5126807349
 40
0.7608380683
 40
1.0
 40
1.0
 40
1.0
 40
1.0
 10
6.196
 20
7.1655433037
 30
0.0
 10
6.1937280125
 20
7.1655433037
 30
0.0
 10
6.1892107878
 20
7.1654045043
 30
0.0
 10
6.1825335245
 20
7.1647797065
 30
0.0
 10
6.1760757682
 20
7.1637357833
 30
0.0
 10
6.1718951923
 20
7.1627382311
 30
0.0
 10
6.169868941
 20
7.1621616996
 30
0.0
  0
SPLINE
  5
330
100
AcDbEntity
  8
0
100
AcDbSpline
 62
7
  6
CONTINUOUS
 70
0
 71
3
 72
15
 73
11
 74
0
 42
0.0000001
 43
0.0000001
 44
0.0000000001
 40
0.0
 40
0.0
 40
0.0
 40
0.0
 40
0.0386050925
 40
0.1475751548
 40
0.3094313714
 40
0.5000104509
 40
0.6905885543
 40
0.852435667
 40
0.9613979889
 40
1.0
 40
1.0
 40
1.0
 40
1.0
 10
6.2505
 20
7.28
 30
0.0
 10
6.2491146525
 20
7.2797303241
 30
0.0
 10
6.2438116673
 20
7.2787359308
 30
0.0
 10
6.2326381331
 20
7.2769485262
 30
0.0
 10
6.2158559341
 20
7.2751371425
 30
0.0
 10
6.1959988878
 20
7.2743788691
 30
0.0
 10
6.1761421771
 20
7.2751372498
 30
0.0
 10
6.1593606421
 20
7.2769487042
 30
0.0
 10
6.1481878352
 20
7.2787360357
 30
0.0
 10
6.1428852377
 20
7.2797303496
 30
0.0
 10
6.1415
 20
7.28
 30
0.0
  0
SPLINE
  5
331
100
AcDbEntity
  8
0
100
AcDbSpline
 62
7
  6
CONTINUOUS
 70
0
 71
3
 72
20
 73
16
 74
0
 42
0.0000001
 43
0.0000001
 44
0.0000000001
 40
0.0
 40
0.0
 40
0.0
 40
0.0
 40
0.0706660094
 40
0.1412140951
 40
0.2805845868
 40
0.4164590552
 40
0.4826520952
 40
0.5473752682
 40
0.6104599619
 40
0.6717548941
 40
0.788426224
 40
0.8438992997
 40
0.8975047817
 40
0.9494345319
 40
1.0
 40
1.0
 40
1.0
 40
1.0
 10
6.196
 20
6.8443341399
 30
0.0
 10
6.1942150592
 20
6.8443341399
 30
0.0
 10
6.1906462144
 20
6.8441840063
 30
0.0
 10
6.1836076761
 20
6.8433018265
 30
0.0
 10
6.1751014333
 20
6.8411356368
 30
0.0
 10
6.1671747964
 20
6.8376278174
 30
0.0
 10
6.1614072565
 20
6.8341285306
 30
0.0
 10
6.1574504988
 20
6.8312269747
 30
0.0
 10
6.1538606915
 20
6.8280649788
 30
0.0
 10
6.1496815174
 20
6.8236293798
 30
0.0
 10
6.1462624589
 20
6.8187637902
 30
0.0
 10
6.1437991969
 20
6.8136096869
 30
0.0
 10
6.1424820932
 20
6.8097509256
 30
0.0
 10
6.1416835866
 20
6.8058792228
 30
0.0
 10
6.1414999987
 20
6.8032872579
 30
0.0
 10
6.1415
 20
6.8020100333
 30
0.0
  0
SPLINE
  5
332
100
AcDbEntity
  8
0
100
AcDbSpline
 62
7
  6
CONTINUOUS
 70
0
 71
3
 72
15
 73
11
 74
0
 42
0.0000001
 43
0.0000001
 44
0.0000000001
 40
0.0
 40
0.0
 40
0.0
 40
0.0
 40
0.0386053455
 40
0.1475760302
 40
0.3094330464
 40
0.5000128481
 40
0.6905914226
 40
0.8524371907
 40
0.9613984048
 40
1.0
 40
1.0
 40
1.0
 40
1.0
 10
6.1415
 20
6.72
 30
0.0
 10
6.1428853565
 20
6.720269678
 30
0.0
 10
6.1481883731
 20
6.7212640778
 30
0.0
 10
6.1593619684
 20
6.7230514883
 30
0.0
 10
6.1761442467
 20
6.7248628695
 30
0.0
 10
6.1960013664
 20
6.7256211308
 30
0.0
 10
6.2158580714
 20
6.7248627382
 30
0.0
 10
6.2326395319
 20
6.7230512699
 30
0.0
 10
6.2438122342
 20
6.7212639498
 30
0.0
 10
6.2491147771
 20
6.7202696471
 30
0.0
 10
6.2505
 20
6.72
 30
0.0
  0
SPLINE
  5
333
100
AcDbEntity
  8
0
100
AcDbSpline
 62
7
  6
CONTINUOUS
 70
0
 71
3
 72
20
 73
16
 74
0
 42
0.0000001
 43
0.0000001
 44
0.0000000001
 40
0.0
 40
0.0
 40
0.0
 40
0.0
 40
0.0505654656
 40
0.1024952172
 40
0.1561006994
 40
0.2115737723
 40
0.3282450994
 40
0.3895400311
 40
0.4526247245
 40
0.5173478975
 40
0.5835409385
 40
0.719415408
 40
0.8587859027
 40
0.9293339904
 40
1.0
 40
1.0
 40
1.0
 40
1.0
 10
6.2505
 20
6.8020100304
 30
0.0
 10
6.2505000012
 20
6.803287255
 30
0.0
 10
6.2503164136
 20
6.8058792199
 30
0.0
 10
6.2495179076
 20
6.809750923
 30
0.0
 10
6.2482008042
 20
6.8136096845
 30
0.0
 10
6.2457375425
 20
6.8187637881
 30
0.0
 10
6.2423184841
 20
6.8236293779
 30
0.0
 10
6.2381393101
 20
6.8280649772
 30
0.0
 10
6.2345495029
 20
6.8312269734
 30
0.0
 10
6.2305927451
 20
6.8341285295
 30
0.0
 10
6.224825205
 20
6.8376278166
 30
0.0
 10
6.2168985678
 20
6.8411356364
 30
0.0
 10
6.2083923246
 20
6.8433018263
 30
0.0
 10
6.2013537859
 20
6.8441840063
 30
0.0
 10
6.1977849409
 20
6.8443341399
 30
0.0
 10
6.196
 20
6.8443341399
 30
0.0
  0
SPLINE
  5
334
100
AcDbEntity
  8
0
100
AcDbSpline
 62
7
  6
CONTINUOUS
 70
0
 71
3
 72
11
 73
7
 74
0
 42
0.0000001
 43
0.0000001
 44
0.0000000001
 40
0.0
 40
0.0
 40
0.0
 40
0.0
 40
0.2391619953
 40
0.4873203693
 40
0.7420720578
 40
1.0
 40
1.0
 40
1.0
 40
1.0
 10
6.1698679198
 20
6.8378385918
 30
0.0
 10
6.1718942443
 20
6.8372620063
 30
0.0
 10
6.1760749868
 20
6.8362643631
 30
0.0
 10
6.1825330058
 20
6.8352203537
 30
0.0
 10
6.1892105347
 20
6.8345955051
 30
0.0
 10
6.1937279311
 20
6.8344566963
 30
0.0
 10
6.196
 20
6.8344566963
 30
0.0
  0
SPLINE
  5
335
100
AcDbEntity
  8
0
100
AcDbSpline
 62
7
  6
CONTINUOUS
 70
0
 71
3
 72
20
 73
16
 74
0
 42
0.0000001
 43
0.0000001
 44
0.0000000001
 40
0.0
 40
0.0
 40
0.0
 40
0.0
 40
0.0706660095
 40
0.1412140948
 40
0.2805845859
 40
0.4164590544
 40
0.4826520943
 40
0.5473752673
 40
0.6104599611
 40
0.6717548933
 40
0.7884262237
 40
0.8438993003
 40
0.8975047822
 40
0.9494345315
 40
1.0
 40
1.0
 40
1.0
 40
1.0
 10
6.196
 20
7.1556658601
 30
0.0
 10
6.1977849408
 20
7.1556658601
 30
0.0
 10
6.2013537855
 20
7.1558159937
 30
0.0
 10
6.2083923238
 20
7.1566981735
 30
0.0
 10
6.2168985664
 20
7.1588643632
 30
0.0
 10
6.2248252033
 20
7.1623721824
 30
0.0
 10
6.2305927431
 20
7.1658714692
 30
0.0
 10
6.2345495008
 20
7.168773025
 30
0.0
 10
6.2381393081
 20
7.1719350208
 30
0.0
 10
6.2423184822
 20
7.1763706197
 30
0.0
 10
6.2457375408
 20
7.1812362093
 30
0.0
 10
6.2482008029
 20
7.1863903125
 30
0.0
 10
6.2495179066
 20
7.1902490737
 30
0.0
 10
6.2503164134
 20
7.1941207764
 30
0.0
 10
6.2505000013
 20
7.1967127413
 30
0.0
 10
6.2505
 20
7.1979899659
 30
0.0
  0
SPLINE
  5
336
100
AcDbEntity
  8
0
100
AcDbSpline
 62
7
  6
CONTINUOUS
 70
0
 71
3
 72
23
 73
19
 74
0
 42
0.0000001
 43
0.0000001
 44
0.0000000001
 40
0.0
 40
0.0
 40
0.0
 40
0.0
 40
0.0748559536
 40
0.1493045397
 40
0.2227210444
 40
0.2946423502
 40
0.3647100133
 40
0.43262648
 40
0.4981686838
 40
0.5612066033
 40
0.6217435899
 40
0.6798954422
 40
0.7359073684
 40
0.7901482087
 40
0.8430989796
 40
0.8953211163
 40
0.9474261278
 40
1.0
 40
1.0
 40
1.0
 40
1.0
 10
6.196
 20
7.2327404993
 30
0.0
 10
6.1942159261
 20
7.2327404993
 30
0.0
 10
6.1906566956
 20
7.232641116
 30
0.0
 10
6.1853644317
 20
7.2321963771
 30
0.0
 10
6.1801756335
 20
7.2314559293
 30
0.0
 10
6.1751434379
 20
7.2304225931
 30
0.0
 10
6.1703147505
 20
7.2290999873
 30
0.0
 10
6.1657335391
 20
7.2274925206
 30
0.0
 10
6.1614415028
 20
7.2256061762
 30
0.0
 10
6.1574787581
 20
7.2234460401
 30
0.0
 10
6.1538806126
 20
7.2210224704
 30
0.0
 10
6.1506823627
 20
7.218343468
 30
0.0
 10
6.1479137918
 20
7.2154242248
 30
0.0
 10
6.1456054077
 20
7.2122798311
 30
0.0
 10
6.1437825722
 20
7.2089325769
 30
0.0
 10
6.1424660221
 20
7.205408989
 30
0.0
 10
6.1416738422
 20
7.201741631
 30
0.0
 10
6.1415000012
 20
7.1992429845
 30
0.0
 10
6.1415
 20
7.1979899689
 30
0.0
  0
SPLINE
  5
337
100
AcDbEntity
  8
0
100
AcDbSpline
 62
7
  6
CONTINUOUS
 70
0
 71
3
 72
23
 73
19
 74
0
 42
0.0000001
 43
0.0000001
 44
0.0000000001
 40
0.0
 40
0.0
 40
0.0
 40
0.0
 40
0.0525738819
 40
0.1046789073
 40
0.1569010514
 40
0.2098518238
 40
0.2640926655
 40
0.3201045934
 40
0.378256446
 40
0.438793431
 40
0.5018313485
 40
0.5673735516
 40
0.6352900191
 40
0.7053576791
 40
0.7772789776
 40
0.8506954713
 40
0.9251440494
 40
1.0
 40
1.0
 40
1.0
 40
1.0
 10
6.1415
 20
6.8020100333
 30
0.0
 10
6.1415000013
 20
6.8007570174
 30
0.0
 10
6.1416738423
 20
6.7982583703
 30
0.0
 10
6.142466022
 20
6.7945910114
 30
0.0
 10
6.1437825721
 20
6.7910674227
 30
0.0
 10
6.1456054081
 20
6.7877201684
 30
0.0
 10
6.1479137923
 20
6.7845757745
 30
0.0
 10
6.1506823636
 20
6.7816565313
 30
0.0
 10
6.1538806135
 20
6.7789775288
 30
0.0
 10
6.1574787592
 20
6.7765539592
 30
0.0
 10
6.161441504
 20
6.7743938233
 30
0.0
 10
6.1657335404
 20
6.7725074789
 30
0.0
 10
6.1703147519
 20
6.7709000123
 30
0.0
 10
6.1751434392
 20
6.7695774066
 30
0.0
 10
6.1801756345
 20
6.7685440706
 30
0.0
 10
6.1853644322
 20
6.7678036229
 30
0.0
 10
6.1906566958
 20
6.767358884
 30
0.0
 10
6.1942159261
 20
6.7672595007
 30
0.0
 10
6.196
 20
6.7672595007
 30
0.0
  0
SPLINE
  5
338
100
AcDbEntity
  8
0
100
AcDbSpline
 62
7
  6
CONTINUOUS
 70
0
 71
3
 72
23
 73
19
 74
0
 42
0.0000001
 43
0.0000001
 44
0.0000000001
 40
0.0
 40
0.0
 40
0.0
 40
0.0
 40
0.0525738861
 40
0.1046789174
 40
0.1569010652
 40
0.2098518385
 40
0.2640926804
 40
0.3201046083
 40
0.378256462
 40
0.4387934498
 40
0.5018313693
 40
0.567373572
 40
0.635290038
 40
0.7053576944
 40
0.777278988
 40
0.850695476
 40
0.9251440506
 40
1.0
 40
1.0
 40
1.0
 40
1.0
 10
6.2505
 20
7.1979899659
 30
0.0
 10
6.2504999987
 20
7.1992429818
 30
0.0
 10
6.2503261576
 20
7.2017416293
 30
0.0
 10
6.2495339779
 20
7.2054089885
 30
0.0
 10
6.2482174279
 20
7.2089325775
 30
0.0
 10
6.2463945916
 20
7.2122798319
 30
0.0
 10
6.2440862075
 20
7.2154242259
 30
0.0
 10
6.241317636
 20
7.218343469
 30
0.0
 10
6.2381193859
 20
7.2210224716
 30
0.0
 10
6.2345212401
 20
7.2234460412
 30
0.0
 10
6.2305584951
 20
7.2256061772
 30
0.0
 10
6.2262664587
 20
7.2274925216
 30
0.0
 10
6.2216852471
 20
7.229099988
 30
0.0
 10
6.21685656
 20
7.2304225936
 30
0.0
 10
6.211824365
 20
7.2314559295
 30
0.0
 10
6.2066355675
 20
7.2321963772
 30
0.0
 10
6.2013433042
 20
7.2326411161
 30
0.0
 10
6.1977840739
 20
7.2327404993
 30
0.0
 10
6.196
 20
7.2327404993
 30
0.0
  0
SPLINE
  5
339
100
AcDbEntity
  8
0
100
AcDbSpline
 62
7
  6
CONTINUOUS
 70
0
 71
3
 72
23
 73
19
 74
0
 42
0.0000001
 43
0.0000001
 44
0.0000000001
 40
0.0
 40
0.0
 40
0.0
 40
0.0
 40
0.0748559547
 40
0.1493045443
 40
0.2227210545
 40
0.2946423651
 40
0.3647100319
 40
0.4326265004
 40
0.4981687047
 40
0.5612066217
 40
0.621743605
 40
0.6798954557
 40
0.7359073817
 40
0.7901482216
 40
0.8430989915
 40
0.895321125
 40
0.9474261314
 40
1.0
 40
1.0
 40
1.0
 40
1.0
 10
6.196
 20
6.7672595007
 30
0.0
 10
6.1977840739
 20
6.7672595007
 30
0.0
 10
6.2013433045
 20
6.767358884
 30
0.0
 10
6.2066355686
 20
6.767803623
 30
0.0
 10
6.2118243671
 20
6.7685440708
 30
0.0
 10
6.2168565629
 20
6.7695774071
 30
0.0
 10
6.2216852505
 20
6.7709000129
 30
0.0
 10
6.2262664619
 20
6.7725074799
 30
0.0
 10
6.2305584982
 20
6.7743938243
 30
0.0
 10
6.2345212427
 20
6.7765539604
 30
0.0
 10
6.2381193879
 20
6.77897753
 30
0.0
 10
6.2413176377
 20
6.7816565323
 30
0.0
 10
6.2440862084
 20
6.7845757756
 30
0.0
 10
6.2463945925
 20
6.7877201691
 30
0.0
 10
6.2482174278
 20
6.7910674233
 30
0.0
 10
6.2495339779
 20
6.7945910109
 30
0.0
 10
6.2503261578
 20
6.7982583686
 30
0.0
 10
6.2504999988
 20
6.8007570149
 30
0.0
 10
6.2505
 20
6.8020100304
 30
0.0
  0
SPLINE
  5
33A
100
AcDbEntity
  8
0
100
AcDbSpline
 62
7
  6
CONTINUOUS
 70
0
 71
3
 72
30
 73
26
 74
0
 42
0.0000001
 43
0.0000001
 44
0.0000000001
 40
0.0
 40
0.0
 40
0.0
 40
0.0
 40
0.0156298975
 40
0.0325901816
 40
0.0512532965
 40
0.0718332883
 40
0.0944355075
 40
0.1190939713
 40
0.1457820133
 40
0.1744250218
 40
0.2371368919
 40
0.3062124234
 40
0.3803578288
 40
0.4580932456
 40
0.53777237
 40
0.6176315166
 40
0.6958063094
 40
0.7704076296
 40
0.83956693
 40
0.8715984429
 40
0.901687838
 40
0.9296758618
 40
0.9554405273
 40
0.9788963031
 40
1.0
 40
1.0
 40
1.0
 40
1.0
 10
5.4810240381
 20
7.2985186705
 30
0.0
 10
5.4808253363
 20
7.2984192431
 30
0.0
 10
5.4803863468
 20
7.2982591525
 30
0.0
 10
5.4796634085
 20
7.2981442519
 30
0.0
 10
5.4788617078
 20
7.2981443542
 30
0.0
 10
5.4779877977
 20
7.2982564063
 30
0.0
 10
5.4770477994
 20
7.2984784265
 30
0.0
 10
5.476048704
 20
7.2988089612
 30
0.0
 10
5.4749976348
 20
7.2992451712
 30
0.0
 10
5.4734906857
 20
7.2999854703
 30
0.0
 10
5.4715329082
 20
7.3011635338
 30
0.0
 10
5.4691646274
 20
7.3028893645
 30
0.0
 10
5.4667705285
 20
7.3049268774
 30
0.0
 10
5.4644114955
 20
7.3072259705
 30
0.0
 10
5.4621473012
 20
7.3097289909
 30
0.0
 10
5.4600362612
 20
7.3123704053
 30
0.0
 10
5.4581343606
 20
7.315078623
 30
0.0
 10
5.456492729
 20
7.3177755474
 30
0.0
 10
5.4553510122
 20
7.3200019069
 30
0.0
 10
5.4546126246
 20
7.3217165223
 30
0.0
 10
5.4541643092
 20
7.3229171158
 30
0.0
 10
5.4538112516
 20
7.3240562542
 30
0.0
 10
5.4535557353
 20
7.3251246563
 30
0.0
 10
5.4533989316
 20
7.3261130583
 30
0.0
 10
5.4533589838
 20
7.3267467102
 30
0.0
 10
5.4533589838
 20
7.3270467135
 30
0.0
  0
SPLINE
  5
33B
100
AcDbEntity
  8
0
100
AcDbSpline
 62
7
  6
CONTINUOUS
 70
0
 71
3
 72
30
 73
26
 74
0
 42
0.0000001
 43
0.0000001
 44
0.0000000001
 40
0.0
 40
0.0
 40
0.0
 40
0.0
 40
0.0210999944
 40
0.0445501638
 40
0.0703084394
 40
0.098290485
 40
0.1283744115
 40
0.1604001988
 40
0.2295445181
 40
0.3041261987
 40
0.3822847476
 40
0.4621335679
 40
0.5418023624
 40
0.6195289958
 40
0.6936738681
 40
0.7627592865
 40
0.8254841102
 40
0.8541348521
 40
0.880831654
 40
0.905500361
 40
0.9281154398
 40
0.9487092819
 40
0.9673856265
 40
0.9843588166
 40
1.0
 40
1.0
 40
1.0
 40
1.0
 10
5.4533589838
 20
6.6729532865
 30
0.0
 10
5.4533589838
 20
6.6732531916
 30
0.0
 10
5.4533988892
 20
6.6738866153
 30
0.0
 10
5.4535555725
 20
6.6748746565
 30
0.0
 10
5.4538109289
 20
6.6759426627
 30
0.0
 10
5.4541638175
 20
6.6770813985
 30
0.0
 10
5.4546119089
 20
6.6782816065
 30
0.0
 10
5.455349902
 20
6.6799956773
 30
0.0
 10
5.4564909658
 20
6.6822212979
 30
0.0
 10
5.4581317017
 20
6.684917361
 30
0.0
 10
5.4600327217
 20
6.6876247784
 30
0.0
 10
5.4621427787
 20
6.6902656462
 30
0.0
 10
5.4644059941
 20
6.692768293
 30
0.0
 10
5.4667640579
 20
6.6950672642
 30
0.0
 10
5.4691574582
 20
6.697104866
 30
0.0
 10
5.4715251459
 20
6.698831285
 30
0.0
 10
5.4734826079
 20
6.7000100266
 30
0.0
 10
5.4749893568
 20
6.7007510959
 30
0.0
 10
5.4760403831
 20
6.7011879495
 30
0.0
 10
5.4770395604
 20
6.701519155
 30
0.0
 10
5.4779797233
 20
6.7017420849
 30
0.0
 10
5.478853929
 20
6.7018551881
 30
0.0
 10
5.479656074
 20
6.7018563391
 30
0.0
 10
5.4803795838
 20
6.7017424895
 30
0.0
 10
5.4808191739
 20
6.7015833005
 30
0.0
 10
5.4810182218
 20
6.7014842832
 30
0.0
  0
SPLINE
  5
33C
100
AcDbEntity
  8
0
100
AcDbSpline
 62
7
  6
CONTINUOUS
 70
0
 71
3
 72
25
 73
21
 74
0
 42
0.0000001
 43
0.0000001
 44
0.0000000001
 40
0.0
 40
0.0
 40
0.0
 40
0.0
 40
0.0255717581
 40
0.0515908124
 40
0.0782145897
 40
0.1055814177
 40
0.1629099078
 40
0.2242184081
 40
0.357313449
 40
0.4280478872
 40
0.4999986467
 40
0.5719472182
 40
0.6426808826
 40
0.7757784106
 40
0.8370853241
 40
0.8944153549
 40
0.921783407
 40
0.9484082533
 40
0.9744280047
 40
1.0
 40
1.0
 40
1.0
 40
1.0
 10
5.54
 20
7.2425376259
 30
0.0
 10
5.54
 20
7.2420740344
 30
0.0
 10
5.5399336413
 20
7.2411375482
 30
0.0
 10
5.5396422435
 20
7.2397458572
 30
0.0
 10
5.5391617016
 20
7.2383728784
 30
0.0
 10
5.5382592788
 20
7.2365628125
 30
0.0
 10
5.5366608457
 20
7.234422328
 30
0.0
 10
5.5332197526
 20
7.2313881344
 30
0.0
 10
5.5287847627
 20
7.2292696442
 30
0.0
 10
5.5238959588
 20
7.2281735127
 30
0.0
 10
5.5200001173
 20
7.2278867082
 30
0.0
 10
5.5161042689
 20
7.2281733986
 30
0.0
 10
5.5112155129
 20
7.2292696658
 30
0.0
 10
5.5067804116
 20
7.231387929
 30
0.0
 10
5.503339316
 20
7.2344221934
 30
0.0
 10
5.5017408168
 20
7.2365626512
 30
0.0
 10
5.5008383502
 20
7.2383727751
 30
0.0
 10
5.500357788
 20
7.239745804
 30
0.0
 10
5.5000663666
 20
7.2411375268
 30
0.0
 10
5.5
 20
7.2420740301
 30
0.0
 10
5.5
 20
7.2425376259
 30
0.0
  0
SPLINE
  5
33D
100
AcDbEntity
  8
0
100
AcDbSpline
 62
7
  6
CONTINUOUS
 70
0
 71
3
 72
13
 73
9
 74
0
 42
0.0000001
 43
0.0000001
 44
0.0000000001
 40
0.0
 40
0.0
 40
0.0
 40
0.0
 40
0.1103892663
 40
0.2199375031
 40
0.3316019774
 40
0.4481444673
 40
0.7038152589
 40
1.0
 40
1.0
 40
1.0
 40
1.0
 10
5.4548355545
 20
6.669854393
 30
0.0
 10
5.4547165045
 20
6.6699140019
 30
0.0
 10
5.4544884743
 20
6.6700524412
 30
0.0
 10
5.4541862551
 20
6.6703173795
 30
0.0
 10
5.4539298203
 20
6.6706364645
 30
0.0
 10
5.4536419476
 20
6.6711467152
 30
0.0
 10
5.4534082838
 20
6.6719283367
 30
0.0
 10
5.4533589838
 20
6.6725960606
 30
0.0
 10
5.4533589838
 20
6.6729532865
 30
0.0
  0
SPLINE
  5
33E
100
AcDbEntity
  8
126-101_HEX_FEATURES
100
AcDbSpline
 62
7
  6
CONTINUOUS
 70
0
 71
3
 72
18
 73
14
 74
0
 42
0.0000001
 43
0.0000001
 44
0.0000000001
 40
0.0
 40
0.0
 40
0.0
 40
0.0
 40
0.051904153
 40
0.1040062452
 40
0.1567208545
 40
0.2105013454
 40
0.265768285
 40
0.3228511042
 40
0.443160313
 40
0.5723607859
 40
0.7096876503
 40
0.853214282
 40
1.0
 40
1.0
 40
1.0
 40
1.0
 10
5.4871160761
 20
6.969000121
 30
0.0
 10
5.486391748
 20
6.9690001188
 30
0.0
 10
5.4849384878
 20
6.9690960318
 30
0.0
 10
5.4827884454
 20
6.9695291112
 30
0.0
 10
5.4806896285
 20
6.9702514841
 30
0.0
 10
5.4786614443
 20
6.9712560629
 30
0.0
 10
5.4767218648
 20
6.9725364167
 30
0.0
 10
5.4742332518
 20
6.974631409
 30
0.0
 10
5.4714409177
 20
6.977916911
 30
0.0
 10
5.4687673674
 20
6.982637091
 30
0.0
 10
5.4667905075
 20
6.988032095
 30
0.0
 10
5.4655782443
 20
6.993894744
 30
0.0
 10
5.465306425
 20
6.9979515894
 30
0.0
 10
5.465306425
 20
7.0
 30
0.0
  0
SPLINE
  5
33F
100
AcDbEntity
  8
0
100
AcDbSpline
 62
7
  6
CONTINUOUS
 70
0
 71
3
 72
25
 73
21
 74
0
 42
0.0000001
 43
0.0000001
 44
0.0000000001
 40
0.0
 40
0.0
 40
0.0
 40
0.0
 40
0.0255717581
 40
0.0515908124
 40
0.0782145897
 40
0.1055814177
 40
0.1629099078
 40
0.2242184081
 40
0.357313449
 40
0.4280478872
 40
0.4999986467
 40
0.5719472182
 40
0.6426808826
 40
0.7757784106
 40
0.8370853241
 40
0.8944153549
 40
0.921783407
 40
0.9484082533
 40
0.9744280047
 40
1.0
 40
1.0
 40
1.0
 40
1.0
 10
5.5
 20
6.7574623741
 30
0.0
 10
5.5
 20
6.7579259656
 30
0.0
 10
5.5000663587
 20
6.7588624518
 30
0.0
 10
5.5003577565
 20
6.7602541428
 30
0.0
 10
5.5008382984
 20
6.7616271216
 30
0.0
 10
5.5017407212
 20
6.7634371875
 30
0.0
 10
5.5033391543
 20
6.765577672
 30
0.0
 10
5.5067802474
 20
6.7686118656
 30
0.0
 10
5.5112152373
 20
6.7707303558
 30
0.0
 10
5.5161040412
 20
6.7718264873
 30
0.0
 10
5.5199998827
 20
6.7721132918
 30
0.0
 10
5.5238957311
 20
6.7718266014
 30
0.0
 10
5.5287844871
 20
6.7707303342
 30
0.0
 10
5.5332195884
 20
6.768612071
 30
0.0
 10
5.536660684
 20
6.7655778066
 30
0.0
 10
5.5382591832
 20
6.7634373488
 30
0.0
 10
5.5391616498
 20
6.7616272249
 30
0.0
 10
5.539642212
 20
6.760254196
 30
0.0
 10
5.5399336334
 20
6.7588624732
 30
0.0
 10
5.54
 20
6.7579259699
 30
0.0
 10
5.54
 20
6.7574623741
 30
0.0
  0
SPLINE
  5
340
100
AcDbEntity
  8
126-101_HEX_FEATURES
100
AcDbSpline
 62
7
  6
CONTINUOUS
 70
0
 71
3
 72
18
 73
14
 74
0
 42
0.0000001
 43
0.0000001
 44
0.0000000001
 40
0.0
 40
0.0
 40
0.0
 40
0.0
 40
0.146784017
 40
0.2903063264
 40
0.4276316628
 40
0.5568299863
 40
0.6771376892
 40
0.7342217852
 40
0.7894899713
 40
0.8432725723
 40
0.8959899875
 40
0.9480946757
 40
1.0
 40
1.0
 40
1.0
 40
1.0
 10
5.465306425
 20
7.0
 30
0.0
 10
5.465306425
 20
7.0020483503
 30
0.0
 10
5.4655782244
 20
7.0061050381
 30
0.0
 10
5.4667903915
 20
7.01196749
 30
0.0
 10
5.468767117
 20
7.0173623077
 30
0.0
 10
5.4714404336
 20
7.0220824296
 30
0.0
 10
5.4742326366
 20
7.025367885
 30
0.0
 10
5.4767210746
 20
7.0274630159
 30
0.0
 10
5.478660626
 20
7.0287434563
 30
0.0
 10
5.4806887909
 20
7.0297481738
 30
0.0
 10
5.4827876372
 20
7.0304706692
 30
0.0
 10
5.4849377139
 20
7.0309038403
 30
0.0
 10
5.4863909944
 20
7.0309998412
 30
0.0
 10
5.4871153259
 20
7.0309998761
 30
0.0
  0
SPLINE
  5
341
100
AcDbEntity
  8
0
100
AcDbSpline
 62
7
  6
CONTINUOUS
 70
0
 71
3
 72
13
 73
9
 74
0
 42
0.0000001
 43
0.0000001
 44
0.0000000001
 40
0.0
 40
0.0
 40
0.0
 40
0.0
 40
0.2961896006
 40
0.551855413
 40
0.6683923129
 40
0.7800531856
 40
0.889604365
 40
1.0
 40
1.0
 40
1.0
 40
1.0
 10
5.4533589838
 20
7.3270467135
 30
0.0
 10
5.4533589838
 20
7.3274039452
 30
0.0
 10
5.4534082605
 20
7.3280716674
 30
0.0
 10
5.4536418847
 20
7.3288532972
 30
0.0
 10
5.4539297671
 20
7.3293635263
 30
0.0
 10
5.4541862389
 20
7.3296825722
 30
0.0
 10
5.4544884801
 20
7.3299474932
 30
0.0
 10
5.4547165216
 20
7.3300859342
 30
0.0
 10
5.454835578
 20
7.3301455474
 30
0.0
  0
SPLINE
  5
342
100
AcDbEntity
  8
THREAD
100
AcDbSpline
 62
7
  6
CONTINUOUS
 70
0
 71
3
 72
15
 73
11
 74
0
 42
0.0000001
 43
0.0000001
 44
0.0000000001
 40
0.0
 40
0.0
 40
0.0
 40
0.0
 40
0.1255722257
 40
0.2506945728
 40
0.3754512036
 40
0.5000000116
 40
0.6245488177
 40
0.7493054452
 40
0.8744277787
 40
1.0
 40
1.0
 40
1.0
 40
1.0
 10
4.2720636659
 20
6.5920977523
 30
0.0
 10
4.2674741757
 20
6.6075112819
 30
0.0
 10
4.2591317584
 20
6.6385375548
 30
0.0
 10
4.249641119
 20
6.6857146096
 30
0.0
 10
4.2436929945
 20
6.7333481633
 30
0.0
 10
4.2416631432
 20
6.7812419872
 30
0.0
 10
4.2436929952
 20
6.8291358106
 30
0.0
 10
4.2496411201
 20
6.8767693618
 30
0.0
 10
4.2591317593
 20
6.923946414
 30
0.0
 10
4.2674741758
 20
6.9549726847
 30
0.0
 10
4.2720636659
 20
6.9703862137
 30
0.0
  0
SPLINE
  5
343
100
AcDbEntity
  8
THREAD
100
AcDbSpline
 62
7
  6
CONTINUOUS
 70
0
 71
3
 72
21
 73
17
 74
0
 42
0.0000001
 43
0.0000001
 44
0.0000000001
 40
0.0
 40
0.0
 40
0.0
 40
0.0
 40
0.1264560126
 40
0.1892875349
 40
0.2518383053
 40
0.3141389815
 40
0.3762244014
 40
0.4381542655
 40
0.5000000641
 40
0.5618458488
 40
0.6237757087
 40
0.6858611075
 40
0.7481617721
 40
0.8107125085
 40
0.8735439971
 40
1.0
 40
1.0
 40
1.0
 40
1.0
 10
4.7075
 20
6.5920977523
 30
0.0
 10
4.7151471373
 20
6.6069255248
 30
0.0
 10
4.7257575359
 20
6.6295796895
 30
0.0
 10
4.7375954699
 20
6.6606378847
 30
0.0
 10
4.7451354262
 20
6.6842385146
 30
0.0
 10
4.7511966695
 20
6.7081620015
 30
0.0
 10
4.7556517738
 20
6.7323556969
 30
0.0
 10
4.75836939
 20
6.7567472195
 30
0.0
 10
4.7592910459
 20
6.7812420067
 30
0.0
 10
4.7583693877
 20
6.8057367933
 30
0.0
 10
4.7556517688
 20
6.8301283104
 30
0.0
 10
4.7511966631
 20
6.8543220006
 30
0.0
 10
4.745135417
 20
6.8782454777
 30
0.0
 10
4.7375954668
 20
6.9018460985
 30
0.0
 10
4.7257575302
 20
6.9329042818
 30
0.0
 10
4.7151471367
 20
6.9555584424
 30
0.0
 10
4.7075
 20
6.9703862137
 30
0.0
  0
SPLINE
  5
344
100
AcDbEntity
  8
126-101_HEX_FEATURES
100
AcDbSpline
 62
7
  6
CONTINUOUS
 70
0
 71
3
 72
23
 73
19
 74
0
 42
0.0000001
 43
0.0000001
 44
0.0000000001
 40
0.0
 40
0.0
 40
0.0
 40
0.0
 40
0.0312934047
 40
0.0627010808
 40
0.0940372697
 40
0.1253517348
 40
0.1566564582
 40
0.1879252354
 40
0.2192011564
 40
0.250458566
 40
0.3129321367
 40
0.375395502
 40
0.437861693
 40
0.5003266042
 40
0.6252232873
 40
0.7501394439
 40
0.875067104
 40
1.0
 40
1.0
 40
1.0
 40
1.0
 10
5.55
 20
7.0
 30
0.0
 10
5.55
 20
6.9992213099
 30
0.0
 10
5.5498667904
 20
6.9976587072
 30
0.0
 10
5.5493118073
 20
6.9953770257
 30
0.0
 10
5.5484309038
 20
6.9932003014
 30
0.0
 10
5.5472787946
 20
6.9911597065
 30
0.0
 10
5.5459143367
 20
6.9892585133
 30
0.0
 10
5.5443801168
 20
6.987493999
 30
0.0
 10
5.5427096817
 20
6.9858606314
 30
0.0
 10
5.5403413772
 20
6.9838409594
 30
0.0
 10
5.5371619879
 20
6.9815911159
 30
0.0
 10
5.5331183906
 20
6.9792585215
 30
0.0
 10
5.5289102305
 20
6.9772406587
 30
0.0
 10
5.5231415261
 20
6.9749150589
 30
0.0
 10
5.5157050673
 20
6.9726119733
 30
0.0
 10
5.506576393
 20
6.9706598999
 30
0.0
 10
5.4973222806
 20
6.9694371716
 30
0.0
 10
5.4911081777
 20
6.9690844833
 30
0.0
 10
5.488
 20
6.9690237727
 30
0.0
  0
SPLINE
  5
345
100
AcDbEntity
  8
0
100
AcDbSpline
 62
7
  6
CONTINUOUS
 70
0
 71
3
 72
30
 73
26
 74
0
 42
0.0000001
 43
0.0000001
 44
0.0000000001
 40
0.0
 40
0.0
 40
0.0
 40
0.0
 40
0.0212474306
 40
0.0447950114
 40
0.0706318851
 40
0.0986925301
 40
0.1288677367
 40
0.1610074977
 40
0.2304551004
 40
0.3054443042
 40
0.3841401062
 40
0.4646698399
 40
0.5451614649
 40
0.6237906636
 40
0.6987894125
 40
0.768495636
 40
0.831382596
 40
0.859882183
 40
0.8862467093
 40
0.9103867398
 40
0.9322813895
 40
0.9519806656
 40
0.9696198366
 40
0.9854705674
 40
1.0
 40
1.0
 40
1.0
 40
1.0
 10
5.4826410162
 20
6.6983122704
 30
0.0
 10
5.4826410162
 20
6.6980129512
 30
0.0
 10
5.4825971176
 20
6.6973816456
 30
0.0
 10
5.4824245918
 20
6.6964003913
 30
0.0
 10
5.4821443181
 20
6.695344813
 30
0.0
 10
5.4817581303
 20
6.6942242754
 30
0.0
 10
5.4812697643
 20
6.69304777
 30
0.0
 10
5.4804692883
 20
6.6913723104
 30
0.0
 10
5.4792416335
 20
6.6892052763
 30
0.0
 10
5.4774988012
 20
6.6865868585
 30
0.0
 10
5.4755055256
 20
6.6839552158
 30
0.0
 10
5.4733214792
 20
6.6813775479
 30
0.0
 10
5.4710078789
 20
6.6789168734
 30
0.0
 10
5.4686262483
 20
6.6766331257
 30
0.0
 10
5.4662371774
 20
6.6745831618
 30
0.0
 10
5.4639018291
 20
6.6728196054
 30
0.0
 10
5.4619901604
 20
6.6715905827
 30
0.0
 10
5.4605298744
 20
6.6708021283
 30
0.0
 10
5.4595206008
 20
6.6703312322
 30
0.0
 10
5.4585673051
 20
6.6699658431
 30
0.0
 10
5.4576761221
 20
6.6697092174
 30
0.0
 10
5.4568525636
 20
6.6695636883
 30
0.0
 10
5.4561010491
 20
6.6695321881
 30
0.0
 10
5.4554263914
 20
6.6696190303
 30
0.0
 10
5.4550185748
 20
6.6697627538
 30
0.0
 10
5.4548355545
 20
6.669854393
 30
0.0
  0
SPLINE
  5
346
100
AcDbEntity
  8
0
100
AcDbSpline
 62
7
  6
CONTINUOUS
 70
0
 71
3
 72
13
 73
9
 74
0
 42
0.0000001
 43
0.0000001
 44
0.0000000001
 40
0.0
 40
0.0
 40
0.0
 40
0.0
 40
0.1153864701
 40
0.2288488223
 40
0.3429681451
 40
0.4603138909
 40
0.7126768682
 40
1.0
 40
1.0
 40
1.0
 40
1.0
 10
5.4810182218
 20
6.7014842832
 30
0.0
 10
5.4811477247
 20
6.7014198614
 30
0.0
 10
5.481395561
 20
6.7012726812
 30
0.0
 10
5.4817264733
 20
6.7009952885
 30
0.0
 10
5.4820085084
 20
6.7006649126
 30
0.0
 10
5.482324252
 20
6.700144343
 30
0.0
 10
5.482584787
 20
6.6993516916
 30
0.0
 10
5.4826410162
 20
6.6986724413
 30
0.0
 10
5.4826410162
 20
6.6983122704
 30
0.0
  0
SPLINE
  5
347
100
AcDbEntity
  8
0
100
AcDbSpline
 62
7
  6
CONTINUOUS
 70
0
 71
3
 72
13
 73
9
 74
0
 42
0.0000001
 43
0.0000001
 44
0.0000000001
 40
0.0
 40
0.0
 40
0.0
 40
0.0
 40
0.28737677
 40
0.5397816797
 40
0.6571256108
 40
0.7712304124
 40
0.8846674632
 40
1.0
 40
1.0
 40
1.0
 40
1.0
 10
5.4826410162
 20
7.3016877296
 30
0.0
 10
5.4826410162
 20
7.3013281047
 30
0.0
 10
5.4825850527
 20
7.3006499091
 30
0.0
 10
5.482325609
 20
7.2998583067
 30
0.0
 10
5.4820109483
 20
7.299338254
 30
0.0
 10
5.481729813
 20
7.299008166
 30
0.0
 10
5.4814000981
 20
7.2987306986
 30
0.0
 10
5.4811531089
 20
7.2985832557
 30
0.0
 10
5.4810240381
 20
7.2985186705
 30
0.0
  0
SPLINE
  5
348
100
AcDbEntity
  8
0
100
AcDbSpline
 62
7
  6
CONTINUOUS
 70
0
 71
3
 72
29
 73
25
 74
0
 42
0.0000001
 43
0.0000001
 44
0.0000000001
 40
0.0
 40
0.0
 40
0.0
 40
0.0
 40
0.0258441352
 40
0.0518631985
 40
0.0782576183
 40
0.1052204635
 40
0.1615014435
 40
0.2218980005
 40
0.2866477099
 40
0.3205645723
 40
0.3553479255
 40
0.4269004017
 40
0.4999986445
 40
0.5730946911
 40
0.6446463267
 40
0.6794311439
 40
0.7133494282
 40
0.7780988975
 40
0.8384938987
 40
0.8947763458
 40
0.9217404439
 40
0.9481359437
 40
0.9741556591
 40
1.0
 40
1.0
 40
1.0
 40
1.0
 10
5.5
 20
7.2425376259
 30
0.0
 10
5.5
 20
7.2429985413
 30
0.0
 10
5.5000652871
 20
7.243924771
 30
0.0
 10
5.5003560375
 20
7.2452940602
 30
0.0
 10
5.5008364564
 20
7.2466304135
 30
0.0
 10
5.5017384904
 20
7.2483708082
 30
0.0
 10
5.5033426137
 20
7.2504017366
 30
0.0
 10
5.5058654659
 20
7.2524600774
 30
0.0
 10
5.5083672739
 20
7.2538288444
 30
0.0
 10
5.5105779423
 20
7.2547153087
 30
0.0
 10
5.5129650595
 20
7.2554696615
 30
0.0
 10
5.5161139593
 20
7.2560992173
 30
0.0
 10
5.5199998845
 20
7.2563519194
 30
0.0
 10
5.5238858079
 20
7.2560993111
 30
0.0
 10
5.527034667
 20
7.2554696937
 30
0.0
 10
5.5294218257
 20
7.2547153556
 30
0.0
 10
5.5316325558
 20
7.253828922
 30
0.0
 10
5.534134403
 20
7.2524602278
 30
0.0
 10
5.536657222
 20
7.2504018598
 30
0.0
 10
5.5382614161
 20
7.2483709636
 30
0.0
 10
5.5391634915
 20
7.2466305114
 30
0.0
 10
5.5396439306
 20
7.2452941093
 30
0.0
 10
5.5399347052
 20
7.2439247901
 30
0.0
 10
5.54
 20
7.2429985449
 30
0.0
 10
5.54
 20
7.2425376259
 30
0.0
  0
SPLINE
  5
349
100
AcDbEntity
  8
0
100
AcDbSpline
 62
7
  6
CONTINUOUS
 70
0
 71
3
 72
29
 73
25
 74
0
 42
0.0000001
 43
0.0000001
 44
0.0000000001
 40
0.0
 40
0.0
 40
0.0
 40
0.0
 40
0.0258441352
 40
0.0518631985
 40
0.0782576183
 40
0.1052204635
 40
0.1615014435
 40
0.2218980005
 40
0.2866477099
 40
0.3205645723
 40
0.3553479255
 40
0.4269004017
 40
0.4999986445
 40
0.5730946911
 40
0.6446463267
 40
0.6794311439
 40
0.7133494282
 40
0.7780988975
 40
0.8384938987
 40
0.8947763458
 40
0.9217404439
 40
0.9481359437
 40
0.9741556591
 40
1.0
 40
1.0
 40
1.0
 40
1.0
 10
5.54
 20
6.7574623741
 30
0.0
 10
5.54
 20
6.7570014587
 30
0.0
 10
5.5399347129
 20
6.756075229
 30
0.0
 10
5.5396439625
 20
6.7547059398
 30
0.0
 10
5.5391635436
 20
6.7533695865
 30
0.0
 10
5.5382615096
 20
6.7516291918
 30
0.0
 10
5.5366573863
 20
6.7495982634
 30
0.0
 10
5.5341345341
 20
6.7475399226
 30
0.0
 10
5.5316327261
 20
6.7461711556
 30
0.0
 10
5.5294220577
 20
6.7452846913
 30
0.0
 10
5.5270349405
 20
6.7445303385
 30
0.0
 10
5.5238860407
 20
6.7439007827
 30
0.0
 10
5.5200001155
 20
6.7436480806
 30
0.0
 10
5.5161141921
 20
6.7439006889
 30
0.0
 10
5.512965333
 20
6.7445303063
 30
0.0
 10
5.5105781743
 20
6.7452846444
 30
0.0
 10
5.5083674442
 20
6.746171078
 30
0.0
 10
5.505865597
 20
6.7475397722
 30
0.0
 10
5.503342778
 20
6.7495981402
 30
0.0
 10
5.5017385839
 20
6.7516290364
 30
0.0
 10
5.5008365085
 20
6.7533694886
 30
0.0
 10
5.5003560694
 20
6.7547058907
 30
0.0
 10
5.5000652948
 20
6.7560752099
 30
0.0
 10
5.5
 20
6.7570014551
 30
0.0
 10
5.5
 20
6.7574623741
 30
0.0
  0
SPLINE
  5
34A
100
AcDbEntity
  8
126-101_HEX_FEATURES
100
AcDbSpline
 62
7
  6
CONTINUOUS
 70
0
 71
3
 72
24
 73
20
 74
0
 42
0.0000001
 43
0.0000001
 44
0.0000000001
 40
0.0
 40
0.0
 40
0.0
 40
0.0
 40
0.1249279148
 40
0.2498445
 40
0.3747467186
 40
0.4372081297
 40
0.4996668246
 40
0.5621253698
 40
0.6245889491
 40
0.6870545509
 40
0.7495319674
 40
0.7807935363
 40
0.8120729362
 40
0.8433427954
 40
0.8746464608
 40
0.9059594939
 40
0.9372966921
 40
0.9687060572
 40
1.0
 40
1.0
 40
1.0
 40
1.0
 10
5.488
 20
7.0309762273
 30
0.0
 10
5.4911081742
 20
7.0309155167
 30
0.0
 10
5.4973222528
 20
7.0305628439
 30
0.0
 10
5.5065753857
 20
7.0293402277
 30
0.0
 10
5.5141846797
 20
7.0277134885
 30
0.0
 10
5.5201644407
 20
7.0260062316
 30
0.0
 10
5.524581172
 20
7.0245046274
 30
0.0
 10
5.5289082398
 20
7.0227600163
 30
0.0
 10
5.5331165103
 20
7.0207425111
 30
0.0
 10
5.5371604694
 20
7.0184099634
 30
0.0
 10
5.5403402518
 20
7.0161599755
 30
0.0
 10
5.5427089068
 20
7.0141400886
 30
0.0
 10
5.5443796263
 20
7.0125065706
 30
0.0
 10
5.5459139715
 20
7.0107419284
 30
0.0
 10
5.5472785281
 20
7.0088407423
 30
0.0
 10
5.5484307525
 20
7.0068001441
 30
0.0
 10
5.5493116307
 20
7.0046232759
 30
0.0
 10
5.5498667202
 20
7.0023414515
 30
0.0
 10
5.55
 20
7.0007787337
 30
0.0
 10
5.55
 20
7.0
 30
0.0
  0
SPLINE
  5
34B
100
AcDbEntity
  8
0
100
AcDbSpline
 62
7
  6
CONTINUOUS
 70
0
 71
3
 72
30
 73
26
 74
0
 42
0.0000001
 43
0.0000001
 44
0.0000000001
 40
0.0
 40
0.0
 40
0.0
 40
0.0
 40
0.0145298148
 40
0.0303802771
 40
0.0480182106
 40
0.0677157132
 40
0.0896088865
 40
0.1137485316
 40
0.1401130647
 40
0.1686123112
 40
0.2314961059
 40
0.3011948084
 40
0.3761883343
 40
0.4548157433
 40
0.5353033439
 40
0.6158237656
 40
0.6945105945
 40
0.7694937286
 40
0.8389460576
 40
0.871093521
 40
0.9012778705
 40
0.9293482347
 40
0.9551949036
 40
0.9787498468
 40
1.0
 40
1.0
 40
1.0
 40
1.0
 10
5.454835578
 20
7.3301455474
 30
0.0
 10
5.4550186024
 20
7.3302371903
 30
0.0
 10
5.455426412
 20
7.3303809328
 30
0.0
 10
5.4561010485
 20
7.3304678141
 30
0.0
 10
5.4568525185
 20
7.3304363556
 30
0.0
 10
5.4576760193
 20
7.3302908614
 30
0.0
 10
5.4585671531
 20
7.3300342474
 30
0.0
 10
5.4595204096
 20
7.3296688308
 30
0.0
 10
5.4605296713
 20
7.3291979367
 30
0.0
 10
5.4619899282
 20
7.3284095344
 30
0.0
 10
5.4639014897
 20
7.3271806353
 30
0.0
 10
5.4662366967
 20
7.3254172647
 30
0.0
 10
5.4686256039
 20
7.3233674271
 30
0.0
 10
5.4710071657
 20
7.3210838361
 30
0.0
 10
5.4733206615
 20
7.3186233589
 30
0.0
 10
5.4755045772
 20
7.316045993
 30
0.0
 10
5.477497669
 20
7.3134146483
 30
0.0
 10
5.4792406286
 20
7.3107964895
 30
0.0
 10
5.4804683495
 20
7.3086293939
 30
0.0
 10
5.4812691466
 20
7.3069537541
 30
0.0
 10
5.4817577227
 20
7.3057769262
 30
0.0
 10
5.4821439187
 20
7.3046559651
 30
0.0
 10
5.4824243461
 20
7.3036000405
 30
0.0
 10
5.4825970384
 20
7.3026185328
 30
0.0
 10
5.4826410162
 20
7.301987087
 30
0.0
 10
5.4826410162
 20
7.3016877296
 30
0.0
  0
SPLINE
  5
34C
100
AcDbEntity
  8
THREAD
100
AcDbSpline
 62
7
  6
CONTINUOUS
 70
0
 71
3
 72
15
 73
11
 74
0
 42
0.0000001
 43
0.0000001
 44
0.0000000001
 40
0.0
 40
0.0
 40
0.0
 40
0.0
 40
0.1255722257
 40
0.2506945728
 40
0.3754512036
 40
0.5000000116
 40
0.6245488177
 40
0.7493054452
 40
0.8744277787
 40
1.0
 40
1.0
 40
1.0
 40
1.0
 10
4.2720636659
 20
7.0296137863
 30
0.0
 10
4.2674741757
 20
7.0450273158
 30
0.0
 10
4.2591317584
 20
7.0760535888
 30
0.0
 10
4.249641119
 20
7.1232306436
 30
0.0
 10
4.2436929945
 20
7.1708641973
 30
0.0
 10
4.2416631432
 20
7.2187580212
 30
0.0
 10
4.2436929952
 20
7.2666518446
 30
0.0
 10
4.2496411201
 20
7.3142853958
 30
0.0
 10
4.2591317593
 20
7.361462448
 30
0.0
 10
4.2674741758
 20
7.3924887187
 30
0.0
 10
4.2720636659
 20
7.4079022477
 30
0.0
  0
SPLINE
  5
34D
100
AcDbEntity
  8
THREAD
100
AcDbSpline
 62
7
  6
CONTINUOUS
 70
0
 71
3
 72
21
 73
17
 74
0
 42
0.0000001
 43
0.0000001
 44
0.0000000001
 40
0.0
 40
0.0
 40
0.0
 40
0.0
 40
0.1264560126
 40
0.1892875349
 40
0.2518383053
 40
0.3141389815
 40
0.3762244014
 40
0.4381542655
 40
0.5000000641
 40
0.5618458488
 40
0.6237757087
 40
0.6858611075
 40
0.7481617721
 40
0.8107125085
 40
0.8735439971
 40
1.0
 40
1.0
 40
1.0
 40
1.0
 10
4.7075
 20
7.0296137863
 30
0.0
 10
4.7151471373
 20
7.0444415588
 30
0.0
 10
4.7257575359
 20
7.0670957235
 30
0.0
 10
4.7375954699
 20
7.0981539187
 30
0.0
 10
4.7451354262
 20
7.1217545486
 30
0.0
 10
4.7511966695
 20
7.1456780355
 30
0.0
 10
4.7556517738
 20
7.1698717309
 30
0.0
 10
4.75836939
 20
7.1942632535
 30
0.0
 10
4.7592910459
 20
7.2187580407
 30
0.0
 10
4.7583693877
 20
7.2432528272
 30
0.0
 10
4.7556517688
 20
7.2676443444
 30
0.0
 10
4.7511966631
 20
7.2918380346
 30
0.0
 10
4.745135417
 20
7.3157615116
 30
0.0
 10
4.7375954668
 20
7.3393621325
 30
0.0
 10
4.7257575302
 20
7.3704203158
 30
0.0
 10
4.7151471367
 20
7.3930744763
 30
0.0
 10
4.7075
 20
7.4079022477
 30
0.0
  0
ELLIPSE
  5
34E
100
AcDbEntity
  8
0
100
AcDbEllipse
 62
7
  6
CONTINUOUS
 10
6.424
 20
6.6775
 30
0.0
 11
0.0
 21
0.035
 31
0.0
 40
1.0
 41
-4.7123889804
 42
-1.5707963268
  0
ELLIPSE
  5
34F
100
AcDbEntity
  8
0
100
AcDbEllipse
 62
7
  6
CONTINUOUS
 10
6.424
 20
7.3225
 30
0.0
 11
0.035
 21
-0.0
 31
0.0
 40
1.0
 41
0.0
 42
3.1415926536
  0
ELLIPSE
  5
350
100
AcDbEntity
  8
0
100
AcDbEllipse
 62
7
  6
CONTINUOUS
 10
5.07
 20
6.6145
 30
0.0
 11
-0.0
 21
0.035
 31
0.0
 40
1.0
 41
-4.7123889804
 42
-1.5707963268
  0
ELLIPSE
  5
351
100
AcDbEntity
  8
0
100
AcDbEllipse
 62
7
  6
CONTINUOUS
 10
5.07
 20
7.3855
 30
0.0
 11
0.035
 21
0.0
 31
0.0
 40
1.0
 41
0.0
 42
3.1415926536
  0
ENDSEC
  0
SECTION
  2
OBJECTS
  0
DICTIONARY
  5
C
100
AcDbDictionary
280
0
281
1
  3
ACAD_GROUP
350
D
  3
ACAD_MLINESTYLE
350
17
  3
ACAD_LAYOUT
350
1A
  3
ACAD_PLOTSETTINGS
350
19
  3
ACAD_PLOTSTYLENAME
350
E
  0
DICTIONARY
  5
D
102
{ACAD_REACTORS
330
C
102
}
100
AcDbDictionary
280
0
281
1
  0
ACDBDICTIONARYWDFLT
  5
E
102
{ACAD_REACTORS
330
C
102
}
100
AcDbDictionary
281
1
  3
Normal
350
F
100
AcDbDictionaryWithDefault
340
F
  0
DICTIONARY
  5
17
102
{ACAD_REACTORS
330
C
102
}
100
AcDbDictionary
280
0
281
1
  3
Standard
350
18
  0
DICTIONARY
  5
19
102
{ACAD_REACTORS
330
C
102
}
100
AcDbDictionary
281
1
  0
DICTIONARY
  5
1A
102
{ACAD_REACTORS
330
C
102
}
100
AcDbDictionary
281
1
  3
Model
350
352
  3
Layout1
350
353
  0
ACDBPLACEHOLDER
  5
F
102
{ACAD_REACTORS
330
E
102
}
  0
MLINESTYLE
  5
18
102
{ACAD_REACTORS
330
17
102
}
100
AcDbMlineStyle
  2
STANDARD
 70
0
  3

 62
256
 51
90.0
 52
90.0
 71
2
 49
0.5
 62
256
  6
BYLAYER
 49
-0.5
 62
256
  6
BYLAYER
  0
LAYOUT
  5
352
102
{ACAD_REACTORS
330
1A
102
}
100
AcDbPlotSettings
  1

  2
none_device
  4
ANSI_B_(17.00_x_11.00_Inches)
  6

 40
0.0
 41
0.0
 42
0.0
 43
0.0
 44
431.8
 45
279.4
 46
0.0
 47
0.0
 48
0.0
 49
0.0
140
0.0
141
0.0
142
1.0
143
1.0
 70
1024
 72
0
 73
0
 74
0
  7

 75
0
147
1.0
148
0.0
149
0.0
100
AcDbLayout
  1
Model
 70
0
 71
0
 10
0.0
 20
0.0
 11
17.0
 21
11.0
 12
0.0
 22
0.0
 32
0.0
 14
0.0
 24
0.0
 34
0.0
 15
0.0
 25
0.0
 35
0.0
146
0.0
 13
0.0
 23
0.0
 33
0.0
 16
1.0
 26
0.0
 36
0.0
 17
0.0
 27
1.0
 37
0.0
 76
0
330
24C
345
0
346
0
  0
LAYOUT
  5
353
102
{ACAD_REACTORS
330
1A
102
}
100
AcDbPlotSettings
  1

  2
none_device
  4
ANSI_B_(17.00_x_11.00_Inches)
  6

 40
0.0
 41
0.0
 42
0.0
 43
0.0
 44
431.8
 45
279.4
 46
0.0
 47
0.0
 48
0.0
 49
0.0
140
0.0
141
0.0
142
1.0
143
1.0
 70
0
 72
0
 73
0
 74
0
  7

 75
0
147
1.0
148
0.0
149
0.0
100
AcDbLayout
  1
Layout1
 70
0
 71
1
 10
0.0
 20
0.0
 11
17.0
 21
11.0
 12
0.0
 22
0.0
 32
0.0
 14
0.0
 24
0.0
 34
0.0
 15
0.0
 25
0.0
 35
0.0
146
0.0
 13
0.0
 23
0.0
 33
0.0
 16
1.0
 26
0.0
 36
0.0
 17
0.0
 27
1.0
 37
0.0
 76
0
330
24D
345
0
346
0
  0
ENDSEC
  0
EOF
