999
DXF file: RDFALAN.dxf
999
Pro/ENGINEER 2016010 by Parametric Technology Corporation
  0
SECTION
  2
HEADER
  9
$ACADVER
  1
AC1021
  9
$DWGCODEPAGE
  3
ANSI_1252
  9
$EXTMAX
 10
17.0
 20
11.0
 30
0.0
  9
$EXTMIN
 10
0.0
 20
0.0
 30
0.0
  9
$LIMMIN
 10
0.0
 20
0.0
  9
$LIMMAX
 10
17.0
 20
11.0
  9
$VIEWCTR
 10
8.5
 20
5.5
  9
$VIEWSIZE
 40
11.0
  9
$CLAYER
  8
0
  9
$LTSCALE
 40
0.935
  9
$CELTYPE
  6
BYLAYER
  9
$DIMSCALE
 40
1.0
  9
$DIMASZ
 40
0.1875
  9
$DIMEXO
 40
0.0625
  9
$DIMDLI
 40
0.646
  9
$DIMEXE
 40
0.125
  9
$DIMCEN
 40
0.153
  9
$DIMLFAC
 40
1.0
  9
$DIMBLK
  1
_FILLED
  9
$DIMALT
 70
0
  9
$DIMALTF
 40
25.4
  9
$DIMTXT
 40
0.125
  9
$DIMTOL
 70
0
  9
$DIMLIM
 70
0
  9
$DIMTFAC
 40
1.0
  9
$DIMGAP
 40
0.09
  9
$DIMDSEP
 70
46
  9
$AUNITS
 70
0
  9
$PDMODE
 70
3
  9
$PDSIZE
 40
0.3125
  9
$HANDSEED
  5
33F
  9
$TILEMODE
 70
1
  9
$MEASUREMENT
 70
0
  9
$INSUNITS
 70
1
  0
ENDSEC
  0
SECTION
  2
CLASSES
  0
CLASS
  1
ACDBDICTIONARYWDFLT
  2
AcDbDictionaryWithDefault
  3
AutoCAD 2000
 90
0
 91
1
280
0
281
0
  0
CLASS
  1
ACDBPLACEHOLDER
  2
AcDbPlaceHolder
  3
AutoCAD 2000
 90
0
 91
1
280
0
281
0
  0
CLASS
  1
LAYOUT
  2
AcDbLayout
  3
AutoCAD 2000
 90
0
 91
0
280
0
281
0
  0
ENDSEC
  0
SECTION
  2
TABLES
  0
TABLE
  2
VPORT
  5
8
100
AcDbSymbolTable
 70
2
  0
VPORT
  5
1F4
100
AcDbSymbolTableRecord
100
AcDbViewportTableRecord
  2
*ACTIVE
 70
0
 10
0.0
 20
0.0
 11
1.0
 21
1.0
 12
8.5
 22
5.5
 13
0.0
 23
0.0
 14
1.0
 24
1.0
 15
0.0
 25
0.0
 16
0.0
 26
0.0
 36
1.0
 17
0.0
 27
0.0
 37
0.0
 40
11.0
 41
1.5454545455
 42
50.0
 43
0.0
 44
0.0
 50
0.0
 51
0.0
 71
0
 72
100
 73
1
 74
1
 75
0
 76
0
 77
0
 78
0
  0
ENDTAB
  0
TABLE
  2
LTYPE
  5
5
100
AcDbSymbolTable
 70
6
  0
LTYPE
  5
14
100
AcDbSymbolTableRecord
100
AcDbLinetypeTableRecord
  2
BYBLOCK
 70
0
  3

 72
65
 73
0
 40
0.0
  0
LTYPE
  5
15
100
AcDbSymbolTableRecord
100
AcDbLinetypeTableRecord
  2
BYLAYER
 70
0
  3

 72
65
 73
0
 40
0.0
  0
LTYPE
  5
16
100
AcDbSymbolTableRecord
100
AcDbLinetypeTableRecord
  2
CONTINUOUS
 70
64
  3
Solid line
 72
65
 73
0
 40
0.0
  0
LTYPE
  5
1F5
100
AcDbSymbolTableRecord
100
AcDbLinetypeTableRecord
  2
CENTER
 70
64
  3
____ _ ____ _ ____ _ ____ _ ____ _ ____ _ ____
 72
65
 73
4
 40
0.6
 49
0.375
 74
0
 49
-0.075
 74
0
 49
0.075
 74
0
 49
-0.075
 74
0
  0
LTYPE
  5
1F6
100
AcDbSymbolTableRecord
100
AcDbLinetypeTableRecord
  2
HIDDEN
 70
64
  3
- - - - - - - - - - - - - - - - - - - -
 72
65
 73
2
 40
0.2
 49
0.1
 74
0
 49
-0.1
 74
0
  0
LTYPE
  5
1F7
100
AcDbSymbolTableRecord
100
AcDbLinetypeTableRecord
  2
PHANTOM
 70
64
  3
_____ _ _ _____ _ _ _____ _ _ _____
 72
65
 73
6
 40
0.8
 49
0.45
 74
0
 49
-0.05
 74
0
 49
0.1
 74
0
 49
-0.05
 74
0
 49
0.1
 74
0
 49
-0.05
 74
0
  0
LTYPE
  5
1F8
100
AcDbSymbolTableRecord
100
AcDbLinetypeTableRecord
  2
DOT
 70
64
  3
. . . . . . . . . . . . . . . . . . . .
 72
65
 73
2
 40
0.2
 49
0.1
 74
0
 49
-0.1
 74
0
  0
LTYPE
  5
1F9
100
AcDbSymbolTableRecord
100
AcDbLinetypeTableRecord
  2
DASHED
 70
64
  3
- - - - - - - - - - - - - - - - - - - -
 72
65
 73
2
 40
0.2
 49
0.1
 74
0
 49
-0.1
 74
0
  0
ENDTAB
  0
TABLE
  2
LAYER
  5
2
100
AcDbSymbolTable
 70
36
  0
LAYER
  5
10
100
AcDbSymbolTableRecord
100
AcDbLayerTableRecord
  2
0
 70
0
 62
7
  6
CONTINUOUS
370
-3
390
F
  0
LAYER
  5
1FA
100
AcDbSymbolTableRecord
100
AcDbLayerTableRecord
  2
DEFAULT_1
 70
0
 62
7
  6
CENTER
370
-3
390
F
  0
LAYER
  5
1FB
100
AcDbSymbolTableRecord
100
AcDbLayerTableRecord
  2
DEFAULT_2
 70
0
 62
8
  6
HIDDEN
370
-3
390
F
  0
LAYER
  5
1FC
100
AcDbSymbolTableRecord
100
AcDbLayerTableRecord
  2
DEFAULT_3
 70
0
 62
7
  6
PHANTOM
370
-3
390
F
  0
LAYER
  5
1FD
100
AcDbSymbolTableRecord
100
AcDbLayerTableRecord
  2
01_ALL_DTM_PLN
 70
0
 62
7
  6
CONTINUOUS
370
-3
390
F
  0
LAYER
  5
1FE
100
AcDbSymbolTableRecord
100
AcDbLayerTableRecord
  2
01__ASM_ALL_DTM_PLN
 70
0
 62
7
  6
CONTINUOUS
370
-3
390
F
  0
LAYER
  5
1FF
100
AcDbSymbolTableRecord
100
AcDbLayerTableRecord
  2
01__ASM_DEF_DTM_PLN
 70
0
 62
7
  6
CONTINUOUS
370
-3
390
F
  0
LAYER
  5
200
100
AcDbSymbolTableRecord
100
AcDbLayerTableRecord
  2
01___PRT_ALL_DTM_PLN
 70
0
 62
7
  6
CONTINUOUS
370
-3
390
F
  0
LAYER
  5
201
100
AcDbSymbolTableRecord
100
AcDbLayerTableRecord
  2
01___PRT_DEF_DTM_PLN
 70
0
 62
7
  6
CONTINUOUS
370
-3
390
F
  0
LAYER
  5
202
100
AcDbSymbolTableRecord
100
AcDbLayerTableRecord
  2
02_ALL_AXES
 70
0
 62
7
  6
CONTINUOUS
370
-3
390
F
  0
LAYER
  5
203
100
AcDbSymbolTableRecord
100
AcDbLayerTableRecord
  2
02__ASM_ALL_AXES
 70
0
 62
7
  6
CONTINUOUS
370
-3
390
F
  0
LAYER
  5
204
100
AcDbSymbolTableRecord
100
AcDbLayerTableRecord
  2
02___PRT_ALL_AXES
 70
0
 62
7
  6
CONTINUOUS
370
-3
390
F
  0
LAYER
  5
205
100
AcDbSymbolTableRecord
100
AcDbLayerTableRecord
  2
03_ALL_CURVES
 70
0
 62
7
  6
CONTINUOUS
370
-3
390
F
  0
LAYER
  5
206
100
AcDbSymbolTableRecord
100
AcDbLayerTableRecord
  2
03__ASM_ALL_CURVES
 70
0
 62
7
  6
CONTINUOUS
370
-3
390
F
  0
LAYER
  5
207
100
AcDbSymbolTableRecord
100
AcDbLayerTableRecord
  2
03___PRT_ALL_CURVES
 70
0
 62
7
  6
CONTINUOUS
370
-3
390
F
  0
LAYER
  5
208
100
AcDbSymbolTableRecord
100
AcDbLayerTableRecord
  2
04_ALL_DTM_PNT
 70
0
 62
7
  6
CONTINUOUS
370
-3
390
F
  0
LAYER
  5
209
100
AcDbSymbolTableRecord
100
AcDbLayerTableRecord
  2
04__ASM_ALL_DTM_PNT
 70
0
 62
7
  6
CONTINUOUS
370
-3
390
F
  0
LAYER
  5
20A
100
AcDbSymbolTableRecord
100
AcDbLayerTableRecord
  2
04___PRT_ALL_DTM_PNT
 70
0
 62
7
  6
CONTINUOUS
370
-3
390
F
  0
LAYER
  5
20B
100
AcDbSymbolTableRecord
100
AcDbLayerTableRecord
  2
05_ALL_DTM_CSYS
 70
0
 62
7
  6
CONTINUOUS
370
-3
390
F
  0
LAYER
  5
20C
100
AcDbSymbolTableRecord
100
AcDbLayerTableRecord
  2
05__ASM_ALL_DTM_CSYS
 70
0
 62
7
  6
CONTINUOUS
370
-3
390
F
  0
LAYER
  5
20D
100
AcDbSymbolTableRecord
100
AcDbLayerTableRecord
  2
05__ASM_DEF_DTM_CSYS
 70
0
 62
7
  6
CONTINUOUS
370
-3
390
F
  0
LAYER
  5
20E
100
AcDbSymbolTableRecord
100
AcDbLayerTableRecord
  2
05___PRT_ALL_DTM_CSYS
 70
0
 62
7
  6
CONTINUOUS
370
-3
390
F
  0
LAYER
  5
20F
100
AcDbSymbolTableRecord
100
AcDbLayerTableRecord
  2
05___PRT_DEF_DTM_CSYS
 70
0
 62
7
  6
CONTINUOUS
370
-3
390
F
  0
LAYER
  5
210
100
AcDbSymbolTableRecord
100
AcDbLayerTableRecord
  2
06_ALL_SURFS
 70
0
 62
7
  6
CONTINUOUS
370
-3
390
F
  0
LAYER
  5
211
100
AcDbSymbolTableRecord
100
AcDbLayerTableRecord
  2
06__ASM_ALL_SURFS
 70
0
 62
7
  6
CONTINUOUS
370
-3
390
F
  0
LAYER
  5
212
100
AcDbSymbolTableRecord
100
AcDbLayerTableRecord
  2
06___PRT_ALL_SURFS
 70
0
 62
7
  6
CONTINUOUS
370
-3
390
F
  0
LAYER
  5
213
100
AcDbSymbolTableRecord
100
AcDbLayerTableRecord
  2
07__ASM_ALL_SKELETONS
 70
0
 62
7
  6
CONTINUOUS
370
-3
390
F
  0
LAYER
  5
214
100
AcDbSymbolTableRecord
100
AcDbLayerTableRecord
  2
125-149_FEATURES
 70
0
 62
7
  6
CONTINUOUS
370
-3
390
F
  0
LAYER
  5
215
100
AcDbSymbolTableRecord
100
AcDbLayerTableRecord
  2
125-149_REF_GEOMETRY
 70
0
 62
7
  6
CONTINUOUS
370
-3
390
F
  0
LAYER
  5
216
100
AcDbSymbolTableRecord
100
AcDbLayerTableRecord
  2
125-176_FEATURES
 70
0
 62
7
  6
CONTINUOUS
370
-3
390
F
  0
LAYER
  5
217
100
AcDbSymbolTableRecord
100
AcDbLayerTableRecord
  2
125-176_REF_GEOMETRY
 70
0
 62
7
  6
CONTINUOUS
370
-3
390
F
  0
LAYER
  5
218
100
AcDbSymbolTableRecord
100
AcDbLayerTableRecord
  2
127-003_FEATURES
 70
0
 62
7
  6
CONTINUOUS
370
-3
390
F
  0
LAYER
  5
219
100
AcDbSymbolTableRecord
100
AcDbLayerTableRecord
  2
127-003_REF_GEOMETRY
 70
0
 62
7
  6
CONTINUOUS
370
-3
390
F
  0
LAYER
  5
21A
100
AcDbSymbolTableRecord
100
AcDbLayerTableRecord
  2
127-006_FEATURES
 70
0
 62
7
  6
CONTINUOUS
370
-3
390
F
  0
LAYER
  5
21B
100
AcDbSymbolTableRecord
100
AcDbLayerTableRecord
  2
127-006_REF_GEOMETRY
 70
0
 62
7
  6
CONTINUOUS
370
-3
390
F
  0
LAYER
  5
21C
100
AcDbSymbolTableRecord
100
AcDbLayerTableRecord
  2
127-007_FEATURES
 70
0
 62
7
  6
CONTINUOUS
370
-3
390
F
  0
LAYER
  5
21D
100
AcDbSymbolTableRecord
100
AcDbLayerTableRecord
  2
127-007_REF_GEOMETRY
 70
0
 62
7
  6
CONTINUOUS
370
-3
390
F
  0
LAYER
  5
21E
100
AcDbSymbolTableRecord
100
AcDbLayerTableRecord
  2
127-210_FEATURES
 70
0
 62
7
  6
CONTINUOUS
370
-3
390
F
  0
LAYER
  5
21F
100
AcDbSymbolTableRecord
100
AcDbLayerTableRecord
  2
127-210_REF_GEOMETRY
 70
0
 62
7
  6
CONTINUOUS
370
-3
390
F
  0
LAYER
  5
220
100
AcDbSymbolTableRecord
100
AcDbLayerTableRecord
  2
ATMOSPHERIC_VENT_DRW_REF
 70
0
 62
7
  6
CONTINUOUS
370
-3
390
F
  0
LAYER
  5
221
100
AcDbSymbolTableRecord
100
AcDbLayerTableRecord
  2
COPY_GEO_FET
 70
0
 62
7
  6
CONTINUOUS
370
-3
390
F
  0
LAYER
  5
222
100
AcDbSymbolTableRecord
100
AcDbLayerTableRecord
  2
COSMETIC
 70
0
 62
7
  6
CONTINUOUS
370
-3
390
F
  0
LAYER
  5
223
100
AcDbSymbolTableRecord
100
AcDbLayerTableRecord
  2
CURVES
 70
0
 62
7
  6
CONTINUOUS
370
-3
390
F
  0
LAYER
  5
224
100
AcDbSymbolTableRecord
100
AcDbLayerTableRecord
  2
CUT_REF_SURF
 70
0
 62
7
  6
CONTINUOUS
370
-3
390
F
  0
LAYER
  5
225
100
AcDbSymbolTableRecord
100
AcDbLayerTableRecord
  2
DATUM
 70
0
 62
7
  6
CONTINUOUS
370
-3
390
F
  0
LAYER
  5
226
100
AcDbSymbolTableRecord
100
AcDbLayerTableRecord
  2
DATUMCURVES
 70
0
 62
7
  6
CONTINUOUS
370
-3
390
F
  0
LAYER
  5
227
100
AcDbSymbolTableRecord
100
AcDbLayerTableRecord
  2
DATUM_PLANES
 70
0
 62
7
  6
CONTINUOUS
370
-3
390
F
  0
LAYER
  5
228
100
AcDbSymbolTableRecord
100
AcDbLayerTableRecord
  2
DIMENSIONS
 70
0
 62
7
  6
CONTINUOUS
370
-3
390
F
  0
LAYER
  5
229
100
AcDbSymbolTableRecord
100
AcDbLayerTableRecord
  2
DRAWINGNOTES
 70
0
 62
7
  6
CONTINUOUS
370
-3
390
F
  0
LAYER
  5
22A
100
AcDbSymbolTableRecord
100
AcDbLayerTableRecord
  2
DTM
 70
0
 62
7
  6
CONTINUOUS
370
-3
390
F
  0
LAYER
  5
22B
100
AcDbSymbolTableRecord
100
AcDbLayerTableRecord
  2
DTM230
 70
0
 62
7
  6
CONTINUOUS
370
-3
390
F
  0
LAYER
  5
22C
100
AcDbSymbolTableRecord
100
AcDbLayerTableRecord
  2
DTM325
 70
0
 62
7
  6
CONTINUOUS
370
-3
390
F
  0
LAYER
  5
22D
100
AcDbSymbolTableRecord
100
AcDbLayerTableRecord
  2
DTM_500001
 70
0
 62
7
  6
CONTINUOUS
370
-3
390
F
  0
LAYER
  5
22E
100
AcDbSymbolTableRecord
100
AcDbLayerTableRecord
  2
DTM_500002
 70
0
 62
7
  6
CONTINUOUS
370
-3
390
F
  0
LAYER
  5
22F
100
AcDbSymbolTableRecord
100
AcDbLayerTableRecord
  2
DTM_515002
 70
0
 62
7
  6
CONTINUOUS
370
-3
390
F
  0
LAYER
  5
230
100
AcDbSymbolTableRecord
100
AcDbLayerTableRecord
  2
DTM_525001
 70
0
 62
7
  6
CONTINUOUS
370
-3
390
F
  0
LAYER
  5
231
100
AcDbSymbolTableRecord
100
AcDbLayerTableRecord
  2
DTM_530-102
 70
0
 62
7
  6
CONTINUOUS
370
-3
390
F
  0
LAYER
  5
232
100
AcDbSymbolTableRecord
100
AcDbLayerTableRecord
  2
DTM_530002
 70
0
 62
7
  6
CONTINUOUS
370
-3
390
F
  0
LAYER
  5
233
100
AcDbSymbolTableRecord
100
AcDbLayerTableRecord
  2
DTM_800001
 70
0
 62
7
  6
CONTINUOUS
370
-3
390
F
  0
LAYER
  5
234
100
AcDbSymbolTableRecord
100
AcDbLayerTableRecord
  2
DTM_BALLHOLDER
 70
0
 62
7
  6
CONTINUOUS
370
-3
390
F
  0
LAYER
  5
235
100
AcDbSymbolTableRecord
100
AcDbLayerTableRecord
  2
DTM_BODY_S2
 70
0
 62
7
  6
CONTINUOUS
370
-3
390
F
  0
LAYER
  5
236
100
AcDbSymbolTableRecord
100
AcDbLayerTableRecord
  2
DTM_PISTON
 70
0
 62
7
  6
CONTINUOUS
370
-3
390
F
  0
LAYER
  5
237
100
AcDbSymbolTableRecord
100
AcDbLayerTableRecord
  2
DTM_SPRING_RH
 70
0
 62
7
  6
CONTINUOUS
370
-3
390
F
  0
LAYER
  5
238
100
AcDbSymbolTableRecord
100
AcDbLayerTableRecord
  2
DTM_SP_RH_CONSTR
 70
0
 62
7
  6
CONTINUOUS
370
-3
390
F
  0
LAYER
  5
239
100
AcDbSymbolTableRecord
100
AcDbLayerTableRecord
  2
FACE1
 70
0
 62
7
  6
CONTINUOUS
370
-3
390
F
  0
LAYER
  5
23A
100
AcDbSymbolTableRecord
100
AcDbLayerTableRecord
  2
FACE2
 70
0
 62
7
  6
CONTINUOUS
370
-3
390
F
  0
LAYER
  5
23B
100
AcDbSymbolTableRecord
100
AcDbLayerTableRecord
  2
FACE3
 70
0
 62
7
  6
CONTINUOUS
370
-3
390
F
  0
LAYER
  5
23C
100
AcDbSymbolTableRecord
100
AcDbLayerTableRecord
  2
FACE4
 70
0
 62
7
  6
CONTINUOUS
370
-3
390
F
  0
LAYER
  5
23D
100
AcDbSymbolTableRecord
100
AcDbLayerTableRecord
  2
GEOMETRICTOLERANCES
 70
0
 62
7
  6
CONTINUOUS
370
-3
390
F
  0
LAYER
  5
23E
100
AcDbSymbolTableRecord
100
AcDbLayerTableRecord
  2
HIDDEN
 70
0
 62
7
  6
CONTINUOUS
370
-3
390
F
  0
LAYER
  5
23F
100
AcDbSymbolTableRecord
100
AcDbLayerTableRecord
  2
HIDDEN_DRW
 70
0
 62
7
  6
CONTINUOUS
370
-3
390
F
  0
LAYER
  5
240
100
AcDbSymbolTableRecord
100
AcDbLayerTableRecord
  2
LAY0001
 70
0
 62
7
  6
CONTINUOUS
370
-3
390
F
  0
LAYER
  5
241
100
AcDbSymbolTableRecord
100
AcDbLayerTableRecord
  2
PARAMETERDIMENSIONS
 70
0
 62
7
  6
CONTINUOUS
370
-3
390
F
  0
LAYER
  5
242
100
AcDbSymbolTableRecord
100
AcDbLayerTableRecord
  2
PART
 70
0
 62
7
  6
CONTINUOUS
370
-3
390
F
  0
LAYER
  5
243
100
AcDbSymbolTableRecord
100
AcDbLayerTableRecord
  2
PLANE
 70
0
 62
7
  6
CONTINUOUS
370
-3
390
F
  0
LAYER
  5
244
100
AcDbSymbolTableRecord
100
AcDbLayerTableRecord
  2
PROTRUSIONS
 70
0
 62
7
  6
CONTINUOUS
370
-3
390
F
  0
LAYER
  5
245
100
AcDbSymbolTableRecord
100
AcDbLayerTableRecord
  2
S-164_NPTF_PORT
 70
0
 62
7
  6
CONTINUOUS
370
-3
390
F
  0
LAYER
  5
246
100
AcDbSymbolTableRecord
100
AcDbLayerTableRecord
  2
TEXT
 70
0
 62
7
  6
CONTINUOUS
370
-3
390
F
  0
LAYER
  5
247
100
AcDbSymbolTableRecord
100
AcDbLayerTableRecord
  2
THREAD
 70
0
 62
7
  6
CONTINUOUS
370
-3
390
F
  0
LAYER
  5
248
100
AcDbSymbolTableRecord
100
AcDbLayerTableRecord
  2
WIRE_GRV-SLOT_DRW_REF
 70
0
 62
7
  6
CONTINUOUS
370
-3
390
F
  0
LAYER
  5
249
100
AcDbSymbolTableRecord
100
AcDbLayerTableRecord
  2
X_PLANE
 70
0
 62
7
  6
CONTINUOUS
370
-3
390
F
  0
ENDTAB
  0
TABLE
  2
STYLE
  5
3
100
AcDbSymbolTable
 70
1
  0
STYLE
  5
11
100
AcDbSymbolTableRecord
100
AcDbTextStyleTableRecord
  2
STANDARD
 70
0
 40
0.0
 41
0.8
 50
0.0
 71
0
 42
0.2
  3
txt
  4

  0
STYLE
  5
24A
100
AcDbSymbolTableRecord
100
AcDbTextStyleTableRecord
  2
TEXTSTYLE_1
 70
0
 40
0.0
 41
0.8
 50
0.0
 71
0
 42
0.2
  3
gdt
  4

  0
ENDTAB
  0
TABLE
  2
VIEW
  5
6
100
AcDbSymbolTable
 70
0
  0
ENDTAB
  0
TABLE
  2
UCS
  5
7
100
AcDbSymbolTable
 70
0
  0
ENDTAB
  0
TABLE
  2
APPID
  5
9
100
AcDbSymbolTable
 70
1
  0
APPID
  5
24B
100
AcDbSymbolTableRecord
100
AcDbRegAppTableRecord
  2
ACAD
 70
0
  0
ENDTAB
  0
TABLE
  2
BLOCK_RECORD
  5
1
100
AcDbSymbolTable
 70
0
  0
BLOCK_RECORD
  5
24C
100
AcDbSymbolTableRecord
100
AcDbBlockTableRecord
  2
*Model_Space
  0
BLOCK_RECORD
  5
24D
100
AcDbSymbolTableRecord
100
AcDbBlockTableRecord
  2
*Paper_Space
  0
BLOCK_RECORD
  5
24E
100
AcDbSymbolTableRecord
100
AcDbBlockTableRecord
  2
_FILLED
  0
BLOCK_RECORD
  5
24F
100
AcDbSymbolTableRecord
100
AcDbBlockTableRecord
  2
*D0
  0
ENDTAB
  0
TABLE
  2
DIMSTYLE
  5
A
100
AcDbSymbolTable
 70
1
100
AcDbDimStyleTable
 71
0
  0
DIMSTYLE
105
250
100
AcDbSymbolTableRecord
100
AcDbDimStyleTableRecord
  2
STANDARD
 70
0
  3

  4

 40
1.0
 41
0.1875
 42
0.0625
 43
0.38
 44
0.125
 45
0.0
 46
0.0
 47
0.001
 48
0.001
140
0.125
141
0.09
142
0.0
143
25.4
144
1.0
145
0.0
146
1.0
147
0.09
 71
0.0
 72
0.0
 73
1
 74
1
 75
0
 76
0
 77
0
 78
4
170
0
171
2
172
0
173
0
174
0
175
0
176
0
177
0
178
0
270
2
271
3
272
3
273
2
274
2
275
0
280
0
281
0
282
0
283
1
284
4
285
0
286
0
287
3
288
0
340
11
278
46
341
24E
342
24E
343
24E
344
24E
  0
DIMSTYLE
105
251
100
AcDbSymbolTableRecord
100
AcDbDimStyleTableRecord
  2
DIMSTYLE_1
 70
0
  3

  4

 40
1.0
 41
0.1875
 42
0.0625
 43
0.38
 44
0.125
 45
0.0
 46
0.0
 47
0.0
 48
0.0
140
0.125
141
0.09
142
0.0
143
25.4
144
1.0
145
0.0
146
1.0
147
0.0625
 71
0.0
 72
0.0
 73
1
 74
1
 75
0
 76
0
 77
0
 78
4
170
0
171
2
172
0
173
0
174
0
175
0
176
0
177
0
178
0
270
2
271
2
272
2
273
2
274
2
275
0
280
0
281
0
282
0
283
1
284
4
285
0
286
0
287
3
288
0
340
11
278
46
341
24E
342
24E
343
24E
344
24E
  0
ENDTAB
  0
ENDSEC
  0
SECTION
  2
BLOCKS
  0
BLOCK
  5
20
100
AcDbEntity
  8
0
100
AcDbBlockBegin
  2
*Model_Space
 70
0
 10
0.0
 20
0.0
 30
0.0
  3
*Model_Space
  1

  0
ENDBLK
  5
21
100
AcDbEntity
  8
0
100
AcDbBlockEnd
  0
BLOCK
  5
1C
100
AcDbEntity
  8
0
100
AcDbBlockBegin
  2
*Paper_Space
 70
0
 10
0.0
 20
0.0
 30
0.0
  3
*Paper_Space
  1

  0
ENDBLK
  5
1D
100
AcDbEntity
  8
0
100
AcDbBlockEnd
  0
BLOCK
  5
252
100
AcDbEntity
  8
0
100
AcDbBlockBegin
  2
_FILLED
 70
64
 10
0.0
 20
0.0
  3
_FILLED
  1

  0
SOLID
  5
253
100
AcDbEntity
  8
0
  6
BYBLOCK
 62
0
100
AcDbTrace
 10
0.0
 20
0.0
 11
-1.0
 21
0.1666666667
 12
-1.0
 22
-0.1666666667
 13
-1.0
 23
-0.1666666667
  0
ENDBLK
  5
254
100
AcDbEntity
  8
0
  6
BYBLOCK
 62
0
100
AcDbBlockEnd
  0
BLOCK
  5
255
100
AcDbEntity
  8
0
100
AcDbBlockBegin
 62
6
  6
CONTINUOUS
  2
*D0
 70
65
 10
0.0
 20
0.0
  3
*D0
  1

  0
MTEXT
  5
256
100
AcDbEntity
  8
0
100
AcDbMText
 62
6
  6
CONTINUOUS
  7
STANDARD
 71
1
 72
1
 10
5.5645
 20
8.3505
 30
0.0
 11
1.0
 21
0.0
 31
0.0
 44
0.9
  1
2.50 in (63,5 mm)
 40
0.125
 41
1.7
  0
LINE
  5
257
100
AcDbEntity
  8
0
100
AcDbLine
 62
6
  6
CONTINUOUS
 10
5.3145
 20
7.6005
 11
5.3145
 21
8.413
  0
LINE
  5
258
100
AcDbEntity
  8
0
100
AcDbLine
 62
6
  6
CONTINUOUS
 10
2.8114999456
 20
7.0625
 11
2.8114999456
 21
8.413
  0
LINE
  5
259
100
AcDbEntity
  8
0
100
AcDbLine
 62
6
  6
CONTINUOUS
 10
5.3145
 20
8.288
 11
4.0629999728
 21
8.288
  0
LINE
  5
25A
100
AcDbEntity
  8
0
100
AcDbLine
 62
6
  6
CONTINUOUS
 10
4.0629999728
 20
8.288
 11
5.502
 21
8.288
  0
LINE
  5
25B
100
AcDbEntity
  8
0
100
AcDbLine
 62
6
  6
CONTINUOUS
 10
2.8114999456
 20
8.288
 11
4.0629999728
 21
8.288
  0
INSERT
  5
25C
100
AcDbEntity
  8
0
100
AcDbBlockReference
 62
6
  6
CONTINUOUS
  2
_FILLED
 10
5.3145
 20
8.288
 41
0.1875
 42
0.1875
 43
0.1875
  0
INSERT
  5
25D
100
AcDbEntity
  8
0
100
AcDbBlockReference
 62
6
  6
CONTINUOUS
  2
_FILLED
 10
2.8114999456
 20
8.288
 41
0.1875
 42
0.1875
 43
0.1875
 50
180.0
  0
ENDBLK
  5
25E
100
AcDbEntity
  8
0
  6
BYBLOCK
 62
0
100
AcDbBlockEnd
  0
ENDSEC
  0
SECTION
  2
ENTITIES
  0
MTEXT
  5
25F
100
AcDbEntity
  8
HIDDEN
100
AcDbMText
 62
2
  6
CONTINUOUS
  7
STANDARD
 71
1
 72
1
 10
7.037
 20
6.8057846597
 30
0.0
 11
1.0
 21
0.0
 31
0.0
 44
0.9
  1
-X-
 40
0.125
 41
0.3
  0
DIMENSION
  5
260
100
AcDbEntity
  8
0
100
AcDbDimension
 62
6
  6
CONTINUOUS
  2
*D0
 10
2.8114999456
 20
8.288
 11
6.4145
 21
8.288
 70
160
 71
1
 42
2.5030000544
  1
<> in (63,5 mm)
  3
DIMSTYLE_1
100
AcDbAlignedDimension
 13
5.3145
 23
7.538
 14
2.8114999456
 24
7.0
 50
180.0
100
AcDbRotatedDimension
  0
MTEXT
  5
261
100
AcDbEntity
  8
0
100
AcDbMText
 62
2
  6
CONTINUOUS
  7
STANDARD
 71
1
 72
1
 10
7.4495
 20
7.0625
 30
0.0
 11
1.0
 21
0.0
 31
0.0
 44
0.6
  1
Port 1\PInlet
 40
0.125
 41
0.6
  0
MTEXT
  5
262
100
AcDbEntity
  8
0
100
AcDbMText
 62
2
  6
CONTINUOUS
  7
STANDARD
 71
1
 72
1
 10
6.3195
 20
6.3435
 30
0.0
 11
1.0
 21
0.0
 31
0.0
 44
0.6
  1
Port 2\POutlet
 40
0.125
 41
0.6
  0
MTEXT
  5
263
100
AcDbEntity
  8
0
100
AcDbMText
 62
2
  6
CONTINUOUS
  7
STANDARD
 71
1
 72
1
 10
5.5645
 20
8.1005
 30
0.0
 11
1.0
 21
0.0
 31
0.0
 44
0.6
  1
 LOCATING SHOULDER
 40
0.125
 41
1.8
  0
LINE
  5
264
100
AcDbEntity
  8
0
100
AcDbLine
 62
7
  6
CONTINUOUS
 10
2.8115
 20
7.153
 11
2.8115
 21
6.847
  0
LINE
  5
265
100
AcDbEntity
  8
0
100
AcDbLine
 62
7
  6
CONTINUOUS
 10
2.8285
 20
7.17
 11
2.8285
 21
6.83
  0
LINE
  5
266
100
AcDbEntity
  8
0
100
AcDbLine
 62
7
  6
CONTINUOUS
 10
2.8425
 20
7.184
 11
2.8425
 21
6.816
  0
LINE
  5
267
100
AcDbEntity
  8
0
100
AcDbLine
 62
7
  6
CONTINUOUS
 10
3.0415
 20
7.184
 11
3.0415
 21
6.816
  0
LINE
  5
268
100
AcDbEntity
  8
0
100
AcDbLine
 62
7
  6
CONTINUOUS
 10
3.043
 20
6.8386370925
 11
3.043
 21
6.8575659722
  0
LINE
  5
269
100
AcDbEntity
  8
0
100
AcDbLine
 62
7
  6
CONTINUOUS
 10
3.043
 20
7.1424340278
 11
3.043
 21
7.1614512129
  0
LINE
  5
26A
100
AcDbEntity
  8
0
100
AcDbLine
 62
7
  6
CONTINUOUS
 10
3.078
 20
6.8386370925
 11
3.078
 21
6.8575659722
  0
LINE
  5
26B
100
AcDbEntity
  8
0
100
AcDbLine
 62
7
  6
CONTINUOUS
 10
3.078
 20
7.1424340278
 11
3.078
 21
7.1614512129
  0
LINE
  5
26C
100
AcDbEntity
  8
0
100
AcDbLine
 62
7
  6
CONTINUOUS
 10
3.0795
 20
7.184
 11
3.0795
 21
6.816
  0
LINE
  5
26D
100
AcDbEntity
  8
0
100
AcDbLine
 62
7
  6
CONTINUOUS
 10
3.3155
 20
6.7523459131
 11
3.3155
 21
7.2476540869
  0
LINE
  5
26E
100
AcDbEntity
  8
0
100
AcDbLine
 62
7
  6
CONTINUOUS
 10
2.8115
 20
7.153
 11
2.8425
 21
7.184
  0
LINE
  5
26F
100
AcDbEntity
  8
0
100
AcDbLine
 62
7
  6
CONTINUOUS
 10
2.8115
 20
6.847
 11
2.8425
 21
6.816
  0
LINE
  5
270
100
AcDbEntity
  8
0
100
AcDbLine
 62
7
  6
CONTINUOUS
 10
3.3775
 20
6.729
 11
3.3775
 21
7.271
  0
LINE
  5
271
100
AcDbEntity
  8
0
100
AcDbLine
 62
7
  6
CONTINUOUS
 10
3.3835
 20
6.729
 11
3.3835
 21
7.271
  0
LINE
  5
272
100
AcDbEntity
  8
0
100
AcDbLine
 62
7
  6
CONTINUOUS
 10
3.389
 20
7.2655
 11
3.389
 21
6.7345
  0
LINE
  5
273
100
AcDbEntity
  8
0
100
AcDbLine
 62
7
  6
CONTINUOUS
 10
3.405
 20
7.2655
 11
3.405
 21
6.7345
  0
LINE
  5
274
100
AcDbEntity
  8
0
100
AcDbLine
 62
7
  6
CONTINUOUS
 10
3.5965
 20
7.271
 11
3.5965
 21
6.729
  0
LINE
  5
275
100
AcDbEntity
  8
0
100
AcDbLine
 62
7
  6
CONTINUOUS
 10
3.6275
 20
6.5650118568
 11
3.6275
 21
7.4349881432
  0
LINE
  5
276
100
AcDbEntity
  8
0
100
AcDbLine
 62
7
  6
CONTINUOUS
 10
3.6895
 20
6.503
 11
3.6895
 21
7.497
  0
LINE
  5
277
100
AcDbEntity
  8
0
100
AcDbLine
 62
7
  6
CONTINUOUS
 10
3.4639708513
 20
7.3244708513
 11
3.405
 21
7.2655
  0
LINE
  5
278
100
AcDbEntity
  8
0
100
AcDbLine
 62
7
  6
CONTINUOUS
 10
3.6895
 20
7.497
 11
3.6275
 21
7.435
  0
LINE
  5
279
100
AcDbEntity
  8
0
100
AcDbLine
 62
7
  6
CONTINUOUS
 10
3.4639708513
 20
6.6755291487
 11
3.405
 21
6.7345
  0
LINE
  5
27A
100
AcDbEntity
  8
0
100
AcDbLine
 62
7
  6
CONTINUOUS
 10
3.6895
 20
6.503
 11
3.6275
 21
6.565
  0
LINE
  5
27B
100
AcDbEntity
  8
0
100
AcDbLine
 62
7
  6
CONTINUOUS
 10
3.5965
 20
6.729
 11
3.5656285896
 21
6.6755291487
  0
LINE
  5
27C
100
AcDbEntity
  8
0
100
AcDbLine
 62
7
  6
CONTINUOUS
 10
3.5965
 20
7.271
 11
3.5656285896
 21
7.3244708513
  0
LINE
  5
27D
100
AcDbEntity
  8
0
100
AcDbLine
 62
7
  6
CONTINUOUS
 10
4.1326926419
 20
7.5639939196
 11
4.1275
 21
7.555
  0
LINE
  5
27E
100
AcDbEntity
  8
0
100
AcDbLine
 62
7
  6
CONTINUOUS
 10
3.389
 20
6.7345
 11
3.3835
 21
6.729
  0
LINE
  5
27F
100
AcDbEntity
  8
0
100
AcDbLine
 62
7
  6
CONTINUOUS
 10
3.389
 20
7.2655
 11
3.3835
 21
7.271
  0
LINE
  5
280
100
AcDbEntity
  8
0
100
AcDbLine
 62
7
  6
CONTINUOUS
 10
4.1326926419
 20
6.4360060804
 11
4.1275
 21
6.445
  0
LINE
  5
281
100
AcDbEntity
  8
0
100
AcDbLine
 62
7
  6
CONTINUOUS
 10
4.1275
 20
6.445
 11
4.1275
 21
7.555
  0
LINE
  5
282
100
AcDbEntity
  8
0
100
AcDbLine
 62
7
  6
CONTINUOUS
 10
4.1731106713
 20
7.5624834998
 11
4.1731106713
 21
7.534572037
  0
LINE
  5
283
100
AcDbEntity
  8
0
100
AcDbLine
 62
7
  6
CONTINUOUS
 10
4.1731106713
 20
6.4375165002
 11
4.1731106713
 21
6.465427963
  0
LINE
  5
284
100
AcDbEntity
  8
0
100
AcDbLine
 62
7
  6
CONTINUOUS
 10
4.1731106713
 20
6.9720885372
 11
4.1731106713
 21
7.0279114628
  0
LINE
  5
285
100
AcDbEntity
  8
0
100
AcDbLine
 62
7
  6
CONTINUOUS
 10
5.3358564063
 20
6.484830127
 11
5.3383564065
 21
6.4855
  0
LINE
  5
286
100
AcDbEntity
  8
0
100
AcDbLine
 62
7
  6
CONTINUOUS
 10
4.1318303327
 20
6.4375165002
 11
5.1123547127
 21
6.4375165002
  0
LINE
  5
287
100
AcDbEntity
  8
0
100
AcDbLine
 62
7
  6
CONTINUOUS
 10
5.3115
 20
6.462
 11
5.1265
 21
6.462
  0
LINE
  5
288
100
AcDbEntity
  8
0
100
AcDbLine
 62
7
  6
CONTINUOUS
 10
5.0710743742
 20
6.465427963
 11
4.1731106713
 21
6.465427963
  0
LINE
  5
289
100
AcDbEntity
  8
THREAD
100
AcDbLine
 62
7
  6
CONTINUOUS
 10
5.3615
 20
6.4855
 11
5.3383564065
 21
6.4855
  0
LINE
  5
28A
100
AcDbEntity
  8
0
100
AcDbLine
 62
7
  6
CONTINUOUS
 10
5.4315
 20
6.488
 11
5.4815
 21
6.488
  0
LINE
  5
28B
100
AcDbEntity
  8
0
100
AcDbLine
 62
7
  6
CONTINUOUS
 10
4.1275
 20
6.503
 11
3.6895
 21
6.503
  0
LINE
  5
28C
100
AcDbEntity
  8
THREAD
100
AcDbLine
 62
7
  6
CONTINUOUS
 10
5.8325
 20
6.504
 11
5.5244393102
 21
6.504
  0
LINE
  5
28D
100
AcDbEntity
  8
THREAD
100
AcDbLine
 62
7
  6
CONTINUOUS
 10
5.4949944465
 20
6.542
 11
5.4815
 21
6.542
  0
LINE
  5
28E
100
AcDbEntity
  8
THREAD
100
AcDbLine
 62
7
  6
CONTINUOUS
 10
6.1735
 20
6.548
 11
5.8765
 21
6.548
  0
LINE
  5
28F
100
AcDbEntity
  8
0
100
AcDbLine
 62
7
  6
CONTINUOUS
 10
7.0495
 20
6.548
 11
7.0975
 21
6.548
  0
LINE
  5
290
100
AcDbEntity
  8
0
100
AcDbLine
 62
7
  6
CONTINUOUS
 10
7.1585
 20
6.5635
 11
7.1195
 21
6.5635
  0
LINE
  5
291
100
AcDbEntity
  8
0
100
AcDbLine
 62
7
  6
CONTINUOUS
 10
7.0365
 20
6.5635
 11
6.9895
 21
6.5635
  0
LINE
  5
292
100
AcDbEntity
  8
HIDDEN
100
AcDbLine
 62
2
  6
CONTINUOUS
 10
7.3995
 20
6.6182846597
 11
6.9745
 21
6.6182846597
  0
LINE
  5
293
100
AcDbEntity
  8
0
100
AcDbLine
 62
7
  6
CONTINUOUS
 10
6.1895
 20
6.626
 11
6.5035
 21
6.626
  0
LINE
  5
294
100
AcDbEntity
  8
0
100
AcDbLine
 62
7
  6
CONTINUOUS
 10
6.5235
 20
6.626
 11
6.5345
 21
6.626
  0
LINE
  5
295
100
AcDbEntity
  8
0
100
AcDbLine
 62
7
  6
CONTINUOUS
 10
6.5545
 20
6.626
 11
6.6105
 21
6.626
  0
LINE
  5
296
100
AcDbEntity
  8
0
100
AcDbLine
 62
7
  6
CONTINUOUS
 10
6.7765
 20
6.626
 11
6.9745
 21
6.626
  0
LINE
  5
297
100
AcDbEntity
  8
0
100
AcDbLine
 62
7
  6
CONTINUOUS
 10
7.1105
 20
6.6495
 11
7.1195
 21
6.6495
  0
LINE
  5
298
100
AcDbEntity
  8
0
100
AcDbLine
 62
7
  6
CONTINUOUS
 10
3.5656285896
 20
6.6755291487
 11
3.4639708513
 21
6.6755291487
  0
LINE
  5
299
100
AcDbEntity
  8
0
100
AcDbLine
 62
7
  6
CONTINUOUS
 10
3.6275
 20
6.729
 11
3.5965
 21
6.729
  0
LINE
  5
29A
100
AcDbEntity
  8
0
100
AcDbLine
 62
7
  6
CONTINUOUS
 10
3.3835
 20
6.729
 11
3.3775
 21
6.729
  0
LINE
  5
29B
100
AcDbEntity
  8
0
100
AcDbLine
 62
7
  6
CONTINUOUS
 10
3.405
 20
6.7345
 11
3.389
 21
6.7345
  0
LINE
  5
29C
100
AcDbEntity
  8
0
100
AcDbLine
 62
7
  6
CONTINUOUS
 10
2.8425
 20
6.816
 11
3.0415
 21
6.816
  0
LINE
  5
29D
100
AcDbEntity
  8
0
100
AcDbLine
 62
7
  6
CONTINUOUS
 10
3.0795
 20
6.816
 11
3.3155
 21
6.816
  0
LINE
  5
29E
100
AcDbEntity
  8
DEFAULT_2
100
AcDbLine
 62
8
  6
HIDDEN
 10
3.0415
 20
6.83
 11
3.0453029724
 21
6.83
  0
LINE
  5
29F
100
AcDbEntity
  8
DEFAULT_2
100
AcDbLine
 62
8
  6
HIDDEN
 10
3.0756970276
 20
6.83
 11
3.0795
 21
6.83
  0
LINE
  5
2A0
100
AcDbEntity
  8
0
100
AcDbLine
 62
7
  6
CONTINUOUS
 10
3.5656285896
 20
6.8377645744
 11
3.4639708513
 21
6.8377645744
  0
LINE
  5
2A1
100
AcDbEntity
  8
0
100
AcDbLine
 62
7
  6
CONTINUOUS
 10
3.0415
 20
6.849
 11
3.043
 21
6.849
  0
LINE
  5
2A2
100
AcDbEntity
  8
0
100
AcDbLine
 62
7
  6
CONTINUOUS
 10
3.078
 20
6.849
 11
3.0795
 21
6.849
  0
LINE
  5
2A3
100
AcDbEntity
  8
HIDDEN
100
AcDbLine
 62
2
  6
CONTINUOUS
 10
6.9745
 20
6.8682846597
 11
7.3995
 21
6.8682846597
  0
LINE
  5
2A4
100
AcDbEntity
  8
0
100
AcDbLine
 62
7
  6
CONTINUOUS
 10
5.0710743742
 20
6.9720885372
 11
4.1731106713
 21
6.9720885372
  0
LINE
  5
2A5
100
AcDbEntity
  8
0
100
AcDbLine
 62
7
  6
CONTINUOUS
 10
5.0710743742
 20
7.5624834998
 11
5.0710743742
 21
7.534572037
  0
LINE
  5
2A6
100
AcDbEntity
  8
0
100
AcDbLine
 62
7
  6
CONTINUOUS
 10
5.0710743742
 20
6.4375165002
 11
5.0710743742
 21
6.465427963
  0
LINE
  5
2A7
100
AcDbEntity
  8
0
100
AcDbLine
 62
7
  6
CONTINUOUS
 10
5.0710743742
 20
6.9720885372
 11
5.0710743742
 21
7.0279114628
  0
LINE
  5
2A8
100
AcDbEntity
  8
0
100
AcDbLine
 62
7
  6
CONTINUOUS
 10
5.1265
 20
6.462
 11
5.1265
 21
7.538
  0
LINE
  5
2A9
100
AcDbEntity
  8
0
100
AcDbLine
 62
7
  6
CONTINUOUS
 10
5.0710743742
 20
7.0279114628
 11
4.1731106713
 21
7.0279114628
  0
LINE
  5
2AA
100
AcDbEntity
  8
0
100
AcDbLine
 62
7
  6
CONTINUOUS
 10
3.0415
 20
7.151
 11
3.043
 21
7.151
  0
LINE
  5
2AB
100
AcDbEntity
  8
0
100
AcDbLine
 62
7
  6
CONTINUOUS
 10
3.078
 20
7.151
 11
3.0795
 21
7.151
  0
LINE
  5
2AC
100
AcDbEntity
  8
0
100
AcDbLine
 62
7
  6
CONTINUOUS
 10
3.5656285896
 20
7.1622354256
 11
3.4639708513
 21
7.1622354256
  0
LINE
  5
2AD
100
AcDbEntity
  8
DEFAULT_2
100
AcDbLine
 62
8
  6
HIDDEN
 10
3.0415
 20
7.17
 11
3.0453029724
 21
7.17
  0
LINE
  5
2AE
100
AcDbEntity
  8
DEFAULT_2
100
AcDbLine
 62
8
  6
HIDDEN
 10
3.0756970276
 20
7.17
 11
3.0795
 21
7.17
  0
LINE
  5
2AF
100
AcDbEntity
  8
0
100
AcDbLine
 62
7
  6
CONTINUOUS
 10
5.3115
 20
7.538
 11
5.3115
 21
6.462
  0
LINE
  5
2B0
100
AcDbEntity
  8
0
100
AcDbLine
 62
7
  6
CONTINUOUS
 10
5.3145
 20
7.534999988
 11
5.3145
 21
6.465000012
  0
LINE
  5
2B1
100
AcDbEntity
  8
0
100
AcDbLine
 62
7
  6
CONTINUOUS
 10
5.3170000001
 20
6.4739433757
 11
5.3170000001
 21
7.5260566243
  0
LINE
  5
2B2
100
AcDbEntity
  8
THREAD
100
AcDbLine
 62
7
  6
CONTINUOUS
 10
5.5244393102
 20
7.496
 11
5.5062527764
 21
7.4644999993
  0
LINE
  5
2B3
100
AcDbEntity
  8
0
100
AcDbLine
 62
7
  6
CONTINUOUS
 10
2.8425
 20
7.184
 11
3.0415
 21
7.184
  0
LINE
  5
2B4
100
AcDbEntity
  8
0
100
AcDbLine
 62
7
  6
CONTINUOUS
 10
3.0795
 20
7.184
 11
3.3155
 21
7.184
  0
LINE
  5
2B5
100
AcDbEntity
  8
0
100
AcDbLine
 62
7
  6
CONTINUOUS
 10
3.405
 20
7.2655
 11
3.389
 21
7.2655
  0
LINE
  5
2B6
100
AcDbEntity
  8
0
100
AcDbLine
 62
7
  6
CONTINUOUS
 10
3.6275
 20
7.271
 11
3.5965
 21
7.271
  0
LINE
  5
2B7
100
AcDbEntity
  8
0
100
AcDbLine
 62
7
  6
CONTINUOUS
 10
3.3835
 20
7.271
 11
3.3775
 21
7.271
  0
LINE
  5
2B8
100
AcDbEntity
  8
THREAD
100
AcDbLine
 62
7
  6
CONTINUOUS
 10
5.5244393102
 20
6.504
 11
5.5062527764
 21
6.5355000007
  0
LINE
  5
2B9
100
AcDbEntity
  8
0
100
AcDbLine
 62
7
  6
CONTINUOUS
 10
5.3358564062
 20
6.4848301269
 11
5.3358564062
 21
7.5151698731
  0
LINE
  5
2BA
100
AcDbEntity
  8
0
100
AcDbLine
 62
7
  6
CONTINUOUS
 10
5.3383564065
 20
6.4855
 11
5.3383564065
 21
7.5145
  0
LINE
  5
2BB
100
AcDbEntity
  8
THREAD
100
AcDbLine
 62
7
  6
CONTINUOUS
 10
5.3615
 20
6.4855
 11
5.3615
 21
7.5145
  0
LINE
  5
2BC
100
AcDbEntity
  8
0
100
AcDbLine
 62
7
  6
CONTINUOUS
 10
5.4315
 20
7.512
 11
5.4315
 21
6.488
  0
LINE
  5
2BD
100
AcDbEntity
  8
0
100
AcDbLine
 62
7
  6
CONTINUOUS
 10
5.1265
 20
6.462
 11
5.1114924035
 21
6.4360060804
  0
LINE
  5
2BE
100
AcDbEntity
  8
0
100
AcDbLine
 62
7
  6
CONTINUOUS
 10
3.5656285896
 20
7.3244708513
 11
3.4639708513
 21
7.3244708513
  0
LINE
  5
2BF
100
AcDbEntity
  8
0
100
AcDbLine
 62
7
  6
CONTINUOUS
 10
7.1105
 20
7.3505
 11
7.1195
 21
7.3505
  0
LINE
  5
2C0
100
AcDbEntity
  8
0
100
AcDbLine
 62
7
  6
CONTINUOUS
 10
6.1895
 20
7.374
 11
6.5035
 21
7.374
  0
LINE
  5
2C1
100
AcDbEntity
  8
0
100
AcDbLine
 62
7
  6
CONTINUOUS
 10
6.5235
 20
7.374
 11
6.5345
 21
7.374
  0
LINE
  5
2C2
100
AcDbEntity
  8
0
100
AcDbLine
 62
7
  6
CONTINUOUS
 10
6.5545
 20
7.374
 11
6.6105
 21
7.374
  0
LINE
  5
2C3
100
AcDbEntity
  8
0
100
AcDbLine
 62
7
  6
CONTINUOUS
 10
6.7765
 20
7.374
 11
6.9745
 21
7.374
  0
LINE
  5
2C4
100
AcDbEntity
  8
0
100
AcDbLine
 62
7
  6
CONTINUOUS
 10
6.128
 20
7.4108581236
 11
6.087
 21
7.4108581236
  0
LINE
  5
2C5
100
AcDbEntity
  8
0
100
AcDbLine
 62
7
  6
CONTINUOUS
 10
7.1585
 20
7.4365
 11
7.1195
 21
7.4365
  0
LINE
  5
2C6
100
AcDbEntity
  8
0
100
AcDbLine
 62
7
  6
CONTINUOUS
 10
7.0365
 20
7.4365
 11
6.9895
 21
7.4365
  0
LINE
  5
2C7
100
AcDbEntity
  8
THREAD
100
AcDbLine
 62
7
  6
CONTINUOUS
 10
6.1735
 20
7.452
 11
6.128
 21
7.452
  0
LINE
  5
2C8
100
AcDbEntity
  8
THREAD
100
AcDbLine
 62
7
  6
CONTINUOUS
 10
6.087
 20
7.452
 11
5.8765
 21
7.452
  0
LINE
  5
2C9
100
AcDbEntity
  8
0
100
AcDbLine
 62
7
  6
CONTINUOUS
 10
7.0495
 20
7.452
 11
7.0975
 21
7.452
  0
LINE
  5
2CA
100
AcDbEntity
  8
THREAD
100
AcDbLine
 62
7
  6
CONTINUOUS
 10
5.4949944465
 20
7.458
 11
5.4815
 21
7.458
  0
LINE
  5
2CB
100
AcDbEntity
  8
0
100
AcDbLine
 62
7
  6
CONTINUOUS
 10
5.1265
 20
7.538
 11
5.1114924035
 21
7.5639939196
  0
LINE
  5
2CC
100
AcDbEntity
  8
0
100
AcDbLine
 62
7
  6
CONTINUOUS
 10
5.4815
 20
7.512
 11
5.4815
 21
6.488
  0
LINE
  5
2CD
100
AcDbEntity
  8
THREAD
100
AcDbLine
 62
7
  6
CONTINUOUS
 10
5.4949944465
 20
6.542
 11
5.4949944465
 21
7.458
  0
LINE
  5
2CE
100
AcDbEntity
  8
THREAD
100
AcDbLine
 62
7
  6
CONTINUOUS
 10
5.5062527763
 20
6.5355000008
 11
5.5062527763
 21
7.4644999992
  0
LINE
  5
2CF
100
AcDbEntity
  8
THREAD
100
AcDbLine
 62
7
  6
CONTINUOUS
 10
5.5244393102
 20
6.504
 11
5.5244393102
 21
7.496
  0
LINE
  5
2D0
100
AcDbEntity
  8
THREAD
100
AcDbLine
 62
7
  6
CONTINUOUS
 10
5.3358564063
 20
6.484830127
 11
5.3170000001
 21
6.4739433757
  0
LINE
  5
2D1
100
AcDbEntity
  8
THREAD
100
AcDbLine
 62
7
  6
CONTINUOUS
 10
5.8325
 20
7.496
 11
5.5244393102
 21
7.496
  0
LINE
  5
2D2
100
AcDbEntity
  8
0
100
AcDbLine
 62
7
  6
CONTINUOUS
 10
4.1275
 20
7.497
 11
3.6895
 21
7.497
  0
LINE
  5
2D3
100
AcDbEntity
  8
0
100
AcDbLine
 62
7
  6
CONTINUOUS
 10
5.4315
 20
7.512
 11
5.4815
 21
7.512
  0
LINE
  5
2D4
100
AcDbEntity
  8
THREAD
100
AcDbLine
 62
7
  6
CONTINUOUS
 10
5.3615
 20
7.5145
 11
5.3383564065
 21
7.5145
  0
LINE
  5
2D5
100
AcDbEntity
  8
0
100
AcDbLine
 62
7
  6
CONTINUOUS
 10
5.0710743742
 20
7.534572037
 11
4.1731106713
 21
7.534572037
  0
LINE
  5
2D6
100
AcDbEntity
  8
0
100
AcDbLine
 62
7
  6
CONTINUOUS
 10
5.3115
 20
7.538
 11
5.1265
 21
7.538
  0
LINE
  5
2D7
100
AcDbEntity
  8
0
100
AcDbLine
 62
7
  6
CONTINUOUS
 10
4.1318303327
 20
7.5624834998
 11
5.1123547127
 21
7.5624834998
  0
LINE
  5
2D8
100
AcDbEntity
  8
0
100
AcDbLine
 62
7
  6
CONTINUOUS
 10
5.3358564063
 20
7.515169873
 11
5.3383564065
 21
7.5145
  0
LINE
  5
2D9
100
AcDbEntity
  8
THREAD
100
AcDbLine
 62
7
  6
CONTINUOUS
 10
5.3358564063
 20
7.515169873
 11
5.3170000001
 21
7.5260566243
  0
LINE
  5
2DA
100
AcDbEntity
  8
THREAD
100
AcDbLine
 62
7
  6
CONTINUOUS
 10
5.8325
 20
6.504
 11
5.8325
 21
7.496
  0
LINE
  5
2DB
100
AcDbEntity
  8
THREAD
100
AcDbLine
 62
7
  6
CONTINUOUS
 10
5.8765
 20
6.548
 11
5.8765
 21
7.452
  0
LINE
  5
2DC
100
AcDbEntity
  8
0
100
AcDbLine
 62
7
  6
CONTINUOUS
 10
6.5135
 20
7.364
 11
6.5235
 21
7.374
  0
LINE
  5
2DD
100
AcDbEntity
  8
0
100
AcDbLine
 62
7
  6
CONTINUOUS
 10
6.5445
 20
7.364
 11
6.5545
 21
7.374
  0
LINE
  5
2DE
100
AcDbEntity
  8
0
100
AcDbLine
 62
7
  6
CONTINUOUS
 10
7.0365
 20
7.442
 11
7.0495
 21
7.452
  0
LINE
  5
2DF
100
AcDbEntity
  8
0
100
AcDbLine
 62
7
  6
CONTINUOUS
 10
7.0365
 20
6.558
 11
7.0495
 21
6.548
  0
LINE
  5
2E0
100
AcDbEntity
  8
0
100
AcDbLine
 62
7
  6
CONTINUOUS
 10
6.5135
 20
6.636
 11
6.5235
 21
6.626
  0
LINE
  5
2E1
100
AcDbEntity
  8
0
100
AcDbLine
 62
7
  6
CONTINUOUS
 10
6.5445
 20
6.636
 11
6.5545
 21
6.626
  0
LINE
  5
2E2
100
AcDbEntity
  8
THREAD
100
AcDbLine
 62
7
  6
CONTINUOUS
 10
5.8765
 20
6.548
 11
5.8325
 21
6.504
  0
LINE
  5
2E3
100
AcDbEntity
  8
THREAD
100
AcDbLine
 62
7
  6
CONTINUOUS
 10
5.8765
 20
7.452
 11
5.8325
 21
7.496
  0
LINE
  5
2E4
100
AcDbEntity
  8
0
100
AcDbLine
 62
7
  6
CONTINUOUS
 10
6.087
 20
7.4108581236
 11
6.087
 21
7.452
  0
LINE
  5
2E5
100
AcDbEntity
  8
0
100
AcDbLine
 62
7
  6
CONTINUOUS
 10
6.128
 20
7.4108581236
 11
6.128
 21
7.452
  0
LINE
  5
2E6
100
AcDbEntity
  8
0
100
AcDbLine
 62
7
  6
CONTINUOUS
 10
6.1735
 20
6.548
 11
6.1735
 21
7.452
  0
LINE
  5
2E7
100
AcDbEntity
  8
0
100
AcDbLine
 62
7
  6
CONTINUOUS
 10
6.1895
 20
6.5640118841
 11
6.1895
 21
7.4359881159
  0
LINE
  5
2E8
100
AcDbEntity
  8
0
100
AcDbLine
 62
7
  6
CONTINUOUS
 10
6.9895
 20
7.4365
 11
6.9745
 21
7.4215
  0
LINE
  5
2E9
100
AcDbEntity
  8
0
100
AcDbLine
 62
7
  6
CONTINUOUS
 10
6.1895
 20
6.564
 11
6.1735
 21
6.548
  0
LINE
  5
2EA
100
AcDbEntity
  8
0
100
AcDbLine
 62
7
  6
CONTINUOUS
 10
6.9895
 20
6.5635
 11
6.9745
 21
6.5785
  0
LINE
  5
2EB
100
AcDbEntity
  8
0
100
AcDbLine
 62
7
  6
CONTINUOUS
 10
6.1895
 20
7.436
 11
6.1735
 21
7.452
  0
LINE
  5
2EC
100
AcDbEntity
  8
0
100
AcDbLine
 62
7
  6
CONTINUOUS
 10
6.3655
 20
7.0408519553
 11
6.3655
 21
6.9591469969
  0
LINE
  5
2ED
100
AcDbEntity
  8
0
100
AcDbLine
 62
7
  6
CONTINUOUS
 10
6.5035
 20
6.626
 11
6.5135
 21
6.636
  0
LINE
  5
2EE
100
AcDbEntity
  8
0
100
AcDbLine
 62
7
  6
CONTINUOUS
 10
6.5345
 20
6.626
 11
6.5445
 21
6.636
  0
LINE
  5
2EF
100
AcDbEntity
  8
0
100
AcDbLine
 62
7
  6
CONTINUOUS
 10
6.5035
 20
7.374
 11
6.5135
 21
7.364
  0
LINE
  5
2F0
100
AcDbEntity
  8
0
100
AcDbLine
 62
7
  6
CONTINUOUS
 10
6.5345
 20
7.374
 11
6.5445
 21
7.364
  0
LINE
  5
2F1
100
AcDbEntity
  8
0
100
AcDbLine
 62
7
  6
CONTINUOUS
 10
6.4316415773
 20
6.9409090439
 11
6.4316415773
 21
7.0590902767
  0
LINE
  5
2F2
100
AcDbEntity
  8
0
100
AcDbLine
 62
7
  6
CONTINUOUS
 10
6.5035
 20
7.374
 11
6.5035
 21
6.626
  0
LINE
  5
2F3
100
AcDbEntity
  8
0
100
AcDbLine
 62
7
  6
CONTINUOUS
 10
6.5135
 20
7.364
 11
6.5135
 21
6.636
  0
LINE
  5
2F4
100
AcDbEntity
  8
0
100
AcDbLine
 62
7
  6
CONTINUOUS
 10
6.5235
 20
7.374
 11
6.5235
 21
6.626
  0
LINE
  5
2F5
100
AcDbEntity
  8
0
100
AcDbLine
 62
7
  6
CONTINUOUS
 10
6.5345
 20
7.374
 11
6.5345
 21
6.626
  0
LINE
  5
2F6
100
AcDbEntity
  8
0
100
AcDbLine
 62
7
  6
CONTINUOUS
 10
6.5445
 20
7.364
 11
6.5445
 21
6.636
  0
LINE
  5
2F7
100
AcDbEntity
  8
0
100
AcDbLine
 62
7
  6
CONTINUOUS
 10
6.5545
 20
7.374
 11
6.5545
 21
6.626
  0
LINE
  5
2F8
100
AcDbEntity
  8
0
100
AcDbLine
 62
7
  6
CONTINUOUS
 10
7.0975
 20
6.548
 11
7.1105
 21
6.558
  0
LINE
  5
2F9
100
AcDbEntity
  8
0
100
AcDbLine
 62
7
  6
CONTINUOUS
 10
7.0975
 20
7.452
 11
7.1105
 21
7.442
  0
LINE
  5
2FA
100
AcDbEntity
  8
0
100
AcDbLine
 62
7
  6
CONTINUOUS
 10
6.6896415773
 20
7.2107868746
 11
6.6896415773
 21
7.1108498929
  0
LINE
  5
2FB
100
AcDbEntity
  8
0
100
AcDbLine
 62
7
  6
CONTINUOUS
 10
6.6896415773
 20
6.8891501071
 11
6.6896415773
 21
6.7892125879
  0
LINE
  5
2FC
100
AcDbEntity
  8
0
100
AcDbLine
 62
7
  6
CONTINUOUS
 10
6.6996415773
 20
7.2106147854
 11
6.6996415773
 21
7.1110824963
  0
LINE
  5
2FD
100
AcDbEntity
  8
0
100
AcDbLine
 62
7
  6
CONTINUOUS
 10
6.6996415773
 20
6.8889175045
 11
6.6996415773
 21
6.789383774
  0
LINE
  5
2FE
100
AcDbEntity
  8
0
100
AcDbLine
 62
7
  6
CONTINUOUS
 10
6.7098740052
 20
7.2098474592
 11
6.7098740052
 21
7.1121249553
  0
LINE
  5
2FF
100
AcDbEntity
  8
0
100
AcDbLine
 62
7
  6
CONTINUOUS
 10
6.7098740052
 20
6.8878750469
 11
6.7098740052
 21
6.7901487
  0
LINE
  5
300
100
AcDbEntity
  8
0
100
AcDbLine
 62
7
  6
CONTINUOUS
 10
6.7715
 20
7.1685926664
 11
6.7715
 21
7.1624597584
  0
LINE
  5
301
100
AcDbEntity
  8
0
100
AcDbLine
 62
7
  6
CONTINUOUS
 10
6.7715
 20
6.8375402586
 11
6.7715
 21
6.8314175862
  0
LINE
  5
302
100
AcDbEntity
  8
HIDDEN
100
AcDbLine
 62
2
  6
CONTINUOUS
 10
6.9745
 20
7.3817153403
 11
6.9745
 21
6.6182846597
  0
LINE
  5
303
100
AcDbEntity
  8
0
100
AcDbLine
 62
7
  6
CONTINUOUS
 10
6.9745
 20
6.5785
 11
6.9745
 21
7.4215
  0
LINE
  5
304
100
AcDbEntity
  8
0
100
AcDbLine
 62
7
  6
CONTINUOUS
 10
7.1885
 20
6.5935
 11
7.1585
 21
6.5635
  0
LINE
  5
305
100
AcDbEntity
  8
0
100
AcDbLine
 62
7
  6
CONTINUOUS
 10
7.1885
 20
7.4065
 11
7.1585
 21
7.4365
  0
LINE
  5
306
100
AcDbEntity
  8
0
100
AcDbLine
 62
7
  6
CONTINUOUS
 10
6.9895
 20
6.5635
 11
6.9895
 21
7.4365
  0
LINE
  5
307
100
AcDbEntity
  8
0
100
AcDbLine
 62
7
  6
CONTINUOUS
 10
7.0365
 20
7.442
 11
7.0365
 21
6.558
  0
LINE
  5
308
100
AcDbEntity
  8
0
100
AcDbLine
 62
7
  6
CONTINUOUS
 10
7.0495
 20
7.452
 11
7.0495
 21
6.548
  0
LINE
  5
309
100
AcDbEntity
  8
0
100
AcDbLine
 62
7
  6
CONTINUOUS
 10
7.0975
 20
7.452
 11
7.0975
 21
6.548
  0
LINE
  5
30A
100
AcDbEntity
  8
0
100
AcDbLine
 62
7
  6
CONTINUOUS
 10
7.1105
 20
7.442
 11
7.1105
 21
6.558
  0
LINE
  5
30B
100
AcDbEntity
  8
0
100
AcDbLine
 62
7
  6
CONTINUOUS
 10
7.1195
 20
6.5635
 11
7.1195
 21
7.4365
  0
LINE
  5
30C
100
AcDbEntity
  8
0
100
AcDbLine
 62
7
  6
CONTINUOUS
 10
7.1585
 20
6.5635
 11
7.1585
 21
7.4365
  0
LINE
  5
30D
100
AcDbEntity
  8
0
100
AcDbLine
 62
7
  6
CONTINUOUS
 10
7.1885
 20
6.5935
 11
7.1885
 21
7.4065
  0
LINE
  5
30E
100
AcDbEntity
  8
HIDDEN
100
AcDbLine
 62
2
  6
CONTINUOUS
 10
7.3995
 20
6.8682846597
 11
7.3995
 21
6.6182846597
  0
ARC
  5
30F
100
AcDbEntity
  8
0
100
AcDbCircle
 62
7
  6
CONTINUOUS
 10
3.3775
 20
6.823
 40
0.094
100
AcDbArc
 50
228.732572619
 51
270.0
  0
ARC
  5
310
100
AcDbEntity
  8
0
100
AcDbCircle
 62
7
  6
CONTINUOUS
 10
3.3775
 20
7.177
 40
0.094
100
AcDbArc
 50
90.0
 51
131.267427381
  0
CIRCLE
  5
311
100
AcDbEntity
  8
0
100
AcDbCircle
 62
7
  6
CONTINUOUS
 10
6.4125
 20
7.0
 40
0.0625
  0
ARC
  5
312
100
AcDbEntity
  8
0
100
AcDbCircle
 62
7
  6
CONTINUOUS
 10
3.0605
 20
7.1615
 40
0.0175
100
AcDbArc
 50
0.0
 51
180.0
  0
ARC
  5
313
100
AcDbEntity
  8
0
100
AcDbCircle
 62
7
  6
CONTINUOUS
 10
3.0605
 20
6.8385
 40
0.0175
100
AcDbArc
 50
180.0
 51
360.0
  0
ARC
  5
314
100
AcDbEntity
  8
THREAD
100
AcDbCircle
 62
7
  6
CONTINUOUS
 10
5.4949944465
 20
6.529
 40
0.013
100
AcDbArc
 50
30.000003448
 51
90.0
  0
ARC
  5
315
100
AcDbEntity
  8
THREAD
100
AcDbCircle
 62
7
  6
CONTINUOUS
 10
5.4949944465
 20
7.471
 40
0.013
100
AcDbArc
 50
270.0
 51
329.999996552
  0
ARC
  5
316
100
AcDbEntity
  8
0
100
AcDbCircle
 62
7
  6
CONTINUOUS
 10
5.3195
 20
6.4696132487
 40
0.005
100
AcDbArc
 50
119.9999982547
 51
179.9999965147
  0
ARC
  5
317
100
AcDbEntity
  8
0
100
AcDbCircle
 62
7
  6
CONTINUOUS
 10
5.3195
 20
7.5303867513
 40
0.005
100
AcDbArc
 50
180.0000034853
 51
240.0000017453
  0
ARC
  5
318
100
AcDbEntity
  8
0
100
AcDbCircle
 62
7
  6
CONTINUOUS
 10
5.3115
 20
6.465
 40
0.003
100
AcDbArc
 50
270.0
 51
0.0000355013
  0
ARC
  5
319
100
AcDbEntity
  8
0
100
AcDbCircle
 62
7
  6
CONTINUOUS
 10
5.3115
 20
7.535
 40
0.003
100
AcDbArc
 50
359.9999644987
 51
90.0
  0
SPLINE
  5
31A
100
AcDbEntity
  8
0
100
AcDbSpline
 62
7
  6
CONTINUOUS
 70
0
 71
3
 72
29
 73
25
 74
0
 42
0.0000001
 43
0.0000001
 44
0.0000000001
 40
0.0
 40
0.0
 40
0.0
 40
0.0
 40
0.0699814326
 40
0.1378931693
 40
0.2035483063
 40
0.2668301071
 40
0.3277577624
 40
0.3574096745
 40
0.3865762134
 40
0.4153250756
 40
0.4437427141
 40
0.4719307121
 40
0.5000000301
 40
0.5280693453
 40
0.5562573422
 40
0.5846749808
 40
0.6134238382
 40
0.6425903726
 40
0.6722422822
 40
0.7331699209
 40
0.796451712
 40
0.8621068357
 40
0.9300185679
 40
1.0
 40
1.0
 40
1.0
 40
1.0
 10
3.4639708513
 20
7.1622354256
 30
0.0
 10
3.4608560267
 20
7.1653502502
 30
0.0
 10
3.4548485704
 20
7.171620498
 30
0.0
 10
3.4464837005
 20
7.1813347699
 30
0.0
 10
3.4390144878
 20
7.1912347025
 30
0.0
 10
3.4325857871
 20
7.2013263651
 30
0.0
 10
3.4281793193
 20
7.2099734854
 30
0.0
 10
3.425352393
 20
7.2169651849
 30
0.0
 10
3.4236052759
 20
7.2221969955
 30
0.0
 10
3.4222274621
 20
7.2274580884
 30
0.0
 10
3.4212350053
 20
7.2327430445
 30
0.0
 10
3.4206348105
 20
7.238043924
 30
0.0
 10
3.4204327377
 20
7.243353144
 30
0.0
 10
3.4206348076
 20
7.2486623643
 30
0.0
 10
3.42123501
 20
7.2539632427
 30
0.0
 10
3.4222274641
 20
7.2592481987
 30
0.0
 10
3.4236052762
 20
7.2645092916
 30
0.0
 10
3.4253523974
 20
7.2697411001
 30
0.0
 10
3.4281793222
 20
7.2767327984
 30
0.0
 10
3.4325857895
 20
7.2853799171
 30
0.0
 10
3.4390144902
 20
7.2954715767
 30
0.0
 10
3.4464837013
 20
7.3053715083
 30
0.0
 10
3.4548485708
 20
7.3150857791
 30
0.0
 10
3.4608560267
 20
7.3213560267
 30
0.0
 10
3.4639708513
 20
7.3244708513
 30
0.0
  0
SPLINE
  5
31B
100
AcDbEntity
  8
0
100
AcDbSpline
 62
7
  6
CONTINUOUS
 70
0
 71
3
 72
25
 73
21
 74
0
 42
0.0000001
 43
0.0000001
 44
0.0000000001
 40
0.0
 40
0.0
 40
0.0
 40
0.0
 40
0.0659343996
 40
0.1307786338
 40
0.1945190869
 40
0.2571884297
 40
0.3188803748
 40
0.3494111547
 40
0.3797624252
 40
0.4400381959
 40
0.5000000142
 40
0.5599618336
 40
0.6202376013
 40
0.6505888715
 40
0.68111965
 40
0.7428115909
 40
0.8054809287
 40
0.8692213713
 40
0.9340656013
 40
1.0
 40
1.0
 40
1.0
 40
1.0
 10
3.5656285896
 20
6.6755291487
 30
0.0
 10
3.567516559
 20
6.6787992076
 30
0.0
 10
3.5711349301
 20
6.6853595679
 30
0.0
 10
3.576066339
 20
6.6953530604
 30
0.0
 10
3.5803954557
 20
6.7054202562
 30
0.0
 10
3.5840566079
 20
6.7155586034
 30
0.0
 10
3.5865068654
 20
6.7240922681
 30
0.0
 10
3.5880671299
 20
6.7309378364
 30
0.0
 10
3.5893474037
 20
6.7377586365
 30
0.0
 10
3.5904342196
 20
6.7463242762
 30
0.0
 10
3.590871496
 20
6.756646864
 30
0.0
 10
3.5904342204
 20
6.7669694518
 30
0.0
 10
3.5893474027
 20
6.7755350912
 30
0.0
 10
3.5880671279
 20
6.7823558908
 30
0.0
 10
3.5865068664
 20
6.7892014594
 30
0.0
 10
3.5840566054
 20
6.7977351226
 30
0.0
 10
3.5803954555
 20
6.8078734694
 30
0.0
 10
3.5760663383
 20
6.8179406637
 30
0.0
 10
3.5711349298
 20
6.8279341554
 30
0.0
 10
3.567516559
 20
6.8344945155
 30
0.0
 10
3.5656285896
 20
6.8377645744
 30
0.0
  0
SPLINE
  5
31C
100
AcDbEntity
  8
0
100
AcDbSpline
 62
7
  6
CONTINUOUS
 70
0
 71
3
 72
29
 73
25
 74
0
 42
0.0000001
 43
0.0000001
 44
0.0000000001
 40
0.0
 40
0.0
 40
0.0
 40
0.0
 40
0.0699814326
 40
0.1378931693
 40
0.2035483063
 40
0.2668301071
 40
0.3277577624
 40
0.3574096745
 40
0.3865762134
 40
0.4153250756
 40
0.4437427141
 40
0.4719307121
 40
0.5000000301
 40
0.5280693453
 40
0.5562573422
 40
0.5846749808
 40
0.6134238382
 40
0.6425903726
 40
0.6722422822
 40
0.7331699209
 40
0.796451712
 40
0.8621068357
 40
0.9300185679
 40
1.0
 40
1.0
 40
1.0
 40
1.0
 10
3.4639708513
 20
6.6755291487
 30
0.0
 10
3.4608560267
 20
6.6786439733
 30
0.0
 10
3.4548485704
 20
6.684914221
 30
0.0
 10
3.4464837005
 20
6.694628493
 30
0.0
 10
3.4390144878
 20
6.7045284256
 30
0.0
 10
3.4325857871
 20
6.7146200881
 30
0.0
 10
3.4281793193
 20
6.7232672085
 30
0.0
 10
3.425352393
 20
6.7302589079
 30
0.0
 10
3.4236052759
 20
6.7354907185
 30
0.0
 10
3.4222274621
 20
6.7407518115
 30
0.0
 10
3.4212350053
 20
6.7460367676
 30
0.0
 10
3.4206348105
 20
6.751337647
 30
0.0
 10
3.4204327377
 20
6.756646867
 30
0.0
 10
3.4206348076
 20
6.7619560874
 30
0.0
 10
3.42123501
 20
6.7672569657
 30
0.0
 10
3.4222274641
 20
6.7725419217
 30
0.0
 10
3.4236052762
 20
6.7778030147
 30
0.0
 10
3.4253523974
 20
6.7830348231
 30
0.0
 10
3.4281793222
 20
6.7900265215
 30
0.0
 10
3.4325857895
 20
6.7986736402
 30
0.0
 10
3.4390144902
 20
6.8087652997
 30
0.0
 10
3.4464837013
 20
6.8186652314
 30
0.0
 10
3.4548485708
 20
6.8283795022
 30
0.0
 10
3.4608560267
 20
6.8346497498
 30
0.0
 10
3.4639708513
 20
6.8377645744
 30
0.0
  0
SPLINE
  5
31D
100
AcDbEntity
  8
0
100
AcDbSpline
 62
7
  6
CONTINUOUS
 70
0
 71
3
 72
25
 73
21
 74
0
 42
0.0000001
 43
0.0000001
 44
0.0000000001
 40
0.0
 40
0.0
 40
0.0
 40
0.0
 40
0.1249859891
 40
0.1874862541
 40
0.2499858822
 40
0.2812379746
 40
0.3124899424
 40
0.3437420673
 40
0.3749949169
 40
0.4374972714
 40
0.5000000149
 40
0.5625027595
 40
0.6250051101
 40
0.6562579591
 40
0.6875100837
 40
0.7187620486
 40
0.750014138
 40
0.8125137618
 40
0.8750140159
 40
1.0
 40
1.0
 40
1.0
 40
1.0
 10
3.5656285896
 20
6.8377645744
 30
0.0
 10
3.5694350268
 20
6.8509504595
 30
0.0
 10
3.5746657731
 20
6.8708762575
 30
0.0
 10
3.5804293362
 20
6.8977181122
 30
0.0
 10
3.5834738555
 20
6.914607377
 30
0.0
 10
3.5855429788
 20
6.9281774237
 30
0.0
 10
3.5869051271
 20
6.9383826107
 30
0.0
 10
3.5880702724
 20
6.9486123073
 30
0.0
 10
3.5893521573
 20
6.9622797041
 30
0.0
 10
3.590436007
 20
6.9794089268
 30
0.0
 10
3.5908709837
 20
7.000000005
 30
0.0
 10
3.5904360078
 20
7.0205910829
 30
0.0
 10
3.5893521563
 20
7.0377203051
 30
0.0
 10
3.5880702703
 20
7.0513877012
 30
0.0
 10
3.5869051274
 20
7.0616173977
 30
0.0
 10
3.5855429781
 20
7.071822584
 30
0.0
 10
3.5834738535
 20
7.0853926293
 30
0.0
 10
3.5804293361
 20
7.1022818924
 30
0.0
 10
3.5746657721
 20
7.1291237446
 30
0.0
 10
3.5694350266
 20
7.1490495411
 30
0.0
 10
3.5656285896
 20
7.1622354256
 30
0.0
  0
SPLINE
  5
31E
100
AcDbEntity
  8
0
100
AcDbSpline
 62
7
  6
CONTINUOUS
 70
0
 71
3
 72
29
 73
25
 74
0
 42
0.0000001
 43
0.0000001
 44
0.0000000001
 40
0.0
 40
0.0
 40
0.0
 40
0.0
 40
0.0624904563
 40
0.124986907
 40
0.1874824592
 40
0.2499774484
 40
0.3124737491
 40
0.343727532
 40
0.3749816508
 40
0.4062351141
 40
0.4374899104
 40
0.4687452438
 40
0.5000000338
 40
0.5312548209
 40
0.562510151
 40
0.5937649481
 40
0.6250184069
 40
0.6562725173
 40
0.6875262971
 40
0.7500225805
 40
0.8125175578
 40
0.8750130976
 40
0.937509544
 40
1.0
 40
1.0
 40
1.0
 40
1.0
 10
3.4639708513
 20
6.8377645744
 30
0.0
 10
3.4608128872
 20
6.8440805025
 30
0.0
 10
3.4547161719
 20
6.8568246313
 30
0.0
 10
3.4463492137
 20
6.8762947767
 30
0.0
 10
3.4388856662
 20
6.8961319207
 30
0.0
 10
3.4324741834
 20
6.9163355535
 30
0.0
 10
3.4281318882
 20
6.9334620213
 30
0.0
 10
3.4253365363
 20
6.9473104666
 30
0.0
 10
3.4235940873
 20
6.9577634496
 30
0.0
 10
3.4222206746
 20
6.968271489
 30
0.0
 10
3.4212319259
 20
6.9788229566
 30
0.0
 10
3.4206341443
 20
6.9894039589
 30
0.0
 10
3.4204329292
 20
7.0000000111
 30
0.0
 10
3.4206341413
 20
7.0105960632
 30
0.0
 10
3.4212319307
 20
7.0211770644
 30
0.0
 10
3.4222206767
 20
7.0317285313
 30
0.0
 10
3.4235940874
 20
7.0422365698
 30
0.0
 10
3.4253365409
 20
7.0526895502
 30
0.0
 10
3.4281318911
 20
7.0665379924
 30
0.0
 10
3.4324741857
 20
7.0836644567
 30
0.0
 10
3.4388856688
 20
7.1038680844
 30
0.0
 10
3.4463492145
 20
7.1237052256
 30
0.0
 10
3.4547161724
 20
7.1431753692
 30
0.0
 10
3.4608128872
 20
7.1559194975
 30
0.0
 10
3.4639708513
 20
7.1622354256
 30
0.0
  0
SPLINE
  5
31F
100
AcDbEntity
  8
0
100
AcDbSpline
 62
7
  6
CONTINUOUS
 70
0
 71
3
 72
25
 73
21
 74
0
 42
0.0000001
 43
0.0000001
 44
0.0000000001
 40
0.0
 40
0.0
 40
0.0
 40
0.0
 40
0.0659343996
 40
0.1307786338
 40
0.1945190869
 40
0.2571884297
 40
0.3188803748
 40
0.3494111547
 40
0.3797624252
 40
0.4400381959
 40
0.5000000142
 40
0.5599618336
 40
0.6202376013
 40
0.6505888715
 40
0.68111965
 40
0.7428115909
 40
0.8054809287
 40
0.8692213713
 40
0.9340656013
 40
1.0
 40
1.0
 40
1.0
 40
1.0
 10
3.5656285896
 20
7.1622354256
 30
0.0
 10
3.567516559
 20
7.1655054845
 30
0.0
 10
3.5711349301
 20
7.1720658448
 30
0.0
 10
3.576066339
 20
7.1820593374
 30
0.0
 10
3.5803954557
 20
7.1921265331
 30
0.0
 10
3.5840566079
 20
7.2022648803
 30
0.0
 10
3.5865068654
 20
7.210798545
 30
0.0
 10
3.5880671299
 20
7.2176441133
 30
0.0
 10
3.5893474037
 20
7.2244649134
 30
0.0
 10
3.5904342196
 20
7.2330305531
 30
0.0
 10
3.590871496
 20
7.243353141
 30
0.0
 10
3.5904342204
 20
7.2536757287
 30
0.0
 10
3.5893474027
 20
7.2622413681
 30
0.0
 10
3.5880671279
 20
7.2690621677
 30
0.0
 10
3.5865068664
 20
7.2759077364
 30
0.0
 10
3.5840566054
 20
7.2844413995
 30
0.0
 10
3.5803954555
 20
7.2945797463
 30
0.0
 10
3.5760663383
 20
7.3046469406
 30
0.0
 10
3.5711349298
 20
7.3146404323
 30
0.0
 10
3.567516559
 20
7.3212007924
 30
0.0
 10
3.5656285896
 20
7.3244708513
 30
0.0
  0
SPLINE
  5
320
100
AcDbEntity
  8
0
100
AcDbSpline
 62
7
  6
CONTINUOUS
 70
0
 71
3
 72
22
 73
18
 74
0
 42
0.0000001
 43
0.0000001
 44
0.0000000001
 40
0.0
 40
0.0
 40
0.0
 40
0.0
 40
0.0401287147
 40
0.0823898092
 40
0.1275645069
 40
0.1761510767
 40
0.2284147841
 40
0.2844361803
 40
0.3441383927
 40
0.4073552733
 40
0.4738284464
 40
0.543257166
 40
0.6894173022
 40
0.7654476504
 40
0.8428853502
 40
0.9212672125
 40
1.0
 40
1.0
 40
1.0
 40
1.0
 10
6.35
 20
7.3238935008
 30
0.0
 10
6.35
 20
7.3228512371
 30
0.0
 10
6.3502173012
 20
7.3207068925
 30
0.0
 10
6.3511461675
 20
7.3175106687
 30
0.0
 10
6.3526687364
 20
7.3143077593
 30
0.0
 10
6.3547624564
 20
7.3111327673
 30
0.0
 10
6.3574052051
 20
7.3080202495
 30
0.0
 10
6.3605706103
 20
7.3050069485
 30
0.0
 10
6.3642281492
 20
7.3021293215
 30
0.0
 10
6.368344744
 20
7.2994266241
 30
0.0
 10
6.3728820127
 20
7.2969338684
 30
0.0
 10
6.3795513789
 20
7.2938899131
 30
0.0
 10
6.3867638644
 20
7.2914868108
 30
0.0
 10
6.3943548387
 20
7.2897554701
 30
0.0
 10
6.4003048923
 20
7.2887987341
 30
0.0
 10
6.4063731664
 20
7.288219735
 30
0.0
 10
6.410455072
 20
7.2880888678
 30
0.0
 10
6.4125
 20
7.2880888678
 30
0.0
  0
SPLINE
  5
321
100
AcDbEntity
  8
0
100
AcDbSpline
 62
7
  6
CONTINUOUS
 70
0
 71
3
 72
22
 73
18
 74
0
 42
0.0000001
 43
0.0000001
 44
0.0000000001
 40
0.0
 40
0.0
 40
0.0
 40
0.0
 40
0.0571229618
 40
0.1150889253
 40
0.1739668125
 40
0.233778595
 40
0.2640389879
 40
0.2945212632
 40
0.3561020897
 40
0.4813781946
 40
0.6090485539
 40
0.6736219352
 40
0.7385182042
 40
0.8036673146
 40
0.8690227172
 40
0.9345220476
 40
1.0
 40
1.0
 40
1.0
 40
1.0
 10
6.610500508
 20
7.1869998475
 30
0.0
 10
6.6105005066
 20
7.1846255617
 30
0.0
 10
6.6107739782
 20
7.1798378124
 30
0.0
 10
6.611986052
 20
7.172695462
 30
0.0
 10
6.6139826211
 20
7.1656155136
 30
0.0
 10
6.6162762884
 20
7.1598525196
 30
0.0
 10
6.6184735759
 20
7.1553473355
 30
0.0
 10
6.6209265648
 20
7.1508915803
 30
0.0
 10
6.6258615704
 20
7.1433094706
 30
0.0
 10
6.6345462535
 20
7.133427725
 30
0.0
 10
6.6450106167
 20
7.1252532396
 30
0.0
 10
6.6542762267
 20
7.1199001272
 30
0.0
 10
6.6616391704
 20
7.1165200458
 30
0.0
 10
6.6693189694
 20
7.1138408075
 30
0.0
 10
6.6772434478
 20
7.1118966525
 30
0.0
 10
6.6853309363
 20
7.1107216891
 30
0.0
 10
6.6907784435
 20
7.1104568049
 30
0.0
 10
6.6935
 20
7.1104568049
 30
0.0
  0
SPLINE
  5
322
100
AcDbEntity
  8
0
100
AcDbSpline
 62
7
  6
CONTINUOUS
 70
0
 71
3
 72
22
 73
18
 74
0
 42
0.0000001
 43
0.0000001
 44
0.0000000001
 40
0.0
 40
0.0
 40
0.0
 40
0.0
 40
0.0654779519
 40
0.130977282
 40
0.1963326847
 40
0.2614817954
 40
0.3263780642
 40
0.3909514449
 40
0.5186218037
 40
0.6438979092
 40
0.7054787363
 40
0.735961012
 40
0.7662214053
 40
0.8260331881
 40
0.8849110748
 40
0.942877038
 40
1.0
 40
1.0
 40
1.0
 40
1.0
 10
6.6935
 20
6.8895431951
 30
0.0
 10
6.6907784437
 20
6.8895431951
 30
0.0
 10
6.6853309369
 20
6.8892783109
 30
0.0
 10
6.677243449
 20
6.8881033477
 30
0.0
 10
6.6693189711
 20
6.886159193
 30
0.0
 10
6.6616391726
 20
6.8834799551
 30
0.0
 10
6.6542762293
 20
6.8800998741
 30
0.0
 10
6.6450106198
 20
6.8747467625
 30
0.0
 10
6.6345462569
 20
6.8665722782
 30
0.0
 10
6.6258615738
 20
6.8566905338
 30
0.0
 10
6.620926568
 20
6.8491084249
 30
0.0
 10
6.6184735788
 20
6.8446526701
 30
0.0
 10
6.6162762912
 20
6.8401474865
 30
0.0
 10
6.6139826234
 20
6.8343844932
 30
0.0
 10
6.6119860537
 20
6.8273045455
 30
0.0
 10
6.6107739792
 20
6.8201621958
 30
0.0
 10
6.6105005069
 20
6.8153744468
 30
0.0
 10
6.610500508
 20
6.8130001612
 30
0.0
  0
SPLINE
  5
323
100
AcDbEntity
  8
0
100
AcDbSpline
 62
7
  6
CONTINUOUS
 70
0
 71
3
 72
22
 73
18
 74
0
 42
0.0000001
 43
0.0000001
 44
0.0000000001
 40
0.0
 40
0.0
 40
0.0
 40
0.0
 40
0.0654779519
 40
0.1309772822
 40
0.1963326855
 40
0.2614817966
 40
0.3263780653
 40
0.3909514456
 40
0.5186218041
 40
0.6438979095
 40
0.7054787366
 40
0.7359610123
 40
0.7662214055
 40
0.8260331883
 40
0.884911075
 40
0.942877038
 40
1.0
 40
1.0
 40
1.0
 40
1.0
 10
6.6935
 20
7.1104568049
 30
0.0
 10
6.6962215563
 20
7.1104568049
 30
0.0
 10
6.7016690631
 20
7.1107216891
 30
0.0
 10
6.709756551
 20
7.1118966523
 30
0.0
 10
6.7176810289
 20
7.113840807
 30
0.0
 10
6.7253608275
 20
7.116520045
 30
0.0
 10
6.7327237707
 20
7.1199001259
 30
0.0
 10
6.7419893801
 20
7.1252532375
 30
0.0
 10
6.752453743
 20
7.1334277218
 30
0.0
 10
6.7611384261
 20
7.1433094661
 30
0.0
 10
6.766073432
 20
7.1508915749
 30
0.0
 10
6.7685264211
 20
7.1553473297
 30
0.0
 10
6.7707237088
 20
7.1598525133
 30
0.0
 10
6.7730173765
 20
7.1656155066
 30
0.0
 10
6.7750139463
 20
7.1726954543
 30
0.0
 10
6.7762260208
 20
7.1798378039
 30
0.0
 10
6.7764994931
 20
7.1846255529
 30
0.0
 10
6.776499492
 20
7.1869998385
 30
0.0
  0
SPLINE
  5
324
100
AcDbEntity
  8
0
100
AcDbSpline
 62
7
  6
CONTINUOUS
 70
0
 71
3
 72
22
 73
18
 74
0
 42
0.0000001
 43
0.0000001
 44
0.0000000001
 40
0.0
 40
0.0
 40
0.0
 40
0.0
 40
0.0787327845
 40
0.1571146391
 40
0.2345523308
 40
0.3105826766
 40
0.4567428193
 40
0.5261715421
 40
0.5926447165
 40
0.6558615975
 40
0.7155638106
 40
0.7715852086
 40
0.8238489179
 40
0.8724354904
 40
0.91761019
 40
0.9598712853
 40
1.0
 40
1.0
 40
1.0
 40
1.0
 10
6.4125
 20
7.2880888678
 30
0.0
 10
6.4145449279
 20
7.2880888678
 30
0.0
 10
6.4186268333
 20
7.2882197349
 30
0.0
 10
6.4246951069
 20
7.2887987339
 30
0.0
 10
6.4306451599
 20
7.2897554699
 30
0.0
 10
6.4382361342
 20
7.2914868103
 30
0.0
 10
6.4454486198
 20
7.2938899127
 30
0.0
 10
6.4521179864
 20
7.2969338679
 30
0.0
 10
6.4566552552
 20
7.2994266237
 30
0.0
 10
6.4607718501
 20
7.302129321
 30
0.0
 10
6.4644293891
 20
7.305006948
 30
0.0
 10
6.4675947945
 20
7.308020249
 30
0.0
 10
6.4702375433
 20
7.3111327669
 30
0.0
 10
6.4723312634
 20
7.314307759
 30
0.0
 10
6.4738538325
 20
7.3175106685
 30
0.0
 10
6.4747826987
 20
7.3207068924
 30
0.0
 10
6.475
 20
7.322851237
 30
0.0
 10
6.475
 20
7.3238935007
 30
0.0
  0
SPLINE
  5
325
100
AcDbEntity
  8
0
100
AcDbSpline
 62
7
  6
CONTINUOUS
 70
0
 71
3
 72
22
 73
18
 74
0
 42
0.0000001
 43
0.0000001
 44
0.0000000001
 40
0.0
 40
0.0
 40
0.0
 40
0.0
 40
0.0787327844
 40
0.1571146384
 40
0.2345523295
 40
0.310582675
 40
0.4567428178
 40
0.5261715404
 40
0.5926447146
 40
0.6558615956
 40
0.715563809
 40
0.7715852076
 40
0.8238489173
 40
0.8724354903
 40
0.91761019
 40
0.9598712854
 40
1.0
 40
1.0
 40
1.0
 40
1.0
 10
6.4125
 20
6.7119111322
 30
0.0
 10
6.4104550721
 20
6.7119111322
 30
0.0
 10
6.4063731667
 20
6.7117802651
 30
0.0
 10
6.4003048932
 20
6.7112012661
 30
0.0
 10
6.3943548402
 20
6.7102445301
 30
0.0
 10
6.3867638659
 20
6.7085131897
 30
0.0
 10
6.3795513803
 20
6.7061100874
 30
0.0
 10
6.3728820137
 20
6.7030661321
 30
0.0
 10
6.3683447449
 20
6.7005733764
 30
0.0
 10
6.36422815
 20
6.6978706791
 30
0.0
 10
6.360570611
 20
6.694993052
 30
0.0
 10
6.3574052055
 20
6.6919797511
 30
0.0
 10
6.3547624567
 20
6.6888672332
 30
0.0
 10
6.3526687366
 20
6.685692241
 30
0.0
 10
6.3511461675
 20
6.6824893315
 30
0.0
 10
6.3502173013
 20
6.6792931076
 30
0.0
 10
6.35
 20
6.677148763
 30
0.0
 10
6.35
 20
6.6761064993
 30
0.0
  0
SPLINE
  5
326
100
AcDbEntity
  8
0
100
AcDbSpline
 62
7
  6
CONTINUOUS
 70
0
 71
3
 72
20
 73
16
 74
0
 42
0.0000001
 43
0.0000001
 44
0.0000000001
 40
0.0
 40
0.0
 40
0.0
 40
0.0
 40
0.0683651199
 40
0.1365725094
 40
0.2712248699
 40
0.4023410563
 40
0.4663227102
 40
0.5291565474
 40
0.6513359218
 40
0.7109383502
 40
0.7696905113
 40
0.8277639219
 40
0.8853635859
 40
0.9427007453
 40
1.0
 40
1.0
 40
1.0
 40
1.0
 10
6.6935
 20
7.2110753401
 30
0.0
 10
6.6957156263
 20
7.2110753401
 30
0.0
 10
6.7001429675
 20
7.2109476041
 30
0.0
 10
6.7089040009
 20
7.2101893941
 30
0.0
 10
6.719591935
 20
7.2083155884
 30
0.0
 10
6.729841003
 20
7.205177586
 30
0.0
 10
6.737549985
 20
7.2019284122
 30
0.0
 10
6.7447503997
 20
7.1982747396
 30
0.0
 10
6.7514118552
 20
7.1939049361
 30
0.0
 10
6.7573524837
 20
7.1888455065
 30
0.0
 10
6.7613743902
 20
7.184770463
 30
0.0
 10
6.7649727096
 20
7.180400548
 30
0.0
 10
6.7681216589
 20
7.1757509681
 30
0.0
 10
6.7708009489
 20
7.1708447364
 30
0.0
 10
6.7722596442
 20
7.1674202387
 30
0.0
 10
6.7729027543
 20
7.1656781588
 30
0.0
  0
SPLINE
  5
327
100
AcDbEntity
  8
0
100
AcDbSpline
 62
7
  6
CONTINUOUS
 70
0
 71
3
 72
20
 73
16
 74
0
 42
0.0000001
 43
0.0000001
 44
0.0000000001
 40
0.0
 40
0.0
 40
0.0
 40
0.0
 40
0.0683638884
 40
0.1365696291
 40
0.2712198288
 40
0.4023361679
 40
0.4663181799
 40
0.529152617
 40
0.6513341722
 40
0.7109378628
 40
0.7696911605
 40
0.8277653218
 40
0.8853652084
 40
0.9427020352
 40
1.0
 40
1.0
 40
1.0
 40
1.0
 10
6.6935
 20
7.2110753401
 30
0.0
 10
6.6912846832
 20
7.2110753401
 30
0.0
 10
6.6868579744
 20
7.2109476477
 30
0.0
 10
6.6780981604
 20
7.2101896597
 30
0.0
 10
6.6674116105
 20
7.2083163422
 30
0.0
 10
6.6571637079
 20
7.2051792121
 30
0.0
 10
6.6494554285
 20
7.2019309048
 30
0.0
 10
6.6422555312
 20
7.1982781625
 30
0.0
 10
6.6355943721
 20
7.1939094628
 30
0.0
 10
6.6296537496
 20
7.1888512655
 30
0.0
 10
6.6256317199
 20
7.1847771831
 30
0.0
 10
6.622033124
 20
7.1804083042
 30
0.0
 10
6.6188837562
 20
7.17575981
 30
0.0
 10
6.6162039335
 20
7.1708546998
 30
0.0
 10
6.6147447298
 20
7.1674309719
 30
0.0
 10
6.6141013435
 20
7.1656892794
 30
0.0
  0
SPLINE
  5
328
100
AcDbEntity
  8
0
100
AcDbSpline
 62
7
  6
CONTINUOUS
 70
0
 71
3
 72
22
 73
18
 74
0
 42
0.0000001
 43
0.0000001
 44
0.0000000001
 40
0.0
 40
0.0
 40
0.0
 40
0.0
 40
0.0401287146
 40
0.0823898091
 40
0.127564507
 40
0.1761510772
 40
0.2284147851
 40
0.2844361818
 40
0.3441383944
 40
0.407355275
 40
0.4738284479
 40
0.5432571675
 40
0.6894173037
 40
0.7654476516
 40
0.8428853509
 40
0.9212672127
 40
1.0
 40
1.0
 40
1.0
 40
1.0
 10
6.475
 20
6.6761064992
 30
0.0
 10
6.475
 20
6.6771487629
 30
0.0
 10
6.4747826988
 20
6.6792931075
 30
0.0
 10
6.4738538325
 20
6.6824893313
 30
0.0
 10
6.4723312635
 20
6.6856922407
 30
0.0
 10
6.4702375436
 20
6.6888672328
 30
0.0
 10
6.4675947949
 20
6.6919797506
 30
0.0
 10
6.4644293896
 20
6.6949930516
 30
0.0
 10
6.4607718507
 20
6.6978706786
 30
0.0
 10
6.4566552559
 20
6.7005733759
 30
0.0
 10
6.4521179872
 20
6.7030661317
 30
0.0
 10
6.4454486209
 20
6.7061100869
 30
0.0
 10
6.4382361355
 20
6.7085131892
 30
0.0
 10
6.4306451612
 20
6.7102445299
 30
0.0
 10
6.4246951076
 20
6.7112012659
 30
0.0
 10
6.4186268336
 20
6.711780265
 30
0.0
 10
6.414544928
 20
6.7119111322
 30
0.0
 10
6.4125
 20
6.7119111322
 30
0.0
  0
SPLINE
  5
329
100
AcDbEntity
  8
0
100
AcDbSpline
 62
7
  6
CONTINUOUS
 70
0
 71
3
 72
20
 73
16
 74
0
 42
0.0000001
 43
0.0000001
 44
0.0000000001
 40
0.0
 40
0.0
 40
0.0
 40
0.0
 40
0.0572990557
 40
0.1146362612
 40
0.172236158
 40
0.2303099323
 40
0.289062568
 40
0.3486655576
 40
0.4708459848
 40
0.533680282
 40
0.5976624667
 40
0.7287790706
 40
0.8634292631
 40
0.9316353633
 40
1.0
 40
1.0
 40
1.0
 40
1.0
 10
6.614097307
 20
6.834321673
 30
0.0
 10
6.6147404206
 20
6.8325796048
 30
0.0
 10
6.6161991221
 20
6.8291551228
 30
0.0
 10
6.618878421
 20
6.8242489048
 30
0.0
 10
6.6220273856
 20
6.8195993224
 30
0.0
 10
6.6256257347
 20
6.8152294
 30
0.0
 10
6.6296476802
 20
6.8111543463
 30
0.0
 10
6.6355883616
 20
6.806094896
 30
0.0
 10
6.6422498832
 20
6.8017250962
 30
0.0
 10
6.649450355
 20
6.7980714224
 30
0.0
 10
6.6571593858
 20
6.794822285
 30
0.0
 10
6.6674084098
 20
6.7916843497
 30
0.0
 10
6.6780962254
 20
6.7898105588
 30
0.0
 10
6.6868571178
 20
6.7890523823
 30
0.0
 10
6.6912843934
 20
6.7889246599
 30
0.0
 10
6.6935
 20
6.7889246599
 30
0.0
  0
SPLINE
  5
32A
100
AcDbEntity
  8
0
100
AcDbSpline
 62
7
  6
CONTINUOUS
 70
0
 71
3
 72
20
 73
16
 74
0
 42
0.0000001
 43
0.0000001
 44
0.0000000001
 40
0.0
 40
0.0
 40
0.0
 40
0.0
 40
0.0572980398
 40
0.1146348903
 40
0.1722347776
 40
0.2303089131
 40
0.2890621653
 40
0.3486658054
 40
0.4708472552
 40
0.5336816524
 40
0.5976636481
 40
0.7287799974
 40
0.8634302447
 40
0.9316360369
 40
1.0
 40
1.0
 40
1.0
 40
1.0
 10
6.7728990219
 20
6.8343117114
 30
0.0
 10
6.7722556604
 20
6.8325699857
 30
0.0
 10
6.7707965025
 20
6.8291461906
 30
0.0
 10
6.7681167282
 20
6.8242409809
 30
0.0
 10
6.764967397
 20
6.8195923882
 30
0.0
 10
6.761368823
 20
6.8152234143
 30
0.0
 10
6.7573468003
 20
6.811149243
 30
0.0
 10
6.751406172
 20
6.8060909317
 30
0.0
 10
6.7447449805
 20
6.801722133
 30
0.0
 10
6.7375450333
 20
6.7980693067
 30
0.0
 10
6.7298366882
 20
6.7948209248
 30
0.0
 10
6.7195886842
 20
6.7916837218
 30
0.0
 10
6.7089020181
 20
6.7898103606
 30
0.0
 10
6.7001421041
 20
6.7890523552
 30
0.0
 10
6.6957153432
 20
6.7889246599
 30
0.0
 10
6.6935
 20
6.7889246599
 30
0.0
  0
SPLINE
  5
32B
100
AcDbEntity
  8
0
100
AcDbSpline
 62
7
  6
CONTINUOUS
 70
0
 71
3
 72
22
 73
18
 74
0
 42
0.0000001
 43
0.0000001
 44
0.0000000001
 40
0.0
 40
0.0
 40
0.0
 40
0.0
 40
0.0571229618
 40
0.1150889254
 40
0.1739668127
 40
0.2337785952
 40
0.2640389882
 40
0.2945212635
 40
0.35610209
 40
0.4813781949
 40
0.6090485545
 40
0.6736219362
 40
0.7385182053
 40
0.8036673153
 40
0.8690227173
 40
0.9345220476
 40
1.0
 40
1.0
 40
1.0
 40
1.0
 10
6.776499492
 20
6.8130001523
 30
0.0
 10
6.7764994935
 20
6.8153744381
 30
0.0
 10
6.7762260218
 20
6.8201621874
 30
0.0
 10
6.775013948
 20
6.8273045378
 30
0.0
 10
6.7730173789
 20
6.8343844863
 30
0.0
 10
6.7707237116
 20
6.8401474802
 30
0.0
 10
6.7685264242
 20
6.8446526643
 30
0.0
 10
6.7660734353
 20
6.8491084196
 30
0.0
 10
6.7611384297
 20
6.8566905294
 30
0.0
 10
6.7524537466
 20
6.866572275
 30
0.0
 10
6.7419893833
 20
6.8747467604
 30
0.0
 10
6.7327237732
 20
6.8800998728
 30
0.0
 10
6.7253608296
 20
6.8834799542
 30
0.0
 10
6.7176810306
 20
6.8861591926
 30
0.0
 10
6.7097565522
 20
6.8881033475
 30
0.0
 10
6.7016690637
 20
6.8892783109
 30
0.0
 10
6.6962215566
 20
6.8895431951
 30
0.0
 10
6.6935
 20
6.8895431951
 30
0.0
  0
SPLINE
  5
32C
100
AcDbEntity
  8
0
100
AcDbSpline
 62
7
  6
CONTINUOUS
 70
0
 71
3
 72
23
 73
19
 74
0
 42
0.0000001
 43
0.0000001
 44
0.0000000001
 40
0.0
 40
0.0
 40
0.0
 40
0.0
 40
0.0387598743
 40
0.1478834917
 40
0.2235491137
 40
0.3096308956
 40
0.3555992927
 40
0.4029551737
 40
0.451242655
 40
0.5000009093
 40
0.5487590803
 40
0.5970462751
 40
0.64440184
 40
0.6903700748
 40
0.7764519921
 40
0.8521177809
 40
0.9612403588
 40
1.0
 40
1.0
 40
1.0
 40
1.0
 10
6.6105
 20
6.626
 30
0.0
 10
6.6126109748
 20
6.6264685491
 30
0.0
 10
6.620679447
 20
6.6281943233
 30
0.0
 10
6.6329529945
 20
6.6304379017
 30
0.0
 10
6.6479164183
 20
6.6325689765
 30
0.0
 10
6.6594431952
 20
6.6337953911
 30
0.0
 10
6.6694237649
 20
6.6345600171
 30
0.0
 10
6.6773130326
 20
6.6349955036
 30
0.0
 10
6.6853654363
 20
6.6352659511
 30
0.0
 10
6.6935001477
 20
6.6353558475
 30
0.0
 10
6.7016348428
 20
6.6352659399
 30
0.0
 10
6.7096872086
 20
6.6349955035
 30
0.0
 10
6.7175764325
 20
6.634559997
 30
0.0
 10
6.7275569836
 20
6.6337953804
 30
0.0
 10
6.7390837672
 20
6.6325689528
 30
0.0
 10
6.7540471495
 20
6.6304378792
 30
0.0
 10
6.7663206348
 20
6.6281943039
 30
0.0
 10
6.7743890378
 20
6.6264685455
 30
0.0
 10
6.7765
 20
6.626
 30
0.0
  0
SPLINE
  5
32D
100
AcDbEntity
  8
0
100
AcDbSpline
 62
7
  6
CONTINUOUS
 70
0
 71
3
 72
23
 73
19
 74
0
 42
0.0000001
 43
0.0000001
 44
0.0000000001
 40
0.0
 40
0.0
 40
0.0
 40
0.0
 40
0.0387598588
 40
0.1478834347
 40
0.2235490421
 40
0.3096308104
 40
0.355599197
 40
0.4029550632
 40
0.4512425287
 40
0.5000007719
 40
0.5487589347
 40
0.5970461307
 40
0.6444016981
 40
0.6903699322
 40
0.7764518322
 40
0.8521176161
 40
0.9612402953
 40
1.0
 40
1.0
 40
1.0
 40
1.0
 10
6.7765
 20
7.374
 30
0.0
 10
6.7743890261
 20
7.3735314511
 30
0.0
 10
6.7663205569
 20
7.3718056777
 30
0.0
 10
6.7540470134
 20
7.3695620996
 30
0.0
 10
6.7390835936
 20
7.367431025
 30
0.0
 10
6.7275568189
 20
7.3662046096
 30
0.0
 10
6.7175762513
 20
7.3654399846
 30
0.0
 10
6.7096869859
 20
7.3650044967
 30
0.0
 10
6.7016345846
 20
7.3647340497
 30
0.0
 10
6.6934998752
 20
7.3646441523
 30
0.0
 10
6.6853651811
 20
7.3647340593
 30
0.0
 10
6.6773128155
 20
7.365004496
 30
0.0
 10
6.6694235914
 20
7.3654400006
 30
0.0
 10
6.6594430411
 20
7.3662046182
 30
0.0
 10
6.6479162587
 20
7.367431044
 30
0.0
 10
6.6329528719
 20
7.3695621174
 30
0.0
 10
6.6206793776
 20
7.371805693
 30
0.0
 10
6.6126109656
 20
7.3735314536
 30
0.0
 10
6.6105
 20
7.374
 30
0.0
  0
SPLINE
  5
32E
100
AcDbEntity
  8
0
100
AcDbSpline
 62
7
  6
CONTINUOUS
 70
0
 71
3
 72
23
 73
19
 74
0
 42
0.0000001
 43
0.0000001
 44
0.0000000001
 40
0.0
 40
0.0
 40
0.0
 40
0.0
 40
0.0591643146
 40
0.1177692304
 40
0.1760638524
 40
0.234317818
 40
0.292829682
 40
0.3518822567
 40
0.4117371687
 40
0.472609124
 40
0.5346539954
 40
0.59796225
 40
0.6625463096
 40
0.7283334068
 40
0.7951968612
 40
0.8629573674
 40
0.9313616204
 40
1.0
 40
1.0
 40
1.0
 40
1.0
 10
6.776499492
 20
7.1869998385
 30
0.0
 10
6.776499491
 20
7.1893446155
 30
0.0
 10
6.7762360106
 20
7.1940167846
 30
0.0
 10
6.775031122
 20
7.2009051758
 30
0.0
 10
6.7730374018
 20
7.2075713612
 30
0.0
 10
6.7702721476
 20
7.2139517998
 30
0.0
 10
6.7667696
 20
7.219993382
 30
0.0
 10
6.7625643364
 20
7.2256470932
 30
0.0
 10
6.7577011173
 20
7.2308730161
 30
0.0
 10
6.7522268893
 20
7.2356360566
 30
0.0
 10
6.7461933448
 20
7.2399067561
 30
0.0
 10
6.7396561513
 20
7.243660349
 30
0.0
 10
6.7326748283
 20
7.2468742441
 30
0.0
 10
6.7253141664
 20
7.2495317651
 30
0.0
 10
6.7176411007
 20
7.2516155161
 30
0.0
 10
6.7097273303
 20
7.2531139004
 30
0.0
 10
6.7016535801
 20
7.2540151851
 30
0.0
 10
6.6962202494
 20
7.2542170219
 30
0.0
 10
6.6935
 20
7.2542170219
 30
0.0
  0
SPLINE
  5
32F
100
AcDbEntity
  8
0
100
AcDbSpline
 62
7
  6
CONTINUOUS
 70
0
 71
3
 72
27
 73
23
 74
0
 42
0.0000001
 43
0.0000001
 44
0.0000000001
 40
0.0
 40
0.0
 40
0.0
 40
0.0
 40
0.0207317218
 40
0.041322306
 40
0.0619342751
 40
0.0827285087
 40
0.1038609774
 40
0.1254804531
 40
0.1706642801
 40
0.1944840558
 40
0.2192261657
 40
0.2716936984
 40
0.3284177914
 40
0.389506458
 40
0.4548735785
 40
0.5243022689
 40
0.5974254575
 40
0.6737862321
 40
0.75286011
 40
0.834069809
 40
0.9167328678
 40
1.0
 40
1.0
 40
1.0
 40
1.0
 10
6.35
 20
6.6761064993
 30
0.0
 10
6.35
 20
6.6755975382
 30
0.0
 10
6.3500499632
 20
6.6745823172
 30
0.0
 10
6.35027747
 20
6.6730764575
 30
0.0
 10
6.350656156
 20
6.6715996156
 30
0.0
 10
6.3511848899
 20
6.6701555701
 30
0.0
 10
6.3518628053
 20
6.6687477642
 30
0.0
 10
6.3529786216
 20
6.6668966707
 30
0.0
 10
6.3543794847
 20
6.6651527857
 30
0.0
 10
6.356014667
 20
6.6635314983
 30
0.0
 10
6.3578966578
 20
6.6619129739
 30
0.0
 10
6.3605956773
 20
6.6600201697
 30
0.0
 10
6.3642612685
 20
6.6579973395
 30
0.0
 10
6.368382805
 20
6.6561855286
 30
0.0
 10
6.3729217227
 20
6.6545853245
 30
0.0
 10
6.3778376624
 20
6.6532000468
 30
0.0
 10
6.3830851969
 20
6.6520289293
 30
0.0
 10
6.3886160339
 20
6.651072058
 30
0.0
 10
6.3943795431
 20
6.6503290034
 30
0.0
 10
6.4003217121
 20
6.6497991606
 30
0.0
 10
6.4063818813
 20
6.6494817445
 30
0.0
 10
6.4104558027
 20
6.6494111322
 30
0.0
 10
6.4125
 20
6.6494111322
 30
0.0
  0
SPLINE
  5
330
100
AcDbEntity
  8
0
100
AcDbSpline
 62
7
  6
CONTINUOUS
 70
0
 71
3
 72
23
 73
19
 74
0
 42
0.0000001
 43
0.0000001
 44
0.0000000001
 40
0.0
 40
0.0
 40
0.0
 40
0.0
 40
0.0591643146
 40
0.1177692304
 40
0.1760638524
 40
0.2343178179
 40
0.292829682
 40
0.3518822567
 40
0.4117371687
 40
0.472609124
 40
0.5346539954
 40
0.59796225
 40
0.6625463096
 40
0.7283334068
 40
0.7951968612
 40
0.8629573674
 40
0.9313616204
 40
1.0
 40
1.0
 40
1.0
 40
1.0
 10
6.610500508
 20
6.8130001612
 30
0.0
 10
6.610500509
 20
6.8106553842
 30
0.0
 10
6.6107639895
 20
6.8059832151
 30
0.0
 10
6.6119688781
 20
6.7990948239
 30
0.0
 10
6.6139625983
 20
6.7924286385
 30
0.0
 10
6.6167278525
 20
6.7860482
 30
0.0
 10
6.6202304001
 20
6.7800066178
 30
0.0
 10
6.6244356637
 20
6.7743529067
 30
0.0
 10
6.6292988828
 20
6.7691269838
 30
0.0
 10
6.6347731109
 20
6.7643639433
 30
0.0
 10
6.6408066553
 20
6.7600932438
 30
0.0
 10
6.6473438488
 20
6.7563396509
 30
0.0
 10
6.6543251718
 20
6.7531257558
 30
0.0
 10
6.6616858337
 20
6.7504682349
 30
0.0
 10
6.6693588993
 20
6.7483844839
 30
0.0
 10
6.6772726697
 20
6.7468860996
 30
0.0
 10
6.6853464199
 20
6.7459848149
 30
0.0
 10
6.6907797506
 20
6.7457829781
 30
0.0
 10
6.6935
 20
6.7457829781
 30
0.0
  0
SPLINE
  5
331
100
AcDbEntity
  8
0
100
AcDbSpline
 62
7
  6
CONTINUOUS
 70
0
 71
3
 72
23
 73
19
 74
0
 42
0.0000001
 43
0.0000001
 44
0.0000000001
 40
0.0
 40
0.0
 40
0.0
 40
0.0
 40
0.0686383798
 40
0.1370426338
 40
0.2048031411
 40
0.2716665959
 40
0.3374536931
 40
0.4020377526
 40
0.4653460072
 40
0.5273908786
 40
0.5882628343
 40
0.6481177471
 40
0.7071703226
 40
0.7656821873
 40
0.8239361524
 40
0.8822307729
 40
0.9408356869
 40
1.0
 40
1.0
 40
1.0
 40
1.0
 10
6.6935
 20
6.7457829781
 30
0.0
 10
6.6962202492
 20
6.7457829781
 30
0.0
 10
6.7016535796
 20
6.7459848149
 30
0.0
 10
6.7097273292
 20
6.7468860995
 30
0.0
 10
6.7176410991
 20
6.7483844836
 30
0.0
 10
6.7253141643
 20
6.7504682343
 30
0.0
 10
6.7326748257
 20
6.7531257548
 30
0.0
 10
6.7396561483
 20
6.7563396494
 30
0.0
 10
6.7461933415
 20
6.7600932417
 30
0.0
 10
6.7522268857
 20
6.7643639406
 30
0.0
 10
6.7577011137
 20
6.7691269804
 30
0.0
 10
6.7625643329
 20
6.7743529026
 30
0.0
 10
6.7667695967
 20
6.780006613
 30
0.0
 10
6.7702721446
 20
6.7860481945
 30
0.0
 10
6.7730373994
 20
6.7924286321
 30
0.0
 10
6.7750311202
 20
6.7990948166
 30
0.0
 10
6.7762360095
 20
6.8059832069
 30
0.0
 10
6.7764994907
 20
6.8106553755
 30
0.0
 10
6.776499492
 20
6.8130001523
 30
0.0
  0
SPLINE
  5
332
100
AcDbEntity
  8
0
100
AcDbSpline
 62
7
  6
CONTINUOUS
 70
0
 71
3
 72
23
 73
19
 74
0
 42
0.0000001
 43
0.0000001
 44
0.0000000001
 40
0.0
 40
0.0
 40
0.0
 40
0.0
 40
0.0686383798
 40
0.1370426338
 40
0.2048031411
 40
0.2716665959
 40
0.3374536931
 40
0.4020377526
 40
0.4653460072
 40
0.5273908786
 40
0.5882628343
 40
0.648117747
 40
0.7071703226
 40
0.7656821873
 40
0.8239361524
 40
0.8822307729
 40
0.9408356869
 40
1.0
 40
1.0
 40
1.0
 40
1.0
 10
6.6935
 20
7.2542170219
 30
0.0
 10
6.6907797508
 20
7.2542170219
 30
0.0
 10
6.6853464204
 20
7.2540151851
 30
0.0
 10
6.6772726707
 20
7.2531139005
 30
0.0
 10
6.6693589008
 20
7.2516155164
 30
0.0
 10
6.6616858357
 20
7.2495317657
 30
0.0
 10
6.6543251743
 20
7.2468742451
 30
0.0
 10
6.6473438517
 20
7.2436603505
 30
0.0
 10
6.6408066584
 20
7.2399067582
 30
0.0
 10
6.6347731142
 20
7.2356360593
 30
0.0
 10
6.6292988862
 20
7.2308730195
 30
0.0
 10
6.624435667
 20
7.2256470973
 30
0.0
 10
6.6202304032
 20
7.2199933869
 30
0.0
 10
6.6167278553
 20
7.2139518054
 30
0.0
 10
6.6139626005
 20
7.2075713677
 30
0.0
 10
6.6119688797
 20
7.2009051832
 30
0.0
 10
6.6107639904
 20
7.1940167928
 30
0.0
 10
6.6105005093
 20
7.1893446242
 30
0.0
 10
6.610500508
 20
7.1869998475
 30
0.0
  0
SPLINE
  5
333
100
AcDbEntity
  8
0
100
AcDbSpline
 62
7
  6
CONTINUOUS
 70
0
 71
3
 72
27
 73
23
 74
0
 42
0.0000001
 43
0.0000001
 44
0.0000000001
 40
0.0
 40
0.0
 40
0.0
 40
0.0
 40
0.0832671306
 40
0.1659301854
 40
0.2471398803
 40
0.3262137578
 40
0.4025745345
 40
0.4756977266
 40
0.5451264194
 40
0.6104935398
 40
0.6715822049
 40
0.7283062966
 40
0.7807738287
 40
0.8055159386
 40
0.8293357147
 40
0.8745195431
 40
0.8961390196
 40
0.9172714892
 40
0.9380657235
 40
0.9586776932
 40
0.9792682779
 40
1.0
 40
1.0
 40
1.0
 40
1.0
 10
6.4125
 20
7.3505888678
 30
0.0
 10
6.4104558028
 20
7.3505888678
 30
0.0
 10
6.4063818815
 20
7.3505182555
 30
0.0
 10
6.4003217125
 20
7.3502008394
 30
0.0
 10
6.3943795438
 20
7.3496709967
 30
0.0
 10
6.3886160346
 20
7.3489279421
 30
0.0
 10
6.3830851975
 20
7.3479710708
 30
0.0
 10
6.3778376628
 20
7.3467999533
 30
0.0
 10
6.372921723
 20
7.3454146756
 30
0.0
 10
6.3683828053
 20
7.3438144715
 30
0.0
 10
6.3642612688
 20
7.3420026606
 30
0.0
 10
6.3605956777
 20
7.3399798305
 30
0.0
 10
6.3578966582
 20
7.3380870264
 30
0.0
 10
6.3560146674
 20
7.336468502
 30
0.0
 10
6.3543794851
 20
7.3348472146
 30
0.0
 10
6.3529786218
 20
7.3331033296
 30
0.0
 10
6.3518628054
 20
7.3312522361
 30
0.0
 10
6.35118489
 20
7.3298444302
 30
0.0
 10
6.3506561561
 20
7.3284003846
 30
0.0
 10
6.3502774701
 20
7.3269235427
 30
0.0
 10
6.3500499632
 20
7.325417683
 30
0.0
 10
6.35
 20
7.3244024619
 30
0.0
 10
6.35
 20
7.3238935008
 30
0.0
  0
SPLINE
  5
334
100
AcDbEntity
  8
0
100
AcDbSpline
 62
7
  6
CONTINUOUS
 70
0
 71
3
 72
27
 73
23
 74
0
 42
0.0000001
 43
0.0000001
 44
0.0000000001
 40
0.0
 40
0.0
 40
0.0
 40
0.0
 40
0.0832671307
 40
0.1659301854
 40
0.2471398804
 40
0.3262137579
 40
0.4025745345
 40
0.4756977267
 40
0.5451264194
 40
0.6104935398
 40
0.6715822049
 40
0.7283062966
 40
0.7807738287
 40
0.8055159386
 40
0.8293357147
 40
0.874519543
 40
0.8961390196
 40
0.9172714892
 40
0.9380657235
 40
0.9586776932
 40
0.9792682779
 40
1.0
 40
1.0
 40
1.0
 40
1.0
 10
6.4125
 20
6.6494111322
 30
0.0
 10
6.4145441972
 20
6.6494111322
 30
0.0
 10
6.4186181185
 20
6.6494817445
 30
0.0
 10
6.4246782875
 20
6.6497991606
 30
0.0
 10
6.4306204563
 20
6.6503290033
 30
0.0
 10
6.4363839654
 20
6.6510720579
 30
0.0
 10
6.4419148025
 20
6.6520289292
 30
0.0
 10
6.4471623372
 20
6.6532000467
 30
0.0
 10
6.452078277
 20
6.6545853244
 30
0.0
 10
6.4566171947
 20
6.6561855285
 30
0.0
 10
6.4607387312
 20
6.6579973394
 30
0.0
 10
6.4644043223
 20
6.6600201695
 30
0.0
 10
6.4671033418
 20
6.6619129736
 30
0.0
 10
6.4689853326
 20
6.663531498
 30
0.0
 10
6.4706205149
 20
6.6651527854
 30
0.0
 10
6.4720213782
 20
6.6668966704
 30
0.0
 10
6.4731371946
 20
6.6687477639
 30
0.0
 10
6.47381511
 20
6.6701555698
 30
0.0
 10
6.4743438439
 20
6.6715996154
 30
0.0
 10
6.4747225299
 20
6.6730764573
 30
0.0
 10
6.4749500368
 20
6.674582317
 30
0.0
 10
6.475
 20
6.6755975381
 30
0.0
 10
6.475
 20
6.6761064992
 30
0.0
  0
SPLINE
  5
335
100
AcDbEntity
  8
0
100
AcDbSpline
 62
7
  6
CONTINUOUS
 70
0
 71
3
 72
27
 73
23
 74
0
 42
0.0000001
 43
0.0000001
 44
0.0000000001
 40
0.0
 40
0.0
 40
0.0
 40
0.0
 40
0.0207317218
 40
0.041322306
 40
0.0619342751
 40
0.0827285086
 40
0.1038609773
 40
0.1254804531
 40
0.17066428
 40
0.1944840558
 40
0.2192261656
 40
0.2716936983
 40
0.3284177914
 40
0.389506458
 40
0.4548735785
 40
0.524302269
 40
0.5974254576
 40
0.6737862321
 40
0.7528601101
 40
0.8340698091
 40
0.9167328678
 40
1.0
 40
1.0
 40
1.0
 40
1.0
 10
6.475
 20
7.3238935007
 30
0.0
 10
6.475
 20
7.3244024618
 30
0.0
 10
6.4749500368
 20
7.3254176828
 30
0.0
 10
6.47472253
 20
7.3269235425
 30
0.0
 10
6.474343844
 20
7.3284003844
 30
0.0
 10
6.4738151101
 20
7.3298444299
 30
0.0
 10
6.4731371947
 20
7.3312522358
 30
0.0
 10
6.4720213784
 20
7.3331033293
 30
0.0
 10
6.4706205153
 20
7.3348472143
 30
0.0
 10
6.468985333
 20
7.3364685017
 30
0.0
 10
6.4671033422
 20
7.3380870261
 30
0.0
 10
6.4644043227
 20
7.3399798303
 30
0.0
 10
6.4607387315
 20
7.3420026605
 30
0.0
 10
6.456617195
 20
7.3438144714
 30
0.0
 10
6.4520782773
 20
7.3454146755
 30
0.0
 10
6.4471623376
 20
7.3467999532
 30
0.0
 10
6.4419148031
 20
7.3479710707
 30
0.0
 10
6.4363839661
 20
7.348927942
 30
0.0
 10
6.4306204569
 20
7.3496709966
 30
0.0
 10
6.4246782879
 20
7.3502008394
 30
0.0
 10
6.4186181187
 20
7.3505182555
 30
0.0
 10
6.4145441973
 20
7.3505888678
 30
0.0
 10
6.4125
 20
7.3505888678
 30
0.0
  0
SPLINE
  5
336
100
AcDbEntity
  8
0
100
AcDbSpline
 62
7
  6
CONTINUOUS
 70
0
 71
3
 72
19
 73
15
 74
0
 42
0.0000001
 43
0.0000001
 44
0.0000000001
 40
0.0
 40
0.0
 40
0.0
 40
0.0
 40
0.1255916165
 40
0.2507124508
 40
0.3131278661
 40
0.3754661753
 40
0.437747264
 40
0.5000000224
 40
0.5622527831
 40
0.6245338701
 40
0.686872176
 40
0.7492875883
 40
0.8744083921
 40
1.0
 40
1.0
 40
1.0
 40
1.0
 10
4.1731106713
 20
6.465427963
 30
0.0
 10
4.1667691787
 20
6.4860444906
 30
0.0
 10
4.1552152666
 20
6.5275531181
 30
0.0
 10
4.144207675
 20
6.5802433331
 30
0.0
 10
4.1378560946
 20
6.6226957148
 30
0.0
 10
4.1343961475
 20
6.6546406783
 30
0.0
 10
4.1322896488
 20
6.6866758688
 30
0.0
 10
4.1315889941
 20
6.7187582622
 30
0.0
 10
4.1322896554
 20
6.7508406548
 30
0.0
 10
4.1343961418
 20
6.7828758457
 30
0.0
 10
4.1378561054
 20
6.8148208061
 30
0.0
 10
4.1442076685
 20
6.8572731839
 30
0.0
 10
4.1552152735
 20
6.9099633892
 30
0.0
 10
4.1667691791
 20
6.951472011
 30
0.0
 10
4.1731106713
 20
6.9720885372
 30
0.0
  0
SPLINE
  5
337
100
AcDbEntity
  8
0
100
AcDbSpline
 62
7
  6
CONTINUOUS
 70
0
 71
3
 72
19
 73
15
 74
0
 42
0.0000001
 43
0.0000001
 44
0.0000000001
 40
0.0
 40
0.0
 40
0.0
 40
0.0
 40
0.1255916165
 40
0.2507124508
 40
0.3131278661
 40
0.3754661753
 40
0.437747264
 40
0.5000000224
 40
0.5622527831
 40
0.6245338701
 40
0.686872176
 40
0.7492875883
 40
0.8744083921
 40
1.0
 40
1.0
 40
1.0
 40
1.0
 10
5.0710743742
 20
6.465427963
 30
0.0
 10
5.0774158667
 20
6.4860444906
 30
0.0
 10
5.0889697788
 20
6.5275531181
 30
0.0
 10
5.0999773704
 20
6.5802433331
 30
0.0
 10
5.1063289508
 20
6.6226957148
 30
0.0
 10
5.1097888979
 20
6.6546406783
 30
0.0
 10
5.1118953967
 20
6.6866758688
 30
0.0
 10
5.1125960513
 20
6.7187582622
 30
0.0
 10
5.11189539
 20
6.7508406548
 30
0.0
 10
5.1097889036
 20
6.7828758457
 30
0.0
 10
5.10632894
 20
6.8148208061
 30
0.0
 10
5.0999773769
 20
6.8572731839
 30
0.0
 10
5.0889697719
 20
6.9099633892
 30
0.0
 10
5.0774158663
 20
6.951472011
 30
0.0
 10
5.0710743742
 20
6.9720885372
 30
0.0
  0
SPLINE
  5
338
100
AcDbEntity
  8
0
100
AcDbSpline
 62
7
  6
CONTINUOUS
 70
0
 71
3
 72
19
 73
15
 74
0
 42
0.0000001
 43
0.0000001
 44
0.0000000001
 40
0.0
 40
0.0
 40
0.0
 40
0.0
 40
0.1255916165
 40
0.2507124508
 40
0.3131278661
 40
0.3754661753
 40
0.437747264
 40
0.5000000224
 40
0.5622527831
 40
0.6245338701
 40
0.686872176
 40
0.7492875883
 40
0.8744083921
 40
1.0
 40
1.0
 40
1.0
 40
1.0
 10
4.1731106713
 20
7.0279114628
 30
0.0
 10
4.1667691787
 20
7.0485279904
 30
0.0
 10
4.1552152666
 20
7.0900366179
 30
0.0
 10
4.144207675
 20
7.1427268328
 30
0.0
 10
4.1378560946
 20
7.1851792146
 30
0.0
 10
4.1343961475
 20
7.2171241781
 30
0.0
 10
4.1322896488
 20
7.2491593685
 30
0.0
 10
4.1315889941
 20
7.2812417619
 30
0.0
 10
4.1322896554
 20
7.3133241545
 30
0.0
 10
4.1343961418
 20
7.3453593455
 30
0.0
 10
4.1378561054
 20
7.3773043058
 30
0.0
 10
4.1442076685
 20
7.4197566836
 30
0.0
 10
4.1552152735
 20
7.4724468889
 30
0.0
 10
4.1667691791
 20
7.5139555108
 30
0.0
 10
4.1731106713
 20
7.534572037
 30
0.0
  0
SPLINE
  5
339
100
AcDbEntity
  8
0
100
AcDbSpline
 62
7
  6
CONTINUOUS
 70
0
 71
3
 72
19
 73
15
 74
0
 42
0.0000001
 43
0.0000001
 44
0.0000000001
 40
0.0
 40
0.0
 40
0.0
 40
0.0
 40
0.1255916165
 40
0.2507124508
 40
0.3131278661
 40
0.3754661753
 40
0.437747264
 40
0.5000000224
 40
0.5622527831
 40
0.6245338701
 40
0.686872176
 40
0.7492875883
 40
0.8744083921
 40
1.0
 40
1.0
 40
1.0
 40
1.0
 10
5.0710743742
 20
7.0279114628
 30
0.0
 10
5.0774158667
 20
7.0485279904
 30
0.0
 10
5.0889697788
 20
7.0900366179
 30
0.0
 10
5.0999773704
 20
7.1427268328
 30
0.0
 10
5.1063289508
 20
7.1851792146
 30
0.0
 10
5.1097888979
 20
7.2171241781
 30
0.0
 10
5.1118953967
 20
7.2491593685
 30
0.0
 10
5.1125960513
 20
7.2812417619
 30
0.0
 10
5.11189539
 20
7.3133241545
 30
0.0
 10
5.1097889036
 20
7.3453593455
 30
0.0
 10
5.10632894
 20
7.3773043058
 30
0.0
 10
5.0999773769
 20
7.4197566836
 30
0.0
 10
5.0889697719
 20
7.4724468889
 30
0.0
 10
5.0774158663
 20
7.5139555108
 30
0.0
 10
5.0710743742
 20
7.534572037
 30
0.0
  0
ELLIPSE
  5
33A
100
AcDbEntity
  8
0
100
AcDbEllipse
 62
7
  6
CONTINUOUS
 10
5.3965
 20
6.507
 30
0.0
 11
0.035
 21
-0.0
 31
0.0
 40
1.0
 41
-2.617993878
 42
0.0
  0
ELLIPSE
  5
33B
100
AcDbEntity
  8
0
100
AcDbEllipse
 62
7
  6
CONTINUOUS
 10
5.3965
 20
6.507
 30
0.0
 11
0.0
 21
0.035
 31
0.0
 40
1.0
 41
-4.7123889804
 42
-4.1887902048
  0
ELLIPSE
  5
33C
100
AcDbEntity
  8
0
100
AcDbEllipse
 62
7
  6
CONTINUOUS
 10
5.3965
 20
7.493
 30
0.0
 11
0.035
 21
0.0
 31
0.0
 40
1.0
 41
6.2831853072
 42
9.4247779608
  0
ENDSEC
  0
SECTION
  2
OBJECTS
  0
DICTIONARY
  5
C
100
AcDbDictionary
280
0
281
1
  3
ACAD_GROUP
350
D
  3
ACAD_MLINESTYLE
350
17
  3
ACAD_LAYOUT
350
1A
  3
ACAD_PLOTSETTINGS
350
19
  3
ACAD_PLOTSTYLENAME
350
E
  0
DICTIONARY
  5
D
102
{ACAD_REACTORS
330
C
102
}
100
AcDbDictionary
280
0
281
1
  0
ACDBDICTIONARYWDFLT
  5
E
102
{ACAD_REACTORS
330
C
102
}
100
AcDbDictionary
281
1
  3
Normal
350
F
100
AcDbDictionaryWithDefault
340
F
  0
DICTIONARY
  5
17
102
{ACAD_REACTORS
330
C
102
}
100
AcDbDictionary
280
0
281
1
  3
Standard
350
18
  0
DICTIONARY
  5
19
102
{ACAD_REACTORS
330
C
102
}
100
AcDbDictionary
281
1
  0
DICTIONARY
  5
1A
102
{ACAD_REACTORS
330
C
102
}
100
AcDbDictionary
281
1
  3
Model
350
33D
  3
Layout1
350
33E
  0
ACDBPLACEHOLDER
  5
F
102
{ACAD_REACTORS
330
E
102
}
  0
MLINESTYLE
  5
18
102
{ACAD_REACTORS
330
17
102
}
100
AcDbMlineStyle
  2
STANDARD
 70
0
  3

 62
256
 51
90.0
 52
90.0
 71
2
 49
0.5
 62
256
  6
BYLAYER
 49
-0.5
 62
256
  6
BYLAYER
  0
LAYOUT
  5
33D
102
{ACAD_REACTORS
330
1A
102
}
100
AcDbPlotSettings
  1

  2
none_device
  4
ANSI_B_(17.00_x_11.00_Inches)
  6

 40
0.0
 41
0.0
 42
0.0
 43
0.0
 44
431.8
 45
279.4
 46
0.0
 47
0.0
 48
0.0
 49
0.0
140
0.0
141
0.0
142
1.0
143
1.0
 70
1024
 72
0
 73
0
 74
0
  7

 75
0
147
1.0
148
0.0
149
0.0
100
AcDbLayout
  1
Model
 70
0
 71
0
 10
0.0
 20
0.0
 11
17.0
 21
11.0
 12
0.0
 22
0.0
 32
0.0
 14
0.0
 24
0.0
 34
0.0
 15
0.0
 25
0.0
 35
0.0
146
0.0
 13
0.0
 23
0.0
 33
0.0
 16
1.0
 26
0.0
 36
0.0
 17
0.0
 27
1.0
 37
0.0
 76
0
330
24C
345
0
346
0
  0
LAYOUT
  5
33E
102
{ACAD_REACTORS
330
1A
102
}
100
AcDbPlotSettings
  1

  2
none_device
  4
ANSI_B_(17.00_x_11.00_Inches)
  6

 40
0.0
 41
0.0
 42
0.0
 43
0.0
 44
431.8
 45
279.4
 46
0.0
 47
0.0
 48
0.0
 49
0.0
140
0.0
141
0.0
142
1.0
143
1.0
 70
0
 72
0
 73
0
 74
0
  7

 75
0
147
1.0
148
0.0
149
0.0
100
AcDbLayout
  1
Layout1
 70
0
 71
1
 10
0.0
 20
0.0
 11
17.0
 21
11.0
 12
0.0
 22
0.0
 32
0.0
 14
0.0
 24
0.0
 34
0.0
 15
0.0
 25
0.0
 35
0.0
146
0.0
 13
0.0
 23
0.0
 33
0.0
 16
1.0
 26
0.0
 36
0.0
 17
0.0
 27
1.0
 37
0.0
 76
0
330
24D
345
0
346
0
  0
ENDSEC
  0
EOF
