999
DXF file: PBHBLAN.dxf
999
Pro/ENGINEER 2021072 by Parametric Technology Corporation
  0
SECTION
  2
HEADER
  9
$ACADVER
  1
AC1032
  9
$DWGCODEPAGE
  3
ANSI_1252
  9
$EXTMAX
 10
17.0
 20
11.0
 30
0.0
  9
$EXTMIN
 10
0.0
 20
0.0
 30
0.0
  9
$LIMMIN
 10
0.0
 20
0.0
  9
$LIMMAX
 10
17.0
 20
11.0
  9
$VIEWCTR
 10
8.5
 20
5.5
  9
$VIEWSIZE
 40
11.0
  9
$CLAYER
  8
0
  9
$LTSCALE
 40
0.935
  9
$CELTYPE
  6
BYLAYER
  9
$DIMSCALE
 40
1.0
  9
$DIMASZ
 40
0.1875
  9
$DIMEXO
 40
0.0625
  9
$DIMDLI
 40
0.646
  9
$DIMEXE
 40
0.125
  9
$DIMCEN
 40
0.153
  9
$DIMLFAC
 40
1.0
  9
$DIMBLK
  1
_FILLED
  9
$DIMALT
 70
0
  9
$DIMALTF
 40
25.4
  9
$DIMTXT
 40
0.125
  9
$DIMTOL
 70
0
  9
$DIMLIM
 70
0
  9
$DIMTFAC
 40
1.0
  9
$DIMGAP
 40
0.09
  9
$DIMDSEP
 70
46
  9
$AUNITS
 70
0
  9
$PDMODE
 70
3
  9
$PDSIZE
 40
0.3125
  9
$HANDSEED
  5
32B
  9
$TILEMODE
 70
1
  9
$MEASUREMENT
 70
0
  9
$INSUNITS
 70
1
  0
ENDSEC
  0
SECTION
  2
CLASSES
  0
CLASS
  1
ACDBDICTIONARYWDFLT
  2
AcDbDictionaryWithDefault
  3
AutoCAD 2000
 90
0
 91
1
280
0
281
0
  0
CLASS
  1
ACDBPLACEHOLDER
  2
AcDbPlaceHolder
  3
AutoCAD 2000
 90
0
 91
1
280
0
281
0
  0
CLASS
  1
LAYOUT
  2
AcDbLayout
  3
AutoCAD 2000
 90
0
 91
0
280
0
281
0
  0
ENDSEC
  0
SECTION
  2
TABLES
  0
TABLE
  2
VPORT
  5
8
100
AcDbSymbolTable
 70
2
  0
VPORT
  5
1F4
100
AcDbSymbolTableRecord
100
AcDbViewportTableRecord
  2
*ACTIVE
 70
0
 10
0.0
 20
0.0
 11
1.0
 21
1.0
 12
8.5
 22
5.5
 13
0.0
 23
0.0
 14
1.0
 24
1.0
 15
0.0
 25
0.0
 16
0.0
 26
0.0
 36
1.0
 17
0.0
 27
0.0
 37
0.0
 40
11.0
 41
1.5454545455
 42
50.0
 43
0.0
 44
0.0
 50
0.0
 51
0.0
 71
0
 72
100
 73
1
 74
1
 75
0
 76
0
 77
0
 78
0
  0
ENDTAB
  0
TABLE
  2
LTYPE
  5
5
100
AcDbSymbolTable
 70
6
  0
LTYPE
  5
14
100
AcDbSymbolTableRecord
100
AcDbLinetypeTableRecord
  2
BYBLOCK
 70
0
  3

 72
65
 73
0
 40
0.0
  0
LTYPE
  5
15
100
AcDbSymbolTableRecord
100
AcDbLinetypeTableRecord
  2
BYLAYER
 70
0
  3

 72
65
 73
0
 40
0.0
  0
LTYPE
  5
16
100
AcDbSymbolTableRecord
100
AcDbLinetypeTableRecord
  2
CONTINUOUS
 70
64
  3
Solid line
 72
65
 73
0
 40
0.0
  0
LTYPE
  5
1F5
100
AcDbSymbolTableRecord
100
AcDbLinetypeTableRecord
  2
CENTER
 70
64
  3
____ _ ____ _ ____ _ ____ _ ____ _ ____ _ ____
 72
65
 73
4
 40
0.6
 49
0.375
 74
0
 49
-0.075
 74
0
 49
0.075
 74
0
 49
-0.075
 74
0
  0
LTYPE
  5
1F6
100
AcDbSymbolTableRecord
100
AcDbLinetypeTableRecord
  2
HIDDEN
 70
64
  3
- - - - - - - - - - - - - - - - - - - -
 72
65
 73
2
 40
0.2
 49
0.1
 74
0
 49
-0.1
 74
0
  0
LTYPE
  5
1F7
100
AcDbSymbolTableRecord
100
AcDbLinetypeTableRecord
  2
PHANTOM
 70
64
  3
_____ _ _ _____ _ _ _____ _ _ _____
 72
65
 73
6
 40
0.8
 49
0.45
 74
0
 49
-0.05
 74
0
 49
0.1
 74
0
 49
-0.05
 74
0
 49
0.1
 74
0
 49
-0.05
 74
0
  0
LTYPE
  5
1F8
100
AcDbSymbolTableRecord
100
AcDbLinetypeTableRecord
  2
DOT
 70
64
  3
. . . . . . . . . . . . . . . . . . . .
 72
65
 73
2
 40
0.2
 49
0.1
 74
0
 49
-0.1
 74
0
  0
LTYPE
  5
1F9
100
AcDbSymbolTableRecord
100
AcDbLinetypeTableRecord
  2
DASHED
 70
64
  3
- - - - - - - - - - - - - - - - - - - -
 72
65
 73
2
 40
0.2
 49
0.1
 74
0
 49
-0.1
 74
0
  0
ENDTAB
  0
TABLE
  2
LAYER
  5
2
100
AcDbSymbolTable
 70
36
  0
LAYER
  5
10
100
AcDbSymbolTableRecord
100
AcDbLayerTableRecord
  2
0
 70
0
 62
7
  6
CONTINUOUS
370
-3
390
F
  0
LAYER
  5
1FA
100
AcDbSymbolTableRecord
100
AcDbLayerTableRecord
  2
DEFAULT_1
 70
0
 62
7
  6
CENTER
370
-3
390
F
  0
LAYER
  5
1FB
100
AcDbSymbolTableRecord
100
AcDbLayerTableRecord
  2
DEFAULT_2
 70
0
 62
8
  6
HIDDEN
370
-3
390
F
  0
LAYER
  5
1FC
100
AcDbSymbolTableRecord
100
AcDbLayerTableRecord
  2
DEFAULT_3
 70
0
 62
7
  6
PHANTOM
370
-3
390
F
  0
LAYER
  5
1FD
100
AcDbSymbolTableRecord
100
AcDbLayerTableRecord
  2
01_ALL_DTM_PLN
 70
0
 62
7
  6
CONTINUOUS
370
-3
390
F
  0
LAYER
  5
1FE
100
AcDbSymbolTableRecord
100
AcDbLayerTableRecord
  2
01__ASM_ALL_DTM_PLN
 70
0
 62
7
  6
CONTINUOUS
370
-3
390
F
  0
LAYER
  5
1FF
100
AcDbSymbolTableRecord
100
AcDbLayerTableRecord
  2
01__ASM_DEF_DTM_PLN
 70
0
 62
7
  6
CONTINUOUS
370
-3
390
F
  0
LAYER
  5
200
100
AcDbSymbolTableRecord
100
AcDbLayerTableRecord
  2
01___PRT_ALL_DTM_PLN
 70
0
 62
7
  6
CONTINUOUS
370
-3
390
F
  0
LAYER
  5
201
100
AcDbSymbolTableRecord
100
AcDbLayerTableRecord
  2
01___PRT_DEF_DTM_PLN
 70
0
 62
7
  6
CONTINUOUS
370
-3
390
F
  0
LAYER
  5
202
100
AcDbSymbolTableRecord
100
AcDbLayerTableRecord
  2
02_ALL_AXES
 70
0
 62
7
  6
CONTINUOUS
370
-3
390
F
  0
LAYER
  5
203
100
AcDbSymbolTableRecord
100
AcDbLayerTableRecord
  2
02__ASM_ALL_AXES
 70
0
 62
7
  6
CONTINUOUS
370
-3
390
F
  0
LAYER
  5
204
100
AcDbSymbolTableRecord
100
AcDbLayerTableRecord
  2
02___PRT_ALL_AXES
 70
0
 62
7
  6
CONTINUOUS
370
-3
390
F
  0
LAYER
  5
205
100
AcDbSymbolTableRecord
100
AcDbLayerTableRecord
  2
03_ALL_CURVES
 70
0
 62
7
  6
CONTINUOUS
370
-3
390
F
  0
LAYER
  5
206
100
AcDbSymbolTableRecord
100
AcDbLayerTableRecord
  2
03__ASM_ALL_CURVES
 70
0
 62
7
  6
CONTINUOUS
370
-3
390
F
  0
LAYER
  5
207
100
AcDbSymbolTableRecord
100
AcDbLayerTableRecord
  2
03___PRT_ALL_CURVES
 70
0
 62
7
  6
CONTINUOUS
370
-3
390
F
  0
LAYER
  5
208
100
AcDbSymbolTableRecord
100
AcDbLayerTableRecord
  2
04_ALL_DTM_PNT
 70
0
 62
7
  6
CONTINUOUS
370
-3
390
F
  0
LAYER
  5
209
100
AcDbSymbolTableRecord
100
AcDbLayerTableRecord
  2
04__ASM_ALL_DTM_PNT
 70
0
 62
7
  6
CONTINUOUS
370
-3
390
F
  0
LAYER
  5
20A
100
AcDbSymbolTableRecord
100
AcDbLayerTableRecord
  2
04___PRT_ALL_DTM_PNT
 70
0
 62
7
  6
CONTINUOUS
370
-3
390
F
  0
LAYER
  5
20B
100
AcDbSymbolTableRecord
100
AcDbLayerTableRecord
  2
05_ALL_DTM_CSYS
 70
0
 62
7
  6
CONTINUOUS
370
-3
390
F
  0
LAYER
  5
20C
100
AcDbSymbolTableRecord
100
AcDbLayerTableRecord
  2
05__ASM_ALL_DTM_CSYS
 70
0
 62
7
  6
CONTINUOUS
370
-3
390
F
  0
LAYER
  5
20D
100
AcDbSymbolTableRecord
100
AcDbLayerTableRecord
  2
05__ASM_DEF_DTM_CSYS
 70
0
 62
7
  6
CONTINUOUS
370
-3
390
F
  0
LAYER
  5
20E
100
AcDbSymbolTableRecord
100
AcDbLayerTableRecord
  2
05___PRT_ALL_DTM_CSYS
 70
0
 62
7
  6
CONTINUOUS
370
-3
390
F
  0
LAYER
  5
20F
100
AcDbSymbolTableRecord
100
AcDbLayerTableRecord
  2
05___PRT_DEF_DTM_CSYS
 70
0
 62
7
  6
CONTINUOUS
370
-3
390
F
  0
LAYER
  5
210
100
AcDbSymbolTableRecord
100
AcDbLayerTableRecord
  2
06_ALL_SURFS
 70
0
 62
7
  6
CONTINUOUS
370
-3
390
F
  0
LAYER
  5
211
100
AcDbSymbolTableRecord
100
AcDbLayerTableRecord
  2
06__ASM_ALL_SURFS
 70
0
 62
7
  6
CONTINUOUS
370
-3
390
F
  0
LAYER
  5
212
100
AcDbSymbolTableRecord
100
AcDbLayerTableRecord
  2
06___PRT_ALL_SURFS
 70
0
 62
7
  6
CONTINUOUS
370
-3
390
F
  0
LAYER
  5
213
100
AcDbSymbolTableRecord
100
AcDbLayerTableRecord
  2
07__ASM_ALL_SKELETONS
 70
0
 62
7
  6
CONTINUOUS
370
-3
390
F
  0
LAYER
  5
214
100
AcDbSymbolTableRecord
100
AcDbLayerTableRecord
  2
128-001_FEATURES
 70
0
 62
7
  6
CONTINUOUS
370
-3
390
F
  0
LAYER
  5
215
100
AcDbSymbolTableRecord
100
AcDbLayerTableRecord
  2
128-001_REF_GEOMETRY
 70
0
 62
7
  6
CONTINUOUS
370
-3
390
F
  0
LAYER
  5
216
100
AcDbSymbolTableRecord
100
AcDbLayerTableRecord
  2
128-004_FEATURES
 70
0
 62
7
  6
CONTINUOUS
370
-3
390
F
  0
LAYER
  5
217
100
AcDbSymbolTableRecord
100
AcDbLayerTableRecord
  2
128-004_REF_GEOMETRY
 70
0
 62
7
  6
CONTINUOUS
370
-3
390
F
  0
LAYER
  5
218
100
AcDbSymbolTableRecord
100
AcDbLayerTableRecord
  2
128-017_FEATURES
 70
0
 62
7
  6
CONTINUOUS
370
-3
390
F
  0
LAYER
  5
219
100
AcDbSymbolTableRecord
100
AcDbLayerTableRecord
  2
128-017_REF_GEOMETRY
 70
0
 62
7
  6
CONTINUOUS
370
-3
390
F
  0
LAYER
  5
21A
100
AcDbSymbolTableRecord
100
AcDbLayerTableRecord
  2
128-400_FEATURES
 70
0
 62
7
  6
CONTINUOUS
370
-3
390
F
  0
LAYER
  5
21B
100
AcDbSymbolTableRecord
100
AcDbLayerTableRecord
  2
128-400_REF_GEOMETRY
 70
0
 62
7
  6
CONTINUOUS
370
-3
390
F
  0
LAYER
  5
21C
100
AcDbSymbolTableRecord
100
AcDbLayerTableRecord
  2
128-401_FEATURES
 70
0
 62
7
  6
CONTINUOUS
370
-3
390
F
  0
LAYER
  5
21D
100
AcDbSymbolTableRecord
100
AcDbLayerTableRecord
  2
128-401_REF_GEOMETRY
 70
0
 62
7
  6
CONTINUOUS
370
-3
390
F
  0
LAYER
  5
21E
100
AcDbSymbolTableRecord
100
AcDbLayerTableRecord
  2
128-402_FEATURES
 70
0
 62
7
  6
CONTINUOUS
370
-3
390
F
  0
LAYER
  5
21F
100
AcDbSymbolTableRecord
100
AcDbLayerTableRecord
  2
128-402_REF_GEOMETRY
 70
0
 62
7
  6
CONTINUOUS
370
-3
390
F
  0
LAYER
  5
220
100
AcDbSymbolTableRecord
100
AcDbLayerTableRecord
  2
128-403_FEATURES
 70
0
 62
7
  6
CONTINUOUS
370
-3
390
F
  0
LAYER
  5
221
100
AcDbSymbolTableRecord
100
AcDbLayerTableRecord
  2
128-403_REF_GEOMETRY
 70
0
 62
7
  6
CONTINUOUS
370
-3
390
F
  0
LAYER
  5
222
100
AcDbSymbolTableRecord
100
AcDbLayerTableRecord
  2
128-404_FEATURES
 70
0
 62
7
  6
CONTINUOUS
370
-3
390
F
  0
LAYER
  5
223
100
AcDbSymbolTableRecord
100
AcDbLayerTableRecord
  2
128-404_REF_GEOMETRY
 70
0
 62
7
  6
CONTINUOUS
370
-3
390
F
  0
LAYER
  5
224
100
AcDbSymbolTableRecord
100
AcDbLayerTableRecord
  2
128-405_FEATURES
 70
0
 62
7
  6
CONTINUOUS
370
-3
390
F
  0
LAYER
  5
225
100
AcDbSymbolTableRecord
100
AcDbLayerTableRecord
  2
128-405_REF_GEOMETRY
 70
0
 62
7
  6
CONTINUOUS
370
-3
390
F
  0
LAYER
  5
226
100
AcDbSymbolTableRecord
100
AcDbLayerTableRecord
  2
128-406_FEATURES
 70
0
 62
7
  6
CONTINUOUS
370
-3
390
F
  0
LAYER
  5
227
100
AcDbSymbolTableRecord
100
AcDbLayerTableRecord
  2
128-406_REF_GEOMETRY
 70
0
 62
7
  6
CONTINUOUS
370
-3
390
F
  0
LAYER
  5
228
100
AcDbSymbolTableRecord
100
AcDbLayerTableRecord
  2
128-407_FEATURES
 70
0
 62
7
  6
CONTINUOUS
370
-3
390
F
  0
LAYER
  5
229
100
AcDbSymbolTableRecord
100
AcDbLayerTableRecord
  2
128-407_REF_GEOMETRY
 70
0
 62
7
  6
CONTINUOUS
370
-3
390
F
  0
LAYER
  5
22A
100
AcDbSymbolTableRecord
100
AcDbLayerTableRecord
  2
128-408_FEATURES
 70
0
 62
7
  6
CONTINUOUS
370
-3
390
F
  0
LAYER
  5
22B
100
AcDbSymbolTableRecord
100
AcDbLayerTableRecord
  2
128-408_REF_GEOMETRY
 70
0
 62
7
  6
CONTINUOUS
370
-3
390
F
  0
LAYER
  5
22C
100
AcDbSymbolTableRecord
100
AcDbLayerTableRecord
  2
COPY_GEO_FET
 70
0
 62
7
  6
CONTINUOUS
370
-3
390
F
  0
LAYER
  5
22D
100
AcDbSymbolTableRecord
100
AcDbLayerTableRecord
  2
COSMETIC
 70
0
 62
7
  6
CONTINUOUS
370
-3
390
F
  0
LAYER
  5
22E
100
AcDbSymbolTableRecord
100
AcDbLayerTableRecord
  2
COSM_REF
 70
0
 62
7
  6
CONTINUOUS
370
-3
390
F
  0
LAYER
  5
22F
100
AcDbSymbolTableRecord
100
AcDbLayerTableRecord
  2
CURVES
 70
0
 62
7
  6
CONTINUOUS
370
-3
390
F
  0
LAYER
  5
230
100
AcDbSymbolTableRecord
100
AcDbLayerTableRecord
  2
CUT_REF_SURF
 70
0
 62
7
  6
CONTINUOUS
370
-3
390
F
  0
LAYER
  5
231
100
AcDbSymbolTableRecord
100
AcDbLayerTableRecord
  2
DATUM
 70
0
 62
7
  6
CONTINUOUS
370
-3
390
F
  0
LAYER
  5
232
100
AcDbSymbolTableRecord
100
AcDbLayerTableRecord
  2
DATUMCURVES
 70
0
 62
7
  6
CONTINUOUS
370
-3
390
F
  0
LAYER
  5
233
100
AcDbSymbolTableRecord
100
AcDbLayerTableRecord
  2
DATUM_PLANES
 70
0
 62
7
  6
CONTINUOUS
370
-3
390
F
  0
LAYER
  5
234
100
AcDbSymbolTableRecord
100
AcDbLayerTableRecord
  2
DIMENSIONS
 70
0
 62
7
  6
CONTINUOUS
370
-3
390
F
  0
LAYER
  5
235
100
AcDbSymbolTableRecord
100
AcDbLayerTableRecord
  2
DRAWINGNOTES
 70
0
 62
7
  6
CONTINUOUS
370
-3
390
F
  0
LAYER
  5
236
100
AcDbSymbolTableRecord
100
AcDbLayerTableRecord
  2
DTM
 70
0
 62
7
  6
CONTINUOUS
370
-3
390
F
  0
LAYER
  5
237
100
AcDbSymbolTableRecord
100
AcDbLayerTableRecord
  2
DTM230
 70
0
 62
7
  6
CONTINUOUS
370
-3
390
F
  0
LAYER
  5
238
100
AcDbSymbolTableRecord
100
AcDbLayerTableRecord
  2
DTM325
 70
0
 62
7
  6
CONTINUOUS
370
-3
390
F
  0
LAYER
  5
239
100
AcDbSymbolTableRecord
100
AcDbLayerTableRecord
  2
DTM_500001
 70
0
 62
7
  6
CONTINUOUS
370
-3
390
F
  0
LAYER
  5
23A
100
AcDbSymbolTableRecord
100
AcDbLayerTableRecord
  2
DTM_500002
 70
0
 62
7
  6
CONTINUOUS
370
-3
390
F
  0
LAYER
  5
23B
100
AcDbSymbolTableRecord
100
AcDbLayerTableRecord
  2
DTM_515002
 70
0
 62
7
  6
CONTINUOUS
370
-3
390
F
  0
LAYER
  5
23C
100
AcDbSymbolTableRecord
100
AcDbLayerTableRecord
  2
DTM_530-102
 70
0
 62
7
  6
CONTINUOUS
370
-3
390
F
  0
LAYER
  5
23D
100
AcDbSymbolTableRecord
100
AcDbLayerTableRecord
  2
DTM_800001
 70
0
 62
7
  6
CONTINUOUS
370
-3
390
F
  0
LAYER
  5
23E
100
AcDbSymbolTableRecord
100
AcDbLayerTableRecord
  2
DTM_BALLHOLDER
 70
0
 62
7
  6
CONTINUOUS
370
-3
390
F
  0
LAYER
  5
23F
100
AcDbSymbolTableRecord
100
AcDbLayerTableRecord
  2
DTM_SPRING_RH
 70
0
 62
7
  6
CONTINUOUS
370
-3
390
F
  0
LAYER
  5
240
100
AcDbSymbolTableRecord
100
AcDbLayerTableRecord
  2
DTM_SP_RH_CONSTR
 70
0
 62
7
  6
CONTINUOUS
370
-3
390
F
  0
LAYER
  5
241
100
AcDbSymbolTableRecord
100
AcDbLayerTableRecord
  2
FACE1
 70
0
 62
7
  6
CONTINUOUS
370
-3
390
F
  0
LAYER
  5
242
100
AcDbSymbolTableRecord
100
AcDbLayerTableRecord
  2
FACE2
 70
0
 62
7
  6
CONTINUOUS
370
-3
390
F
  0
LAYER
  5
243
100
AcDbSymbolTableRecord
100
AcDbLayerTableRecord
  2
FACE3
 70
0
 62
7
  6
CONTINUOUS
370
-3
390
F
  0
LAYER
  5
244
100
AcDbSymbolTableRecord
100
AcDbLayerTableRecord
  2
FACE4
 70
0
 62
7
  6
CONTINUOUS
370
-3
390
F
  0
LAYER
  5
245
100
AcDbSymbolTableRecord
100
AcDbLayerTableRecord
  2
GEOMETRICTOLERANCES
 70
0
 62
7
  6
CONTINUOUS
370
-3
390
F
  0
LAYER
  5
246
100
AcDbSymbolTableRecord
100
AcDbLayerTableRecord
  2
HIDDEN
 70
0
 62
7
  6
CONTINUOUS
370
-3
390
F
  0
LAYER
  5
247
100
AcDbSymbolTableRecord
100
AcDbLayerTableRecord
  2
LAY0001
 70
0
 62
7
  6
CONTINUOUS
370
-3
390
F
  0
LAYER
  5
248
100
AcDbSymbolTableRecord
100
AcDbLayerTableRecord
  2
PARAMETERDIMENSIONS
 70
0
 62
7
  6
CONTINUOUS
370
-3
390
F
  0
LAYER
  5
249
100
AcDbSymbolTableRecord
100
AcDbLayerTableRecord
  2
PART
 70
0
 62
7
  6
CONTINUOUS
370
-3
390
F
  0
LAYER
  5
24A
100
AcDbSymbolTableRecord
100
AcDbLayerTableRecord
  2
PLANE
 70
0
 62
7
  6
CONTINUOUS
370
-3
390
F
  0
LAYER
  5
24B
100
AcDbSymbolTableRecord
100
AcDbLayerTableRecord
  2
PROTRUSIONS
 70
0
 62
7
  6
CONTINUOUS
370
-3
390
F
  0
LAYER
  5
24C
100
AcDbSymbolTableRecord
100
AcDbLayerTableRecord
  2
S-164_NPTF_PORT
 70
0
 62
7
  6
CONTINUOUS
370
-3
390
F
  0
LAYER
  5
24D
100
AcDbSymbolTableRecord
100
AcDbLayerTableRecord
  2
SUN_STD_SAE-4_PORT
 70
0
 62
7
  6
CONTINUOUS
370
-3
390
F
  0
LAYER
  5
24E
100
AcDbSymbolTableRecord
100
AcDbLayerTableRecord
  2
TEXT
 70
0
 62
7
  6
CONTINUOUS
370
-3
390
F
  0
LAYER
  5
24F
100
AcDbSymbolTableRecord
100
AcDbLayerTableRecord
  2
THREAD
 70
0
 62
7
  6
CONTINUOUS
370
-3
390
F
  0
ENDTAB
  0
TABLE
  2
STYLE
  5
3
100
AcDbSymbolTable
 70
1
  0
STYLE
  5
11
100
AcDbSymbolTableRecord
100
AcDbTextStyleTableRecord
  2
STANDARD
 70
0
 40
0.0
 41
0.8
 50
0.0
 71
0
 42
0.2
  3
txt
  4

  0
STYLE
  5
250
100
AcDbSymbolTableRecord
100
AcDbTextStyleTableRecord
  2
TEXTSTYLE_1
 70
0
 40
0.0
 41
0.8
 50
0.0
 71
0
 42
0.2
  3
gdt
  4

  0
ENDTAB
  0
TABLE
  2
VIEW
  5
6
100
AcDbSymbolTable
 70
0
  0
ENDTAB
  0
TABLE
  2
UCS
  5
7
100
AcDbSymbolTable
 70
0
  0
ENDTAB
  0
TABLE
  2
APPID
  5
9
100
AcDbSymbolTable
 70
1
  0
APPID
  5
251
100
AcDbSymbolTableRecord
100
AcDbRegAppTableRecord
  2
ACAD
 70
0
  0
ENDTAB
  0
TABLE
  2
BLOCK_RECORD
  5
1
100
AcDbSymbolTable
 70
0
  0
BLOCK_RECORD
  5
252
100
AcDbSymbolTableRecord
100
AcDbBlockTableRecord
  2
*Model_Space
  0
BLOCK_RECORD
  5
253
100
AcDbSymbolTableRecord
100
AcDbBlockTableRecord
  2
*Paper_Space
  0
BLOCK_RECORD
  5
254
100
AcDbSymbolTableRecord
100
AcDbBlockTableRecord
  2
_FILLED
  0
BLOCK_RECORD
  5
255
100
AcDbSymbolTableRecord
100
AcDbBlockTableRecord
  2
*D0
  0
ENDTAB
  0
TABLE
  2
DIMSTYLE
  5
A
100
AcDbSymbolTable
 70
1
100
AcDbDimStyleTable
 71
0
  0
DIMSTYLE
105
256
100
AcDbSymbolTableRecord
100
AcDbDimStyleTableRecord
  2
STANDARD
 70
0
  3

  4

 40
1.0
 41
0.1875
 42
0.0625
 43
0.38
 44
0.125
 45
0.0
 46
0.0
 47
0.001
 48
0.001
140
0.125
141
0.09
142
0.0
143
25.4
144
1.0
145
0.0
146
1.0
147
0.09
 71
0
 72
0
 73
1
 74
1
 75
0
 76
0
 77
0
 78
4
 79
1
170
0
171
2
172
0
173
0
174
0
175
0
176
0
177
0
178
0
270
2
179
3
271
3
272
3
273
2
274
2
275
0
280
0
281
0
282
0
283
1
284
4
285
0
286
0
287
3
288
0
340
11
278
46
341
254
342
254
343
254
344
254
  0
DIMSTYLE
105
257
100
AcDbSymbolTableRecord
100
AcDbDimStyleTableRecord
  2
DIMSTYLE_1
 70
0
  3

  4

 40
1.0
 41
0.1875
 42
0.0625
 43
0.38
 44
0.125
 45
0.0
 46
0.0
 47
0.0
 48
0.0
140
0.125
141
0.09
142
0.0
143
25.4
144
1.0
145
0.0
146
1.0
147
0.0625
 71
0
 72
0
 73
1
 74
1
 75
0
 76
0
 77
0
 78
4
 79
1
170
0
171
2
172
0
173
0
174
0
175
0
176
0
177
0
178
0
270
2
179
3
271
2
272
3
273
2
274
2
275
0
280
0
281
0
282
0
283
1
284
4
285
0
286
0
287
3
288
0
340
11
278
46
341
254
342
254
343
254
344
254
  0
ENDTAB
  0
ENDSEC
  0
SECTION
  2
BLOCKS
  0
BLOCK
  5
20
100
AcDbEntity
  8
0
100
AcDbBlockBegin
  2
*Model_Space
 70
0
 10
0.0
 20
0.0
 30
0.0
  3
*Model_Space
  1

  0
ENDBLK
  5
21
100
AcDbEntity
  8
0
100
AcDbBlockEnd
  0
BLOCK
  5
1C
100
AcDbEntity
  8
0
100
AcDbBlockBegin
  2
*Paper_Space
 70
0
 10
0.0
 20
0.0
 30
0.0
  3
*Paper_Space
  1

  0
ENDBLK
  5
1D
100
AcDbEntity
  8
0
100
AcDbBlockEnd
  0
BLOCK
  5
258
100
AcDbEntity
  8
0
100
AcDbBlockBegin
  2
_FILLED
 70
64
 10
0.0
 20
0.0
  3
_FILLED
  1

  0
SOLID
  5
259
100
AcDbEntity
  8
0
  6
BYBLOCK
 62
0
100
AcDbTrace
 10
0.0
 20
0.0
 11
-1.0
 21
0.1666666667
 12
-1.0
 22
-0.1666666667
 13
-1.0
 23
-0.1666666667
  0
ENDBLK
  5
25A
100
AcDbEntity
  8
0
  6
BYBLOCK
 62
0
100
AcDbBlockEnd
  0
BLOCK
  5
25B
100
AcDbEntity
  8
0
100
AcDbBlockBegin
 62
6
  6
CONTINUOUS
  2
*D0
 70
65
 10
0.0
 20
0.0
  3
*D0
  1

  0
MTEXT
  5
25C
100
AcDbEntity
  8
0
100
AcDbMText
 62
6
  6
CONTINUOUS
  7
STANDARD
 71
1
 72
1
 10
6.0005
 20
8.5905
 30
0.0
 11
1.0
 21
0.0
 31
0.0
 73
2
 44
0.9
  1
3.31 in (84,1 mm)
 40
0.125
 41
1.7
  0
LINE
  5
25D
100
AcDbEntity
  8
0
100
AcDbLine
 62
6
  6
CONTINUOUS
 10
5.7505
 20
7.8405
 11
5.7505
 21
8.653
  0
LINE
  5
25E
100
AcDbEntity
  8
0
100
AcDbLine
 62
6
  6
CONTINUOUS
 10
2.4384999456
 20
7.0625
 11
2.4384999456
 21
8.653
  0
LINE
  5
25F
100
AcDbEntity
  8
0
100
AcDbLine
 62
6
  6
CONTINUOUS
 10
5.7505
 20
8.528
 11
4.0944999728
 21
8.528
  0
LINE
  5
260
100
AcDbEntity
  8
0
100
AcDbLine
 62
6
  6
CONTINUOUS
 10
4.0944999728
 20
8.528
 11
5.938
 21
8.528
  0
LINE
  5
261
100
AcDbEntity
  8
0
100
AcDbLine
 62
6
  6
CONTINUOUS
 10
2.4384999456
 20
8.528
 11
4.0944999728
 21
8.528
  0
INSERT
  5
262
100
AcDbEntity
  8
0
100
AcDbBlockReference
 62
6
  6
CONTINUOUS
  2
_FILLED
 10
5.7505
 20
8.528
 41
0.1875
 42
0.1875
 43
0.1875
  0
INSERT
  5
263
100
AcDbEntity
  8
0
100
AcDbBlockReference
 62
6
  6
CONTINUOUS
  2
_FILLED
 10
2.4384999456
 20
8.528
 41
0.1875
 42
0.1875
 43
0.1875
 50
180.0
  0
ENDBLK
  5
264
100
AcDbEntity
  8
0
  6
BYBLOCK
 62
0
100
AcDbBlockEnd
  0
ENDSEC
  0
SECTION
  2
ENTITIES
  0
DIMENSION
  5
265
100
AcDbEntity
  8
0
100
AcDbDimension
 62
6
  6
CONTINUOUS
  2
*D0
 10
2.4384999456
 20
8.528
 11
6.8505
 21
8.528
 70
160
 71
1
 72
2
 41
0.9
 42
3.3120000544
  1
<> in (84,1 mm)
  3
DIMSTYLE_1
100
AcDbAlignedDimension
 13
5.7505
 23
7.778
 14
2.4384999456
 24
7.0
 50
180.0
100
AcDbRotatedDimension
  0
MTEXT
  5
266
100
AcDbEntity
  8
0
100
AcDbMText
 62
2
  6
CONTINUOUS
  7
STANDARD
 71
1
 72
1
 10
8.0105
 20
7.0625
 30
0.0
 11
1.0
 21
0.0
 31
0.0
 73
2
 44
0.6
  1
Port 1\PReduced Pressure
 40
0.125
 41
1.6
  0
MTEXT
  5
267
100
AcDbEntity
  8
0
100
AcDbMText
 62
2
  6
CONTINUOUS
  7
STANDARD
 71
1
 72
1
 10
6.5505
 20
5.9425
 30
0.0
 11
1.0
 21
0.0
 31
0.0
 73
2
 44
0.6
  1
Port 2\PInlet
 40
0.125
 41
0.6
  0
MTEXT
  5
268
100
AcDbEntity
  8
0
100
AcDbMText
 62
2
  6
CONTINUOUS
  7
STANDARD
 71
1
 72
1
 10
5.2305
 20
5.9425
 30
0.0
 11
1.0
 21
0.0
 31
0.0
 73
2
 44
0.6
  1
Port 3\PDrain
 40
0.125
 41
0.6
  0
MTEXT
  5
269
100
AcDbEntity
  8
0
100
AcDbMText
 62
2
  6
CONTINUOUS
  7
STANDARD
 71
1
 72
1
 10
6.0005
 20
8.3402178776
 30
0.0
 11
1.0
 21
0.0
 31
0.0
 73
2
 44
0.6
  1
 LOCATING SHOULDER
 40
0.125
 41
1.8
  0
LINE
  5
26A
100
AcDbEntity
  8
0
100
AcDbLine
 62
7
  6
CONTINUOUS
 10
2.4385
 20
7.153
 11
2.4385
 21
6.847
  0
LINE
  5
26B
100
AcDbEntity
  8
0
100
AcDbLine
 62
7
  6
CONTINUOUS
 10
2.4555
 20
7.17
 11
2.4555
 21
6.83
  0
LINE
  5
26C
100
AcDbEntity
  8
0
100
AcDbLine
 62
7
  6
CONTINUOUS
 10
2.4695
 20
7.184
 11
2.4695
 21
6.816
  0
LINE
  5
26D
100
AcDbEntity
  8
0
100
AcDbLine
 62
7
  6
CONTINUOUS
 10
2.6685
 20
7.184
 11
2.6685
 21
6.816
  0
LINE
  5
26E
100
AcDbEntity
  8
0
100
AcDbLine
 62
7
  6
CONTINUOUS
 10
2.67
 20
6.8386370925
 11
2.67
 21
6.8575659722
  0
LINE
  5
26F
100
AcDbEntity
  8
0
100
AcDbLine
 62
7
  6
CONTINUOUS
 10
2.67
 20
7.1424340278
 11
2.67
 21
7.1614512129
  0
LINE
  5
270
100
AcDbEntity
  8
0
100
AcDbLine
 62
7
  6
CONTINUOUS
 10
2.705
 20
6.8386370925
 11
2.705
 21
6.8575659722
  0
LINE
  5
271
100
AcDbEntity
  8
0
100
AcDbLine
 62
7
  6
CONTINUOUS
 10
2.705
 20
7.1424340278
 11
2.705
 21
7.1614512129
  0
LINE
  5
272
100
AcDbEntity
  8
0
100
AcDbLine
 62
7
  6
CONTINUOUS
 10
2.7065
 20
7.184
 11
2.7065
 21
6.816
  0
LINE
  5
273
100
AcDbEntity
  8
0
100
AcDbLine
 62
7
  6
CONTINUOUS
 10
2.9695
 20
6.7523459131
 11
2.9695
 21
7.2476540869
  0
LINE
  5
274
100
AcDbEntity
  8
0
100
AcDbLine
 62
7
  6
CONTINUOUS
 10
3.0315
 20
6.729
 11
3.0315
 21
7.271
  0
LINE
  5
275
100
AcDbEntity
  8
0
100
AcDbLine
 62
7
  6
CONTINUOUS
 10
3.0375
 20
6.729
 11
3.0375
 21
7.271
  0
LINE
  5
276
100
AcDbEntity
  8
0
100
AcDbLine
 62
7
  6
CONTINUOUS
 10
3.043
 20
7.2655
 11
3.043
 21
6.7345
  0
LINE
  5
277
100
AcDbEntity
  8
0
100
AcDbLine
 62
7
  6
CONTINUOUS
 10
3.059
 20
7.2655
 11
3.059
 21
6.7345
  0
LINE
  5
278
100
AcDbEntity
  8
0
100
AcDbLine
 62
7
  6
CONTINUOUS
 10
2.4385
 20
7.153
 11
2.4695
 21
7.184
  0
LINE
  5
279
100
AcDbEntity
  8
0
100
AcDbLine
 62
7
  6
CONTINUOUS
 10
2.4385
 20
6.847
 11
2.4695
 21
6.816
  0
LINE
  5
27A
100
AcDbEntity
  8
0
100
AcDbLine
 62
7
  6
CONTINUOUS
 10
3.2505
 20
7.271
 11
3.2505
 21
6.729
  0
LINE
  5
27B
100
AcDbEntity
  8
0
100
AcDbLine
 62
7
  6
CONTINUOUS
 10
3.2815
 20
6.4680145008
 11
3.2815
 21
7.5319854992
  0
LINE
  5
27C
100
AcDbEntity
  8
0
100
AcDbLine
 62
7
  6
CONTINUOUS
 10
3.3435
 20
6.406
 11
3.3435
 21
7.594
  0
LINE
  5
27D
100
AcDbEntity
  8
0
100
AcDbLine
 62
7
  6
CONTINUOUS
 10
3.3435
 20
7.594
 11
3.2815
 21
7.532
  0
LINE
  5
27E
100
AcDbEntity
  8
0
100
AcDbLine
 62
7
  6
CONTINUOUS
 10
3.3435
 20
6.406
 11
3.2815
 21
6.468
  0
LINE
  5
27F
100
AcDbEntity
  8
0
100
AcDbLine
 62
7
  6
CONTINUOUS
 10
3.1179708513
 20
7.3244708513
 11
3.059
 21
7.2655
  0
LINE
  5
280
100
AcDbEntity
  8
0
100
AcDbLine
 62
7
  6
CONTINUOUS
 10
3.1179708513
 20
6.6755291487
 11
3.059
 21
6.7345
  0
LINE
  5
281
100
AcDbEntity
  8
0
100
AcDbLine
 62
7
  6
CONTINUOUS
 10
3.2505
 20
6.729
 11
3.2196285896
 21
6.6755291487
  0
LINE
  5
282
100
AcDbEntity
  8
0
100
AcDbLine
 62
7
  6
CONTINUOUS
 10
3.9424172746
 20
7.6267849186
 11
3.9385
 21
7.62
  0
LINE
  5
283
100
AcDbEntity
  8
0
100
AcDbLine
 62
7
  6
CONTINUOUS
 10
3.2505
 20
7.271
 11
3.2196285896
 21
7.3244708513
  0
LINE
  5
284
100
AcDbEntity
  8
0
100
AcDbLine
 62
7
  6
CONTINUOUS
 10
3.9424172746
 20
6.3732150814
 11
3.9385
 21
6.38
  0
LINE
  5
285
100
AcDbEntity
  8
0
100
AcDbLine
 62
7
  6
CONTINUOUS
 10
3.9385
 20
6.38
 11
3.9385
 21
7.62
  0
LINE
  5
286
100
AcDbEntity
  8
0
100
AcDbLine
 62
7
  6
CONTINUOUS
 10
3.043
 20
6.7345
 11
3.0375
 21
6.729
  0
LINE
  5
287
100
AcDbEntity
  8
0
100
AcDbLine
 62
7
  6
CONTINUOUS
 10
3.043
 20
7.2655
 11
3.0375
 21
7.271
  0
LINE
  5
288
100
AcDbEntity
  8
0
100
AcDbLine
 62
7
  6
CONTINUOUS
 10
3.989884174
 20
7.6250105339
 11
3.989884174
 21
7.6023882164
  0
LINE
  5
289
100
AcDbEntity
  8
0
100
AcDbLine
 62
7
  6
CONTINUOUS
 10
3.989884174
 20
6.3749894661
 11
3.989884174
 21
6.3976117836
  0
LINE
  5
28A
100
AcDbEntity
  8
0
100
AcDbLine
 62
7
  6
CONTINUOUS
 10
3.989884174
 20
6.9773776825
 11
3.989884174
 21
7.0226223175
  0
LINE
  5
28B
100
AcDbEntity
  8
0
100
AcDbLine
 62
7
  6
CONTINUOUS
 10
5.1745
 20
6.2205
 11
5.1125
 21
6.2205
  0
LINE
  5
28C
100
AcDbEntity
  8
0
100
AcDbLine
 62
7
  6
CONTINUOUS
 10
4.7245
 20
6.2205
 11
4.9885
 21
6.2205
  0
LINE
  5
28D
100
AcDbEntity
  8
0
100
AcDbLine
 62
7
  6
CONTINUOUS
 10
5.7505
 20
6.222
 11
5.6645
 21
6.222
  0
LINE
  5
28E
100
AcDbEntity
  8
0
100
AcDbLine
 62
7
  6
CONTINUOUS
 10
5.9005
 20
6.282
 11
5.9505
 21
6.282
  0
LINE
  5
28F
100
AcDbEntity
  8
THREAD
100
AcDbLine
 62
7
  6
CONTINUOUS
 10
5.7975
 20
6.2825
 11
5.7505
 21
6.2825
  0
LINE
  5
290
100
AcDbEntity
  8
THREAD
100
AcDbLine
 62
7
  6
CONTINUOUS
 10
6.2985
 20
6.2985
 11
5.9982128129
 21
6.2985
  0
LINE
  5
291
100
AcDbEntity
  8
0
100
AcDbLine
 62
7
  6
CONTINUOUS
 10
5.1125
 20
6.3085
 11
5.0915
 21
6.3085
  0
LINE
  5
292
100
AcDbEntity
  8
0
100
AcDbLine
 62
7
  6
CONTINUOUS
 10
4.7245
 20
7.7795
 11
4.683796806
 21
7.709
  0
LINE
  5
293
100
AcDbEntity
  8
0
100
AcDbLine
 62
7
  6
CONTINUOUS
 10
5.5940632672
 20
6.344
 11
5.2458027582
 21
6.344
  0
LINE
  5
294
100
AcDbEntity
  8
THREAD
100
AcDbLine
 62
7
  6
CONTINUOUS
 10
6.4565
 20
6.3595
 11
6.3595
 21
6.3595
  0
LINE
  5
295
100
AcDbEntity
  8
0
100
AcDbLine
 62
7
  6
CONTINUOUS
 10
3.9414047949
 20
6.3749894661
 11
4.683796806
 21
6.3749894661
  0
LINE
  5
296
100
AcDbEntity
  8
0
100
AcDbLine
 62
7
  6
CONTINUOUS
 10
7.5412486764
 20
6.3765
 11
7.4672486764
 21
6.3765
  0
LINE
  5
297
100
AcDbEntity
  8
0
100
AcDbLine
 62
7
  6
CONTINUOUS
 10
7.1675
 20
6.3765
 11
7.2605
 21
6.3765
  0
LINE
  5
298
100
AcDbEntity
  8
0
100
AcDbLine
 62
7
  6
CONTINUOUS
 10
7.2605
 20
6.383
 11
7.3105
 21
6.383
  0
LINE
  5
299
100
AcDbEntity
  8
0
100
AcDbLine
 62
7
  6
CONTINUOUS
 10
7.4135
 20
6.383
 11
7.4607486764
 21
6.383
  0
LINE
  5
29A
100
AcDbEntity
  8
0
100
AcDbLine
 62
7
  6
CONTINUOUS
 10
4.683796806
 20
6.3976117836
 11
3.989884174
 21
6.3976117836
  0
LINE
  5
29B
100
AcDbEntity
  8
0
100
AcDbLine
 62
7
  6
CONTINUOUS
 10
3.9385
 20
6.406
 11
3.3435
 21
6.406
  0
LINE
  5
29C
100
AcDbEntity
  8
0
100
AcDbLine
 62
7
  6
CONTINUOUS
 10
7.5615
 20
6.4705
 11
7.5412486764
 21
6.4705
  0
LINE
  5
29D
100
AcDbEntity
  8
0
100
AcDbLine
 62
7
  6
CONTINUOUS
 10
7.1675
 20
6.4705
 11
6.859
 21
6.4705
  0
LINE
  5
29E
100
AcDbEntity
  8
0
100
AcDbLine
 62
7
  6
CONTINUOUS
 10
6.64
 20
6.4705
 11
6.4695
 21
6.4705
  0
LINE
  5
29F
100
AcDbEntity
  8
0
100
AcDbLine
 62
7
  6
CONTINUOUS
 10
4.7245
 20
6.2205
 11
4.683796806
 21
6.291
  0
LINE
  5
2A0
100
AcDbEntity
  8
0
100
AcDbLine
 62
7
  6
CONTINUOUS
 10
4.683796806
 20
6.291006373
 11
4.683796806
 21
7.708993627
  0
LINE
  5
2A1
100
AcDbEntity
  8
0
100
AcDbLine
 62
7
  6
CONTINUOUS
 10
4.7245
 20
6.2205
 11
4.7245
 21
7.7795
  0
LINE
  5
2A2
100
AcDbEntity
  8
0
100
AcDbLine
 62
7
  6
CONTINUOUS
 10
6.7805
 20
6.672
 11
6.7145914194
 21
6.672
  0
LINE
  5
2A3
100
AcDbEntity
  8
0
100
AcDbLine
 62
7
  6
CONTINUOUS
 10
3.2196285896
 20
6.6755291487
 11
3.1179708513
 21
6.6755291487
  0
LINE
  5
2A4
100
AcDbEntity
  8
0
100
AcDbLine
 62
7
  6
CONTINUOUS
 10
3.2815
 20
6.729
 11
3.2505
 21
6.729
  0
LINE
  5
2A5
100
AcDbEntity
  8
0
100
AcDbLine
 62
7
  6
CONTINUOUS
 10
3.0375
 20
6.729
 11
3.0315
 21
6.729
  0
LINE
  5
2A6
100
AcDbEntity
  8
0
100
AcDbLine
 62
7
  6
CONTINUOUS
 10
3.059
 20
6.7345
 11
3.043
 21
6.7345
  0
LINE
  5
2A7
100
AcDbEntity
  8
0
100
AcDbLine
 62
7
  6
CONTINUOUS
 10
2.4695
 20
6.816
 11
2.6685
 21
6.816
  0
LINE
  5
2A8
100
AcDbEntity
  8
0
100
AcDbLine
 62
7
  6
CONTINUOUS
 10
2.7065
 20
6.816
 11
2.9695
 21
6.816
  0
LINE
  5
2A9
100
AcDbEntity
  8
DEFAULT_2
100
AcDbLine
 62
8
  6
HIDDEN
 10
2.6685
 20
6.83
 11
2.6723029724
 21
6.83
  0
LINE
  5
2AA
100
AcDbEntity
  8
DEFAULT_2
100
AcDbLine
 62
8
  6
HIDDEN
 10
2.7026970276
 20
6.83
 11
2.7065
 21
6.83
  0
LINE
  5
2AB
100
AcDbEntity
  8
0
100
AcDbLine
 62
7
  6
CONTINUOUS
 10
3.2196285896
 20
6.8377645744
 11
3.1179708513
 21
6.8377645744
  0
LINE
  5
2AC
100
AcDbEntity
  8
0
100
AcDbLine
 62
7
  6
CONTINUOUS
 10
4.9385
 20
7.7795
 11
4.9385
 21
6.2205
  0
LINE
  5
2AD
100
AcDbEntity
  8
0
100
AcDbLine
 62
7
  6
CONTINUOUS
 10
4.9885
 20
7.7795
 11
4.9885
 21
6.2205
  0
LINE
  5
2AE
100
AcDbEntity
  8
0
100
AcDbLine
 62
7
  6
CONTINUOUS
 10
2.6685
 20
6.849
 11
2.67
 21
6.849
  0
LINE
  5
2AF
100
AcDbEntity
  8
0
100
AcDbLine
 62
7
  6
CONTINUOUS
 10
2.705
 20
6.849
 11
2.7065
 21
6.849
  0
LINE
  5
2B0
100
AcDbEntity
  8
0
100
AcDbLine
 62
7
  6
CONTINUOUS
 10
4.683796806
 20
6.9773776825
 11
3.989884174
 21
6.9773776825
  0
LINE
  5
2B1
100
AcDbEntity
  8
0
100
AcDbLine
 62
7
  6
CONTINUOUS
 10
4.683796806
 20
7.0226223175
 11
3.989884174
 21
7.0226223175
  0
LINE
  5
2B2
100
AcDbEntity
  8
0
100
AcDbLine
 62
7
  6
CONTINUOUS
 10
5.0915
 20
7.743
 11
5.0915
 21
6.257
  0
LINE
  5
2B3
100
AcDbEntity
  8
0
100
AcDbLine
 62
7
  6
CONTINUOUS
 10
5.1125
 20
6.2205136246
 11
5.1125
 21
7.7794863754
  0
LINE
  5
2B4
100
AcDbEntity
  8
0
100
AcDbLine
 62
7
  6
CONTINUOUS
 10
5.1745
 20
6.2205
 11
5.1745
 21
7.7795
  0
LINE
  5
2B5
100
AcDbEntity
  8
0
100
AcDbLine
 62
7
  6
CONTINUOUS
 10
5.6645
 20
7.778
 11
5.5940632672
 21
7.656
  0
LINE
  5
2B6
100
AcDbEntity
  8
0
100
AcDbLine
 62
7
  6
CONTINUOUS
 10
2.6685
 20
7.151
 11
2.67
 21
7.151
  0
LINE
  5
2B7
100
AcDbEntity
  8
0
100
AcDbLine
 62
7
  6
CONTINUOUS
 10
2.705
 20
7.151
 11
2.7065
 21
7.151
  0
LINE
  5
2B8
100
AcDbEntity
  8
0
100
AcDbLine
 62
7
  6
CONTINUOUS
 10
3.2196285896
 20
7.1622354256
 11
3.1179708513
 21
7.1622354256
  0
LINE
  5
2B9
100
AcDbEntity
  8
DEFAULT_2
100
AcDbLine
 62
8
  6
HIDDEN
 10
2.6685
 20
7.17
 11
2.6723029724
 21
7.17
  0
LINE
  5
2BA
100
AcDbEntity
  8
DEFAULT_2
100
AcDbLine
 62
8
  6
HIDDEN
 10
2.7026970276
 20
7.17
 11
2.7065
 21
7.17
  0
LINE
  5
2BB
100
AcDbEntity
  8
0
100
AcDbLine
 62
7
  6
CONTINUOUS
 10
2.4695
 20
7.184
 11
2.6685
 21
7.184
  0
LINE
  5
2BC
100
AcDbEntity
  8
0
100
AcDbLine
 62
7
  6
CONTINUOUS
 10
2.7065
 20
7.184
 11
2.9695
 21
7.184
  0
LINE
  5
2BD
100
AcDbEntity
  8
0
100
AcDbLine
 62
7
  6
CONTINUOUS
 10
5.6645
 20
6.222
 11
5.5940632672
 21
6.344
  0
LINE
  5
2BE
100
AcDbEntity
  8
128-400_FEATURES
100
AcDbLine
 62
7
  6
CONTINUOUS
 10
5.2458027582
 20
7.6552673259
 11
5.2458027582
 21
7.0
  0
LINE
  5
2BF
100
AcDbEntity
  8
0
100
AcDbLine
 62
7
  6
CONTINUOUS
 10
5.2458027582
 20
6.344
 11
5.2458027582
 21
7.0
  0
LINE
  5
2C0
100
AcDbEntity
  8
0
100
AcDbLine
 62
7
  6
CONTINUOUS
 10
3.059
 20
7.2655
 11
3.043
 21
7.2655
  0
LINE
  5
2C1
100
AcDbEntity
  8
0
100
AcDbLine
 62
7
  6
CONTINUOUS
 10
3.2815
 20
7.271
 11
3.2505
 21
7.271
  0
LINE
  5
2C2
100
AcDbEntity
  8
0
100
AcDbLine
 62
7
  6
CONTINUOUS
 10
3.0375
 20
7.271
 11
3.0315
 21
7.271
  0
LINE
  5
2C3
100
AcDbEntity
  8
0
100
AcDbLine
 62
7
  6
CONTINUOUS
 10
3.2196285896
 20
7.3244708513
 11
3.1179708513
 21
7.3244708513
  0
LINE
  5
2C4
100
AcDbEntity
  8
0
100
AcDbLine
 62
7
  6
CONTINUOUS
 10
6.7805
 20
7.328
 11
6.7145708121
 21
7.328
  0
LINE
  5
2C5
100
AcDbEntity
  8
THREAD
100
AcDbLine
 62
7
  6
CONTINUOUS
 10
5.9982128129
 20
7.7015
 11
5.9704999977
 21
7.653499996
  0
LINE
  5
2C6
100
AcDbEntity
  8
0
100
AcDbLine
 62
7
  6
CONTINUOUS
 10
5.2458027582
 20
6.344
 11
5.1745
 21
6.2205
  0
LINE
  5
2C7
100
AcDbEntity
  8
0
100
AcDbLine
 62
7
  6
CONTINUOUS
 10
7.5615
 20
7.5295
 11
7.5412486764
 21
7.5295
  0
LINE
  5
2C8
100
AcDbEntity
  8
0
100
AcDbLine
 62
7
  6
CONTINUOUS
 10
7.1675
 20
7.5295
 11
6.859
 21
7.5295
  0
LINE
  5
2C9
100
AcDbEntity
  8
0
100
AcDbLine
 62
7
  6
CONTINUOUS
 10
6.64
 20
7.5295
 11
6.4695
 21
7.5295
  0
LINE
  5
2CA
100
AcDbEntity
  8
THREAD
100
AcDbLine
 62
7
  6
CONTINUOUS
 10
5.9982128129
 20
6.2985
 11
5.9704999977
 21
6.346500004
  0
LINE
  5
2CB
100
AcDbEntity
  8
0
100
AcDbLine
 62
7
  6
CONTINUOUS
 10
5.2297559774
 20
7.6837938396
 11
5.1745
 21
7.7795
  0
LINE
  5
2CC
100
AcDbEntity
  8
0
100
AcDbLine
 62
7
  6
CONTINUOUS
 10
5.5940632672
 20
6.344
 11
5.5940632672
 21
7.656
  0
LINE
  5
2CD
100
AcDbEntity
  8
0
100
AcDbLine
 62
7
  6
CONTINUOUS
 10
5.6645
 20
6.222
 11
5.6645
 21
7.778
  0
LINE
  5
2CE
100
AcDbEntity
  8
0
100
AcDbLine
 62
7
  6
CONTINUOUS
 10
3.9385
 20
7.594
 11
3.3435
 21
7.594
  0
LINE
  5
2CF
100
AcDbEntity
  8
0
100
AcDbLine
 62
7
  6
CONTINUOUS
 10
4.683796806
 20
7.6023882164
 11
3.989884174
 21
7.6023882164
  0
LINE
  5
2D0
100
AcDbEntity
  8
0
100
AcDbLine
 62
7
  6
CONTINUOUS
 10
7.2605
 20
7.617
 11
7.3105
 21
7.617
  0
LINE
  5
2D1
100
AcDbEntity
  8
0
100
AcDbLine
 62
7
  6
CONTINUOUS
 10
7.4135
 20
7.617
 11
7.4607486764
 21
7.617
  0
LINE
  5
2D2
100
AcDbEntity
  8
0
100
AcDbLine
 62
7
  6
CONTINUOUS
 10
6.3605
 20
7.6232532622
 11
6.4005
 21
7.6232532622
  0
LINE
  5
2D3
100
AcDbEntity
  8
0
100
AcDbLine
 62
7
  6
CONTINUOUS
 10
7.5412486764
 20
7.6235
 11
7.4672486764
 21
7.6235
  0
LINE
  5
2D4
100
AcDbEntity
  8
0
100
AcDbLine
 62
7
  6
CONTINUOUS
 10
7.1675
 20
7.6235
 11
7.2605
 21
7.6235
  0
LINE
  5
2D5
100
AcDbEntity
  8
0
100
AcDbLine
 62
7
  6
CONTINUOUS
 10
4.683796806
 20
7.6250105339
 11
3.9414047949
 21
7.6250105339
  0
LINE
  5
2D6
100
AcDbEntity
  8
THREAD
100
AcDbLine
 62
7
  6
CONTINUOUS
 10
6.4565
 20
7.6405
 11
6.4005
 21
7.6405
  0
LINE
  5
2D7
100
AcDbEntity
  8
THREAD
100
AcDbLine
 62
7
  6
CONTINUOUS
 10
6.3605
 20
7.6405
 11
6.3595
 21
7.6405
  0
LINE
  5
2D8
100
AcDbEntity
  8
0
100
AcDbLine
 62
7
  6
CONTINUOUS
 10
5.5940632672
 20
7.656
 11
5.2896433787
 21
7.656
  0
LINE
  5
2D9
100
AcDbEntity
  8
0
100
AcDbLine
 62
7
  6
CONTINUOUS
 10
5.1125
 20
7.6915
 11
5.0915
 21
7.6915
  0
LINE
  5
2DA
100
AcDbEntity
  8
THREAD
100
AcDbLine
 62
7
  6
CONTINUOUS
 10
6.2985
 20
7.7015
 11
5.9982128129
 21
7.7015
  0
LINE
  5
2DB
100
AcDbEntity
  8
THREAD
100
AcDbLine
 62
7
  6
CONTINUOUS
 10
5.7975
 20
7.7175
 11
5.7505
 21
7.7175
  0
LINE
  5
2DC
100
AcDbEntity
  8
0
100
AcDbLine
 62
7
  6
CONTINUOUS
 10
5.9005
 20
7.718
 11
5.9505
 21
7.718
  0
LINE
  5
2DD
100
AcDbEntity
  8
0
100
AcDbLine
 62
7
  6
CONTINUOUS
 10
5.7505
 20
6.222
 11
5.7505
 21
7.778
  0
LINE
  5
2DE
100
AcDbEntity
  8
THREAD
100
AcDbLine
 62
7
  6
CONTINUOUS
 10
5.7975
 20
6.2825125409
 11
5.7975
 21
7.7174874591
  0
LINE
  5
2DF
100
AcDbEntity
  8
0
100
AcDbLine
 62
7
  6
CONTINUOUS
 10
5.9005
 20
7.718
 11
5.9005
 21
6.282
  0
LINE
  5
2E0
100
AcDbEntity
  8
0
100
AcDbLine
 62
7
  6
CONTINUOUS
 10
5.7505
 20
7.778
 11
5.6645
 21
7.778
  0
LINE
  5
2E1
100
AcDbEntity
  8
0
100
AcDbLine
 62
7
  6
CONTINUOUS
 10
5.1745
 20
7.7795
 11
5.1125
 21
7.7795
  0
LINE
  5
2E2
100
AcDbEntity
  8
0
100
AcDbLine
 62
7
  6
CONTINUOUS
 10
4.7245
 20
7.7795
 11
4.9885
 21
7.7795
  0
LINE
  5
2E3
100
AcDbEntity
  8
0
100
AcDbLine
 62
7
  6
CONTINUOUS
 10
5.9505
 20
7.718
 11
5.9505
 21
6.282
  0
LINE
  5
2E4
100
AcDbEntity
  8
0
100
AcDbLine
 62
7
  6
CONTINUOUS
 10
5.9704999977
 20
6.346500004
 11
5.9704999977
 21
7.653499996
  0
LINE
  5
2E5
100
AcDbEntity
  8
THREAD
100
AcDbLine
 62
7
  6
CONTINUOUS
 10
5.9982128129
 20
6.2985
 11
5.9982128129
 21
7.7015
  0
LINE
  5
2E6
100
AcDbEntity
  8
THREAD
100
AcDbLine
 62
7
  6
CONTINUOUS
 10
6.2985
 20
6.2985
 11
6.2985
 21
7.7015
  0
LINE
  5
2E7
100
AcDbEntity
  8
THREAD
100
AcDbLine
 62
7
  6
CONTINUOUS
 10
6.3595
 20
6.3595
 11
6.3595
 21
7.6405
  0
LINE
  5
2E8
100
AcDbEntity
  8
0
100
AcDbLine
 62
7
  6
CONTINUOUS
 10
6.3605
 20
7.6232532622
 11
6.3605
 21
7.6404913445
  0
LINE
  5
2E9
100
AcDbEntity
  8
0
100
AcDbLine
 62
7
  6
CONTINUOUS
 10
6.4005
 20
7.6232532622
 11
6.4005
 21
7.6404913445
  0
LINE
  5
2EA
100
AcDbEntity
  8
0
100
AcDbLine
 62
7
  6
CONTINUOUS
 10
7.4672486764
 20
7.6235
 11
7.4607486764
 21
7.617
  0
LINE
  5
2EB
100
AcDbEntity
  8
THREAD
100
AcDbLine
 62
7
  6
CONTINUOUS
 10
6.3595
 20
6.3595
 11
6.2985
 21
6.2985
  0
LINE
  5
2EC
100
AcDbEntity
  8
0
100
AcDbLine
 62
7
  6
CONTINUOUS
 10
7.4672486764
 20
6.3765
 11
7.4607486764
 21
6.383
  0
LINE
  5
2ED
100
AcDbEntity
  8
THREAD
100
AcDbLine
 62
7
  6
CONTINUOUS
 10
6.3595
 20
7.6405
 11
6.2985
 21
7.7015
  0
LINE
  5
2EE
100
AcDbEntity
  8
0
100
AcDbLine
 62
7
  6
CONTINUOUS
 10
6.4565
 20
6.3595
 11
6.4565
 21
7.6405
  0
LINE
  5
2EF
100
AcDbEntity
  8
0
100
AcDbLine
 62
7
  6
CONTINUOUS
 10
6.4695
 20
6.3725
 11
6.4695
 21
7.6275
  0
LINE
  5
2F0
100
AcDbEntity
  8
0
100
AcDbLine
 62
7
  6
CONTINUOUS
 10
6.4695
 20
6.3725
 11
6.4565
 21
6.3595
  0
LINE
  5
2F1
100
AcDbEntity
  8
0
100
AcDbLine
 62
7
  6
CONTINUOUS
 10
6.4695
 20
7.6275
 11
6.4565
 21
7.6405
  0
LINE
  5
2F2
100
AcDbEntity
  8
0
100
AcDbLine
 62
7
  6
CONTINUOUS
 10
6.7805
 20
6.6713514058
 11
6.7805
 21
6.7068402534
  0
LINE
  5
2F3
100
AcDbEntity
  8
0
100
AcDbLine
 62
7
  6
CONTINUOUS
 10
6.7805
 20
6.895268036
 11
6.7805
 21
7.1047282832
  0
LINE
  5
2F4
100
AcDbEntity
  8
0
100
AcDbLine
 62
7
  6
CONTINUOUS
 10
6.7805
 20
7.2931597559
 11
6.7805
 21
7.3286471873
  0
LINE
  5
2F5
100
AcDbEntity
  8
0
100
AcDbLine
 62
7
  6
CONTINUOUS
 10
6.8355
 20
6.9327628568
 11
6.8355
 21
7.0672308079
  0
LINE
  5
2F6
100
AcDbEntity
  8
0
100
AcDbLine
 62
7
  6
CONTINUOUS
 10
6.8425
 20
6.9432793729
 11
6.8425
 21
7.0567252481
  0
LINE
  5
2F7
100
AcDbEntity
  8
0
100
AcDbLine
 62
7
  6
CONTINUOUS
 10
6.8525
 20
6.9645929889
 11
6.8525
 21
7.0354112223
  0
LINE
  5
2F8
100
AcDbEntity
  8
0
100
AcDbLine
 62
7
  6
CONTINUOUS
 10
7.1675
 20
7.6235
 11
7.1675
 21
6.3765
  0
LINE
  5
2F9
100
AcDbEntity
  8
0
100
AcDbLine
 62
7
  6
CONTINUOUS
 10
7.2605
 20
7.6235
 11
7.2605
 21
6.3765
  0
LINE
  5
2FA
100
AcDbEntity
  8
0
100
AcDbLine
 62
7
  6
CONTINUOUS
 10
7.3105
 20
7.617
 11
7.3105
 21
6.383
  0
LINE
  5
2FB
100
AcDbEntity
  8
0
100
AcDbLine
 62
7
  6
CONTINUOUS
 10
7.4135
 20
7.617
 11
7.4135
 21
6.383
  0
LINE
  5
2FC
100
AcDbEntity
  8
0
100
AcDbLine
 62
7
  6
CONTINUOUS
 10
7.4672486764
 20
6.3765
 11
7.4672486764
 21
7.6235
  0
LINE
  5
2FD
100
AcDbEntity
  8
0
100
AcDbLine
 62
7
  6
CONTINUOUS
 10
7.5412486764
 20
6.3765
 11
7.5412486764
 21
7.6235
  0
LINE
  5
2FE
100
AcDbEntity
  8
0
100
AcDbLine
 62
7
  6
CONTINUOUS
 10
7.5615
 20
6.4705
 11
7.5615
 21
7.5295
  0
ARC
  5
2FF
100
AcDbEntity
  8
128-400_FEATURES
100
AcDbCircle
 62
7
  6
CONTINUOUS
 10
6.5683107154
 20
8.4179832357
 40
1.5266836135
100
AcDbArc
 50
208.7445091133
 51
209.972880199
  0
ARC
  5
300
100
AcDbEntity
  8
128-400_FEATURES
100
AcDbCircle
 62
7
  6
CONTINUOUS
 10
5.2445427702
 20
9.042660543
 40
1.3873937892
100
AcDbArc
 50
270.0520342576
 51
271.8628668137
  0
CIRCLE
  5
301
100
AcDbEntity
  8
0
100
AcDbCircle
 62
7
  6
CONTINUOUS
 10
6.7495
 20
7.0
 40
0.1095
  0
ARC
  5
302
100
AcDbEntity
  8
0
100
AcDbCircle
 62
7
  6
CONTINUOUS
 10
3.0315
 20
6.823
 40
0.094
100
AcDbArc
 50
228.732572619
 51
270.0
  0
ARC
  5
303
100
AcDbEntity
  8
0
100
AcDbCircle
 62
7
  6
CONTINUOUS
 10
3.0315
 20
7.177
 40
0.094
100
AcDbArc
 50
90.0
 51
131.267427381
  0
ARC
  5
304
100
AcDbEntity
  8
0
100
AcDbCircle
 62
7
  6
CONTINUOUS
 10
6.6705
 20
7.0
 40
0.094
100
AcDbArc
 50
282.2986343462
 51
77.6987758408
  0
ARC
  5
305
100
AcDbEntity
  8
0
100
AcDbCircle
 62
7
  6
CONTINUOUS
 10
5.9428639711
 20
6.342
 40
0.028
100
AcDbArc
 50
9.2483666853
 51
74.0465090179
  0
ARC
  5
306
100
AcDbEntity
  8
0
100
AcDbCircle
 62
7
  6
CONTINUOUS
 10
5.9428639711
 20
7.658
 40
0.028
100
AcDbArc
 50
285.9534909363
 51
350.7516334241
  0
ARC
  5
307
100
AcDbEntity
  8
0
100
AcDbCircle
 62
7
  6
CONTINUOUS
 10
2.6875
 20
7.1615
 40
0.0175
100
AcDbArc
 50
0.0
 51
180.0
  0
ARC
  5
308
100
AcDbEntity
  8
0
100
AcDbCircle
 62
7
  6
CONTINUOUS
 10
2.6875
 20
6.8385
 40
0.0175
100
AcDbArc
 50
180.0
 51
360.0
  0
SPLINE
  5
309
100
AcDbEntity
  8
0
100
AcDbSpline
 62
7
  6
CONTINUOUS
 70
0
 71
3
 72
29
 73
25
 74
0
 42
0.0000001
 43
0.0000001
 44
0.0000000001
 40
0.0
 40
0.0
 40
0.0
 40
0.0
 40
0.0699814326
 40
0.1378931693
 40
0.2035483063
 40
0.2668301071
 40
0.3277577624
 40
0.3574096745
 40
0.3865762134
 40
0.4153250756
 40
0.4437427141
 40
0.4719307121
 40
0.5000000301
 40
0.5280693453
 40
0.5562573422
 40
0.5846749808
 40
0.6134238382
 40
0.6425903726
 40
0.6722422822
 40
0.7331699209
 40
0.796451712
 40
0.8621068357
 40
0.9300185679
 40
1.0
 40
1.0
 40
1.0
 40
1.0
 10
3.1179708513
 20
7.1622354256
 30
0.0
 10
3.1148560267
 20
7.1653502502
 30
0.0
 10
3.1088485704
 20
7.171620498
 30
0.0
 10
3.1004837005
 20
7.1813347699
 30
0.0
 10
3.0930144878
 20
7.1912347025
 30
0.0
 10
3.0865857871
 20
7.2013263651
 30
0.0
 10
3.0821793193
 20
7.2099734854
 30
0.0
 10
3.079352393
 20
7.2169651849
 30
0.0
 10
3.0776052759
 20
7.2221969955
 30
0.0
 10
3.0762274621
 20
7.2274580884
 30
0.0
 10
3.0752350053
 20
7.2327430445
 30
0.0
 10
3.0746348105
 20
7.238043924
 30
0.0
 10
3.0744327377
 20
7.243353144
 30
0.0
 10
3.0746348076
 20
7.2486623643
 30
0.0
 10
3.07523501
 20
7.2539632427
 30
0.0
 10
3.0762274641
 20
7.2592481987
 30
0.0
 10
3.0776052762
 20
7.2645092916
 30
0.0
 10
3.0793523974
 20
7.2697411001
 30
0.0
 10
3.0821793222
 20
7.2767327984
 30
0.0
 10
3.0865857895
 20
7.2853799171
 30
0.0
 10
3.0930144902
 20
7.2954715767
 30
0.0
 10
3.1004837013
 20
7.3053715083
 30
0.0
 10
3.1088485708
 20
7.3150857791
 30
0.0
 10
3.1148560267
 20
7.3213560267
 30
0.0
 10
3.1179708513
 20
7.3244708513
 30
0.0
  0
SPLINE
  5
30A
100
AcDbEntity
  8
0
100
AcDbSpline
 62
7
  6
CONTINUOUS
 70
0
 71
3
 72
25
 73
21
 74
0
 42
0.0000001
 43
0.0000001
 44
0.0000000001
 40
0.0
 40
0.0
 40
0.0
 40
0.0
 40
0.0659343996
 40
0.1307786338
 40
0.1945190869
 40
0.2571884297
 40
0.3188803748
 40
0.3494111547
 40
0.3797624252
 40
0.4400381959
 40
0.5000000142
 40
0.5599618336
 40
0.6202376013
 40
0.6505888715
 40
0.68111965
 40
0.7428115909
 40
0.8054809287
 40
0.8692213713
 40
0.9340656013
 40
1.0
 40
1.0
 40
1.0
 40
1.0
 10
3.2196285896
 20
6.6755291487
 30
0.0
 10
3.221516559
 20
6.6787992076
 30
0.0
 10
3.2251349301
 20
6.6853595679
 30
0.0
 10
3.230066339
 20
6.6953530604
 30
0.0
 10
3.2343954557
 20
6.7054202562
 30
0.0
 10
3.2380566079
 20
6.7155586034
 30
0.0
 10
3.2405068654
 20
6.7240922681
 30
0.0
 10
3.2420671299
 20
6.7309378364
 30
0.0
 10
3.2433474037
 20
6.7377586365
 30
0.0
 10
3.2444342196
 20
6.7463242762
 30
0.0
 10
3.244871496
 20
6.756646864
 30
0.0
 10
3.2444342204
 20
6.7669694518
 30
0.0
 10
3.2433474027
 20
6.7755350912
 30
0.0
 10
3.2420671279
 20
6.7823558908
 30
0.0
 10
3.2405068664
 20
6.7892014594
 30
0.0
 10
3.2380566054
 20
6.7977351226
 30
0.0
 10
3.2343954555
 20
6.8078734694
 30
0.0
 10
3.2300663383
 20
6.8179406637
 30
0.0
 10
3.2251349298
 20
6.8279341554
 30
0.0
 10
3.221516559
 20
6.8344945155
 30
0.0
 10
3.2196285896
 20
6.8377645744
 30
0.0
  0
SPLINE
  5
30B
100
AcDbEntity
  8
0
100
AcDbSpline
 62
7
  6
CONTINUOUS
 70
0
 71
3
 72
29
 73
25
 74
0
 42
0.0000001
 43
0.0000001
 44
0.0000000001
 40
0.0
 40
0.0
 40
0.0
 40
0.0
 40
0.0699814326
 40
0.1378931693
 40
0.2035483063
 40
0.2668301071
 40
0.3277577624
 40
0.3574096745
 40
0.3865762134
 40
0.4153250756
 40
0.4437427141
 40
0.4719307121
 40
0.5000000301
 40
0.5280693453
 40
0.5562573422
 40
0.5846749808
 40
0.6134238382
 40
0.6425903726
 40
0.6722422822
 40
0.7331699209
 40
0.796451712
 40
0.8621068357
 40
0.9300185679
 40
1.0
 40
1.0
 40
1.0
 40
1.0
 10
3.1179708513
 20
6.6755291487
 30
0.0
 10
3.1148560267
 20
6.6786439733
 30
0.0
 10
3.1088485704
 20
6.684914221
 30
0.0
 10
3.1004837005
 20
6.694628493
 30
0.0
 10
3.0930144878
 20
6.7045284256
 30
0.0
 10
3.0865857871
 20
6.7146200881
 30
0.0
 10
3.0821793193
 20
6.7232672085
 30
0.0
 10
3.079352393
 20
6.7302589079
 30
0.0
 10
3.0776052759
 20
6.7354907185
 30
0.0
 10
3.0762274621
 20
6.7407518115
 30
0.0
 10
3.0752350053
 20
6.7460367676
 30
0.0
 10
3.0746348105
 20
6.751337647
 30
0.0
 10
3.0744327377
 20
6.756646867
 30
0.0
 10
3.0746348076
 20
6.7619560874
 30
0.0
 10
3.07523501
 20
6.7672569657
 30
0.0
 10
3.0762274641
 20
6.7725419217
 30
0.0
 10
3.0776052762
 20
6.7778030147
 30
0.0
 10
3.0793523974
 20
6.7830348231
 30
0.0
 10
3.0821793222
 20
6.7900265215
 30
0.0
 10
3.0865857895
 20
6.7986736402
 30
0.0
 10
3.0930144902
 20
6.8087652997
 30
0.0
 10
3.1004837013
 20
6.8186652314
 30
0.0
 10
3.1088485708
 20
6.8283795022
 30
0.0
 10
3.1148560267
 20
6.8346497498
 30
0.0
 10
3.1179708513
 20
6.8377645744
 30
0.0
  0
SPLINE
  5
30C
100
AcDbEntity
  8
0
100
AcDbSpline
 62
7
  6
CONTINUOUS
 70
0
 71
3
 72
25
 73
21
 74
0
 42
0.0000001
 43
0.0000001
 44
0.0000000001
 40
0.0
 40
0.0
 40
0.0
 40
0.0
 40
0.1249859891
 40
0.1874862541
 40
0.2499858822
 40
0.2812379746
 40
0.3124899424
 40
0.3437420673
 40
0.3749949169
 40
0.4374972714
 40
0.5000000149
 40
0.5625027595
 40
0.6250051101
 40
0.6562579591
 40
0.6875100837
 40
0.7187620486
 40
0.750014138
 40
0.8125137618
 40
0.8750140159
 40
1.0
 40
1.0
 40
1.0
 40
1.0
 10
3.2196285896
 20
6.8377645744
 30
0.0
 10
3.2234350268
 20
6.8509504595
 30
0.0
 10
3.2286657731
 20
6.8708762575
 30
0.0
 10
3.2344293362
 20
6.8977181122
 30
0.0
 10
3.2374738555
 20
6.914607377
 30
0.0
 10
3.2395429788
 20
6.9281774237
 30
0.0
 10
3.2409051271
 20
6.9383826107
 30
0.0
 10
3.2420702724
 20
6.9486123073
 30
0.0
 10
3.2433521573
 20
6.9622797041
 30
0.0
 10
3.244436007
 20
6.9794089268
 30
0.0
 10
3.2448709837
 20
7.000000005
 30
0.0
 10
3.2444360078
 20
7.0205910829
 30
0.0
 10
3.2433521563
 20
7.0377203051
 30
0.0
 10
3.2420702703
 20
7.0513877012
 30
0.0
 10
3.2409051274
 20
7.0616173977
 30
0.0
 10
3.2395429781
 20
7.071822584
 30
0.0
 10
3.2374738535
 20
7.0853926293
 30
0.0
 10
3.2344293361
 20
7.1022818924
 30
0.0
 10
3.2286657721
 20
7.1291237446
 30
0.0
 10
3.2234350266
 20
7.1490495411
 30
0.0
 10
3.2196285896
 20
7.1622354256
 30
0.0
  0
SPLINE
  5
30D
100
AcDbEntity
  8
0
100
AcDbSpline
 62
7
  6
CONTINUOUS
 70
0
 71
3
 72
29
 73
25
 74
0
 42
0.0000001
 43
0.0000001
 44
0.0000000001
 40
0.0
 40
0.0
 40
0.0
 40
0.0
 40
0.0624904563
 40
0.124986907
 40
0.1874824592
 40
0.2499774484
 40
0.3124737491
 40
0.343727532
 40
0.3749816508
 40
0.4062351141
 40
0.4374899104
 40
0.4687452438
 40
0.5000000338
 40
0.5312548209
 40
0.562510151
 40
0.5937649481
 40
0.6250184069
 40
0.6562725173
 40
0.6875262971
 40
0.7500225805
 40
0.8125175578
 40
0.8750130976
 40
0.937509544
 40
1.0
 40
1.0
 40
1.0
 40
1.0
 10
3.1179708513
 20
6.8377645744
 30
0.0
 10
3.1148128872
 20
6.8440805025
 30
0.0
 10
3.1087161719
 20
6.8568246313
 30
0.0
 10
3.1003492137
 20
6.8762947767
 30
0.0
 10
3.0928856662
 20
6.8961319207
 30
0.0
 10
3.0864741834
 20
6.9163355535
 30
0.0
 10
3.0821318882
 20
6.9334620213
 30
0.0
 10
3.0793365363
 20
6.9473104666
 30
0.0
 10
3.0775940873
 20
6.9577634496
 30
0.0
 10
3.0762206746
 20
6.968271489
 30
0.0
 10
3.0752319259
 20
6.9788229566
 30
0.0
 10
3.0746341443
 20
6.9894039589
 30
0.0
 10
3.0744329292
 20
7.0000000111
 30
0.0
 10
3.0746341413
 20
7.0105960632
 30
0.0
 10
3.0752319307
 20
7.0211770644
 30
0.0
 10
3.0762206767
 20
7.0317285313
 30
0.0
 10
3.0775940874
 20
7.0422365698
 30
0.0
 10
3.0793365409
 20
7.0526895502
 30
0.0
 10
3.0821318911
 20
7.0665379924
 30
0.0
 10
3.0864741857
 20
7.0836644567
 30
0.0
 10
3.0928856688
 20
7.1038680844
 30
0.0
 10
3.1003492145
 20
7.1237052256
 30
0.0
 10
3.1087161724
 20
7.1431753692
 30
0.0
 10
3.1148128872
 20
7.1559194975
 30
0.0
 10
3.1179708513
 20
7.1622354256
 30
0.0
  0
SPLINE
  5
30E
100
AcDbEntity
  8
0
100
AcDbSpline
 62
7
  6
CONTINUOUS
 70
0
 71
3
 72
25
 73
21
 74
0
 42
0.0000001
 43
0.0000001
 44
0.0000000001
 40
0.0
 40
0.0
 40
0.0
 40
0.0
 40
0.0659343996
 40
0.1307786338
 40
0.1945190869
 40
0.2571884297
 40
0.3188803748
 40
0.3494111547
 40
0.3797624252
 40
0.4400381959
 40
0.5000000142
 40
0.5599618336
 40
0.6202376013
 40
0.6505888715
 40
0.68111965
 40
0.7428115909
 40
0.8054809287
 40
0.8692213713
 40
0.9340656013
 40
1.0
 40
1.0
 40
1.0
 40
1.0
 10
3.2196285896
 20
7.1622354256
 30
0.0
 10
3.221516559
 20
7.1655054845
 30
0.0
 10
3.2251349301
 20
7.1720658448
 30
0.0
 10
3.230066339
 20
7.1820593374
 30
0.0
 10
3.2343954557
 20
7.1921265331
 30
0.0
 10
3.2380566079
 20
7.2022648803
 30
0.0
 10
3.2405068654
 20
7.210798545
 30
0.0
 10
3.2420671299
 20
7.2176441133
 30
0.0
 10
3.2433474037
 20
7.2244649134
 30
0.0
 10
3.2444342196
 20
7.2330305531
 30
0.0
 10
3.244871496
 20
7.243353141
 30
0.0
 10
3.2444342204
 20
7.2536757287
 30
0.0
 10
3.2433474027
 20
7.2622413681
 30
0.0
 10
3.2420671279
 20
7.2690621677
 30
0.0
 10
3.2405068664
 20
7.2759077364
 30
0.0
 10
3.2380566054
 20
7.2844413995
 30
0.0
 10
3.2343954555
 20
7.2945797463
 30
0.0
 10
3.2300663383
 20
7.3046469406
 30
0.0
 10
3.2251349298
 20
7.3146404323
 30
0.0
 10
3.221516559
 20
7.3212007924
 30
0.0
 10
3.2196285896
 20
7.3244708513
 30
0.0
  0
SPLINE
  5
30F
100
AcDbEntity
  8
0
100
AcDbSpline
 62
7
  6
CONTINUOUS
 70
0
 71
3
 72
23
 73
19
 74
0
 42
0.0000001
 43
0.0000001
 44
0.0000000001
 40
0.0
 40
0.0
 40
0.0
 40
0.0
 40
0.0839365415
 40
0.1664146636
 40
0.2469096809
 40
0.3249764079
 40
0.4001988184
 40
0.4722339563
 40
0.5407849417
 40
0.6056209051
 40
0.6666171789
 40
0.7237341443
 40
0.7770429986
 40
0.8267511332
 40
0.8732352241
 40
0.9170651919
 40
0.9590040372
 40
1.0
 40
1.0
 40
1.0
 40
1.0
 10
6.6818877974
 20
7.3189740823
 30
0.0
 10
6.6844309449
 20
7.3188986233
 30
0.0
 10
6.6894716953
 20
7.3186973747
 30
0.0
 10
6.6969423337
 20
7.3182355695
 30
0.0
 10
6.7042225421
 20
7.3176086312
 30
0.0
 10
6.711264646
 20
7.3168086002
 30
0.0
 10
6.71802504
 20
7.3158272918
 30
0.0
 10
6.7244623086
 20
7.314654742
 30
0.0
 10
6.730537731
 20
7.3132805594
 30
0.0
 10
6.736215176
 20
7.311693876
 30
0.0
 10
6.7414618368
 20
7.309886079
 30
0.0
 10
6.7462466364
 20
7.3078465683
 30
0.0
 10
6.7505400423
 20
7.3055674596
 30
0.0
 10
6.7543153824
 20
7.3030442764
 30
0.0
 10
6.7575426278
 20
7.3002691036
 30
0.0
 10
6.7601953705
 20
7.2972432275
 30
0.0
 10
6.7622478253
 20
7.2939745797
 30
0.0
 10
6.7631995729
 20
7.2916309574
 30
0.0
 10
6.7635627501
 20
7.2904425515
 30
0.0
  0
SPLINE
  5
310
100
AcDbEntity
  8
0
100
AcDbSpline
 62
7
  6
CONTINUOUS
 70
0
 71
3
 72
23
 73
19
 74
0
 42
0.0000001
 43
0.0000001
 44
0.0000000001
 40
0.0
 40
0.0
 40
0.0
 40
0.0
 40
0.0409926453
 40
0.0829284292
 40
0.1267558607
 40
0.1732381668
 40
0.2229455352
 40
0.2762545525
 40
0.3333725382
 40
0.3943704417
 40
0.4592083478
 40
0.5277611727
 40
0.599797824
 40
0.6750217529
 40
0.7530898648
 40
0.8335858681
 40
0.9160646118
 40
1.0
 40
1.0
 40
1.0
 40
1.0
 10
6.7635630125
 20
6.7095582596
 30
0.0
 10
6.7631998074
 20
6.708369588
 30
0.0
 10
6.7622478813
 20
6.706025443
 30
0.0
 10
6.7601949159
 20
6.7027561016
 30
0.0
 10
6.7575414227
 20
6.6997296098
 30
0.0
 10
6.754313123
 20
6.6969539872
 30
0.0
 10
6.7505365302
 20
6.6944304247
 30
0.0
 10
6.7462416585
 20
6.6921510198
 30
0.0
 10
6.7414551829
 20
6.6901113494
 30
0.0
 10
6.7362066909
 20
6.6883034683
 30
0.0
 10
6.7305272868
 20
6.6867167913
 30
0.0
 10
6.7244498146
 20
6.6853427018
 30
0.0
 10
6.7180104257
 20
6.6841703103
 30
0.0
 10
6.7112478498
 20
6.6831892195
 30
0.0
 10
6.7042035136
 20
6.6823894623
 30
0.0
 10
6.6969210445
 20
6.6817628564
 30
0.0
 10
6.68944818
 20
6.6813014219
 30
0.0
 10
6.6844059603
 20
6.6811004582
 30
0.0
 10
6.6818621
 20
6.6810251544
 30
0.0
  0
SPLINE
  5
311
100
AcDbEntity
  8
0
100
AcDbSpline
 62
7
  6
CONTINUOUS
 70
0
 71
3
 72
15
 73
11
 74
0
 42
0.0000001
 43
0.0000001
 44
0.0000000001
 40
0.0
 40
0.0
 40
0.0
 40
0.0
 40
0.0386747682
 40
0.1477203069
 40
0.3095323007
 40
0.5000138596
 40
0.6904941789
 40
0.8522940384
 40
0.9613293179
 40
1.0
 40
1.0
 40
1.0
 40
1.0
 10
6.859
 20
7.5295
 30
0.0
 10
6.856215873
 20
7.5289241842
 30
0.0
 10
6.8455654957
 20
7.5268019451
 30
0.0
 10
6.823126503
 20
7.5229844588
 30
0.0
 10
6.7894090916
 20
7.5191090278
 30
0.0
 10
6.7494970295
 20
7.5174843726
 30
0.0
 10
6.7095858676
 20
7.519109331
 30
0.0
 10
6.6758702318
 20
7.522984966
 30
0.0
 10
6.6534331816
 20
7.526802241
 30
0.0
 10
6.642783835
 20
7.5289242557
 30
0.0
 10
6.64
 20
7.5295
 30
0.0
  0
SPLINE
  5
312
100
AcDbEntity
  8
0
100
AcDbSpline
 62
7
  6
CONTINUOUS
 70
0
 71
3
 72
22
 73
18
 74
0
 42
0.0000001
 43
0.0000001
 44
0.0000000001
 40
0.0
 40
0.0
 40
0.0
 40
0.0
 40
0.0504949416
 40
0.1024145225
 40
0.1560500841
 40
0.2115788449
 40
0.269086271
 40
0.3285558388
 40
0.3899181241
 40
0.4530497691
 40
0.5838590009
 40
0.6512822997
 40
0.7197450813
 40
0.7890615333
 40
0.8590542733
 40
0.9294809411
 40
1.0
 40
1.0
 40
1.0
 40
1.0
 10
6.6400011957
 20
7.374412171
 30
0.0
 10
6.6400012085
 20
7.3718439676
 30
0.0
 10
6.6403678086
 20
7.3666287639
 30
0.0
 10
6.6419767717
 20
7.3588354876
 30
0.0
 10
6.6446225301
 20
7.3510604492
 30
0.0
 10
6.6482748673
 20
7.3433907806
 30
0.0
 10
6.6528957698
 20
7.3359133692
 30
0.0
 10
6.6584331274
 20
7.3287107159
 30
0.0
 10
6.6648382027
 20
7.3218701789
 30
0.0
 10
6.6745595026
 20
7.3132403136
 30
0.0
 10
6.6856694733
 20
7.305794581
 30
0.0
 10
6.697809794
 20
7.2997191979
 30
0.0
 10
6.7075185127
 20
7.2958529436
 30
0.0
 10
6.7176413852
 20
7.2927781009
 30
0.0
 10
6.7280861579
 20
7.2905475474
 30
0.0
 10
6.7387412579
 20
7.2891969249
 30
0.0
 10
6.7459133579
 20
7.2888913401
 30
0.0
 10
6.7495
 20
7.2888913401
 30
0.0
  0
SPLINE
  5
313
100
AcDbEntity
  8
0
100
AcDbSpline
 62
7
  6
CONTINUOUS
 70
0
 71
3
 72
11
 73
7
 74
0
 42
0.0000001
 43
0.0000001
 44
0.0000000001
 40
0.0
 40
0.0
 40
0.0
 40
0.0
 40
0.2323460109
 40
0.4771581636
 40
0.7335709746
 40
1.0
 40
1.0
 40
1.0
 40
1.0
 10
6.8256147047
 20
7.3150645769
 30
0.0
 10
6.8223909939
 20
7.3167955918
 30
0.0
 10
6.8155606647
 20
7.3199679794
 30
0.0
 10
6.8046468273
 20
7.3237996476
 30
0.0
 10
6.7929336155
 20
7.3268403971
 30
0.0
 10
6.7848256929
 20
7.328318751
 30
0.0
 10
6.7806755791
 20
7.3289363147
 30
0.0
  0
SPLINE
  5
314
100
AcDbEntity
  8
0
100
AcDbSpline
 62
7
  6
CONTINUOUS
 70
0
 71
3
 72
9
 73
5
 74
0
 42
0.0000001
 43
0.0000001
 44
0.0000000001
 40
0.0
 40
0.0
 40
0.0
 40
0.0
 40
0.4958158909
 40
1.0
 40
1.0
 40
1.0
 40
1.0
 10
6.7806755791
 20
7.3289363147
 30
0.0
 10
6.7755625724
 20
7.329697163
 30
0.0
 10
6.7651856157
 20
7.3308172449
 30
0.0
 10
6.7547565521
 20
7.331184759
 30
0.0
 10
6.7495
 20
7.331184759
 30
0.0
  0
SPLINE
  5
315
100
AcDbEntity
  8
0
100
AcDbSpline
 62
7
  6
CONTINUOUS
 70
0
 71
3
 72
15
 73
11
 74
0
 42
0.0000001
 43
0.0000001
 44
0.0000000001
 40
0.0
 40
0.0
 40
0.0
 40
0.0
 40
0.1344211966
 40
0.2679676646
 40
0.3994071092
 40
0.5278488865
 40
0.6525913995
 40
0.7730866328
 40
0.8889494234
 40
1.0
 40
1.0
 40
1.0
 40
1.0
 10
6.7495
 20
7.331184759
 30
0.0
 10
6.7459812439
 20
7.331184759
 30
0.0
 10
6.7389654862
 20
7.331018475
 30
0.0
 10
6.7285329499
 20
7.3302715359
 30
0.0
 10
6.7183053006
 20
7.3290247988
 30
0.0
 10
6.7083846606
 20
7.3272769404
 30
0.0
 10
6.6988591705
 20
7.3250264628
 30
0.0
 10
6.6898094339
 20
7.3222714504
 30
0.0
 10
6.6813118988
 20
7.3190094832
 30
0.0
 10
6.6759468715
 20
7.3164400411
 30
0.0
 10
6.6733857498
 20
7.3150648338
 30
0.0
  0
SPLINE
  5
316
100
AcDbEntity
  8
0
100
AcDbSpline
 62
7
  6
CONTINUOUS
 70
0
 71
3
 72
9
 73
5
 74
0
 42
0.0000001
 43
0.0000001
 44
0.0000000001
 40
0.0
 40
0.0
 40
0.0
 40
0.0
 40
0.5041857144
 40
1.0
 40
1.0
 40
1.0
 40
1.0
 10
6.7495
 20
6.668815241
 30
0.0
 10
6.7547564391
 20
6.668815241
 30
0.0
 10
6.7651852452
 20
6.669182739
 30
0.0
 10
6.7755619482
 20
6.6703027644
 30
0.0
 10
6.780674815
 20
6.6710635716
 30
0.0
  0
SPLINE
  5
317
100
AcDbEntity
  8
0
100
AcDbSpline
 62
7
  6
CONTINUOUS
 70
0
 71
3
 72
11
 73
7
 74
0
 42
0.0000001
 43
0.0000001
 44
0.0000000001
 40
0.0
 40
0.0
 40
0.0
 40
0.0
 40
0.2664285405
 40
0.5228409746
 40
0.767652737
 40
1.0
 40
1.0
 40
1.0
 40
1.0
 10
6.780674815
 20
6.6710635716
 30
0.0
 10
6.7848249442
 20
6.671681121
 30
0.0
 10
6.792932898
 20
6.6731594527
 30
0.0
 10
6.8046461675
 20
6.6762001411
 30
0.0
 10
6.8155600793
 20
6.6800317915
 30
0.0
 10
6.8223904789
 20
6.683204147
 30
0.0
 10
6.8256142343
 20
6.6849351587
 30
0.0
  0
SPLINE
  5
318
100
AcDbEntity
  8
0
100
AcDbSpline
 62
7
  6
CONTINUOUS
 70
0
 71
3
 72
15
 73
11
 74
0
 42
0.0000001
 43
0.0000001
 44
0.0000000001
 40
0.0
 40
0.0
 40
0.0
 40
0.0
 40
0.1110492273
 40
0.2269122299
 40
0.3474077787
 40
0.4721513917
 40
0.6005943767
 40
0.7320343505
 40
0.8655800944
 40
1.0
 40
1.0
 40
1.0
 40
1.0
 10
6.6733845254
 20
6.6849358373
 30
0.0
 10
6.6759456396
 20
6.6835605814
 30
0.0
 10
6.6813106918
 20
6.680991013
 30
0.0
 10
6.6898083375
 20
6.6777289404
 30
0.0
 10
6.6988582471
 20
6.6749737742
 30
0.0
 10
6.7083839634
 20
6.6727231941
 30
0.0
 10
6.7183048481
 20
6.670975265
 30
0.0
 10
6.7285327035
 20
6.6697284858
 30
0.0
 10
6.7389653856
 20
6.6689815263
 30
0.0
 10
6.7459812152
 20
6.668815241
 30
0.0
 10
6.7495
 20
6.668815241
 30
0.0
  0
SPLINE
  5
319
100
AcDbEntity
  8
0
100
AcDbSpline
 62
7
  6
CONTINUOUS
 70
0
 71
3
 72
22
 73
18
 74
0
 42
0.0000001
 43
0.0000001
 44
0.0000000001
 40
0.0
 40
0.0
 40
0.0
 40
0.0
 40
0.0504949451
 40
0.1024145286
 40
0.1560500926
 40
0.2115788556
 40
0.2690862836
 40
0.328555853
 40
0.3899181392
 40
0.4530497845
 40
0.5838590148
 40
0.6512823122
 40
0.7197450919
 40
0.7890615415
 40
0.8590542788
 40
0.9294809438
 40
1.0
 40
1.0
 40
1.0
 40
1.0
 10
6.8589988043
 20
6.6255878521
 30
0.0
 10
6.8589987904
 20
6.6281560552
 30
0.0
 10
6.8586321882
 20
6.6333712583
 30
0.0
 10
6.8570232226
 20
6.6411645333
 30
0.0
 10
6.854377462
 20
6.64893957
 30
0.0
 10
6.8507251232
 20
6.6566092368
 30
0.0
 10
6.8461042195
 20
6.6640866462
 30
0.0
 10
6.8405668611
 20
6.6712892975
 30
0.0
 10
6.8341617855
 20
6.6781298325
 30
0.0
 10
6.8244404858
 20
6.6867596951
 30
0.0
 10
6.8133305161
 20
6.6942054251
 30
0.0
 10
6.8011901969
 20
6.7002808061
 30
0.0
 10
6.7914814796
 20
6.7041470591
 30
0.0
 10
6.7813586089
 20
6.7072219006
 30
0.0
 10
6.770913838
 20
6.7094524532
 30
0.0
 10
6.7602587401
 20
6.7108030752
 30
0.0
 10
6.7530866414
 20
6.7111086599
 30
0.0
 10
6.7495
 20
6.7111086599
 30
0.0
  0
SPLINE
  5
31A
100
AcDbEntity
  8
0
100
AcDbSpline
 62
7
  6
CONTINUOUS
 70
0
 71
3
 72
15
 73
11
 74
0
 42
0.0000001
 43
0.0000001
 44
0.0000000001
 40
0.0
 40
0.0
 40
0.0
 40
0.0
 40
0.0386744933
 40
0.1477193606
 40
0.3095304907
 40
0.5000112702
 40
0.6904910693
 40
0.8522923842
 40
0.961328864
 40
1.0
 40
1.0
 40
1.0
 40
1.0
 10
6.64
 20
6.4705
 30
0.0
 10
6.6427841074
 20
6.4710758109
 30
0.0
 10
6.6534344167
 20
6.473198035
 30
0.0
 10
6.6758732765
 20
6.4770155076
 30
0.0
 10
6.7095905156
 20
6.4808909445
 30
0.0
 10
6.7495024176
 20
6.4825156276
 30
0.0
 10
6.7894135912
 20
6.4808906967
 30
0.0
 10
6.823129389
 20
6.4770150942
 30
0.0
 10
6.8455666671
 20
6.4731977925
 30
0.0
 10
6.8562161325
 20
6.4710757521
 30
0.0
 10
6.859
 20
6.4705
 30
0.0
  0
SPLINE
  5
31B
100
AcDbEntity
  8
0
100
AcDbSpline
 62
7
  6
CONTINUOUS
 70
0
 71
3
 72
22
 73
18
 74
0
 42
0.0000001
 43
0.0000001
 44
0.0000000001
 40
0.0
 40
0.0
 40
0.0
 40
0.0
 40
0.0705190483
 40
0.140945704
 40
0.2109384319
 40
0.2802548745
 40
0.3487176487
 40
0.4161409419
 40
0.5469501676
 40
0.6100818133
 40
0.6714441022
 40
0.7309136771
 40
0.788421112
 40
0.8439498821
 40
0.8975854539
 40
0.9495050453
 40
1.0
 40
1.0
 40
1.0
 40
1.0
 10
6.7495
 20
7.2888913401
 30
0.0
 10
6.7530866395
 20
7.2888913401
 30
0.0
 10
6.7602587342
 20
7.2891969244
 30
0.0
 10
6.7709138264
 20
7.2905475448
 30
0.0
 10
6.7813585918
 20
7.2927780953
 30
0.0
 10
6.7914814577
 20
7.2958529334
 30
0.0
 10
6.8011901708
 20
7.2997191824
 30
0.0
 10
6.8133304858
 20
7.3057945573
 30
0.0
 10
6.8244404528
 20
7.3132402804
 30
0.0
 10
6.834161752
 20
7.321870135
 30
0.0
 10
6.8405668284
 20
7.3287106643
 30
0.0
 10
6.8461041889
 20
7.3359133101
 30
0.0
 10
6.8507250962
 20
7.343390714
 30
0.0
 10
6.8543774396
 20
7.3510603758
 30
0.0
 10
6.8570232065
 20
7.3588354078
 30
0.0
 10
6.8586321793
 20
7.3666286792
 30
0.0
 10
6.8589987872
 20
7.3718438805
 30
0.0
 10
6.8589988042
 20
7.3744120831
 30
0.0
  0
SPLINE
  5
31C
100
AcDbEntity
  8
0
100
AcDbSpline
 62
7
  6
CONTINUOUS
 70
0
 71
3
 72
22
 73
18
 74
0
 42
0.0000001
 43
0.0000001
 44
0.0000000001
 40
0.0
 40
0.0
 40
0.0
 40
0.0
 40
0.0705190786
 40
0.1409458068
 40
0.210938632
 40
0.2802551437
 40
0.3487179615
 40
0.4161412777
 40
0.5469505422
 40
0.6100821808
 40
0.6714444528
 40
0.7309139823
 40
0.7884213693
 40
0.8439500933
 40
0.8975855935
 40
0.9495051437
 40
1.0
 40
1.0
 40
1.0
 40
1.0
 10
6.7495
 20
6.7111086599
 30
0.0
 10
6.7459133458
 20
6.7111086599
 30
0.0
 10
6.7387412196
 20
6.7108030717
 30
0.0
 10
6.7280860794
 20
6.7094524376
 30
0.0
 10
6.7176412649
 20
6.7072218711
 30
0.0
 10
6.7075183568
 20
6.7041470016
 30
0.0
 10
6.6978096074
 20
6.7002807213
 30
0.0
 10
6.6856692579
 20
6.6942052926
 30
0.0
 10
6.6745592654
 20
6.6867595129
 30
0.0
 10
6.6648379641
 20
6.6781295876
 30
0.0
 10
6.6584328924
 20
6.6712890117
 30
0.0
 10
6.6528955502
 20
6.6640863163
 30
0.0
 10
6.6482746754
 20
6.6566088632
 30
0.0
 10
6.6446223642
 20
6.6489391602
 30
0.0
 10
6.6419766609
 20
6.6411640832
 30
0.0
 10
6.6403677391
 20
6.6333707826
 30
0.0
 10
6.6400011834
 20
6.6281555646
 30
0.0
 10
6.6400011954
 20
6.6255873577
 30
0.0
  0
SPLINE
  5
31D
100
AcDbEntity
  8
0
100
AcDbSpline
 62
7
  6
CONTINUOUS
 70
0
 71
3
 72
23
 73
19
 74
0
 42
0.0000001
 43
0.0000001
 44
0.0000000001
 40
0.0
 40
0.0
 40
0.0
 40
0.0
 40
0.052658434
 40
0.1047720548
 40
0.1569559032
 40
0.2098239367
 40
0.2639550473
 40
0.3198494368
 40
0.3778888113
 40
0.438330315
 40
0.501305625
 40
0.5668167797
 40
0.6347349293
 40
0.7048495048
 40
0.776860763
 40
0.8504111611
 40
0.9250057255
 40
1.0
 40
1.0
 40
1.0
 40
1.0
 10
6.6400011954
 20
6.6255873577
 30
0.0
 10
6.6400012071
 20
6.6230702392
 30
0.0
 10
6.6403466585
 20
6.6180540493
 30
0.0
 10
6.6419424677
 20
6.6106971628
 30
0.0
 10
6.6445872962
 20
6.6036375268
 30
0.0
 10
6.6482502944
 20
6.596940025
 30
0.0
 10
6.6528916451
 20
6.5906603457
 30
0.0
 10
6.6584521165
 20
6.5848350072
 30
0.0
 10
6.6648793613
 20
6.5795012271
 30
0.0
 10
6.6721062028
 20
6.5746792205
 30
0.0
 10
6.6800664623
 20
6.5703886785
 30
0.0
 10
6.6886873985
 20
6.5666458522
 30
0.0
 10
6.6978891438
 20
6.5634585172
 30
0.0
 10
6.7075894586
 20
6.5608391559
 30
0.0
 10
6.7177006225
 20
6.558793259
 30
0.0
 10
6.7281279994
 20
6.5573287095
 30
0.0
 10
6.7387631906
 20
6.5564489029
 30
0.0
 10
6.745915209
 20
6.5562522748
 30
0.0
 10
6.7495
 20
6.5562522748
 30
0.0
  0
SPLINE
  5
31E
100
AcDbEntity
  8
0
100
AcDbSpline
 62
7
  6
CONTINUOUS
 70
0
 71
3
 72
23
 73
19
 74
0
 42
0.0000001
 43
0.0000001
 44
0.0000000001
 40
0.0
 40
0.0
 40
0.0
 40
0.0
 40
0.0526585244
 40
0.1047722133
 40
0.1569561565
 40
0.2098242535
 40
0.2639554095
 40
0.3198497577
 40
0.3778889494
 40
0.4383302223
 40
0.5013054063
 40
0.5668165404
 40
0.6347347153
 40
0.7048493196
 40
0.7768606128
 40
0.8504110868
 40
0.9250057095
 40
1.0
 40
1.0
 40
1.0
 40
1.0
 10
6.8589988042
 20
7.3744120831
 30
0.0
 10
6.8589988209
 20
7.3769292157
 30
0.0
 10
6.8586534227
 20
7.3819454374
 30
0.0
 10
6.8570576601
 20
7.3893023761
 30
0.0
 10
6.8544128931
 20
7.3963620781
 30
0.0
 10
6.8507499189
 20
7.4030596394
 30
0.0
 10
6.8461085869
 20
7.4093393741
 30
0.0
 10
6.8405481335
 20
7.4151647617
 30
0.0
 10
6.8341209064
 20
7.4204985801
 30
0.0
 10
6.826894077
 20
7.4253206202
 30
0.0
 10
6.8189338101
 20
7.429611185
 30
0.0
 10
6.8103128559
 20
7.4333540464
 30
0.0
 10
6.8011110806
 20
7.4365414163
 30
0.0
 10
6.7914107276
 20
7.4391608029
 30
0.0
 10
6.7812995198
 20
7.4412067187
 30
0.0
 10
6.7708720948
 20
7.4426712795
 30
0.0
 10
6.7602368555
 20
7.4435510948
 30
0.0
 10
6.7530848057
 20
7.4437477252
 30
0.0
 10
6.7495
 20
7.4437477252
 30
0.0
  0
SPLINE
  5
31F
100
AcDbEntity
  8
0
100
AcDbSpline
 62
7
  6
CONTINUOUS
 70
0
 71
3
 72
23
 73
19
 74
0
 42
0.0000001
 43
0.0000001
 44
0.0000000001
 40
0.0
 40
0.0
 40
0.0
 40
0.0
 40
0.0749942902
 40
0.1495889252
 40
0.2231394168
 40
0.2951507173
 40
0.3652653279
 40
0.433183513
 40
0.498694663
 40
0.5616698675
 40
0.622111154
 40
0.6801503514
 40
0.736044695
 40
0.7901758394
 40
0.8430439163
 40
0.895227837
 40
0.9473415018
 40
1.0
 40
1.0
 40
1.0
 40
1.0
 10
6.7495
 20
7.4437477252
 30
0.0
 10
6.7459151965
 20
7.4437477252
 30
0.0
 10
6.7387631505
 20
7.4435510949
 30
0.0
 10
6.7281279163
 20
7.4426712803
 30
0.0
 10
6.7177004958
 20
7.4412067214
 30
0.0
 10
6.7075892924
 20
7.4391608076
 30
0.0
 10
6.6978889438
 20
7.4365414239
 30
0.0
 10
6.6886871721
 20
7.433354057
 30
0.0
 10
6.6800662204
 20
7.429611199
 30
0.0
 10
6.6721059542
 20
7.4253206394
 30
0.0
 10
6.6648791264
 20
7.4204986031
 30
0.0
 10
6.6584518989
 20
7.4151647923
 30
0.0
 10
6.6528914451
 20
7.4093394124
 30
0.0
 10
6.6482501126
 20
7.4030596864
 30
0.0
 10
6.644587133
 20
7.3963621365
 30
0.0
 10
6.6419423603
 20
7.3893024449
 30
0.0
 10
6.6403465889
 20
7.3819455165
 30
0.0
 10
6.6400011831
 20
7.3769293009
 30
0.0
 10
6.6400011957
 20
7.374412171
 30
0.0
  0
SPLINE
  5
320
100
AcDbEntity
  8
0
100
AcDbSpline
 62
7
  6
CONTINUOUS
 70
0
 71
3
 72
23
 73
19
 74
0
 42
0.0000001
 43
0.0000001
 44
0.0000000001
 40
0.0
 40
0.0
 40
0.0
 40
0.0
 40
0.074994291
 40
0.1495889238
 40
0.2231394112
 40
0.2951507084
 40
0.3652653152
 40
0.433183496
 40
0.4986946408
 40
0.5616698402
 40
0.6221111246
 40
0.6801503219
 40
0.7360446675
 40
0.7901758152
 40
0.8430438973
 40
0.8952278237
 40
0.9473414947
 40
1.0
 40
1.0
 40
1.0
 40
1.0
 10
6.7495
 20
6.5562522748
 30
0.0
 10
6.7530848041
 20
6.5562522748
 30
0.0
 10
6.7602368512
 20
6.5564489052
 30
0.0
 10
6.7708720868
 20
6.5573287199
 30
0.0
 10
6.7812995085
 20
6.5587932793
 30
0.0
 10
6.7914107129
 20
6.5608391936
 30
0.0
 10
6.8011110624
 20
6.5634585781
 30
0.0
 10
6.8103128349
 20
6.5666459456
 30
0.0
 10
6.8189337872
 20
6.5703888044
 30
0.0
 10
6.8268940535
 20
6.5746793655
 30
0.0
 10
6.8341208819
 20
6.5795014027
 30
0.0
 10
6.8405481095
 20
6.5848352156
 30
0.0
 10
6.8461085633
 20
6.5906605976
 30
0.0
 10
6.8507498957
 20
6.5969403259
 30
0.0
 10
6.8544128739
 20
6.6036378789
 30
0.0
 10
6.8570576451
 20
6.6106975731
 30
0.0
 10
6.8586534141
 20
6.6180545042
 30
0.0
 10
6.8589988179
 20
6.6230707215
 30
0.0
 10
6.8589988043
 20
6.6255878521
 30
0.0
  0
SPLINE
  5
321
100
AcDbEntity
  8
0
100
AcDbSpline
 62
7
  6
CONTINUOUS
 70
0
 71
3
 72
19
 73
15
 74
0
 42
0.0000001
 43
0.0000001
 44
0.0000000001
 40
0.0
 40
0.0
 40
0.0
 40
0.0
 40
0.1256171472
 40
0.250745657
 40
0.3131579341
 40
0.3754890197
 40
0.4377595051
 40
0.5000000263
 40
0.5622405504
 40
0.6245110336
 40
0.6868421152
 40
0.749254389
 40
0.8743828625
 40
1.0
 40
1.0
 40
1.0
 40
1.0
 10
3.989884174
 20
6.3976117836
 30
0.0
 10
3.9824662105
 20
6.4211801861
 30
0.0
 10
3.9689283943
 20
6.4686399093
 30
0.0
 10
3.9559889715
 20
6.5289221455
 30
0.0
 10
3.9485096955
 20
6.5775104612
 30
0.0
 10
3.9444313976
 20
6.6140797225
 30
0.0
 10
3.9419462791
 20
6.6507585151
 30
0.0
 10
3.9411197616
 20
6.6874947493
 30
0.0
 10
3.9419462884
 20
6.7242309822
 30
0.0
 10
3.9444313897
 20
6.7609097757
 30
0.0
 10
3.9485097104
 20
6.7974790326
 30
0.0
 10
3.9559889627
 20
6.8460673429
 30
0.0
 10
3.9689284039
 20
6.9063495661
 30
0.0
 10
3.982466211
 20
6.9538092818
 30
0.0
 10
3.989884174
 20
6.9773776825
 30
0.0
  0
SPLINE
  5
322
100
AcDbEntity
  8
0
100
AcDbSpline
 62
7
  6
CONTINUOUS
 70
0
 71
3
 72
19
 73
15
 74
0
 42
0.0000001
 43
0.0000001
 44
0.0000000001
 40
0.0
 40
0.0
 40
0.0
 40
0.0
 40
0.1256171472
 40
0.250745657
 40
0.3131579341
 40
0.3754890197
 40
0.4377595051
 40
0.5000000263
 40
0.5622405504
 40
0.6245110336
 40
0.6868421152
 40
0.749254389
 40
0.8743828625
 40
1.0
 40
1.0
 40
1.0
 40
1.0
 10
3.989884174
 20
7.0226223175
 30
0.0
 10
3.9824662105
 20
7.04619072
 30
0.0
 10
3.9689283943
 20
7.0936504432
 30
0.0
 10
3.9559889715
 20
7.1539326794
 30
0.0
 10
3.9485096955
 20
7.2025209951
 30
0.0
 10
3.9444313976
 20
7.2390902564
 30
0.0
 10
3.9419462791
 20
7.2757690491
 30
0.0
 10
3.9411197616
 20
7.3125052832
 30
0.0
 10
3.9419462884
 20
7.3492415162
 30
0.0
 10
3.9444313897
 20
7.3859203096
 30
0.0
 10
3.9485097104
 20
7.4224895665
 30
0.0
 10
3.9559889627
 20
7.4710778769
 30
0.0
 10
3.9689284039
 20
7.5313601
 30
0.0
 10
3.982466211
 20
7.5788198157
 30
0.0
 10
3.989884174
 20
7.6023882164
 30
0.0
  0
ELLIPSE
  5
323
100
AcDbEntity
  8
0
100
AcDbEllipse
 62
7
  6
CONTINUOUS
 10
7.362
 20
6.4195
 30
0.0
 11
0.0515
 21
0.0
 31
0.0
 40
1.0
 41
-3.1415926536
 42
0.0
  0
ELLIPSE
  5
324
100
AcDbEntity
  8
0
100
AcDbEllipse
 62
7
  6
CONTINUOUS
 10
7.362
 20
7.5805
 30
0.0
 11
0.0515
 21
-0.0
 31
0.0
 40
1.0
 41
0.0
 42
3.1415926536
  0
ELLIPSE
  5
325
100
AcDbEntity
  8
0
100
AcDbEllipse
 62
7
  6
CONTINUOUS
 10
5.849
 20
6.3185
 30
0.0
 11
0.0515
 21
0.0
 31
0.0
 40
1.0
 41
3.1415926536
 42
6.2831853072
  0
ELLIPSE
  5
326
100
AcDbEntity
  8
0
100
AcDbEllipse
 62
7
  6
CONTINUOUS
 10
5.849
 20
7.6815
 30
0.0
 11
0.0515
 21
0.0
 31
0.0
 40
1.0
 41
0.0
 42
3.1415926536
  0
ELLIPSE
  5
327
100
AcDbEntity
  8
0
100
AcDbEllipse
 62
7
  6
CONTINUOUS
 10
5.04
 20
6.257
 30
0.0
 11
0.0515
 21
0.0
 31
0.0
 40
1.0
 41
3.1415926536
 42
6.2831853072
  0
ELLIPSE
  5
328
100
AcDbEntity
  8
0
100
AcDbEllipse
 62
7
  6
CONTINUOUS
 10
5.04
 20
7.743
 30
0.0
 11
0.0515
 21
-0.0
 31
0.0
 40
1.0
 41
0.0
 42
3.1415926536
  0
ENDSEC
  0
SECTION
  2
OBJECTS
  0
DICTIONARY
  5
C
100
AcDbDictionary
280
0
281
1
  3
ACAD_GROUP
350
D
  3
ACAD_MLINESTYLE
350
17
  3
ACAD_LAYOUT
350
1A
  3
ACAD_PLOTSETTINGS
350
19
  3
ACAD_PLOTSTYLENAME
350
E
  0
DICTIONARY
  5
D
102
{ACAD_REACTORS
330
C
102
}
100
AcDbDictionary
280
0
281
1
  0
ACDBDICTIONARYWDFLT
  5
E
102
{ACAD_REACTORS
330
C
102
}
100
AcDbDictionary
281
1
  3
Normal
350
F
100
AcDbDictionaryWithDefault
340
F
  0
DICTIONARY
  5
17
102
{ACAD_REACTORS
330
C
102
}
100
AcDbDictionary
280
0
281
1
  3
Standard
350
18
  0
DICTIONARY
  5
19
102
{ACAD_REACTORS
330
C
102
}
100
AcDbDictionary
281
1
  0
DICTIONARY
  5
1A
102
{ACAD_REACTORS
330
C
102
}
100
AcDbDictionary
281
1
  3
Model
350
329
  3
Layout1
350
32A
  0
ACDBPLACEHOLDER
  5
F
102
{ACAD_REACTORS
330
E
102
}
  0
MLINESTYLE
  5
18
102
{ACAD_REACTORS
330
17
102
}
100
AcDbMlineStyle
  2
STANDARD
 70
0
  3

 62
256
 51
90.0
 52
90.0
 71
2
 49
0.5
 62
256
  6
BYLAYER
 49
-0.5
 62
256
  6
BYLAYER
  0
LAYOUT
  5
329
102
{ACAD_REACTORS
330
1A
102
}
100
AcDbPlotSettings
  1

  2
none_device
  4
ANSI_B_(17.00_x_11.00_Inches)
  6

 40
0.0
 41
0.0
 42
0.0
 43
0.0
 44
431.8
 45
279.4
 46
0.0
 47
0.0
 48
0.0
 49
0.0
140
0.0
141
0.0
142
1.0
143
1.0
 70
1024
 72
0
 73
0
 74
0
  7

 75
0
147
1.0
148
0.0
149
0.0
100
AcDbLayout
  1
Model
 70
0
 71
0
 10
0.0
 20
0.0
 11
17.0
 21
11.0
 12
0.0
 22
0.0
 32
0.0
 14
0.0
 24
0.0
 34
0.0
 15
0.0
 25
0.0
 35
0.0
146
0.0
 13
0.0
 23
0.0
 33
0.0
 16
1.0
 26
0.0
 36
0.0
 17
0.0
 27
1.0
 37
0.0
 76
0
330
252
345
0
346
0
  0
LAYOUT
  5
32A
102
{ACAD_REACTORS
330
1A
102
}
100
AcDbPlotSettings
  1

  2
none_device
  4
ANSI_B_(17.00_x_11.00_Inches)
  6

 40
0.0
 41
0.0
 42
0.0
 43
0.0
 44
431.8
 45
279.4
 46
0.0
 47
0.0
 48
0.0
 49
0.0
140
0.0
141
0.0
142
1.0
143
1.0
 70
0
 72
0
 73
0
 74
0
  7

 75
0
147
1.0
148
0.0
149
0.0
100
AcDbLayout
  1
Layout1
 70
0
 71
1
 10
0.0
 20
0.0
 11
17.0
 21
11.0
 12
0.0
 22
0.0
 32
0.0
 14
0.0
 24
0.0
 34
0.0
 15
0.0
 25
0.0
 35
0.0
146
0.0
 13
0.0
 23
0.0
 33
0.0
 16
1.0
 26
0.0
 36
0.0
 17
0.0
 27
1.0
 37
0.0
 76
0
330
253
345
0
346
0
  0
ENDSEC
  0
EOF
