999
DXF file: PBDBLAN.dxf
999
Pro/ENGINEER 2021072 by Parametric Technology Corporation
  0
SECTION
  2
HEADER
  9
$ACADVER
  1
AC1032
  9
$DWGCODEPAGE
  3
ANSI_1252
  9
$EXTMAX
 10
17.0
 20
11.0
 30
0.0
  9
$EXTMIN
 10
0.0
 20
0.0
 30
0.0
  9
$LIMMIN
 10
0.0
 20
0.0
  9
$LIMMAX
 10
17.0
 20
11.0
  9
$VIEWCTR
 10
8.5
 20
5.5
  9
$VIEWSIZE
 40
11.0
  9
$CLAYER
  8
0
  9
$LTSCALE
 40
0.935
  9
$CELTYPE
  6
BYLAYER
  9
$DIMSCALE
 40
1.0
  9
$DIMASZ
 40
0.1875
  9
$DIMEXO
 40
0.0625
  9
$DIMDLI
 40
0.646
  9
$DIMEXE
 40
0.125
  9
$DIMCEN
 40
0.153
  9
$DIMLFAC
 40
1.0
  9
$DIMBLK
  1
_FILLED
  9
$DIMALT
 70
0
  9
$DIMALTF
 40
25.4
  9
$DIMTXT
 40
0.125
  9
$DIMTOL
 70
0
  9
$DIMLIM
 70
0
  9
$DIMTFAC
 40
1.0
  9
$DIMGAP
 40
0.09
  9
$DIMDSEP
 70
46
  9
$AUNITS
 70
0
  9
$PDMODE
 70
3
  9
$PDSIZE
 40
0.3125
  9
$HANDSEED
  5
37F
  9
$TILEMODE
 70
1
  9
$MEASUREMENT
 70
0
  9
$INSUNITS
 70
1
  0
ENDSEC
  0
SECTION
  2
CLASSES
  0
CLASS
  1
ACDBDICTIONARYWDFLT
  2
AcDbDictionaryWithDefault
  3
AutoCAD 2000
 90
0
 91
1
280
0
281
0
  0
CLASS
  1
ACDBPLACEHOLDER
  2
AcDbPlaceHolder
  3
AutoCAD 2000
 90
0
 91
1
280
0
281
0
  0
CLASS
  1
LAYOUT
  2
AcDbLayout
  3
AutoCAD 2000
 90
0
 91
0
280
0
281
0
  0
ENDSEC
  0
SECTION
  2
TABLES
  0
TABLE
  2
VPORT
  5
8
100
AcDbSymbolTable
 70
2
  0
VPORT
  5
1F4
100
AcDbSymbolTableRecord
100
AcDbViewportTableRecord
  2
*ACTIVE
 70
0
 10
0.0
 20
0.0
 11
1.0
 21
1.0
 12
8.5
 22
5.5
 13
0.0
 23
0.0
 14
1.0
 24
1.0
 15
0.0
 25
0.0
 16
0.0
 26
0.0
 36
1.0
 17
0.0
 27
0.0
 37
0.0
 40
11.0
 41
1.5454545455
 42
50.0
 43
0.0
 44
0.0
 50
0.0
 51
0.0
 71
0
 72
100
 73
1
 74
1
 75
0
 76
0
 77
0
 78
0
  0
ENDTAB
  0
TABLE
  2
LTYPE
  5
5
100
AcDbSymbolTable
 70
6
  0
LTYPE
  5
14
100
AcDbSymbolTableRecord
100
AcDbLinetypeTableRecord
  2
BYBLOCK
 70
0
  3

 72
65
 73
0
 40
0.0
  0
LTYPE
  5
15
100
AcDbSymbolTableRecord
100
AcDbLinetypeTableRecord
  2
BYLAYER
 70
0
  3

 72
65
 73
0
 40
0.0
  0
LTYPE
  5
16
100
AcDbSymbolTableRecord
100
AcDbLinetypeTableRecord
  2
CONTINUOUS
 70
64
  3
Solid line
 72
65
 73
0
 40
0.0
  0
LTYPE
  5
1F5
100
AcDbSymbolTableRecord
100
AcDbLinetypeTableRecord
  2
CENTER
 70
64
  3
____ _ ____ _ ____ _ ____ _ ____ _ ____ _ ____
 72
65
 73
4
 40
0.6
 49
0.375
 74
0
 49
-0.075
 74
0
 49
0.075
 74
0
 49
-0.075
 74
0
  0
LTYPE
  5
1F6
100
AcDbSymbolTableRecord
100
AcDbLinetypeTableRecord
  2
HIDDEN
 70
64
  3
- - - - - - - - - - - - - - - - - - - -
 72
65
 73
2
 40
0.2
 49
0.1
 74
0
 49
-0.1
 74
0
  0
LTYPE
  5
1F7
100
AcDbSymbolTableRecord
100
AcDbLinetypeTableRecord
  2
PHANTOM
 70
64
  3
_____ _ _ _____ _ _ _____ _ _ _____
 72
65
 73
6
 40
0.8
 49
0.45
 74
0
 49
-0.05
 74
0
 49
0.1
 74
0
 49
-0.05
 74
0
 49
0.1
 74
0
 49
-0.05
 74
0
  0
LTYPE
  5
1F8
100
AcDbSymbolTableRecord
100
AcDbLinetypeTableRecord
  2
DOT
 70
64
  3
. . . . . . . . . . . . . . . . . . . .
 72
65
 73
2
 40
0.2
 49
0.1
 74
0
 49
-0.1
 74
0
  0
LTYPE
  5
1F9
100
AcDbSymbolTableRecord
100
AcDbLinetypeTableRecord
  2
DASHED
 70
64
  3
- - - - - - - - - - - - - - - - - - - -
 72
65
 73
2
 40
0.2
 49
0.1
 74
0
 49
-0.1
 74
0
  0
ENDTAB
  0
TABLE
  2
LAYER
  5
2
100
AcDbSymbolTable
 70
36
  0
LAYER
  5
10
100
AcDbSymbolTableRecord
100
AcDbLayerTableRecord
  2
0
 70
0
 62
7
  6
CONTINUOUS
370
-3
390
F
  0
LAYER
  5
1FA
100
AcDbSymbolTableRecord
100
AcDbLayerTableRecord
  2
DEFAULT_1
 70
0
 62
7
  6
CENTER
370
-3
390
F
  0
LAYER
  5
1FB
100
AcDbSymbolTableRecord
100
AcDbLayerTableRecord
  2
DEFAULT_2
 70
0
 62
8
  6
HIDDEN
370
-3
390
F
  0
LAYER
  5
1FC
100
AcDbSymbolTableRecord
100
AcDbLayerTableRecord
  2
DEFAULT_3
 70
0
 62
7
  6
PHANTOM
370
-3
390
F
  0
LAYER
  5
1FD
100
AcDbSymbolTableRecord
100
AcDbLayerTableRecord
  2
01_ALL_DTM_PLN
 70
0
 62
7
  6
CONTINUOUS
370
-3
390
F
  0
LAYER
  5
1FE
100
AcDbSymbolTableRecord
100
AcDbLayerTableRecord
  2
01__ASM_ALL_DTM_PLN
 70
0
 62
7
  6
CONTINUOUS
370
-3
390
F
  0
LAYER
  5
1FF
100
AcDbSymbolTableRecord
100
AcDbLayerTableRecord
  2
01__ASM_DEF_DTM_PLN
 70
0
 62
7
  6
CONTINUOUS
370
-3
390
F
  0
LAYER
  5
200
100
AcDbSymbolTableRecord
100
AcDbLayerTableRecord
  2
01___PRT_ALL_DTM_PLN
 70
0
 62
7
  6
CONTINUOUS
370
-3
390
F
  0
LAYER
  5
201
100
AcDbSymbolTableRecord
100
AcDbLayerTableRecord
  2
01___PRT_DEF_DTM_PLN
 70
0
 62
7
  6
CONTINUOUS
370
-3
390
F
  0
LAYER
  5
202
100
AcDbSymbolTableRecord
100
AcDbLayerTableRecord
  2
02_ALL_AXES
 70
0
 62
7
  6
CONTINUOUS
370
-3
390
F
  0
LAYER
  5
203
100
AcDbSymbolTableRecord
100
AcDbLayerTableRecord
  2
02__ASM_ALL_AXES
 70
0
 62
7
  6
CONTINUOUS
370
-3
390
F
  0
LAYER
  5
204
100
AcDbSymbolTableRecord
100
AcDbLayerTableRecord
  2
02___PRT_ALL_AXES
 70
0
 62
7
  6
CONTINUOUS
370
-3
390
F
  0
LAYER
  5
205
100
AcDbSymbolTableRecord
100
AcDbLayerTableRecord
  2
03_ALL_CURVES
 70
0
 62
7
  6
CONTINUOUS
370
-3
390
F
  0
LAYER
  5
206
100
AcDbSymbolTableRecord
100
AcDbLayerTableRecord
  2
03__ASM_ALL_CURVES
 70
0
 62
7
  6
CONTINUOUS
370
-3
390
F
  0
LAYER
  5
207
100
AcDbSymbolTableRecord
100
AcDbLayerTableRecord
  2
03___PRT_ALL_CURVES
 70
0
 62
7
  6
CONTINUOUS
370
-3
390
F
  0
LAYER
  5
208
100
AcDbSymbolTableRecord
100
AcDbLayerTableRecord
  2
04_ALL_DTM_PNT
 70
0
 62
7
  6
CONTINUOUS
370
-3
390
F
  0
LAYER
  5
209
100
AcDbSymbolTableRecord
100
AcDbLayerTableRecord
  2
04__ASM_ALL_DTM_PNT
 70
0
 62
7
  6
CONTINUOUS
370
-3
390
F
  0
LAYER
  5
20A
100
AcDbSymbolTableRecord
100
AcDbLayerTableRecord
  2
04___PRT_ALL_DTM_PNT
 70
0
 62
7
  6
CONTINUOUS
370
-3
390
F
  0
LAYER
  5
20B
100
AcDbSymbolTableRecord
100
AcDbLayerTableRecord
  2
05_ALL_DTM_CSYS
 70
0
 62
7
  6
CONTINUOUS
370
-3
390
F
  0
LAYER
  5
20C
100
AcDbSymbolTableRecord
100
AcDbLayerTableRecord
  2
05__ASM_ALL_DTM_CSYS
 70
0
 62
7
  6
CONTINUOUS
370
-3
390
F
  0
LAYER
  5
20D
100
AcDbSymbolTableRecord
100
AcDbLayerTableRecord
  2
05__ASM_DEF_DTM_CSYS
 70
0
 62
7
  6
CONTINUOUS
370
-3
390
F
  0
LAYER
  5
20E
100
AcDbSymbolTableRecord
100
AcDbLayerTableRecord
  2
05___PRT_ALL_DTM_CSYS
 70
0
 62
7
  6
CONTINUOUS
370
-3
390
F
  0
LAYER
  5
20F
100
AcDbSymbolTableRecord
100
AcDbLayerTableRecord
  2
05___PRT_DEF_DTM_CSYS
 70
0
 62
7
  6
CONTINUOUS
370
-3
390
F
  0
LAYER
  5
210
100
AcDbSymbolTableRecord
100
AcDbLayerTableRecord
  2
06_ALL_SURFS
 70
0
 62
7
  6
CONTINUOUS
370
-3
390
F
  0
LAYER
  5
211
100
AcDbSymbolTableRecord
100
AcDbLayerTableRecord
  2
06__ASM_ALL_SURFS
 70
0
 62
7
  6
CONTINUOUS
370
-3
390
F
  0
LAYER
  5
212
100
AcDbSymbolTableRecord
100
AcDbLayerTableRecord
  2
06___PRT_ALL_SURFS
 70
0
 62
7
  6
CONTINUOUS
370
-3
390
F
  0
LAYER
  5
213
100
AcDbSymbolTableRecord
100
AcDbLayerTableRecord
  2
07__ASM_ALL_SKELETONS
 70
0
 62
7
  6
CONTINUOUS
370
-3
390
F
  0
LAYER
  5
214
100
AcDbSymbolTableRecord
100
AcDbLayerTableRecord
  2
126-001_HEX_FEATURES
 70
0
 62
7
  6
CONTINUOUS
370
-3
390
F
  0
LAYER
  5
215
100
AcDbSymbolTableRecord
100
AcDbLayerTableRecord
  2
126-001_REF_GEOMETRY
 70
0
 62
7
  6
CONTINUOUS
370
-3
390
F
  0
LAYER
  5
216
100
AcDbSymbolTableRecord
100
AcDbLayerTableRecord
  2
126-004_HEX_FEATURES
 70
0
 62
7
  6
CONTINUOUS
370
-3
390
F
  0
LAYER
  5
217
100
AcDbSymbolTableRecord
100
AcDbLayerTableRecord
  2
126-004_REF_GEOMETRY
 70
0
 62
7
  6
CONTINUOUS
370
-3
390
F
  0
LAYER
  5
218
100
AcDbSymbolTableRecord
100
AcDbLayerTableRecord
  2
126-400_HEX_FEATURES
 70
0
 62
7
  6
CONTINUOUS
370
-3
390
F
  0
LAYER
  5
219
100
AcDbSymbolTableRecord
100
AcDbLayerTableRecord
  2
126-400_REF_GEOMETRY
 70
0
 62
7
  6
CONTINUOUS
370
-3
390
F
  0
LAYER
  5
21A
100
AcDbSymbolTableRecord
100
AcDbLayerTableRecord
  2
126-401_HEX_FEATURES
 70
0
 62
7
  6
CONTINUOUS
370
-3
390
F
  0
LAYER
  5
21B
100
AcDbSymbolTableRecord
100
AcDbLayerTableRecord
  2
126-401_REF_GEOMETRY
 70
0
 62
7
  6
CONTINUOUS
370
-3
390
F
  0
LAYER
  5
21C
100
AcDbSymbolTableRecord
100
AcDbLayerTableRecord
  2
126-402_HEX_FEATURES
 70
0
 62
7
  6
CONTINUOUS
370
-3
390
F
  0
LAYER
  5
21D
100
AcDbSymbolTableRecord
100
AcDbLayerTableRecord
  2
126-402_REF_GEOMETRY
 70
0
 62
7
  6
CONTINUOUS
370
-3
390
F
  0
LAYER
  5
21E
100
AcDbSymbolTableRecord
100
AcDbLayerTableRecord
  2
126-403_HEX_FEATURES
 70
0
 62
7
  6
CONTINUOUS
370
-3
390
F
  0
LAYER
  5
21F
100
AcDbSymbolTableRecord
100
AcDbLayerTableRecord
  2
126-403_REF_GEOMETRY
 70
0
 62
7
  6
CONTINUOUS
370
-3
390
F
  0
LAYER
  5
220
100
AcDbSymbolTableRecord
100
AcDbLayerTableRecord
  2
126-404_HEX_FEATURES
 70
0
 62
7
  6
CONTINUOUS
370
-3
390
F
  0
LAYER
  5
221
100
AcDbSymbolTableRecord
100
AcDbLayerTableRecord
  2
126-404_REF_GEOMETRY
 70
0
 62
7
  6
CONTINUOUS
370
-3
390
F
  0
LAYER
  5
222
100
AcDbSymbolTableRecord
100
AcDbLayerTableRecord
  2
126-405_HEX_FEATURES
 70
0
 62
7
  6
CONTINUOUS
370
-3
390
F
  0
LAYER
  5
223
100
AcDbSymbolTableRecord
100
AcDbLayerTableRecord
  2
126-405_REF_GEOMETRY
 70
0
 62
7
  6
CONTINUOUS
370
-3
390
F
  0
LAYER
  5
224
100
AcDbSymbolTableRecord
100
AcDbLayerTableRecord
  2
126-406_HEX_FEATURES
 70
0
 62
7
  6
CONTINUOUS
370
-3
390
F
  0
LAYER
  5
225
100
AcDbSymbolTableRecord
100
AcDbLayerTableRecord
  2
126-406_REF_GEOMETRY
 70
0
 62
7
  6
CONTINUOUS
370
-3
390
F
  0
LAYER
  5
226
100
AcDbSymbolTableRecord
100
AcDbLayerTableRecord
  2
A00_SLOT
 70
0
 62
7
  6
CONTINUOUS
370
-3
390
F
  0
LAYER
  5
227
100
AcDbSymbolTableRecord
100
AcDbLayerTableRecord
  2
COPY_GEO_FET
 70
0
 62
7
  6
CONTINUOUS
370
-3
390
F
  0
LAYER
  5
228
100
AcDbSymbolTableRecord
100
AcDbLayerTableRecord
  2
COSMETIC
 70
0
 62
7
  6
CONTINUOUS
370
-3
390
F
  0
LAYER
  5
229
100
AcDbSymbolTableRecord
100
AcDbLayerTableRecord
  2
COSM_REF
 70
0
 62
7
  6
CONTINUOUS
370
-3
390
F
  0
LAYER
  5
22A
100
AcDbSymbolTableRecord
100
AcDbLayerTableRecord
  2
CURVES
 70
0
 62
7
  6
CONTINUOUS
370
-3
390
F
  0
LAYER
  5
22B
100
AcDbSymbolTableRecord
100
AcDbLayerTableRecord
  2
CUT_REF_SURF
 70
0
 62
7
  6
CONTINUOUS
370
-3
390
F
  0
LAYER
  5
22C
100
AcDbSymbolTableRecord
100
AcDbLayerTableRecord
  2
DATUM
 70
0
 62
7
  6
CONTINUOUS
370
-3
390
F
  0
LAYER
  5
22D
100
AcDbSymbolTableRecord
100
AcDbLayerTableRecord
  2
DATUMCURVES
 70
0
 62
7
  6
CONTINUOUS
370
-3
390
F
  0
LAYER
  5
22E
100
AcDbSymbolTableRecord
100
AcDbLayerTableRecord
  2
DATUM_ADDED_280-022
 70
0
 62
7
  6
CONTINUOUS
370
-3
390
F
  0
LAYER
  5
22F
100
AcDbSymbolTableRecord
100
AcDbLayerTableRecord
  2
DIMENSIONS
 70
0
 62
7
  6
CONTINUOUS
370
-3
390
F
  0
LAYER
  5
230
100
AcDbSymbolTableRecord
100
AcDbLayerTableRecord
  2
DRAWINGNOTES
 70
0
 62
7
  6
CONTINUOUS
370
-3
390
F
  0
LAYER
  5
231
100
AcDbSymbolTableRecord
100
AcDbLayerTableRecord
  2
DTM
 70
0
 62
7
  6
CONTINUOUS
370
-3
390
F
  0
LAYER
  5
232
100
AcDbSymbolTableRecord
100
AcDbLayerTableRecord
  2
DTM325
 70
0
 62
7
  6
CONTINUOUS
370
-3
390
F
  0
LAYER
  5
233
100
AcDbSymbolTableRecord
100
AcDbLayerTableRecord
  2
DTM_280-022
 70
0
 62
7
  6
CONTINUOUS
370
-3
390
F
  0
LAYER
  5
234
100
AcDbSymbolTableRecord
100
AcDbLayerTableRecord
  2
DTM_500001
 70
0
 62
7
  6
CONTINUOUS
370
-3
390
F
  0
LAYER
  5
235
100
AcDbSymbolTableRecord
100
AcDbLayerTableRecord
  2
DTM_500002
 70
0
 62
7
  6
CONTINUOUS
370
-3
390
F
  0
LAYER
  5
236
100
AcDbSymbolTableRecord
100
AcDbLayerTableRecord
  2
DTM_515002
 70
0
 62
7
  6
CONTINUOUS
370
-3
390
F
  0
LAYER
  5
237
100
AcDbSymbolTableRecord
100
AcDbLayerTableRecord
  2
DTM_700-003
 70
0
 62
7
  6
CONTINUOUS
370
-3
390
F
  0
LAYER
  5
238
100
AcDbSymbolTableRecord
100
AcDbLayerTableRecord
  2
DTM_800001
 70
0
 62
7
  6
CONTINUOUS
370
-3
390
F
  0
LAYER
  5
239
100
AcDbSymbolTableRecord
100
AcDbLayerTableRecord
  2
DTM_BALLHOLDER
 70
0
 62
7
  6
CONTINUOUS
370
-3
390
F
  0
LAYER
  5
23A
100
AcDbSymbolTableRecord
100
AcDbLayerTableRecord
  2
DTM_ORIFICE_SEAT
 70
0
 62
7
  6
CONTINUOUS
370
-3
390
F
  0
LAYER
  5
23B
100
AcDbSymbolTableRecord
100
AcDbLayerTableRecord
  2
DTM_SPRING_LH
 70
0
 62
7
  6
CONTINUOUS
370
-3
390
F
  0
LAYER
  5
23C
100
AcDbSymbolTableRecord
100
AcDbLayerTableRecord
  2
DTM_SP_LH_CONSTR
 70
0
 62
7
  6
CONTINUOUS
370
-3
390
F
  0
LAYER
  5
23D
100
AcDbSymbolTableRecord
100
AcDbLayerTableRecord
  2
FACE1
 70
0
 62
7
  6
CONTINUOUS
370
-3
390
F
  0
LAYER
  5
23E
100
AcDbSymbolTableRecord
100
AcDbLayerTableRecord
  2
FACE2
 70
0
 62
7
  6
CONTINUOUS
370
-3
390
F
  0
LAYER
  5
23F
100
AcDbSymbolTableRecord
100
AcDbLayerTableRecord
  2
FACE3
 70
0
 62
7
  6
CONTINUOUS
370
-3
390
F
  0
LAYER
  5
240
100
AcDbSymbolTableRecord
100
AcDbLayerTableRecord
  2
FACE4
 70
0
 62
7
  6
CONTINUOUS
370
-3
390
F
  0
LAYER
  5
241
100
AcDbSymbolTableRecord
100
AcDbLayerTableRecord
  2
GEOMETRICTOLERANCES
 70
0
 62
7
  6
CONTINUOUS
370
-3
390
F
  0
LAYER
  5
242
100
AcDbSymbolTableRecord
100
AcDbLayerTableRecord
  2
HIDDEN
 70
0
 62
7
  6
CONTINUOUS
370
-3
390
F
  0
LAYER
  5
243
100
AcDbSymbolTableRecord
100
AcDbLayerTableRecord
  2
HOLE_FEATURES
 70
0
 62
7
  6
CONTINUOUS
370
-3
390
F
  0
LAYER
  5
244
100
AcDbSymbolTableRecord
100
AcDbLayerTableRecord
  2
LAY0001
 70
0
 62
7
  6
CONTINUOUS
370
-3
390
F
  0
LAYER
  5
245
100
AcDbSymbolTableRecord
100
AcDbLayerTableRecord
  2
NPTF_PORT_PER_S-164
 70
0
 62
7
  6
CONTINUOUS
370
-3
390
F
  0
LAYER
  5
246
100
AcDbSymbolTableRecord
100
AcDbLayerTableRecord
  2
PARAMETERDIMENSIONS
 70
0
 62
7
  6
CONTINUOUS
370
-3
390
F
  0
LAYER
  5
247
100
AcDbSymbolTableRecord
100
AcDbLayerTableRecord
  2
PLANE
 70
0
 62
7
  6
CONTINUOUS
370
-3
390
F
  0
LAYER
  5
248
100
AcDbSymbolTableRecord
100
AcDbLayerTableRecord
  2
PROTRUSIONS
 70
0
 62
7
  6
CONTINUOUS
370
-3
390
F
  0
LAYER
  5
249
100
AcDbSymbolTableRecord
100
AcDbLayerTableRecord
  2
SPEC_SAE-4_PORT
 70
0
 62
7
  6
CONTINUOUS
370
-3
390
F
  0
LAYER
  5
24A
100
AcDbSymbolTableRecord
100
AcDbLayerTableRecord
  2
STD_SAE-4_PORT
 70
0
 62
7
  6
CONTINUOUS
370
-3
390
F
  0
LAYER
  5
24B
100
AcDbSymbolTableRecord
100
AcDbLayerTableRecord
  2
TEXT
 70
0
 62
7
  6
CONTINUOUS
370
-3
390
F
  0
LAYER
  5
24C
100
AcDbSymbolTableRecord
100
AcDbLayerTableRecord
  2
THREAD
 70
0
 62
7
  6
CONTINUOUS
370
-3
390
F
  0
LAYER
  5
24D
100
AcDbSymbolTableRecord
100
AcDbLayerTableRecord
  2
WIRE_GRV-SLOT_DRW_REF
 70
0
 62
7
  6
CONTINUOUS
370
-3
390
F
  0
LAYER
  5
24E
100
AcDbSymbolTableRecord
100
AcDbLayerTableRecord
  2
XSEC_DATUMS
 70
0
 62
7
  6
CONTINUOUS
370
-3
390
F
  0
ENDTAB
  0
TABLE
  2
STYLE
  5
3
100
AcDbSymbolTable
 70
1
  0
STYLE
  5
11
100
AcDbSymbolTableRecord
100
AcDbTextStyleTableRecord
  2
STANDARD
 70
0
 40
0.0
 41
0.8
 50
0.0
 71
0
 42
0.2
  3
txt
  4

  0
STYLE
  5
24F
100
AcDbSymbolTableRecord
100
AcDbTextStyleTableRecord
  2
TEXTSTYLE_1
 70
0
 40
0.0
 41
0.8
 50
0.0
 71
0
 42
0.2
  3
gdt
  4

  0
ENDTAB
  0
TABLE
  2
VIEW
  5
6
100
AcDbSymbolTable
 70
0
  0
ENDTAB
  0
TABLE
  2
UCS
  5
7
100
AcDbSymbolTable
 70
0
  0
ENDTAB
  0
TABLE
  2
APPID
  5
9
100
AcDbSymbolTable
 70
1
  0
APPID
  5
250
100
AcDbSymbolTableRecord
100
AcDbRegAppTableRecord
  2
ACAD
 70
0
  0
ENDTAB
  0
TABLE
  2
BLOCK_RECORD
  5
1
100
AcDbSymbolTable
 70
0
  0
BLOCK_RECORD
  5
251
100
AcDbSymbolTableRecord
100
AcDbBlockTableRecord
  2
*Model_Space
  0
BLOCK_RECORD
  5
252
100
AcDbSymbolTableRecord
100
AcDbBlockTableRecord
  2
*Paper_Space
  0
BLOCK_RECORD
  5
253
100
AcDbSymbolTableRecord
100
AcDbBlockTableRecord
  2
_FILLED
  0
BLOCK_RECORD
  5
254
100
AcDbSymbolTableRecord
100
AcDbBlockTableRecord
  2
*D0
  0
ENDTAB
  0
TABLE
  2
DIMSTYLE
  5
A
100
AcDbSymbolTable
 70
1
100
AcDbDimStyleTable
 71
0
  0
DIMSTYLE
105
255
100
AcDbSymbolTableRecord
100
AcDbDimStyleTableRecord
  2
STANDARD
 70
0
  3

  4

 40
1.0
 41
0.1875
 42
0.0625
 43
0.38
 44
0.125
 45
0.0
 46
0.0
 47
0.001
 48
0.001
140
0.125
141
0.09
142
0.0
143
25.4
144
1.0
145
0.0
146
1.0
147
0.09
 71
0
 72
0
 73
1
 74
1
 75
0
 76
0
 77
0
 78
4
 79
1
170
0
171
2
172
0
173
0
174
0
175
0
176
0
177
0
178
0
270
2
179
3
271
3
272
3
273
2
274
2
275
0
280
0
281
0
282
0
283
1
284
4
285
0
286
0
287
3
288
0
340
11
278
46
341
253
342
253
343
253
344
253
  0
DIMSTYLE
105
256
100
AcDbSymbolTableRecord
100
AcDbDimStyleTableRecord
  2
DIMSTYLE_1
 70
0
  3

  4

 40
1.0
 41
0.1875
 42
0.0625
 43
0.38
 44
0.125
 45
0.0
 46
0.0
 47
0.0
 48
0.0
140
0.125
141
0.09
142
0.0
143
25.4
144
1.0
145
0.0
146
1.0
147
0.0625
 71
0
 72
0
 73
1
 74
1
 75
0
 76
0
 77
0
 78
4
 79
1
170
0
171
2
172
0
173
0
174
0
175
0
176
0
177
0
178
0
270
2
179
3
271
2
272
3
273
2
274
2
275
0
280
0
281
0
282
0
283
1
284
4
285
0
286
0
287
3
288
0
340
11
278
46
341
253
342
253
343
253
344
253
  0
ENDTAB
  0
ENDSEC
  0
SECTION
  2
BLOCKS
  0
BLOCK
  5
20
100
AcDbEntity
  8
0
100
AcDbBlockBegin
  2
*Model_Space
 70
0
 10
0.0
 20
0.0
 30
0.0
  3
*Model_Space
  1

  0
ENDBLK
  5
21
100
AcDbEntity
  8
0
100
AcDbBlockEnd
  0
BLOCK
  5
1C
100
AcDbEntity
  8
0
100
AcDbBlockBegin
  2
*Paper_Space
 70
0
 10
0.0
 20
0.0
 30
0.0
  3
*Paper_Space
  1

  0
ENDBLK
  5
1D
100
AcDbEntity
  8
0
100
AcDbBlockEnd
  0
BLOCK
  5
257
100
AcDbEntity
  8
0
100
AcDbBlockBegin
  2
_FILLED
 70
64
 10
0.0
 20
0.0
  3
_FILLED
  1

  0
SOLID
  5
258
100
AcDbEntity
  8
0
  6
BYBLOCK
 62
0
100
AcDbTrace
 10
0.0
 20
0.0
 11
-1.0
 21
0.1666666667
 12
-1.0
 22
-0.1666666667
 13
-1.0
 23
-0.1666666667
  0
ENDBLK
  5
259
100
AcDbEntity
  8
0
  6
BYBLOCK
 62
0
100
AcDbBlockEnd
  0
BLOCK
  5
25A
100
AcDbEntity
  8
0
100
AcDbBlockBegin
 62
6
  6
CONTINUOUS
  2
*D0
 70
65
 10
0.0
 20
0.0
  3
*D0
  1

  0
MTEXT
  5
25B
100
AcDbEntity
  8
0
100
AcDbMText
 62
6
  6
CONTINUOUS
  7
STANDARD
 71
1
 72
1
 10
5.8125
 20
8.2400954917
 30
0.0
 11
1.0
 21
0.0
 31
0.0
 73
2
 44
0.9
  1
2.50 in (63,4 mm)
 40
0.125
 41
1.7
  0
LINE
  5
25C
100
AcDbEntity
  8
0
100
AcDbLine
 62
6
  6
CONTINUOUS
 10
5.5625
 20
7.4900954917
 11
5.5625
 21
8.3025954917
  0
LINE
  5
25D
100
AcDbEntity
  8
0
100
AcDbLine
 62
6
  6
CONTINUOUS
 10
3.0634999638
 20
7.0625954917
 11
3.0634999638
 21
8.3025954917
  0
LINE
  5
25E
100
AcDbEntity
  8
0
100
AcDbLine
 62
6
  6
CONTINUOUS
 10
5.5625
 20
8.1775954917
 11
4.3129999819
 21
8.1775954917
  0
LINE
  5
25F
100
AcDbEntity
  8
0
100
AcDbLine
 62
6
  6
CONTINUOUS
 10
4.3129999819
 20
8.1775954917
 11
5.75
 21
8.1775954917
  0
LINE
  5
260
100
AcDbEntity
  8
0
100
AcDbLine
 62
6
  6
CONTINUOUS
 10
3.0634999638
 20
8.1775954917
 11
4.3129999819
 21
8.1775954917
  0
INSERT
  5
261
100
AcDbEntity
  8
0
100
AcDbBlockReference
 62
6
  6
CONTINUOUS
  2
_FILLED
 10
5.5625
 20
8.1775954917
 41
0.1875
 42
0.1875
 43
0.1875
  0
INSERT
  5
262
100
AcDbEntity
  8
0
100
AcDbBlockReference
 62
6
  6
CONTINUOUS
  2
_FILLED
 10
3.0634999638
 20
8.1775954917
 41
0.1875
 42
0.1875
 43
0.1875
 50
180.0
  0
ENDBLK
  5
263
100
AcDbEntity
  8
0
  6
BYBLOCK
 62
0
100
AcDbBlockEnd
  0
ENDSEC
  0
SECTION
  2
ENTITIES
  0
DIMENSION
  5
264
100
AcDbEntity
  8
0
100
AcDbDimension
 62
6
  6
CONTINUOUS
  2
*D0
 10
3.0634999638
 20
8.1775954917
 11
6.6625
 21
8.1775954917
 70
160
 71
1
 72
2
 41
0.9
 42
2.4990000362
  1
<> in (63,4 mm)
  3
DIMSTYLE_1
100
AcDbAlignedDimension
 13
5.5625
 23
7.4275954917
 14
3.0634999638
 24
7.0000954917
 50
180.0
100
AcDbRotatedDimension
  0
MTEXT
  5
265
100
AcDbEntity
  8
0
100
AcDbMText
 62
2
  6
CONTINUOUS
  7
STANDARD
 71
1
 72
1
 10
7.1975
 20
7.0625954917
 30
0.0
 11
1.0
 21
0.0
 31
0.0
 73
2
 44
0.6
  1
Port 1\PReduced Pressure
 40
0.125
 41
1.6
  0
MTEXT
  5
266
100
AcDbEntity
  8
0
100
AcDbMText
 62
2
  6
CONTINUOUS
  7
STANDARD
 71
1
 72
1
 10
6.2625
 20
6.4685954917
 30
0.0
 11
1.0
 21
0.0
 31
0.0
 73
2
 44
0.6
  1
Port 2\PInlet
 40
0.125
 41
0.6
  0
MTEXT
  5
267
100
AcDbEntity
  8
0
100
AcDbMText
 62
2
  6
CONTINUOUS
  7
STANDARD
 71
1
 72
1
 10
5.0425
 20
6.4685954917
 30
0.0
 11
1.0
 21
0.0
 31
0.0
 73
2
 44
0.6
  1
Port 3\PDrain
 40
0.125
 41
0.6
  0
MTEXT
  5
268
100
AcDbEntity
  8
0
100
AcDbMText
 62
2
  6
CONTINUOUS
  7
STANDARD
 71
1
 72
1
 10
5.8125
 20
7.9901909834
 30
0.0
 11
1.0
 21
0.0
 31
0.0
 73
2
 44
0.6
  1
 LOCATING SHOULDER
 40
0.125
 41
1.8
  0
LINE
  5
269
100
AcDbEntity
  8
0
100
AcDbLine
 62
7
  6
CONTINUOUS
 10
3.0635
 20
7.1529931254
 11
3.0635
 21
6.8470068746
  0
LINE
  5
26A
100
AcDbEntity
  8
0
100
AcDbLine
 62
7
  6
CONTINUOUS
 10
3.0945
 20
7.184
 11
3.0945
 21
6.816
  0
LINE
  5
26B
100
AcDbEntity
  8
0
100
AcDbLine
 62
7
  6
CONTINUOUS
 10
3.2935
 20
7.1839949847
 11
3.2935
 21
6.8160050153
  0
LINE
  5
26C
100
AcDbEntity
  8
0
100
AcDbLine
 62
7
  6
CONTINUOUS
 10
3.295
 20
6.8386370925
 11
3.295
 21
6.8575659722
  0
LINE
  5
26D
100
AcDbEntity
  8
0
100
AcDbLine
 62
7
  6
CONTINUOUS
 10
3.295
 20
7.1424340278
 11
3.295
 21
7.1614512129
  0
LINE
  5
26E
100
AcDbEntity
  8
0
100
AcDbLine
 62
7
  6
CONTINUOUS
 10
3.33
 20
6.8386370925
 11
3.33
 21
6.8575659722
  0
LINE
  5
26F
100
AcDbEntity
  8
0
100
AcDbLine
 62
7
  6
CONTINUOUS
 10
3.33
 20
7.1424340278
 11
3.33
 21
7.1614512129
  0
LINE
  5
270
100
AcDbEntity
  8
0
100
AcDbLine
 62
7
  6
CONTINUOUS
 10
3.3315
 20
7.1839949847
 11
3.3315
 21
6.8160050153
  0
LINE
  5
271
100
AcDbEntity
  8
0
100
AcDbLine
 62
7
  6
CONTINUOUS
 10
3.0635
 20
7.153
 11
3.0945
 21
7.184
  0
LINE
  5
272
100
AcDbEntity
  8
0
100
AcDbLine
 62
7
  6
CONTINUOUS
 10
3.0635
 20
6.847
 11
3.0945
 21
6.816
  0
LINE
  5
273
100
AcDbEntity
  8
0
100
AcDbLine
 62
7
  6
CONTINUOUS
 10
3.5635
 20
6.7523459131
 11
3.5635
 21
7.2476540869
  0
LINE
  5
274
100
AcDbEntity
  8
0
100
AcDbLine
 62
7
  6
CONTINUOUS
 10
3.6255
 20
6.729
 11
3.6255
 21
7.271
  0
LINE
  5
275
100
AcDbEntity
  8
0
100
AcDbLine
 62
7
  6
CONTINUOUS
 10
3.6315
 20
6.729
 11
3.6315
 21
7.271
  0
LINE
  5
276
100
AcDbEntity
  8
0
100
AcDbLine
 62
7
  6
CONTINUOUS
 10
3.637
 20
7.2655
 11
3.637
 21
6.7345
  0
LINE
  5
277
100
AcDbEntity
  8
0
100
AcDbLine
 62
7
  6
CONTINUOUS
 10
3.653
 20
7.2655
 11
3.653
 21
6.7345
  0
LINE
  5
278
100
AcDbEntity
  8
0
100
AcDbLine
 62
7
  6
CONTINUOUS
 10
3.8445
 20
7.271
 11
3.8445
 21
6.729
  0
LINE
  5
279
100
AcDbEntity
  8
0
100
AcDbLine
 62
7
  6
CONTINUOUS
 10
3.8755
 20
6.6765
 11
3.8755
 21
7.3235
  0
LINE
  5
27A
100
AcDbEntity
  8
0
100
AcDbLine
 62
7
  6
CONTINUOUS
 10
3.9255
 20
6.6265
 11
3.9255
 21
7.3735
  0
LINE
  5
27B
100
AcDbEntity
  8
0
100
AcDbLine
 62
7
  6
CONTINUOUS
 10
3.7119708513
 20
7.3244708513
 11
3.653
 21
7.2655
  0
LINE
  5
27C
100
AcDbEntity
  8
0
100
AcDbLine
 62
7
  6
CONTINUOUS
 10
3.7119708513
 20
6.6755291487
 11
3.653
 21
6.7345
  0
LINE
  5
27D
100
AcDbEntity
  8
0
100
AcDbLine
 62
7
  6
CONTINUOUS
 10
3.9765
 20
6.6265
 11
3.9765
 21
7.3735
  0
LINE
  5
27E
100
AcDbEntity
  8
0
100
AcDbLine
 62
7
  6
CONTINUOUS
 10
3.9815
 20
7.3685
 11
3.9815
 21
6.6315
  0
LINE
  5
27F
100
AcDbEntity
  8
0
100
AcDbLine
 62
7
  6
CONTINUOUS
 10
3.9895
 20
7.35
 11
3.9895
 21
6.65
  0
LINE
  5
280
100
AcDbEntity
  8
0
100
AcDbLine
 62
7
  6
CONTINUOUS
 10
4.0115
 20
7.35
 11
4.0115
 21
6.65
  0
LINE
  5
281
100
AcDbEntity
  8
0
100
AcDbLine
 62
7
  6
CONTINUOUS
 10
4.0195
 20
7.3685
 11
4.0195
 21
6.6315
  0
LINE
  5
282
100
AcDbEntity
  8
0
100
AcDbLine
 62
7
  6
CONTINUOUS
 10
4.0245
 20
6.6265
 11
4.0245
 21
7.3735
  0
LINE
  5
283
100
AcDbEntity
  8
0
100
AcDbLine
 62
7
  6
CONTINUOUS
 10
3.9255
 20
7.3735
 11
3.8755
 21
7.3235
  0
LINE
  5
284
100
AcDbEntity
  8
0
100
AcDbLine
 62
7
  6
CONTINUOUS
 10
3.9255
 20
6.6265
 11
3.8755
 21
6.6765
  0
LINE
  5
285
100
AcDbEntity
  8
0
100
AcDbLine
 62
7
  6
CONTINUOUS
 10
3.8445
 20
6.729
 11
3.8136285896
 21
6.6755291487
  0
LINE
  5
286
100
AcDbEntity
  8
0
100
AcDbLine
 62
7
  6
CONTINUOUS
 10
3.8445
 20
7.271
 11
3.8136285896
 21
7.3244708513
  0
LINE
  5
287
100
AcDbEntity
  8
0
100
AcDbLine
 62
7
  6
CONTINUOUS
 10
4.380466776
 20
7.4386027084
 11
4.3755
 21
7.43
  0
LINE
  5
288
100
AcDbEntity
  8
0
100
AcDbLine
 62
7
  6
CONTINUOUS
 10
3.637
 20
6.7345
 11
3.6315
 21
6.729
  0
LINE
  5
289
100
AcDbEntity
  8
0
100
AcDbLine
 62
7
  6
CONTINUOUS
 10
3.637
 20
7.2655
 11
3.6315
 21
7.271
  0
LINE
  5
28A
100
AcDbEntity
  8
0
100
AcDbLine
 62
7
  6
CONTINUOUS
 10
4.380466776
 20
6.5613972916
 11
4.3755
 21
6.57
  0
LINE
  5
28B
100
AcDbEntity
  8
0
100
AcDbLine
 62
7
  6
CONTINUOUS
 10
4.3755
 20
6.5700117205
 11
4.3755
 21
7.4299882795
  0
LINE
  5
28C
100
AcDbEntity
  8
0
100
AcDbLine
 62
7
  6
CONTINUOUS
 10
4.4095636659
 20
7.437516034
 11
4.4095636659
 21
7.4079022477
  0
LINE
  5
28D
100
AcDbEntity
  8
0
100
AcDbLine
 62
7
  6
CONTINUOUS
 10
4.4095636659
 20
6.562483966
 11
4.4095636659
 21
6.5920977523
  0
LINE
  5
28E
100
AcDbEntity
  8
0
100
AcDbLine
 62
7
  6
CONTINUOUS
 10
4.4095636659
 20
6.9703862137
 11
4.4095636659
 21
7.0296137863
  0
LINE
  5
28F
100
AcDbEntity
  8
0
100
AcDbLine
 62
7
  6
CONTINUOUS
 10
4.3798459498
 20
6.562483966
 11
4.8344839658
 21
6.562483966
  0
LINE
  5
290
100
AcDbEntity
  8
0
100
AcDbLine
 62
7
  6
CONTINUOUS
 10
5.156698019
 20
6.5715
 11
5.1125
 21
6.5715
  0
LINE
  5
291
100
AcDbEntity
  8
0
100
AcDbLine
 62
7
  6
CONTINUOUS
 10
4.9655
 20
6.5715
 11
4.9155
 21
6.5715
  0
LINE
  5
292
100
AcDbEntity
  8
0
100
AcDbLine
 62
7
  6
CONTINUOUS
 10
4.8955
 20
6.5715
 11
4.8435
 21
6.5715
  0
LINE
  5
293
100
AcDbEntity
  8
0
100
AcDbLine
 62
7
  6
CONTINUOUS
 10
4.9685
 20
6.572
 11
5.0185
 21
6.572
  0
LINE
  5
294
100
AcDbEntity
  8
0
100
AcDbLine
 62
7
  6
CONTINUOUS
 10
5.5595
 20
6.5725
 11
5.509801981
 21
6.5725
  0
LINE
  5
295
100
AcDbEntity
  8
0
100
AcDbLine
 62
7
  6
CONTINUOUS
 10
4.783
 20
6.5920977523
 11
4.4095636659
 21
6.5920977523
  0
LINE
  5
296
100
AcDbEntity
  8
THREAD
100
AcDbLine
 62
7
  6
CONTINUOUS
 10
5.6065
 20
6.595
 11
5.5872224319
 21
6.595
  0
LINE
  5
297
100
AcDbEntity
  8
0
100
AcDbLine
 62
7
  6
CONTINUOUS
 10
5.6795
 20
6.5955
 11
5.7295
 21
6.5955
  0
LINE
  5
298
100
AcDbEntity
  8
THREAD
100
AcDbLine
 62
7
  6
CONTINUOUS
 10
6.018
 20
6.6125
 11
5.77086196
 21
6.6125
  0
LINE
  5
299
100
AcDbEntity
  8
0
100
AcDbLine
 62
7
  6
CONTINUOUS
 10
4.9155
 20
7.4285
 11
4.906977962
 21
7.4191525475
  0
LINE
  5
29A
100
AcDbEntity
  8
0
100
AcDbLine
 62
7
  6
CONTINUOUS
 10
5.0965
 20
6.626
 11
5.0885
 21
6.626
  0
LINE
  5
29B
100
AcDbEntity
  8
0
100
AcDbLine
 62
7
  6
CONTINUOUS
 10
4.3755
 20
6.6265
 11
4.0245
 21
6.6265
  0
LINE
  5
29C
100
AcDbEntity
  8
0
100
AcDbLine
 62
7
  6
CONTINUOUS
 10
3.9765
 20
6.6265
 11
3.9255
 21
6.6265
  0
LINE
  5
29D
100
AcDbEntity
  8
THREAD
100
AcDbLine
 62
7
  6
CONTINUOUS
 10
5.7419944465
 20
6.6495
 11
5.7295
 21
6.6495
  0
LINE
  5
29E
100
AcDbEntity
  8
0
100
AcDbLine
 62
7
  6
CONTINUOUS
 10
4.0115
 20
6.65
 11
3.9895
 21
6.65
  0
LINE
  5
29F
100
AcDbEntity
  8
THREAD
100
AcDbLine
 62
7
  6
CONTINUOUS
 10
6.2405
 20
6.657
 11
6.0625
 21
6.657
  0
LINE
  5
2A0
100
AcDbEntity
  8
0
100
AcDbLine
 62
7
  6
CONTINUOUS
 10
5.4848582932
 20
6.657
 11
5.181909656
 21
6.657
  0
LINE
  5
2A1
100
AcDbEntity
  8
0
100
AcDbLine
 62
7
  6
CONTINUOUS
 10
6.9215
 20
6.6575
 11
6.8745
 21
6.6575
  0
LINE
  5
2A2
100
AcDbEntity
  8
0
100
AcDbLine
 62
7
  6
CONTINUOUS
 10
6.7235
 20
6.6575
 11
6.6605
 21
6.6575
  0
LINE
  5
2A3
100
AcDbEntity
  8
0
100
AcDbLine
 62
7
  6
CONTINUOUS
 10
6.7985
 20
6.658
 11
6.8485
 21
6.658
  0
LINE
  5
2A4
100
AcDbEntity
  8
0
100
AcDbLine
 62
7
  6
CONTINUOUS
 10
3.8136285896
 20
6.6755291487
 11
3.7119708513
 21
6.6755291487
  0
LINE
  5
2A5
100
AcDbEntity
  8
0
100
AcDbLine
 62
7
  6
CONTINUOUS
 10
6.8485
 20
6.712
 11
6.8695
 21
6.712
  0
LINE
  5
2A6
100
AcDbEntity
  8
0
100
AcDbLine
 62
7
  6
CONTINUOUS
 10
6.2505
 20
6.72
 11
6.4265
 21
6.72
  0
LINE
  5
2A7
100
AcDbEntity
  8
0
100
AcDbLine
 62
7
  6
CONTINUOUS
 10
6.4465
 20
6.72
 11
6.4575
 21
6.72
  0
LINE
  5
2A8
100
AcDbEntity
  8
0
100
AcDbLine
 62
7
  6
CONTINUOUS
 10
6.4775
 20
6.72
 11
6.531
 21
6.72
  0
LINE
  5
2A9
100
AcDbEntity
  8
0
100
AcDbLine
 62
7
  6
CONTINUOUS
 10
6.64
 20
6.72
 11
6.6555
 21
6.72
  0
LINE
  5
2AA
100
AcDbEntity
  8
0
100
AcDbLine
 62
7
  6
CONTINUOUS
 10
3.8755
 20
6.729
 11
3.8445
 21
6.729
  0
LINE
  5
2AB
100
AcDbEntity
  8
0
100
AcDbLine
 62
7
  6
CONTINUOUS
 10
3.6315
 20
6.729
 11
3.6255
 21
6.729
  0
LINE
  5
2AC
100
AcDbEntity
  8
0
100
AcDbLine
 62
7
  6
CONTINUOUS
 10
3.653
 20
6.7345
 11
3.637
 21
6.7345
  0
LINE
  5
2AD
100
AcDbEntity
  8
0
100
AcDbLine
 62
7
  6
CONTINUOUS
 10
4.9155
 20
6.5715
 11
4.906977962
 21
6.5808474525
  0
LINE
  5
2AE
100
AcDbEntity
  8
0
100
AcDbLine
 62
7
  6
CONTINUOUS
 10
4.783
 20
7.437516034
 11
4.783
 21
7.4079022477
  0
LINE
  5
2AF
100
AcDbEntity
  8
0
100
AcDbLine
 62
7
  6
CONTINUOUS
 10
4.783
 20
6.562483966
 11
4.783
 21
6.5920977523
  0
LINE
  5
2B0
100
AcDbEntity
  8
0
100
AcDbLine
 62
7
  6
CONTINUOUS
 10
4.783
 20
6.9703862137
 11
4.783
 21
7.0296137863
  0
LINE
  5
2B1
100
AcDbEntity
  8
0
100
AcDbLine
 62
7
  6
CONTINUOUS
 10
4.8435
 20
6.5715
 11
4.8435
 21
7.4285
  0
LINE
  5
2B2
100
AcDbEntity
  8
0
100
AcDbLine
 62
7
  6
CONTINUOUS
 10
3.0945
 20
6.816
 11
3.2935
 21
6.816
  0
LINE
  5
2B3
100
AcDbEntity
  8
0
100
AcDbLine
 62
7
  6
CONTINUOUS
 10
3.3315
 20
6.816
 11
3.5635
 21
6.816
  0
LINE
  5
2B4
100
AcDbEntity
  8
0
100
AcDbLine
 62
7
  6
CONTINUOUS
 10
3.8136285896
 20
6.8377645744
 11
3.7119708513
 21
6.8377645744
  0
LINE
  5
2B5
100
AcDbEntity
  8
0
100
AcDbLine
 62
7
  6
CONTINUOUS
 10
3.2935
 20
6.849
 11
3.295
 21
6.849
  0
LINE
  5
2B6
100
AcDbEntity
  8
0
100
AcDbLine
 62
7
  6
CONTINUOUS
 10
3.33
 20
6.849
 11
3.3315
 21
6.849
  0
LINE
  5
2B7
100
AcDbEntity
  8
0
100
AcDbLine
 62
7
  6
CONTINUOUS
 10
4.8955
 20
6.5715
 11
4.8955
 21
7.4285
  0
LINE
  5
2B8
100
AcDbEntity
  8
0
100
AcDbLine
 62
7
  6
CONTINUOUS
 10
4.904022038
 20
7.4191525475
 11
4.904022038
 21
6.5808474525
  0
LINE
  5
2B9
100
AcDbEntity
  8
0
100
AcDbLine
 62
7
  6
CONTINUOUS
 10
4.906977962
 20
7.4191525475
 11
4.906977962
 21
6.5808474525
  0
LINE
  5
2BA
100
AcDbEntity
  8
0
100
AcDbLine
 62
7
  6
CONTINUOUS
 10
4.9155
 20
6.5715
 11
4.9155
 21
7.4285
  0
LINE
  5
2BB
100
AcDbEntity
  8
0
100
AcDbLine
 62
7
  6
CONTINUOUS
 10
4.9655
 20
7.4285
 11
4.9655
 21
6.5715
  0
LINE
  5
2BC
100
AcDbEntity
  8
0
100
AcDbLine
 62
7
  6
CONTINUOUS
 10
4.9685
 20
7.428
 11
4.9685
 21
6.572
  0
LINE
  5
2BD
100
AcDbEntity
  8
0
100
AcDbLine
 62
7
  6
CONTINUOUS
 10
4.783
 20
6.9703862137
 11
4.4095636659
 21
6.9703862137
  0
LINE
  5
2BE
100
AcDbEntity
  8
0
100
AcDbLine
 62
7
  6
CONTINUOUS
 10
5.0185
 20
7.428
 11
5.0185
 21
6.572
  0
LINE
  5
2BF
100
AcDbEntity
  8
0
100
AcDbLine
 62
7
  6
CONTINUOUS
 10
5.0885
 20
7.409
 11
5.0885
 21
6.591
  0
LINE
  5
2C0
100
AcDbEntity
  8
0
100
AcDbLine
 62
7
  6
CONTINUOUS
 10
5.0965
 20
6.626
 11
5.0965
 21
7.374
  0
LINE
  5
2C1
100
AcDbEntity
  8
0
100
AcDbLine
 62
7
  6
CONTINUOUS
 10
5.1095
 20
6.5745
 11
5.1095
 21
7.4255
  0
LINE
  5
2C2
100
AcDbEntity
  8
0
100
AcDbLine
 62
7
  6
CONTINUOUS
 10
5.1125
 20
7.4285
 11
5.1125
 21
6.5715
  0
LINE
  5
2C3
100
AcDbEntity
  8
0
100
AcDbLine
 62
7
  6
CONTINUOUS
 10
4.783
 20
7.0296137863
 11
4.4095636659
 21
7.0296137863
  0
LINE
  5
2C4
100
AcDbEntity
  8
0
100
AcDbLine
 62
7
  6
CONTINUOUS
 10
5.156698019
 20
7.4285
 11
5.156698019
 21
6.5715
  0
LINE
  5
2C5
100
AcDbEntity
  8
0
100
AcDbLine
 62
7
  6
CONTINUOUS
 10
5.1595957965
 20
7.4262764571
 11
5.1595957965
 21
6.5737235429
  0
LINE
  5
2C6
100
AcDbEntity
  8
0
100
AcDbLine
 62
7
  6
CONTINUOUS
 10
5.181909656
 20
6.657
 11
5.181909656
 21
7.343
  0
LINE
  5
2C7
100
AcDbEntity
  8
0
100
AcDbLine
 62
7
  6
CONTINUOUS
 10
5.181909656
 20
6.657
 11
5.1595957965
 21
6.5737235429
  0
LINE
  5
2C8
100
AcDbEntity
  8
0
100
AcDbLine
 62
7
  6
CONTINUOUS
 10
4.904022038
 20
6.5808474525
 11
4.8955
 21
6.5715
  0
LINE
  5
2C9
100
AcDbEntity
  8
0
100
AcDbLine
 62
7
  6
CONTINUOUS
 10
4.8435
 20
6.5715
 11
4.8344821994
 21
6.5624821994
  0
LINE
  5
2CA
100
AcDbEntity
  8
0
100
AcDbLine
 62
7
  6
CONTINUOUS
 10
3.2935
 20
7.151
 11
3.295
 21
7.151
  0
LINE
  5
2CB
100
AcDbEntity
  8
0
100
AcDbLine
 62
7
  6
CONTINUOUS
 10
3.33
 20
7.151
 11
3.3315
 21
7.151
  0
LINE
  5
2CC
100
AcDbEntity
  8
0
100
AcDbLine
 62
7
  6
CONTINUOUS
 10
3.8136285896
 20
7.1622354256
 11
3.7119708513
 21
7.1622354256
  0
LINE
  5
2CD
100
AcDbEntity
  8
0
100
AcDbLine
 62
7
  6
CONTINUOUS
 10
3.0945
 20
7.184
 11
3.2935
 21
7.184
  0
LINE
  5
2CE
100
AcDbEntity
  8
0
100
AcDbLine
 62
7
  6
CONTINUOUS
 10
3.3315
 20
7.184
 11
3.5635
 21
7.184
  0
LINE
  5
2CF
100
AcDbEntity
  8
0
100
AcDbLine
 62
7
  6
CONTINUOUS
 10
3.653
 20
7.2655
 11
3.637
 21
7.2655
  0
LINE
  5
2D0
100
AcDbEntity
  8
0
100
AcDbLine
 62
7
  6
CONTINUOUS
 10
3.8755
 20
7.271
 11
3.8445
 21
7.271
  0
LINE
  5
2D1
100
AcDbEntity
  8
0
100
AcDbLine
 62
7
  6
CONTINUOUS
 10
3.6315
 20
7.271
 11
3.6255
 21
7.271
  0
LINE
  5
2D2
100
AcDbEntity
  8
0
100
AcDbLine
 62
7
  6
CONTINUOUS
 10
6.2505
 20
7.28
 11
6.4265
 21
7.28
  0
LINE
  5
2D3
100
AcDbEntity
  8
0
100
AcDbLine
 62
7
  6
CONTINUOUS
 10
6.4465
 20
7.28
 11
6.4575
 21
7.28
  0
LINE
  5
2D4
100
AcDbEntity
  8
0
100
AcDbLine
 62
7
  6
CONTINUOUS
 10
6.4775
 20
7.28
 11
6.531
 21
7.28
  0
LINE
  5
2D5
100
AcDbEntity
  8
0
100
AcDbLine
 62
7
  6
CONTINUOUS
 10
6.64
 20
7.28
 11
6.6555
 21
7.28
  0
LINE
  5
2D6
100
AcDbEntity
  8
0
100
AcDbLine
 62
7
  6
CONTINUOUS
 10
4.8435
 20
7.4285
 11
4.8344821994
 21
7.4375178006
  0
LINE
  5
2D7
100
AcDbEntity
  8
0
100
AcDbLine
 62
7
  6
CONTINUOUS
 10
4.904022038
 20
7.4191525475
 11
4.8955
 21
7.4285
  0
LINE
  5
2D8
100
AcDbEntity
  8
0
100
AcDbLine
 62
7
  6
CONTINUOUS
 10
5.181909656
 20
7.343
 11
5.1595957965
 21
7.4262764571
  0
LINE
  5
2D9
100
AcDbEntity
  8
0
100
AcDbLine
 62
7
  6
CONTINUOUS
 10
5.5069042035
 20
7.4252764571
 11
5.4848582932
 21
7.343
  0
LINE
  5
2DA
100
AcDbEntity
  8
0
100
AcDbLine
 62
7
  6
CONTINUOUS
 10
6.8485
 20
7.288
 11
6.8695
 21
7.288
  0
LINE
  5
2DB
100
AcDbEntity
  8
0
100
AcDbLine
 62
7
  6
CONTINUOUS
 10
6.1905
 20
7.3229149841
 11
6.1565
 21
7.3229149841
  0
LINE
  5
2DC
100
AcDbEntity
  8
0
100
AcDbLine
 62
7
  6
CONTINUOUS
 10
3.8136285896
 20
7.3244708513
 11
3.7119708513
 21
7.3244708513
  0
LINE
  5
2DD
100
AcDbEntity
  8
0
100
AcDbLine
 62
7
  6
CONTINUOUS
 10
6.7985
 20
7.342
 11
6.8485
 21
7.342
  0
LINE
  5
2DE
100
AcDbEntity
  8
0
100
AcDbLine
 62
7
  6
CONTINUOUS
 10
6.9215
 20
7.3425
 11
6.8745
 21
7.3425
  0
LINE
  5
2DF
100
AcDbEntity
  8
0
100
AcDbLine
 62
7
  6
CONTINUOUS
 10
6.7235
 20
7.3425
 11
6.6605
 21
7.3425
  0
LINE
  5
2E0
100
AcDbEntity
  8
THREAD
100
AcDbLine
 62
7
  6
CONTINUOUS
 10
6.2405
 20
7.343
 11
6.1905
 21
7.343
  0
LINE
  5
2E1
100
AcDbEntity
  8
THREAD
100
AcDbLine
 62
7
  6
CONTINUOUS
 10
6.1565
 20
7.343
 11
6.0625
 21
7.343
  0
LINE
  5
2E2
100
AcDbEntity
  8
0
100
AcDbLine
 62
7
  6
CONTINUOUS
 10
5.4848582932
 20
7.343
 11
5.258
 21
7.343
  0
LINE
  5
2E3
100
AcDbEntity
  8
0
100
AcDbLine
 62
7
  6
CONTINUOUS
 10
5.223
 20
7.343
 11
5.181909656
 21
7.343
  0
LINE
  5
2E4
100
AcDbEntity
  8
0
100
AcDbLine
 62
7
  6
CONTINUOUS
 10
4.0115
 20
7.35
 11
3.9895
 21
7.35
  0
LINE
  5
2E5
100
AcDbEntity
  8
THREAD
100
AcDbLine
 62
7
  6
CONTINUOUS
 10
5.7419944465
 20
7.3505
 11
5.7295
 21
7.3505
  0
LINE
  5
2E6
100
AcDbEntity
  8
0
100
AcDbLine
 62
7
  6
CONTINUOUS
 10
4.3755
 20
7.3735
 11
4.0245
 21
7.3735
  0
LINE
  5
2E7
100
AcDbEntity
  8
0
100
AcDbLine
 62
7
  6
CONTINUOUS
 10
3.9765
 20
7.3735
 11
3.9255
 21
7.3735
  0
LINE
  5
2E8
100
AcDbEntity
  8
0
100
AcDbLine
 62
7
  6
CONTINUOUS
 10
5.0965
 20
7.374
 11
5.0885
 21
7.374
  0
LINE
  5
2E9
100
AcDbEntity
  8
THREAD
100
AcDbLine
 62
7
  6
CONTINUOUS
 10
6.018
 20
7.3875
 11
5.77086196
 21
7.3875
  0
LINE
  5
2EA
100
AcDbEntity
  8
0
100
AcDbLine
 62
7
  6
CONTINUOUS
 10
5.6795
 20
7.4045
 11
5.7295
 21
7.4045
  0
LINE
  5
2EB
100
AcDbEntity
  8
THREAD
100
AcDbLine
 62
7
  6
CONTINUOUS
 10
5.6065
 20
7.405
 11
5.5872224319
 21
7.405
  0
LINE
  5
2EC
100
AcDbEntity
  8
0
100
AcDbLine
 62
7
  6
CONTINUOUS
 10
4.783
 20
7.4079022477
 11
4.4095636659
 21
7.4079022477
  0
LINE
  5
2ED
100
AcDbEntity
  8
0
100
AcDbLine
 62
7
  6
CONTINUOUS
 10
5.5069042035
 20
6.5747235429
 11
5.4848582932
 21
6.657
  0
LINE
  5
2EE
100
AcDbEntity
  8
0
100
AcDbLine
 62
7
  6
CONTINUOUS
 10
5.4848582932
 20
6.657
 11
5.4848582932
 21
7.343
  0
LINE
  5
2EF
100
AcDbEntity
  8
0
100
AcDbLine
 62
7
  6
CONTINUOUS
 10
5.5069042035
 20
7.4252764571
 11
5.5069042035
 21
6.5747235429
  0
LINE
  5
2F0
100
AcDbEntity
  8
0
100
AcDbLine
 62
7
  6
CONTINUOUS
 10
5.509801981
 20
7.4275
 11
5.509801981
 21
6.5725
  0
LINE
  5
2F1
100
AcDbEntity
  8
THREAD
100
AcDbLine
 62
7
  6
CONTINUOUS
 10
5.77086196
 20
7.3875
 11
5.7532527707
 21
7.3569999896
  0
LINE
  5
2F2
100
AcDbEntity
  8
0
100
AcDbLine
 62
7
  6
CONTINUOUS
 10
5.5595
 20
7.4275
 11
5.509801981
 21
7.4275
  0
LINE
  5
2F3
100
AcDbEntity
  8
0
100
AcDbLine
 62
7
  6
CONTINUOUS
 10
4.9685
 20
7.428
 11
5.0185
 21
7.428
  0
LINE
  5
2F4
100
AcDbEntity
  8
0
100
AcDbLine
 62
7
  6
CONTINUOUS
 10
5.156698019
 20
7.4285
 11
5.1125
 21
7.4285
  0
LINE
  5
2F5
100
AcDbEntity
  8
0
100
AcDbLine
 62
7
  6
CONTINUOUS
 10
4.9655
 20
7.4285
 11
4.9155
 21
7.4285
  0
LINE
  5
2F6
100
AcDbEntity
  8
0
100
AcDbLine
 62
7
  6
CONTINUOUS
 10
4.8955
 20
7.4285
 11
4.8435
 21
7.4285
  0
LINE
  5
2F7
100
AcDbEntity
  8
0
100
AcDbLine
 62
7
  6
CONTINUOUS
 10
4.3798459498
 20
7.437516034
 11
4.8344839658
 21
7.437516034
  0
LINE
  5
2F8
100
AcDbEntity
  8
THREAD
100
AcDbLine
 62
7
  6
CONTINUOUS
 10
5.77086196
 20
6.6125
 11
5.7532527707
 21
6.6430000104
  0
LINE
  5
2F9
100
AcDbEntity
  8
0
100
AcDbLine
 62
7
  6
CONTINUOUS
 10
5.5595
 20
7.4275
 11
5.5595
 21
6.5725
  0
LINE
  5
2FA
100
AcDbEntity
  8
0
100
AcDbLine
 62
7
  6
CONTINUOUS
 10
5.5625
 20
7.4244936276
 11
5.5625
 21
6.5755063724
  0
LINE
  5
2FB
100
AcDbEntity
  8
0
100
AcDbLine
 62
7
  6
CONTINUOUS
 10
5.565
 20
6.5829433757
 11
5.565
 21
7.4170566243
  0
LINE
  5
2FC
100
AcDbEntity
  8
0
100
AcDbLine
 62
7
  6
CONTINUOUS
 10
5.5847224319
 20
6.594330127
 11
5.5847224319
 21
7.405669873
  0
LINE
  5
2FD
100
AcDbEntity
  8
0
100
AcDbLine
 62
7
  6
CONTINUOUS
 10
5.5872224319
 20
6.595
 11
5.5872224319
 21
7.405
  0
LINE
  5
2FE
100
AcDbEntity
  8
0
100
AcDbLine
 62
7
  6
CONTINUOUS
 10
5.6065
 20
7.405
 11
5.6065
 21
6.595
  0
LINE
  5
2FF
100
AcDbEntity
  8
0
100
AcDbLine
 62
7
  6
CONTINUOUS
 10
5.6095
 20
7.409
 11
5.6095
 21
6.591
  0
LINE
  5
300
100
AcDbEntity
  8
0
100
AcDbLine
 62
7
  6
CONTINUOUS
 10
5.6795
 20
7.409
 11
5.6795
 21
6.591
  0
LINE
  5
301
100
AcDbEntity
  8
THREAD
100
AcDbLine
 62
7
  6
CONTINUOUS
 10
5.5847224323
 20
6.5943301273
 11
5.565
 21
6.5829433757
  0
LINE
  5
302
100
AcDbEntity
  8
THREAD
100
AcDbLine
 62
7
  6
CONTINUOUS
 10
5.5847224323
 20
7.4056698727
 11
5.565
 21
7.4170566243
  0
LINE
  5
303
100
AcDbEntity
  8
0
100
AcDbLine
 62
7
  6
CONTINUOUS
 10
5.7295
 20
7.4045
 11
5.7295
 21
6.5955
  0
LINE
  5
304
100
AcDbEntity
  8
0
100
AcDbLine
 62
7
  6
CONTINUOUS
 10
5.7419944465
 20
6.6495
 11
5.7419944465
 21
7.3505
  0
LINE
  5
305
100
AcDbEntity
  8
0
100
AcDbLine
 62
7
  6
CONTINUOUS
 10
5.7532527707
 20
6.6430000105
 11
5.7532527707
 21
7.3569999895
  0
LINE
  5
306
100
AcDbEntity
  8
THREAD
100
AcDbLine
 62
7
  6
CONTINUOUS
 10
5.77086196
 20
6.6125
 11
5.77086196
 21
7.3875
  0
LINE
  5
307
100
AcDbEntity
  8
0
100
AcDbLine
 62
7
  6
CONTINUOUS
 10
6.4365
 20
7.27
 11
6.4465
 21
7.28
  0
LINE
  5
308
100
AcDbEntity
  8
0
100
AcDbLine
 62
7
  6
CONTINUOUS
 10
6.4675
 20
7.27
 11
6.4775
 21
7.28
  0
LINE
  5
309
100
AcDbEntity
  8
0
100
AcDbLine
 62
7
  6
CONTINUOUS
 10
6.6605
 20
7.3425
 11
6.6555
 21
7.3375
  0
LINE
  5
30A
100
AcDbEntity
  8
0
100
AcDbLine
 62
7
  6
CONTINUOUS
 10
6.4365
 20
6.73
 11
6.4465
 21
6.72
  0
LINE
  5
30B
100
AcDbEntity
  8
0
100
AcDbLine
 62
7
  6
CONTINUOUS
 10
6.4675
 20
6.73
 11
6.4775
 21
6.72
  0
LINE
  5
30C
100
AcDbEntity
  8
0
100
AcDbLine
 62
7
  6
CONTINUOUS
 10
6.6605
 20
6.6575
 11
6.6555
 21
6.6625
  0
LINE
  5
30D
100
AcDbEntity
  8
THREAD
100
AcDbLine
 62
7
  6
CONTINUOUS
 10
6.018
 20
6.6125
 11
6.018
 21
7.3875
  0
LINE
  5
30E
100
AcDbEntity
  8
THREAD
100
AcDbLine
 62
7
  6
CONTINUOUS
 10
6.0625
 20
6.657
 11
6.0625
 21
7.343
  0
LINE
  5
30F
100
AcDbEntity
  8
THREAD
100
AcDbLine
 62
7
  6
CONTINUOUS
 10
6.0625
 20
6.657
 11
6.018
 21
6.6125
  0
LINE
  5
310
100
AcDbEntity
  8
THREAD
100
AcDbLine
 62
7
  6
CONTINUOUS
 10
6.0625
 20
7.343
 11
6.018
 21
7.3875
  0
LINE
  5
311
100
AcDbEntity
  8
0
100
AcDbLine
 62
7
  6
CONTINUOUS
 10
6.1565
 20
7.3229149841
 11
6.1565
 21
7.3429965938
  0
LINE
  5
312
100
AcDbEntity
  8
0
100
AcDbLine
 62
7
  6
CONTINUOUS
 10
6.1905
 20
7.3229149841
 11
6.1905
 21
7.3429965938
  0
LINE
  5
313
100
AcDbEntity
  8
0
100
AcDbLine
 62
7
  6
CONTINUOUS
 10
6.8745
 20
7.3425
 11
6.8695
 21
7.3375
  0
LINE
  5
314
100
AcDbEntity
  8
0
100
AcDbLine
 62
7
  6
CONTINUOUS
 10
6.2505
 20
6.667
 11
6.2405
 21
6.657
  0
LINE
  5
315
100
AcDbEntity
  8
0
100
AcDbLine
 62
7
  6
CONTINUOUS
 10
6.4265
 20
6.72
 11
6.4365
 21
6.73
  0
LINE
  5
316
100
AcDbEntity
  8
0
100
AcDbLine
 62
7
  6
CONTINUOUS
 10
6.8745
 20
6.6575
 11
6.8695
 21
6.6625
  0
LINE
  5
317
100
AcDbEntity
  8
0
100
AcDbLine
 62
7
  6
CONTINUOUS
 10
6.2505
 20
7.333
 11
6.2405
 21
7.343
  0
LINE
  5
318
100
AcDbEntity
  8
0
100
AcDbLine
 62
7
  6
CONTINUOUS
 10
6.4265
 20
7.28
 11
6.4365
 21
7.27
  0
LINE
  5
319
100
AcDbEntity
  8
0
100
AcDbLine
 62
7
  6
CONTINUOUS
 10
6.2405
 20
6.657
 11
6.2405
 21
7.343
  0
LINE
  5
31A
100
AcDbEntity
  8
0
100
AcDbLine
 62
7
  6
CONTINUOUS
 10
6.2505
 20
6.667
 11
6.2505
 21
7.333
  0
LINE
  5
31B
100
AcDbEntity
  8
0
100
AcDbLine
 62
7
  6
CONTINUOUS
 10
6.4575
 20
6.72
 11
6.4675
 21
6.73
  0
LINE
  5
31C
100
AcDbEntity
  8
0
100
AcDbLine
 62
7
  6
CONTINUOUS
 10
6.4575
 20
7.28
 11
6.4675
 21
7.27
  0
LINE
  5
31D
100
AcDbEntity
  8
0
100
AcDbLine
 62
7
  6
CONTINUOUS
 10
6.4265
 20
7.28
 11
6.4265
 21
6.72
  0
LINE
  5
31E
100
AcDbEntity
  8
0
100
AcDbLine
 62
7
  6
CONTINUOUS
 10
6.4365
 20
7.27
 11
6.4365
 21
6.73
  0
LINE
  5
31F
100
AcDbEntity
  8
0
100
AcDbLine
 62
7
  6
CONTINUOUS
 10
6.4465
 20
7.28
 11
6.4465
 21
6.72
  0
LINE
  5
320
100
AcDbEntity
  8
0
100
AcDbLine
 62
7
  6
CONTINUOUS
 10
6.4575
 20
7.28
 11
6.4575
 21
6.72
  0
LINE
  5
321
100
AcDbEntity
  8
0
100
AcDbLine
 62
7
  6
CONTINUOUS
 10
6.4675
 20
7.27
 11
6.4675
 21
6.73
  0
LINE
  5
322
100
AcDbEntity
  8
0
100
AcDbLine
 62
7
  6
CONTINUOUS
 10
6.7285
 20
6.6625
 11
6.7235
 21
6.6575
  0
LINE
  5
323
100
AcDbEntity
  8
0
100
AcDbLine
 62
7
  6
CONTINUOUS
 10
6.7285
 20
7.3375
 11
6.7235
 21
7.3425
  0
LINE
  5
324
100
AcDbEntity
  8
0
100
AcDbLine
 62
7
  6
CONTINUOUS
 10
6.4775
 20
7.28
 11
6.4775
 21
6.72
  0
LINE
  5
325
100
AcDbEntity
  8
0
100
AcDbLine
 62
7
  6
CONTINUOUS
 10
6.533774597
 20
7.0162048947
 11
6.533774597
 21
6.9837946969
  0
LINE
  5
326
100
AcDbEntity
  8
0
100
AcDbLine
 62
7
  6
CONTINUOUS
 10
6.5372870103
 20
7.0248950812
 11
6.5372870103
 21
6.975106145
  0
LINE
  5
327
100
AcDbEntity
  8
0
100
AcDbLine
 62
7
  6
CONTINUOUS
 10
6.9365
 20
6.6725
 11
6.9215
 21
6.6575
  0
LINE
  5
328
100
AcDbEntity
  8
0
100
AcDbLine
 62
7
  6
CONTINUOUS
 10
6.9365
 20
7.3275
 11
6.9215
 21
7.3425
  0
LINE
  5
329
100
AcDbEntity
  8
0
100
AcDbLine
 62
7
  6
CONTINUOUS
 10
6.6095
 20
6.8374095729
 11
6.6095
 21
6.8396058567
  0
LINE
  5
32A
100
AcDbEntity
  8
0
100
AcDbLine
 62
7
  6
CONTINUOUS
 10
6.6095
 20
6.9513555189
 11
6.6095
 21
7.048643134
  0
LINE
  5
32B
100
AcDbEntity
  8
0
100
AcDbLine
 62
7
  6
CONTINUOUS
 10
6.6095
 20
7.1603941634
 11
6.6095
 21
7.1625906002
  0
LINE
  5
32C
100
AcDbEntity
  8
0
100
AcDbLine
 62
7
  6
CONTINUOUS
 10
6.6555
 20
6.6625
 11
6.6555
 21
7.3375
  0
LINE
  5
32D
100
AcDbEntity
  8
0
100
AcDbLine
 62
7
  6
CONTINUOUS
 10
6.6605
 20
6.6575
 11
6.6605
 21
7.3425
  0
LINE
  5
32E
100
AcDbEntity
  8
0
100
AcDbLine
 62
7
  6
CONTINUOUS
 10
6.7235
 20
6.6575
 11
6.7235
 21
7.3425
  0
LINE
  5
32F
100
AcDbEntity
  8
0
100
AcDbLine
 62
7
  6
CONTINUOUS
 10
6.7285
 20
6.6625
 11
6.7285
 21
7.3375
  0
LINE
  5
330
100
AcDbEntity
  8
0
100
AcDbLine
 62
7
  6
CONTINUOUS
 10
6.7985
 20
7.342
 11
6.7985
 21
6.658
  0
LINE
  5
331
100
AcDbEntity
  8
0
100
AcDbLine
 62
7
  6
CONTINUOUS
 10
6.8485
 20
7.342
 11
6.8485
 21
6.658
  0
LINE
  5
332
100
AcDbEntity
  8
0
100
AcDbLine
 62
7
  6
CONTINUOUS
 10
6.8695
 20
6.6625
 11
6.8695
 21
7.3375
  0
LINE
  5
333
100
AcDbEntity
  8
0
100
AcDbLine
 62
7
  6
CONTINUOUS
 10
6.8745
 20
6.6575
 11
6.8745
 21
7.3425
  0
LINE
  5
334
100
AcDbEntity
  8
0
100
AcDbLine
 62
7
  6
CONTINUOUS
 10
6.9215
 20
6.6575
 11
6.9215
 21
7.3425
  0
LINE
  5
335
100
AcDbEntity
  8
0
100
AcDbLine
 62
7
  6
CONTINUOUS
 10
6.9365
 20
6.6725
 11
6.9365
 21
7.3275
  0
ARC
  5
336
100
AcDbEntity
  8
0
100
AcDbCircle
 62
7
  6
CONTINUOUS
 10
3.6255
 20
6.823
 40
0.094
100
AcDbArc
 50
228.732572619
 51
270.0
  0
ARC
  5
337
100
AcDbEntity
  8
0
100
AcDbCircle
 62
7
  6
CONTINUOUS
 10
3.3125
 20
6.8385
 40
0.0175
100
AcDbArc
 50
180.0
 51
360.0
  0
ARC
  5
338
100
AcDbEntity
  8
0
100
AcDbCircle
 62
7
  6
CONTINUOUS
 10
4.0115
 20
6.642
 40
0.008
100
AcDbArc
 50
0.0
 51
90.0
  0
ARC
  5
339
100
AcDbEntity
  8
0
100
AcDbCircle
 62
7
  6
CONTINUOUS
 10
3.9895
 20
6.642
 40
0.008
100
AcDbArc
 50
90.0
 51
180.0
  0
ARC
  5
33A
100
AcDbEntity
  8
0
100
AcDbCircle
 62
7
  6
CONTINUOUS
 10
4.0245
 20
6.6315
 40
0.005
100
AcDbArc
 50
180.0
 51
270.0
  0
ARC
  5
33B
100
AcDbEntity
  8
0
100
AcDbCircle
 62
7
  6
CONTINUOUS
 10
3.9765
 20
6.6315
 40
0.005
100
AcDbArc
 50
270.0
 51
360.0
  0
ARC
  5
33C
100
AcDbEntity
  8
0
100
AcDbCircle
 62
7
  6
CONTINUOUS
 10
4.9055
 20
6.5795
 40
0.002
100
AcDbArc
 50
42.3553148142
 51
137.6446851858
  0
ARC
  5
33D
100
AcDbEntity
  8
0
100
AcDbCircle
 62
7
  6
CONTINUOUS
 10
3.6255
 20
7.177
 40
0.094
100
AcDbArc
 50
90.0
 51
131.267427381
  0
ARC
  5
33E
100
AcDbEntity
  8
0
100
AcDbCircle
 62
7
  6
CONTINUOUS
 10
3.3125
 20
7.1615
 40
0.0175
100
AcDbArc
 50
0.0
 51
180.0
  0
ARC
  5
33F
100
AcDbEntity
  8
0
100
AcDbCircle
 62
7
  6
CONTINUOUS
 10
4.0115
 20
7.358
 40
0.008
100
AcDbArc
 50
270.0
 51
360.0
  0
ARC
  5
340
100
AcDbEntity
  8
0
100
AcDbCircle
 62
7
  6
CONTINUOUS
 10
3.9895
 20
7.358
 40
0.008
100
AcDbArc
 50
180.0
 51
270.0
  0
ARC
  5
341
100
AcDbEntity
  8
0
100
AcDbCircle
 62
7
  6
CONTINUOUS
 10
4.0245
 20
7.3685
 40
0.005
100
AcDbArc
 50
90.0
 51
180.0
  0
ARC
  5
342
100
AcDbEntity
  8
0
100
AcDbCircle
 62
7
  6
CONTINUOUS
 10
3.9765
 20
7.3685
 40
0.005
100
AcDbArc
 50
0.0
 51
90.0
  0
ARC
  5
343
100
AcDbEntity
  8
0
100
AcDbCircle
 62
7
  6
CONTINUOUS
 10
4.9055
 20
7.4205
 40
0.002
100
AcDbArc
 50
222.3553148142
 51
317.6446851858
  0
ARC
  5
344
100
AcDbEntity
  8
0
100
AcDbCircle
 62
7
  6
CONTINUOUS
 10
6.5910883649
 20
6.9100389481
 40
0.0750660618
100
AcDbArc
 50
284.2810162204
 51
286.4799965521
  0
ARC
  5
345
100
AcDbEntity
  8
0
100
AcDbCircle
 62
7
  6
CONTINUOUS
 10
6.5913666021
 20
7.0909727442
 40
0.0740170018
100
AcDbArc
 50
73.5053686395
 51
75.7346659647
  0
ARC
  5
346
100
AcDbEntity
  8
0
100
AcDbCircle
 62
7
  6
CONTINUOUS
 10
6.5505
 20
7.0
 40
0.0545
100
AcDbArc
 50
288.6835845509
 51
71.3168073559
  0
CIRCLE
  5
347
100
AcDbEntity
  8
0
100
AcDbCircle
 62
7
  6
CONTINUOUS
 10
6.5855
 20
7.0
 40
0.0545
  0
ARC
  5
348
100
AcDbEntity
  8
0
100
AcDbCircle
 62
7
  6
CONTINUOUS
 10
5.7419944465
 20
6.6365
 40
0.013
100
AcDbArc
 50
30.0000530432
 51
90.0
  0
ARC
  5
349
100
AcDbEntity
  8
0
100
AcDbCircle
 62
7
  6
CONTINUOUS
 10
5.0965
 20
6.613
 40
0.013
100
AcDbArc
 50
0.0000180718
 51
90.0
  0
ARC
  5
34A
100
AcDbEntity
  8
0
100
AcDbCircle
 62
7
  6
CONTINUOUS
 10
5.5872224319
 20
6.59
 40
0.005
100
AcDbArc
 50
90.0
 51
119.9999939955
  0
ARC
  5
34B
100
AcDbEntity
  8
0
100
AcDbCircle
 62
7
  6
CONTINUOUS
 10
5.5675
 20
6.5786132487
 40
0.005
100
AcDbArc
 50
119.9999997654
 51
179.9999995317
  0
ARC
  5
34C
100
AcDbEntity
  8
0
100
AcDbCircle
 62
7
  6
CONTINUOUS
 10
5.6065
 20
6.598
 40
0.003
100
AcDbArc
 50
270.0
 51
360.0
  0
ARC
  5
34D
100
AcDbEntity
  8
0
100
AcDbCircle
 62
7
  6
CONTINUOUS
 10
5.509801981
 20
6.5755
 40
0.003
100
AcDbArc
 50
195.0
 51
270.0
  0
ARC
  5
34E
100
AcDbEntity
  8
0
100
AcDbCircle
 62
7
  6
CONTINUOUS
 10
5.156698019
 20
6.5745
 40
0.003
100
AcDbArc
 50
270.0
 51
345.0
  0
ARC
  5
34F
100
AcDbEntity
  8
0
100
AcDbCircle
 62
7
  6
CONTINUOUS
 10
5.1125
 20
6.5745
 40
0.003
100
AcDbArc
 50
180.0
 51
270.0
  0
ARC
  5
350
100
AcDbEntity
  8
0
100
AcDbCircle
 62
7
  6
CONTINUOUS
 10
4.9655
 20
6.5745
 40
0.003
100
AcDbArc
 50
270.0
 51
360.0
  0
ARC
  5
351
100
AcDbEntity
  8
0
100
AcDbCircle
 62
7
  6
CONTINUOUS
 10
5.5595
 20
6.5755
 40
0.003
100
AcDbArc
 50
270.0
 51
0.0000648488
  0
ARC
  5
352
100
AcDbEntity
  8
126-400_HEX_FEATURES
100
AcDbCircle
 62
7
  6
CONTINUOUS
 10
5.2405
 20
7.685667409
 40
0.3431139798
100
AcDbArc
 50
267.0764485589
 51
272.9235514411
  0
ARC
  5
353
100
AcDbEntity
  8
0
100
AcDbCircle
 62
7
  6
CONTINUOUS
 10
5.0965
 20
7.387
 40
0.013
100
AcDbArc
 50
270.0
 51
359.9999819282
  0
ARC
  5
354
100
AcDbEntity
  8
0
100
AcDbCircle
 62
7
  6
CONTINUOUS
 10
5.7419944465
 20
7.3635
 40
0.013
100
AcDbArc
 50
270.0
 51
329.9999469568
  0
ARC
  5
355
100
AcDbEntity
  8
0
100
AcDbCircle
 62
7
  6
CONTINUOUS
 10
5.5872224319
 20
7.41
 40
0.005
100
AcDbArc
 50
240.0000060045
 51
270.0
  0
ARC
  5
356
100
AcDbEntity
  8
0
100
AcDbCircle
 62
7
  6
CONTINUOUS
 10
5.5675
 20
7.4213867513
 40
0.005
100
AcDbArc
 50
180.0000004683
 51
240.0000002346
  0
ARC
  5
357
100
AcDbEntity
  8
0
100
AcDbCircle
 62
7
  6
CONTINUOUS
 10
5.5595
 20
7.4245
 40
0.003
100
AcDbArc
 50
359.9999351512
 51
90.0
  0
ARC
  5
358
100
AcDbEntity
  8
0
100
AcDbCircle
 62
7
  6
CONTINUOUS
 10
5.6065
 20
7.402
 40
0.003
100
AcDbArc
 50
0.0
 51
90.0
  0
ARC
  5
359
100
AcDbEntity
  8
0
100
AcDbCircle
 62
7
  6
CONTINUOUS
 10
5.509801981
 20
7.4245
 40
0.003
100
AcDbArc
 50
90.0
 51
165.0
  0
ARC
  5
35A
100
AcDbEntity
  8
0
100
AcDbCircle
 62
7
  6
CONTINUOUS
 10
5.156698019
 20
7.4255
 40
0.003
100
AcDbArc
 50
15.0
 51
90.0
  0
ARC
  5
35B
100
AcDbEntity
  8
0
100
AcDbCircle
 62
7
  6
CONTINUOUS
 10
5.1125
 20
7.4255
 40
0.003
100
AcDbArc
 50
90.0
 51
180.0
  0
ARC
  5
35C
100
AcDbEntity
  8
0
100
AcDbCircle
 62
7
  6
CONTINUOUS
 10
4.9655
 20
7.4255
 40
0.003
100
AcDbArc
 50
0.0
 51
90.0
  0
SPLINE
  5
35D
100
AcDbEntity
  8
0
100
AcDbSpline
 62
7
  6
CONTINUOUS
 70
0
 71
3
 72
29
 73
25
 74
0
 42
0.0000001
 43
0.0000001
 44
0.0000000001
 40
0.0
 40
0.0
 40
0.0
 40
0.0
 40
0.0699814326
 40
0.1378931693
 40
0.2035483063
 40
0.2668301071
 40
0.3277577624
 40
0.3574096745
 40
0.3865762134
 40
0.4153250756
 40
0.4437427141
 40
0.4719307121
 40
0.5000000301
 40
0.5280693453
 40
0.5562573422
 40
0.5846749808
 40
0.6134238382
 40
0.6425903726
 40
0.6722422822
 40
0.7331699209
 40
0.796451712
 40
0.8621068357
 40
0.9300185679
 40
1.0
 40
1.0
 40
1.0
 40
1.0
 10
3.7119708513
 20
7.1622354256
 30
0.0
 10
3.7088560267
 20
7.1653502502
 30
0.0
 10
3.7028485704
 20
7.171620498
 30
0.0
 10
3.6944837005
 20
7.1813347699
 30
0.0
 10
3.6870144878
 20
7.1912347025
 30
0.0
 10
3.6805857871
 20
7.2013263651
 30
0.0
 10
3.6761793193
 20
7.2099734854
 30
0.0
 10
3.673352393
 20
7.2169651849
 30
0.0
 10
3.6716052759
 20
7.2221969955
 30
0.0
 10
3.6702274621
 20
7.2274580884
 30
0.0
 10
3.6692350053
 20
7.2327430445
 30
0.0
 10
3.6686348105
 20
7.238043924
 30
0.0
 10
3.6684327377
 20
7.243353144
 30
0.0
 10
3.6686348076
 20
7.2486623643
 30
0.0
 10
3.66923501
 20
7.2539632427
 30
0.0
 10
3.6702274641
 20
7.2592481987
 30
0.0
 10
3.6716052762
 20
7.2645092916
 30
0.0
 10
3.6733523974
 20
7.2697411001
 30
0.0
 10
3.6761793222
 20
7.2767327984
 30
0.0
 10
3.6805857895
 20
7.2853799171
 30
0.0
 10
3.6870144902
 20
7.2954715767
 30
0.0
 10
3.6944837013
 20
7.3053715083
 30
0.0
 10
3.7028485708
 20
7.3150857791
 30
0.0
 10
3.7088560267
 20
7.3213560267
 30
0.0
 10
3.7119708513
 20
7.3244708513
 30
0.0
  0
SPLINE
  5
35E
100
AcDbEntity
  8
0
100
AcDbSpline
 62
7
  6
CONTINUOUS
 70
0
 71
3
 72
25
 73
21
 74
0
 42
0.0000001
 43
0.0000001
 44
0.0000000001
 40
0.0
 40
0.0
 40
0.0
 40
0.0
 40
0.0659343996
 40
0.1307786338
 40
0.1945190869
 40
0.2571884297
 40
0.3188803748
 40
0.3494111547
 40
0.3797624252
 40
0.4400381959
 40
0.5000000142
 40
0.5599618336
 40
0.6202376013
 40
0.6505888715
 40
0.68111965
 40
0.7428115909
 40
0.8054809287
 40
0.8692213713
 40
0.9340656013
 40
1.0
 40
1.0
 40
1.0
 40
1.0
 10
3.8136285896
 20
6.6755291487
 30
0.0
 10
3.815516559
 20
6.6787992076
 30
0.0
 10
3.8191349301
 20
6.6853595679
 30
0.0
 10
3.824066339
 20
6.6953530604
 30
0.0
 10
3.8283954557
 20
6.7054202562
 30
0.0
 10
3.8320566079
 20
6.7155586034
 30
0.0
 10
3.8345068654
 20
6.7240922681
 30
0.0
 10
3.8360671299
 20
6.7309378364
 30
0.0
 10
3.8373474037
 20
6.7377586365
 30
0.0
 10
3.8384342196
 20
6.7463242762
 30
0.0
 10
3.838871496
 20
6.756646864
 30
0.0
 10
3.8384342204
 20
6.7669694518
 30
0.0
 10
3.8373474027
 20
6.7755350912
 30
0.0
 10
3.8360671279
 20
6.7823558908
 30
0.0
 10
3.8345068664
 20
6.7892014594
 30
0.0
 10
3.8320566054
 20
6.7977351226
 30
0.0
 10
3.8283954555
 20
6.8078734694
 30
0.0
 10
3.8240663383
 20
6.8179406637
 30
0.0
 10
3.8191349298
 20
6.8279341554
 30
0.0
 10
3.815516559
 20
6.8344945155
 30
0.0
 10
3.8136285896
 20
6.8377645744
 30
0.0
  0
SPLINE
  5
35F
100
AcDbEntity
  8
0
100
AcDbSpline
 62
7
  6
CONTINUOUS
 70
0
 71
3
 72
29
 73
25
 74
0
 42
0.0000001
 43
0.0000001
 44
0.0000000001
 40
0.0
 40
0.0
 40
0.0
 40
0.0
 40
0.0699814326
 40
0.1378931693
 40
0.2035483063
 40
0.2668301071
 40
0.3277577624
 40
0.3574096745
 40
0.3865762134
 40
0.4153250756
 40
0.4437427141
 40
0.4719307121
 40
0.5000000301
 40
0.5280693453
 40
0.5562573422
 40
0.5846749808
 40
0.6134238382
 40
0.6425903726
 40
0.6722422822
 40
0.7331699209
 40
0.796451712
 40
0.8621068357
 40
0.9300185679
 40
1.0
 40
1.0
 40
1.0
 40
1.0
 10
3.7119708513
 20
6.6755291487
 30
0.0
 10
3.7088560267
 20
6.6786439733
 30
0.0
 10
3.7028485704
 20
6.684914221
 30
0.0
 10
3.6944837005
 20
6.694628493
 30
0.0
 10
3.6870144878
 20
6.7045284256
 30
0.0
 10
3.6805857871
 20
6.7146200881
 30
0.0
 10
3.6761793193
 20
6.7232672085
 30
0.0
 10
3.673352393
 20
6.7302589079
 30
0.0
 10
3.6716052759
 20
6.7354907185
 30
0.0
 10
3.6702274621
 20
6.7407518115
 30
0.0
 10
3.6692350053
 20
6.7460367676
 30
0.0
 10
3.6686348105
 20
6.751337647
 30
0.0
 10
3.6684327377
 20
6.756646867
 30
0.0
 10
3.6686348076
 20
6.7619560874
 30
0.0
 10
3.66923501
 20
6.7672569657
 30
0.0
 10
3.6702274641
 20
6.7725419217
 30
0.0
 10
3.6716052762
 20
6.7778030147
 30
0.0
 10
3.6733523974
 20
6.7830348231
 30
0.0
 10
3.6761793222
 20
6.7900265215
 30
0.0
 10
3.6805857895
 20
6.7986736402
 30
0.0
 10
3.6870144902
 20
6.8087652997
 30
0.0
 10
3.6944837013
 20
6.8186652314
 30
0.0
 10
3.7028485708
 20
6.8283795022
 30
0.0
 10
3.7088560267
 20
6.8346497498
 30
0.0
 10
3.7119708513
 20
6.8377645744
 30
0.0
  0
SPLINE
  5
360
100
AcDbEntity
  8
0
100
AcDbSpline
 62
7
  6
CONTINUOUS
 70
0
 71
3
 72
25
 73
21
 74
0
 42
0.0000001
 43
0.0000001
 44
0.0000000001
 40
0.0
 40
0.0
 40
0.0
 40
0.0
 40
0.1249859891
 40
0.1874862541
 40
0.2499858822
 40
0.2812379746
 40
0.3124899424
 40
0.3437420673
 40
0.3749949169
 40
0.4374972714
 40
0.5000000149
 40
0.5625027595
 40
0.6250051101
 40
0.6562579591
 40
0.6875100837
 40
0.7187620486
 40
0.750014138
 40
0.8125137618
 40
0.8750140159
 40
1.0
 40
1.0
 40
1.0
 40
1.0
 10
3.8136285896
 20
6.8377645744
 30
0.0
 10
3.8174350268
 20
6.8509504595
 30
0.0
 10
3.8226657731
 20
6.8708762575
 30
0.0
 10
3.8284293362
 20
6.8977181122
 30
0.0
 10
3.8314738555
 20
6.914607377
 30
0.0
 10
3.8335429788
 20
6.9281774237
 30
0.0
 10
3.8349051271
 20
6.9383826107
 30
0.0
 10
3.8360702724
 20
6.9486123073
 30
0.0
 10
3.8373521573
 20
6.9622797041
 30
0.0
 10
3.838436007
 20
6.9794089268
 30
0.0
 10
3.8388709837
 20
7.000000005
 30
0.0
 10
3.8384360078
 20
7.0205910829
 30
0.0
 10
3.8373521563
 20
7.0377203051
 30
0.0
 10
3.8360702703
 20
7.0513877012
 30
0.0
 10
3.8349051274
 20
7.0616173977
 30
0.0
 10
3.8335429781
 20
7.071822584
 30
0.0
 10
3.8314738535
 20
7.0853926293
 30
0.0
 10
3.8284293361
 20
7.1022818924
 30
0.0
 10
3.8226657721
 20
7.1291237446
 30
0.0
 10
3.8174350266
 20
7.1490495411
 30
0.0
 10
3.8136285896
 20
7.1622354256
 30
0.0
  0
SPLINE
  5
361
100
AcDbEntity
  8
0
100
AcDbSpline
 62
7
  6
CONTINUOUS
 70
0
 71
3
 72
29
 73
25
 74
0
 42
0.0000001
 43
0.0000001
 44
0.0000000001
 40
0.0
 40
0.0
 40
0.0
 40
0.0
 40
0.0624904563
 40
0.124986907
 40
0.1874824592
 40
0.2499774484
 40
0.3124737491
 40
0.343727532
 40
0.3749816508
 40
0.4062351141
 40
0.4374899104
 40
0.4687452438
 40
0.5000000338
 40
0.5312548209
 40
0.562510151
 40
0.5937649481
 40
0.6250184069
 40
0.6562725173
 40
0.6875262971
 40
0.7500225805
 40
0.8125175578
 40
0.8750130976
 40
0.937509544
 40
1.0
 40
1.0
 40
1.0
 40
1.0
 10
3.7119708513
 20
6.8377645744
 30
0.0
 10
3.7088128872
 20
6.8440805025
 30
0.0
 10
3.7027161719
 20
6.8568246313
 30
0.0
 10
3.6943492137
 20
6.8762947767
 30
0.0
 10
3.6868856662
 20
6.8961319207
 30
0.0
 10
3.6804741834
 20
6.9163355535
 30
0.0
 10
3.6761318882
 20
6.9334620213
 30
0.0
 10
3.6733365363
 20
6.9473104666
 30
0.0
 10
3.6715940873
 20
6.9577634496
 30
0.0
 10
3.6702206746
 20
6.968271489
 30
0.0
 10
3.6692319259
 20
6.9788229566
 30
0.0
 10
3.6686341443
 20
6.9894039589
 30
0.0
 10
3.6684329292
 20
7.0000000111
 30
0.0
 10
3.6686341413
 20
7.0105960632
 30
0.0
 10
3.6692319307
 20
7.0211770644
 30
0.0
 10
3.6702206767
 20
7.0317285313
 30
0.0
 10
3.6715940874
 20
7.0422365698
 30
0.0
 10
3.6733365409
 20
7.0526895502
 30
0.0
 10
3.6761318911
 20
7.0665379924
 30
0.0
 10
3.6804741857
 20
7.0836644567
 30
0.0
 10
3.6868856688
 20
7.1038680844
 30
0.0
 10
3.6943492145
 20
7.1237052256
 30
0.0
 10
3.7027161724
 20
7.1431753692
 30
0.0
 10
3.7088128872
 20
7.1559194975
 30
0.0
 10
3.7119708513
 20
7.1622354256
 30
0.0
  0
SPLINE
  5
362
100
AcDbEntity
  8
0
100
AcDbSpline
 62
7
  6
CONTINUOUS
 70
0
 71
3
 72
25
 73
21
 74
0
 42
0.0000001
 43
0.0000001
 44
0.0000000001
 40
0.0
 40
0.0
 40
0.0
 40
0.0
 40
0.0659343996
 40
0.1307786338
 40
0.1945190869
 40
0.2571884297
 40
0.3188803748
 40
0.3494111547
 40
0.3797624252
 40
0.4400381959
 40
0.5000000142
 40
0.5599618336
 40
0.6202376013
 40
0.6505888715
 40
0.68111965
 40
0.7428115909
 40
0.8054809287
 40
0.8692213713
 40
0.9340656013
 40
1.0
 40
1.0
 40
1.0
 40
1.0
 10
3.8136285896
 20
7.1622354256
 30
0.0
 10
3.815516559
 20
7.1655054845
 30
0.0
 10
3.8191349301
 20
7.1720658448
 30
0.0
 10
3.824066339
 20
7.1820593374
 30
0.0
 10
3.8283954557
 20
7.1921265331
 30
0.0
 10
3.8320566079
 20
7.2022648803
 30
0.0
 10
3.8345068654
 20
7.210798545
 30
0.0
 10
3.8360671299
 20
7.2176441133
 30
0.0
 10
3.8373474037
 20
7.2244649134
 30
0.0
 10
3.8384342196
 20
7.2330305531
 30
0.0
 10
3.838871496
 20
7.243353141
 30
0.0
 10
3.8384342204
 20
7.2536757287
 30
0.0
 10
3.8373474027
 20
7.2622413681
 30
0.0
 10
3.8360671279
 20
7.2690621677
 30
0.0
 10
3.8345068664
 20
7.2759077364
 30
0.0
 10
3.8320566054
 20
7.2844413995
 30
0.0
 10
3.8283954555
 20
7.2945797463
 30
0.0
 10
3.8240663383
 20
7.3046469406
 30
0.0
 10
3.8191349298
 20
7.3146404323
 30
0.0
 10
3.815516559
 20
7.3212007924
 30
0.0
 10
3.8136285896
 20
7.3244708513
 30
0.0
  0
SPLINE
  5
363
100
AcDbEntity
  8
0
100
AcDbSpline
 62
7
  6
CONTINUOUS
 70
0
 71
3
 72
14
 73
10
 74
0
 42
0.0000001
 43
0.0000001
 44
0.0000000001
 40
0.0
 40
0.0
 40
0.0
 40
0.0
 40
0.1482925129
 40
0.2898062075
 40
0.4244490134
 40
0.5522430225
 40
0.6733356454
 40
0.7880229143
 40
1.0
 40
1.0
 40
1.0
 40
1.0
 10
6.5856093601
 20
6.8346421148
 30
0.0
 10
6.5864513479
 20
6.8348432985
 30
0.0
 10
6.5880898093
 20
6.8352669465
 30
0.0
 10
6.5904603401
 20
6.8359910986
 30
0.0
 10
6.5926792419
 20
6.836792921
 30
0.0
 10
6.5947386253
 20
6.8376747327
 30
0.0
 10
6.5966318044
 20
6.8386391814
 30
0.0
 10
6.5988637686
 20
6.8400014319
 30
0.0
 10
6.6003632026
 20
6.8412063309
 30
0.0
 10
6.6012311519
 20
6.8420883605
 30
0.0
  0
SPLINE
  5
364
100
AcDbEntity
  8
0
100
AcDbSpline
 62
7
  6
CONTINUOUS
 70
0
 71
3
 72
14
 73
10
 74
0
 42
0.0000001
 43
0.0000001
 44
0.0000000001
 40
0.0
 40
0.0
 40
0.0
 40
0.0
 40
0.1482925075
 40
0.2898061983
 40
0.4244490019
 40
0.5522430104
 40
0.6733356344
 40
0.7880229059
 40
1.0
 40
1.0
 40
1.0
 40
1.0
 10
6.585609364
 20
7.1653578842
 30
0.0
 10
6.5864513516
 20
7.1651567006
 30
0.0
 10
6.5880898123
 20
7.1647330526
 30
0.0
 10
6.5904603424
 20
7.1640089006
 30
0.0
 10
6.5926792434
 20
7.1632070784
 30
0.0
 10
6.5947386261
 20
7.1623252669
 30
0.0
 10
6.5966318046
 20
7.1613608185
 30
0.0
 10
6.5988637681
 20
7.1599985683
 30
0.0
 10
6.6003632018
 20
7.1587936698
 30
0.0
 10
6.601231151
 20
7.1579116405
 30
0.0
  0
SPLINE
  5
365
100
AcDbEntity
  8
0
100
AcDbSpline
 62
7
  6
CONTINUOUS
 70
0
 71
3
 72
11
 73
7
 74
0
 42
0.0000001
 43
0.0000001
 44
0.0000000001
 40
0.0
 40
0.0
 40
0.0
 40
0.0
 40
0.2407875952
 40
0.4892714927
 40
0.7433413311
 40
1.0
 40
1.0
 40
1.0
 40
1.0
 10
6.6096053298
 20
7.1627074315
 30
0.0
 10
6.6077130247
 20
7.1631893699
 30
0.0
 10
6.6038301241
 20
7.1640244857
 30
0.0
 10
6.5978622116
 20
7.1649014995
 30
0.0
 10
6.5917242176
 20
7.1654265612
 30
0.0
 10
6.5875814212
 20
7.1655433037
 30
0.0
 10
6.5855
 20
7.1655433037
 30
0.0
  0
SPLINE
  5
366
100
AcDbEntity
  8
0
100
AcDbSpline
 62
7
  6
CONTINUOUS
 70
0
 71
3
 72
20
 73
16
 74
0
 42
0.0000001
 43
0.0000001
 44
0.0000000001
 40
0.0
 40
0.0
 40
0.0
 40
0.0
 40
0.0505654665
 40
0.1024952178
 40
0.1561006997
 40
0.2115737729
 40
0.3282451003
 40
0.389540032
 40
0.4526247254
 40
0.5173478984
 40
0.5835409393
 40
0.7194154087
 40
0.8587859029
 40
0.9293339903
 40
1.0
 40
1.0
 40
1.0
 40
1.0
 10
6.531
 20
7.1979899689
 30
0.0
 10
6.5309999988
 20
7.1967127443
 30
0.0
 10
6.5311835865
 20
7.1941207793
 30
0.0
 10
6.5319820926
 20
7.1902490763
 30
0.0
 10
6.5332991961
 20
7.1863903149
 30
0.0
 10
6.5357624578
 20
7.1812362114
 30
0.0
 10
6.5391815162
 20
7.1763706217
 30
0.0
 10
6.5433606902
 20
7.1719350224
 30
0.0
 10
6.5469504974
 20
7.1687730264
 30
0.0
 10
6.5509072552
 20
7.1658714703
 30
0.0
 10
6.5566747953
 20
7.1623721832
 30
0.0
 10
6.5646014324
 20
7.1588643635
 30
0.0
 10
6.5731076756
 20
7.1566981736
 30
0.0
 10
6.5801462142
 20
7.1558159937
 30
0.0
 10
6.5837150591
 20
7.1556658601
 30
0.0
 10
6.5855
 20
7.1556658601
 30
0.0
  0
SPLINE
  5
367
100
AcDbEntity
  8
0
100
AcDbSpline
 62
7
  6
CONTINUOUS
 70
0
 71
3
 72
11
 73
7
 74
0
 42
0.0000001
 43
0.0000001
 44
0.0000000001
 40
0.0
 40
0.0
 40
0.0
 40
0.0
 40
0.2566612426
 40
0.5107318764
 40
0.7592141924
 40
1.0
 40
1.0
 40
1.0
 40
1.0
 10
6.5855
 20
6.8344566963
 30
0.0
 10
6.5875814576
 20
6.8344566963
 30
0.0
 10
6.5917243124
 20
6.8345734435
 30
0.0
 10
6.5978623663
 20
6.8350985166
 30
0.0
 10
6.603830301
 20
6.8359755459
 30
0.0
 10
6.6077132016
 20
6.8368106725
 30
0.0
 10
6.6096055061
 20
6.837292614
 30
0.0
  0
SPLINE
  5
368
100
AcDbEntity
  8
0
100
AcDbSpline
 62
7
  6
CONTINUOUS
 70
0
 71
3
 72
11
 73
7
 74
0
 42
0.0000001
 43
0.0000001
 44
0.0000000001
 40
0.0
 40
0.0
 40
0.0
 40
0.0
 40
0.2584303326
 40
0.5134484639
 40
0.7614751758
 40
1.0
 40
1.0
 40
1.0
 40
1.0
 10
6.5855
 20
7.1655433037
 30
0.0
 10
6.5831561975
 20
7.1655433037
 30
0.0
 10
6.5784981782
 20
7.1653957175
 30
0.0
 10
6.5716190976
 20
7.1647311233
 30
0.0
 10
6.5649802185
 20
7.1636205719
 30
0.0
 10
6.5606911509
 20
7.1625578864
 30
0.0
 10
6.5586170009
 20
7.1619433564
 30
0.0
  0
SPLINE
  5
369
100
AcDbEntity
  8
0
100
AcDbSpline
 62
7
  6
CONTINUOUS
 70
0
 71
3
 72
20
 73
16
 74
0
 42
0.0000001
 43
0.0000001
 44
0.0000000001
 40
0.0
 40
0.0
 40
0.0
 40
0.0
 40
0.0706660094
 40
0.1412140951
 40
0.2805845868
 40
0.4164590552
 40
0.4826520952
 40
0.5473752682
 40
0.6104599619
 40
0.6717548941
 40
0.788426224
 40
0.8438992997
 40
0.8975047817
 40
0.9494345319
 40
1.0
 40
1.0
 40
1.0
 40
1.0
 10
6.5855
 20
6.8443341399
 30
0.0
 10
6.5837150592
 20
6.8443341399
 30
0.0
 10
6.5801462144
 20
6.8441840063
 30
0.0
 10
6.5731076761
 20
6.8433018265
 30
0.0
 10
6.5646014333
 20
6.8411356368
 30
0.0
 10
6.5566747964
 20
6.8376278174
 30
0.0
 10
6.5509072565
 20
6.8341285306
 30
0.0
 10
6.5469504988
 20
6.8312269747
 30
0.0
 10
6.5433606915
 20
6.8280649788
 30
0.0
 10
6.5391815174
 20
6.8236293798
 30
0.0
 10
6.5357624589
 20
6.8187637902
 30
0.0
 10
6.5332991969
 20
6.8136096869
 30
0.0
 10
6.5319820932
 20
6.8097509256
 30
0.0
 10
6.5311835866
 20
6.8058792228
 30
0.0
 10
6.5309999987
 20
6.8032872579
 30
0.0
 10
6.531
 20
6.8020100333
 30
0.0
  0
SPLINE
  5
36A
100
AcDbEntity
  8
0
100
AcDbSpline
 62
7
  6
CONTINUOUS
 70
0
 71
3
 72
20
 73
16
 74
0
 42
0.0000001
 43
0.0000001
 44
0.0000000001
 40
0.0
 40
0.0
 40
0.0
 40
0.0
 40
0.0706660095
 40
0.1412140948
 40
0.2805845859
 40
0.4164590544
 40
0.4826520943
 40
0.5473752673
 40
0.6104599611
 40
0.6717548933
 40
0.7884262237
 40
0.8438993003
 40
0.8975047822
 40
0.9494345315
 40
1.0
 40
1.0
 40
1.0
 40
1.0
 10
6.5855
 20
7.1556658601
 30
0.0
 10
6.5872849408
 20
7.1556658601
 30
0.0
 10
6.5908537855
 20
7.1558159937
 30
0.0
 10
6.5978923238
 20
7.1566981735
 30
0.0
 10
6.6063985664
 20
7.1588643632
 30
0.0
 10
6.6143252033
 20
7.1623721824
 30
0.0
 10
6.6200927431
 20
7.1658714692
 30
0.0
 10
6.6240495008
 20
7.168773025
 30
0.0
 10
6.6276393081
 20
7.1719350208
 30
0.0
 10
6.6318184822
 20
7.1763706197
 30
0.0
 10
6.6352375408
 20
7.1812362093
 30
0.0
 10
6.6377008029
 20
7.1863903125
 30
0.0
 10
6.6390179066
 20
7.1902490737
 30
0.0
 10
6.6398164134
 20
7.1941207764
 30
0.0
 10
6.6400000013
 20
7.1967127413
 30
0.0
 10
6.64
 20
7.1979899659
 30
0.0
  0
SPLINE
  5
36B
100
AcDbEntity
  8
0
100
AcDbSpline
 62
7
  6
CONTINUOUS
 70
0
 71
3
 72
15
 73
11
 74
0
 42
0.0000001
 43
0.0000001
 44
0.0000000001
 40
0.0
 40
0.0
 40
0.0
 40
0.0
 40
0.0386050925
 40
0.1475751548
 40
0.3094313714
 40
0.5000104509
 40
0.6905885543
 40
0.852435667
 40
0.9613979889
 40
1.0
 40
1.0
 40
1.0
 40
1.0
 10
6.64
 20
7.28
 30
0.0
 10
6.6386146525
 20
7.2797303241
 30
0.0
 10
6.6333116673
 20
7.2787359308
 30
0.0
 10
6.6221381331
 20
7.2769485262
 30
0.0
 10
6.6053559341
 20
7.2751371425
 30
0.0
 10
6.5854988878
 20
7.2743788691
 30
0.0
 10
6.5656421771
 20
7.2751372498
 30
0.0
 10
6.5488606421
 20
7.2769487042
 30
0.0
 10
6.5376878352
 20
7.2787360357
 30
0.0
 10
6.5323852377
 20
7.2797303496
 30
0.0
 10
6.531
 20
7.28
 30
0.0
  0
SPLINE
  5
36C
100
AcDbEntity
  8
0
100
AcDbSpline
 62
7
  6
CONTINUOUS
 70
0
 71
3
 72
15
 73
11
 74
0
 42
0.0000001
 43
0.0000001
 44
0.0000000001
 40
0.0
 40
0.0
 40
0.0
 40
0.0
 40
0.0386053455
 40
0.1475760302
 40
0.3094330464
 40
0.5000128481
 40
0.6905914226
 40
0.8524371907
 40
0.9613984048
 40
1.0
 40
1.0
 40
1.0
 40
1.0
 10
6.531
 20
6.72
 30
0.0
 10
6.5323853565
 20
6.720269678
 30
0.0
 10
6.5376883731
 20
6.7212640778
 30
0.0
 10
6.5488619684
 20
6.7230514883
 30
0.0
 10
6.5656442467
 20
6.7248628695
 30
0.0
 10
6.5855013664
 20
6.7256211308
 30
0.0
 10
6.6053580714
 20
6.7248627382
 30
0.0
 10
6.6221395319
 20
6.7230512699
 30
0.0
 10
6.6333122342
 20
6.7212639498
 30
0.0
 10
6.6386147771
 20
6.7202696471
 30
0.0
 10
6.64
 20
6.72
 30
0.0
  0
SPLINE
  5
36D
100
AcDbEntity
  8
0
100
AcDbSpline
 62
7
  6
CONTINUOUS
 70
0
 71
3
 72
20
 73
16
 74
0
 42
0.0000001
 43
0.0000001
 44
0.0000000001
 40
0.0
 40
0.0
 40
0.0
 40
0.0
 40
0.0505654656
 40
0.1024952172
 40
0.1561006994
 40
0.2115737723
 40
0.3282450994
 40
0.3895400311
 40
0.4526247245
 40
0.5173478975
 40
0.5835409385
 40
0.719415408
 40
0.8587859027
 40
0.9293339904
 40
1.0
 40
1.0
 40
1.0
 40
1.0
 10
6.64
 20
6.8020100304
 30
0.0
 10
6.6400000012
 20
6.803287255
 30
0.0
 10
6.6398164136
 20
6.8058792199
 30
0.0
 10
6.6390179076
 20
6.809750923
 30
0.0
 10
6.6377008042
 20
6.8136096845
 30
0.0
 10
6.6352375425
 20
6.8187637881
 30
0.0
 10
6.6318184841
 20
6.8236293779
 30
0.0
 10
6.6276393101
 20
6.8280649772
 30
0.0
 10
6.6240495029
 20
6.8312269734
 30
0.0
 10
6.6200927451
 20
6.8341285295
 30
0.0
 10
6.614325205
 20
6.8376278166
 30
0.0
 10
6.6063985678
 20
6.8411356364
 30
0.0
 10
6.5978923246
 20
6.8433018263
 30
0.0
 10
6.5908537859
 20
6.8441840063
 30
0.0
 10
6.5872849409
 20
6.8443341399
 30
0.0
 10
6.5855
 20
6.8443341399
 30
0.0
  0
SPLINE
  5
36E
100
AcDbEntity
  8
0
100
AcDbSpline
 62
7
  6
CONTINUOUS
 70
0
 71
3
 72
11
 73
7
 74
0
 42
0.0000001
 43
0.0000001
 44
0.0000000001
 40
0.0
 40
0.0
 40
0.0
 40
0.0
 40
0.2385264353
 40
0.4865545609
 40
0.7415721001
 40
1.0
 40
1.0
 40
1.0
 40
1.0
 10
6.5586179286
 20
6.83805637
 30
0.0
 10
6.5606920269
 20
6.8374418847
 30
0.0
 10
6.5649809795
 20
6.8363792755
 30
0.0
 10
6.5716196526
 20
6.835268811
 30
0.0
 10
6.5784984765
 20
6.834604269
 30
0.0
 10
6.5831563028
 20
6.8344566963
 30
0.0
 10
6.5855
 20
6.8344566963
 30
0.0
  0
SPLINE
  5
36F
100
AcDbEntity
  8
0
100
AcDbSpline
 62
7
  6
CONTINUOUS
 70
0
 71
3
 72
23
 73
19
 74
0
 42
0.0000001
 43
0.0000001
 44
0.0000000001
 40
0.0
 40
0.0
 40
0.0
 40
0.0
 40
0.0748559547
 40
0.1493045443
 40
0.2227210545
 40
0.2946423651
 40
0.3647100319
 40
0.4326265004
 40
0.4981687047
 40
0.5612066217
 40
0.621743605
 40
0.6798954557
 40
0.7359073817
 40
0.7901482216
 40
0.8430989915
 40
0.895321125
 40
0.9474261314
 40
1.0
 40
1.0
 40
1.0
 40
1.0
 10
6.5855
 20
6.7672595007
 30
0.0
 10
6.5872840739
 20
6.7672595007
 30
0.0
 10
6.5908433045
 20
6.767358884
 30
0.0
 10
6.5961355686
 20
6.767803623
 30
0.0
 10
6.6013243671
 20
6.7685440708
 30
0.0
 10
6.6063565629
 20
6.7695774071
 30
0.0
 10
6.6111852505
 20
6.7709000129
 30
0.0
 10
6.6157664619
 20
6.7725074799
 30
0.0
 10
6.6200584982
 20
6.7743938243
 30
0.0
 10
6.6240212427
 20
6.7765539604
 30
0.0
 10
6.6276193879
 20
6.77897753
 30
0.0
 10
6.6308176377
 20
6.7816565323
 30
0.0
 10
6.6335862084
 20
6.7845757756
 30
0.0
 10
6.6358945925
 20
6.7877201691
 30
0.0
 10
6.6377174278
 20
6.7910674233
 30
0.0
 10
6.6390339779
 20
6.7945910109
 30
0.0
 10
6.6398261578
 20
6.7982583686
 30
0.0
 10
6.6399999988
 20
6.8007570149
 30
0.0
 10
6.64
 20
6.8020100304
 30
0.0
  0
SPLINE
  5
370
100
AcDbEntity
  8
0
100
AcDbSpline
 62
7
  6
CONTINUOUS
 70
0
 71
3
 72
23
 73
19
 74
0
 42
0.0000001
 43
0.0000001
 44
0.0000000001
 40
0.0
 40
0.0
 40
0.0
 40
0.0
 40
0.0748559536
 40
0.1493045397
 40
0.2227210444
 40
0.2946423502
 40
0.3647100133
 40
0.43262648
 40
0.4981686838
 40
0.5612066033
 40
0.6217435899
 40
0.6798954422
 40
0.7359073684
 40
0.7901482087
 40
0.8430989796
 40
0.8953211163
 40
0.9474261278
 40
1.0
 40
1.0
 40
1.0
 40
1.0
 10
6.5855
 20
7.2327404993
 30
0.0
 10
6.5837159261
 20
7.2327404993
 30
0.0
 10
6.5801566956
 20
7.232641116
 30
0.0
 10
6.5748644317
 20
7.2321963771
 30
0.0
 10
6.5696756335
 20
7.2314559293
 30
0.0
 10
6.5646434379
 20
7.2304225931
 30
0.0
 10
6.5598147505
 20
7.2290999873
 30
0.0
 10
6.5552335391
 20
7.2274925206
 30
0.0
 10
6.5509415028
 20
7.2256061762
 30
0.0
 10
6.5469787581
 20
7.2234460401
 30
0.0
 10
6.5433806126
 20
7.2210224704
 30
0.0
 10
6.5401823627
 20
7.218343468
 30
0.0
 10
6.5374137918
 20
7.2154242248
 30
0.0
 10
6.5351054077
 20
7.2122798311
 30
0.0
 10
6.5332825722
 20
7.2089325769
 30
0.0
 10
6.5319660221
 20
7.205408989
 30
0.0
 10
6.5311738422
 20
7.201741631
 30
0.0
 10
6.5310000012
 20
7.1992429845
 30
0.0
 10
6.531
 20
7.1979899689
 30
0.0
  0
SPLINE
  5
371
100
AcDbEntity
  8
0
100
AcDbSpline
 62
7
  6
CONTINUOUS
 70
0
 71
3
 72
23
 73
19
 74
0
 42
0.0000001
 43
0.0000001
 44
0.0000000001
 40
0.0
 40
0.0
 40
0.0
 40
0.0
 40
0.0525738819
 40
0.1046789073
 40
0.1569010514
 40
0.2098518238
 40
0.2640926655
 40
0.3201045934
 40
0.378256446
 40
0.438793431
 40
0.5018313485
 40
0.5673735516
 40
0.6352900191
 40
0.7053576791
 40
0.7772789776
 40
0.8506954713
 40
0.9251440494
 40
1.0
 40
1.0
 40
1.0
 40
1.0
 10
6.531
 20
6.8020100333
 30
0.0
 10
6.5310000013
 20
6.8007570174
 30
0.0
 10
6.5311738423
 20
6.7982583703
 30
0.0
 10
6.531966022
 20
6.7945910114
 30
0.0
 10
6.5332825721
 20
6.7910674227
 30
0.0
 10
6.5351054081
 20
6.7877201684
 30
0.0
 10
6.5374137923
 20
6.7845757745
 30
0.0
 10
6.5401823636
 20
6.7816565313
 30
0.0
 10
6.5433806135
 20
6.7789775288
 30
0.0
 10
6.5469787592
 20
6.7765539592
 30
0.0
 10
6.550941504
 20
6.7743938233
 30
0.0
 10
6.5552335404
 20
6.7725074789
 30
0.0
 10
6.5598147519
 20
6.7709000123
 30
0.0
 10
6.5646434392
 20
6.7695774066
 30
0.0
 10
6.5696756345
 20
6.7685440706
 30
0.0
 10
6.5748644322
 20
6.7678036229
 30
0.0
 10
6.5801566958
 20
6.767358884
 30
0.0
 10
6.5837159261
 20
6.7672595007
 30
0.0
 10
6.5855
 20
6.7672595007
 30
0.0
  0
SPLINE
  5
372
100
AcDbEntity
  8
0
100
AcDbSpline
 62
7
  6
CONTINUOUS
 70
0
 71
3
 72
23
 73
19
 74
0
 42
0.0000001
 43
0.0000001
 44
0.0000000001
 40
0.0
 40
0.0
 40
0.0
 40
0.0
 40
0.0525738861
 40
0.1046789174
 40
0.1569010652
 40
0.2098518385
 40
0.2640926804
 40
0.3201046083
 40
0.378256462
 40
0.4387934498
 40
0.5018313693
 40
0.567373572
 40
0.635290038
 40
0.7053576944
 40
0.777278988
 40
0.850695476
 40
0.9251440506
 40
1.0
 40
1.0
 40
1.0
 40
1.0
 10
6.64
 20
7.1979899659
 30
0.0
 10
6.6399999987
 20
7.1992429818
 30
0.0
 10
6.6398261576
 20
7.2017416293
 30
0.0
 10
6.6390339779
 20
7.2054089885
 30
0.0
 10
6.6377174279
 20
7.2089325775
 30
0.0
 10
6.6358945916
 20
7.2122798319
 30
0.0
 10
6.6335862075
 20
7.2154242259
 30
0.0
 10
6.630817636
 20
7.218343469
 30
0.0
 10
6.6276193859
 20
7.2210224716
 30
0.0
 10
6.6240212401
 20
7.2234460412
 30
0.0
 10
6.6200584951
 20
7.2256061772
 30
0.0
 10
6.6157664587
 20
7.2274925216
 30
0.0
 10
6.6111852471
 20
7.229099988
 30
0.0
 10
6.60635656
 20
7.2304225936
 30
0.0
 10
6.601324365
 20
7.2314559295
 30
0.0
 10
6.5961355675
 20
7.2321963772
 30
0.0
 10
6.5908433042
 20
7.2326411161
 30
0.0
 10
6.5872840739
 20
7.2327404993
 30
0.0
 10
6.5855
 20
7.2327404993
 30
0.0
  0
SPLINE
  5
373
100
AcDbEntity
  8
0
100
AcDbSpline
 62
7
  6
CONTINUOUS
 70
0
 71
3
 72
19
 73
15
 74
0
 42
0.0000001
 43
0.0000001
 44
0.0000000001
 40
0.0
 40
0.0
 40
0.0
 40
0.0
 40
0.1255570989
 40
0.2506679576
 40
0.3130877084
 40
0.3754357534
 40
0.4377309837
 40
0.5000000179
 40
0.5622690537
 40
0.6245642827
 40
0.6869123252
 40
0.7493320735
 40
0.8744429083
 40
1.0
 40
1.0
 40
1.0
 40
1.0
 10
4.4095636659
 20
7.0296137863
 30
0.0
 10
4.4049742637
 20
7.0450270202
 30
0.0
 10
4.3966315149
 20
7.0760520362
 30
0.0
 10
4.3887173624
 20
7.1154008268
 30
0.0
 10
4.3841611242
 20
7.1470876627
 30
0.0
 10
4.3816823816
 20
7.1709256404
 30
0.0
 10
4.3801749663
 20
7.1948256555
 30
0.0
 10
4.3796735152
 20
7.2187580241
 30
0.0
 10
4.38017497
 20
7.2426903924
 30
0.0
 10
4.3816823784
 20
7.2665904077
 30
0.0
 10
4.3841611304
 20
7.2904283836
 30
0.0
 10
4.3887173586
 20
7.3221152171
 30
0.0
 10
4.3966315188
 20
7.3614640021
 30
0.0
 10
4.404974264
 20
7.3924890146
 30
0.0
 10
4.4095636659
 20
7.4079022477
 30
0.0
  0
SPLINE
  5
374
100
AcDbEntity
  8
0
100
AcDbSpline
 62
7
  6
CONTINUOUS
 70
0
 71
3
 72
21
 73
17
 74
0
 42
0.0000001
 43
0.0000001
 44
0.0000000001
 40
0.0
 40
0.0
 40
0.0
 40
0.0
 40
0.1264560126
 40
0.1892875349
 40
0.2518383053
 40
0.3141389815
 40
0.3762244014
 40
0.4381542655
 40
0.5000000641
 40
0.5618458488
 40
0.6237757087
 40
0.6858611075
 40
0.7481617721
 40
0.8107125085
 40
0.8735439971
 40
1.0
 40
1.0
 40
1.0
 40
1.0
 10
4.783
 20
7.0296137863
 30
0.0
 10
4.7906471373
 20
7.0444415588
 30
0.0
 10
4.8012575359
 20
7.0670957235
 30
0.0
 10
4.8130954699
 20
7.0981539187
 30
0.0
 10
4.8206354262
 20
7.1217545486
 30
0.0
 10
4.8266966695
 20
7.1456780355
 30
0.0
 10
4.8311517738
 20
7.1698717309
 30
0.0
 10
4.83386939
 20
7.1942632535
 30
0.0
 10
4.8347910459
 20
7.2187580407
 30
0.0
 10
4.8338693877
 20
7.2432528272
 30
0.0
 10
4.8311517688
 20
7.2676443444
 30
0.0
 10
4.8266966631
 20
7.2918380346
 30
0.0
 10
4.820635417
 20
7.3157615116
 30
0.0
 10
4.8130954668
 20
7.3393621325
 30
0.0
 10
4.8012575302
 20
7.3704203158
 30
0.0
 10
4.7906471367
 20
7.3930744763
 30
0.0
 10
4.783
 20
7.4079022477
 30
0.0
  0
SPLINE
  5
375
100
AcDbEntity
  8
0
100
AcDbSpline
 62
7
  6
CONTINUOUS
 70
0
 71
3
 72
19
 73
15
 74
0
 42
0.0000001
 43
0.0000001
 44
0.0000000001
 40
0.0
 40
0.0
 40
0.0
 40
0.0
 40
0.1255570989
 40
0.2506679576
 40
0.3130877084
 40
0.3754357534
 40
0.4377309837
 40
0.5000000179
 40
0.5622690537
 40
0.6245642827
 40
0.6869123252
 40
0.7493320735
 40
0.8744429083
 40
1.0
 40
1.0
 40
1.0
 40
1.0
 10
4.4095636659
 20
6.5920977523
 30
0.0
 10
4.4049742637
 20
6.6075109862
 30
0.0
 10
4.3966315149
 20
6.6385360022
 30
0.0
 10
4.3887173624
 20
6.6778847928
 30
0.0
 10
4.3841611242
 20
6.7095716287
 30
0.0
 10
4.3816823816
 20
6.7334096064
 30
0.0
 10
4.3801749663
 20
6.7573096215
 30
0.0
 10
4.3796735152
 20
6.7812419901
 30
0.0
 10
4.38017497
 20
6.8051743584
 30
0.0
 10
4.3816823784
 20
6.8290743737
 30
0.0
 10
4.3841611304
 20
6.8529123496
 30
0.0
 10
4.3887173586
 20
6.8845991831
 30
0.0
 10
4.3966315188
 20
6.9239479681
 30
0.0
 10
4.404974264
 20
6.9549729807
 30
0.0
 10
4.4095636659
 20
6.9703862137
 30
0.0
  0
SPLINE
  5
376
100
AcDbEntity
  8
0
100
AcDbSpline
 62
7
  6
CONTINUOUS
 70
0
 71
3
 72
21
 73
17
 74
0
 42
0.0000001
 43
0.0000001
 44
0.0000000001
 40
0.0
 40
0.0
 40
0.0
 40
0.0
 40
0.1264560126
 40
0.1892875349
 40
0.2518383053
 40
0.3141389815
 40
0.3762244014
 40
0.4381542655
 40
0.5000000641
 40
0.5618458488
 40
0.6237757087
 40
0.6858611075
 40
0.7481617721
 40
0.8107125085
 40
0.8735439971
 40
1.0
 40
1.0
 40
1.0
 40
1.0
 10
4.783
 20
6.5920977523
 30
0.0
 10
4.7906471373
 20
6.6069255248
 30
0.0
 10
4.8012575359
 20
6.6295796895
 30
0.0
 10
4.8130954699
 20
6.6606378847
 30
0.0
 10
4.8206354262
 20
6.6842385146
 30
0.0
 10
4.8266966695
 20
6.7081620015
 30
0.0
 10
4.8311517738
 20
6.7323556969
 30
0.0
 10
4.83386939
 20
6.7567472195
 30
0.0
 10
4.8347910459
 20
6.7812420067
 30
0.0
 10
4.8338693877
 20
6.8057367933
 30
0.0
 10
4.8311517688
 20
6.8301283104
 30
0.0
 10
4.8266966631
 20
6.8543220006
 30
0.0
 10
4.820635417
 20
6.8782454777
 30
0.0
 10
4.8130954668
 20
6.9018460985
 30
0.0
 10
4.8012575302
 20
6.9329042818
 30
0.0
 10
4.7906471367
 20
6.9555584424
 30
0.0
 10
4.783
 20
6.9703862137
 30
0.0
  0
ELLIPSE
  5
377
100
AcDbEntity
  8
0
100
AcDbEllipse
 62
7
  6
CONTINUOUS
 10
6.7635
 20
6.677
 30
0.0
 11
-0.0
 21
0.035
 31
0.0
 40
1.0
 41
-4.7123889804
 42
-1.5707963268
  0
ELLIPSE
  5
378
100
AcDbEntity
  8
0
100
AcDbEllipse
 62
7
  6
CONTINUOUS
 10
6.7635
 20
7.323
 30
0.0
 11
0.035
 21
0.0
 31
0.0
 40
1.0
 41
6.2831853072
 42
9.4247779608
  0
ELLIPSE
  5
379
100
AcDbEntity
  8
0
100
AcDbEllipse
 62
7
  6
CONTINUOUS
 10
5.0535
 20
6.591
 30
0.0
 11
-0.0
 21
0.035
 31
0.0
 40
1.0
 41
-4.7123889804
 42
-1.5707963268
  0
ELLIPSE
  5
37A
100
AcDbEntity
  8
0
100
AcDbEllipse
 62
7
  6
CONTINUOUS
 10
5.0535
 20
7.409
 30
0.0
 11
0.035
 21
-0.0
 31
0.0
 40
1.0
 41
0.0
 42
3.1415926536
  0
ELLIPSE
  5
37B
100
AcDbEntity
  8
0
100
AcDbEllipse
 62
7
  6
CONTINUOUS
 10
5.6445
 20
6.591
 30
0.0
 11
0.0
 21
0.035
 31
0.0
 40
1.0
 41
-4.7123889804
 42
-1.5707963268
  0
ELLIPSE
  5
37C
100
AcDbEntity
  8
0
100
AcDbEllipse
 62
7
  6
CONTINUOUS
 10
5.6445
 20
7.409
 30
0.0
 11
0.035
 21
0.0
 31
0.0
 40
1.0
 41
0.0
 42
3.1415926536
  0
ENDSEC
  0
SECTION
  2
OBJECTS
  0
DICTIONARY
  5
C
100
AcDbDictionary
280
0
281
1
  3
ACAD_GROUP
350
D
  3
ACAD_MLINESTYLE
350
17
  3
ACAD_LAYOUT
350
1A
  3
ACAD_PLOTSETTINGS
350
19
  3
ACAD_PLOTSTYLENAME
350
E
  0
DICTIONARY
  5
D
102
{ACAD_REACTORS
330
C
102
}
100
AcDbDictionary
280
0
281
1
  0
ACDBDICTIONARYWDFLT
  5
E
102
{ACAD_REACTORS
330
C
102
}
100
AcDbDictionary
281
1
  3
Normal
350
F
100
AcDbDictionaryWithDefault
340
F
  0
DICTIONARY
  5
17
102
{ACAD_REACTORS
330
C
102
}
100
AcDbDictionary
280
0
281
1
  3
Standard
350
18
  0
DICTIONARY
  5
19
102
{ACAD_REACTORS
330
C
102
}
100
AcDbDictionary
281
1
  0
DICTIONARY
  5
1A
102
{ACAD_REACTORS
330
C
102
}
100
AcDbDictionary
281
1
  3
Model
350
37D
  3
Layout1
350
37E
  0
ACDBPLACEHOLDER
  5
F
102
{ACAD_REACTORS
330
E
102
}
  0
MLINESTYLE
  5
18
102
{ACAD_REACTORS
330
17
102
}
100
AcDbMlineStyle
  2
STANDARD
 70
0
  3

 62
256
 51
90.0
 52
90.0
 71
2
 49
0.5
 62
256
  6
BYLAYER
 49
-0.5
 62
256
  6
BYLAYER
  0
LAYOUT
  5
37D
102
{ACAD_REACTORS
330
1A
102
}
100
AcDbPlotSettings
  1

  2
none_device
  4
ANSI_B_(17.00_x_11.00_Inches)
  6

 40
0.0
 41
0.0
 42
0.0
 43
0.0
 44
431.8
 45
279.4
 46
0.0
 47
0.0
 48
0.0
 49
0.0
140
0.0
141
0.0
142
1.0
143
1.0
 70
1024
 72
0
 73
0
 74
0
  7

 75
0
147
1.0
148
0.0
149
0.0
100
AcDbLayout
  1
Model
 70
0
 71
0
 10
0.0
 20
0.0
 11
17.0
 21
11.0
 12
0.0
 22
0.0
 32
0.0
 14
0.0
 24
0.0
 34
0.0
 15
0.0
 25
0.0
 35
0.0
146
0.0
 13
0.0
 23
0.0
 33
0.0
 16
1.0
 26
0.0
 36
0.0
 17
0.0
 27
1.0
 37
0.0
 76
0
330
251
345
0
346
0
  0
LAYOUT
  5
37E
102
{ACAD_REACTORS
330
1A
102
}
100
AcDbPlotSettings
  1

  2
none_device
  4
ANSI_B_(17.00_x_11.00_Inches)
  6

 40
0.0
 41
0.0
 42
0.0
 43
0.0
 44
431.8
 45
279.4
 46
0.0
 47
0.0
 48
0.0
 49
0.0
140
0.0
141
0.0
142
1.0
143
1.0
 70
0
 72
0
 73
0
 74
0
  7

 75
0
147
1.0
148
0.0
149
0.0
100
AcDbLayout
  1
Layout1
 70
0
 71
1
 10
0.0
 20
0.0
 11
17.0
 21
11.0
 12
0.0
 22
0.0
 32
0.0
 14
0.0
 24
0.0
 34
0.0
 15
0.0
 25
0.0
 35
0.0
146
0.0
 13
0.0
 23
0.0
 33
0.0
 16
1.0
 26
0.0
 36
0.0
 17
0.0
 27
1.0
 37
0.0
 76
0
330
252
345
0
346
0
  0
ENDSEC
  0
EOF
