999
DXF file: NFDCLAN.dxf
999
Pro/ENGINEER 2016010 by Parametric Technology Corporation
  0
SECTION
  2
HEADER
  9
$ACADVER
  1
AC1021
  9
$DWGCODEPAGE
  3
ANSI_1252
  9
$EXTMAX
 10
17.0
 20
11.0
 30
0.0
  9
$EXTMIN
 10
0.0
 20
0.0
 30
0.0
  9
$LIMMIN
 10
0.0
 20
0.0
  9
$LIMMAX
 10
17.0
 20
11.0
  9
$VIEWCTR
 10
8.5
 20
5.5
  9
$VIEWSIZE
 40
11.0
  9
$CLAYER
  8
0
  9
$LTSCALE
 40
0.935
  9
$CELTYPE
  6
BYLAYER
  9
$DIMSCALE
 40
1.0
  9
$DIMASZ
 40
0.1875
  9
$DIMEXO
 40
0.0625
  9
$DIMDLI
 40
0.646
  9
$DIMEXE
 40
0.125
  9
$DIMCEN
 40
0.153
  9
$DIMLFAC
 40
1.0
  9
$DIMBLK
  1
_FILLED
  9
$DIMALT
 70
0
  9
$DIMALTF
 40
25.4
  9
$DIMTXT
 40
0.125
  9
$DIMTOL
 70
0
  9
$DIMLIM
 70
0
  9
$DIMTFAC
 40
1.0
  9
$DIMGAP
 40
0.09
  9
$DIMDSEP
 70
46
  9
$AUNITS
 70
0
  9
$PDMODE
 70
3
  9
$PDSIZE
 40
0.3125
  9
$HANDSEED
  5
2E9
  9
$TILEMODE
 70
1
  9
$MEASUREMENT
 70
0
  9
$INSUNITS
 70
1
  0
ENDSEC
  0
SECTION
  2
CLASSES
  0
CLASS
  1
ACDBDICTIONARYWDFLT
  2
AcDbDictionaryWithDefault
  3
AutoCAD 2000
 90
0
 91
1
280
0
281
0
  0
CLASS
  1
ACDBPLACEHOLDER
  2
AcDbPlaceHolder
  3
AutoCAD 2000
 90
0
 91
1
280
0
281
0
  0
CLASS
  1
LAYOUT
  2
AcDbLayout
  3
AutoCAD 2000
 90
0
 91
0
280
0
281
0
  0
ENDSEC
  0
SECTION
  2
TABLES
  0
TABLE
  2
VPORT
  5
8
100
AcDbSymbolTable
 70
2
  0
VPORT
  5
1F4
100
AcDbSymbolTableRecord
100
AcDbViewportTableRecord
  2
*ACTIVE
 70
0
 10
0.0
 20
0.0
 11
1.0
 21
1.0
 12
8.5
 22
5.5
 13
0.0
 23
0.0
 14
1.0
 24
1.0
 15
0.0
 25
0.0
 16
0.0
 26
0.0
 36
1.0
 17
0.0
 27
0.0
 37
0.0
 40
11.0
 41
1.5454545455
 42
50.0
 43
0.0
 44
0.0
 50
0.0
 51
0.0
 71
0
 72
100
 73
1
 74
1
 75
0
 76
0
 77
0
 78
0
  0
ENDTAB
  0
TABLE
  2
LTYPE
  5
5
100
AcDbSymbolTable
 70
6
  0
LTYPE
  5
14
100
AcDbSymbolTableRecord
100
AcDbLinetypeTableRecord
  2
BYBLOCK
 70
0
  3

 72
65
 73
0
 40
0.0
  0
LTYPE
  5
15
100
AcDbSymbolTableRecord
100
AcDbLinetypeTableRecord
  2
BYLAYER
 70
0
  3

 72
65
 73
0
 40
0.0
  0
LTYPE
  5
16
100
AcDbSymbolTableRecord
100
AcDbLinetypeTableRecord
  2
CONTINUOUS
 70
64
  3
Solid line
 72
65
 73
0
 40
0.0
  0
LTYPE
  5
1F5
100
AcDbSymbolTableRecord
100
AcDbLinetypeTableRecord
  2
CENTER
 70
64
  3
____ _ ____ _ ____ _ ____ _ ____ _ ____ _ ____
 72
65
 73
4
 40
0.6
 49
0.375
 74
0
 49
-0.075
 74
0
 49
0.075
 74
0
 49
-0.075
 74
0
  0
LTYPE
  5
1F6
100
AcDbSymbolTableRecord
100
AcDbLinetypeTableRecord
  2
HIDDEN
 70
64
  3
- - - - - - - - - - - - - - - - - - - -
 72
65
 73
2
 40
0.2
 49
0.1
 74
0
 49
-0.1
 74
0
  0
LTYPE
  5
1F7
100
AcDbSymbolTableRecord
100
AcDbLinetypeTableRecord
  2
PHANTOM
 70
64
  3
_____ _ _ _____ _ _ _____ _ _ _____
 72
65
 73
6
 40
0.8
 49
0.45
 74
0
 49
-0.05
 74
0
 49
0.1
 74
0
 49
-0.05
 74
0
 49
0.1
 74
0
 49
-0.05
 74
0
  0
LTYPE
  5
1F8
100
AcDbSymbolTableRecord
100
AcDbLinetypeTableRecord
  2
DOT
 70
64
  3
. . . . . . . . . . . . . . . . . . . .
 72
65
 73
2
 40
0.2
 49
0.1
 74
0
 49
-0.1
 74
0
  0
LTYPE
  5
1F9
100
AcDbSymbolTableRecord
100
AcDbLinetypeTableRecord
  2
DASHED
 70
64
  3
- - - - - - - - - - - - - - - - - - - -
 72
65
 73
2
 40
0.2
 49
0.1
 74
0
 49
-0.1
 74
0
  0
ENDTAB
  0
TABLE
  2
LAYER
  5
2
100
AcDbSymbolTable
 70
36
  0
LAYER
  5
10
100
AcDbSymbolTableRecord
100
AcDbLayerTableRecord
  2
0
 70
0
 62
7
  6
CONTINUOUS
370
-3
390
F
  0
LAYER
  5
1FA
100
AcDbSymbolTableRecord
100
AcDbLayerTableRecord
  2
DEFAULT_1
 70
0
 62
7
  6
CENTER
370
-3
390
F
  0
LAYER
  5
1FB
100
AcDbSymbolTableRecord
100
AcDbLayerTableRecord
  2
DEFAULT_2
 70
0
 62
8
  6
HIDDEN
370
-3
390
F
  0
LAYER
  5
1FC
100
AcDbSymbolTableRecord
100
AcDbLayerTableRecord
  2
DEFAULT_3
 70
0
 62
7
  6
PHANTOM
370
-3
390
F
  0
LAYER
  5
1FD
100
AcDbSymbolTableRecord
100
AcDbLayerTableRecord
  2
01_ALL_DTM_PLN
 70
0
 62
7
  6
CONTINUOUS
370
-3
390
F
  0
LAYER
  5
1FE
100
AcDbSymbolTableRecord
100
AcDbLayerTableRecord
  2
01__ASM_ALL_DTM_PLN
 70
0
 62
7
  6
CONTINUOUS
370
-3
390
F
  0
LAYER
  5
1FF
100
AcDbSymbolTableRecord
100
AcDbLayerTableRecord
  2
01__ASM_DEF_DTM_PLN
 70
0
 62
7
  6
CONTINUOUS
370
-3
390
F
  0
LAYER
  5
200
100
AcDbSymbolTableRecord
100
AcDbLayerTableRecord
  2
01___PRT_ALL_DTM_PLN
 70
0
 62
7
  6
CONTINUOUS
370
-3
390
F
  0
LAYER
  5
201
100
AcDbSymbolTableRecord
100
AcDbLayerTableRecord
  2
01___PRT_DEF_DTM_PLN
 70
0
 62
7
  6
CONTINUOUS
370
-3
390
F
  0
LAYER
  5
202
100
AcDbSymbolTableRecord
100
AcDbLayerTableRecord
  2
02_ALL_AXES
 70
0
 62
7
  6
CONTINUOUS
370
-3
390
F
  0
LAYER
  5
203
100
AcDbSymbolTableRecord
100
AcDbLayerTableRecord
  2
02__ASM_ALL_AXES
 70
0
 62
7
  6
CONTINUOUS
370
-3
390
F
  0
LAYER
  5
204
100
AcDbSymbolTableRecord
100
AcDbLayerTableRecord
  2
02___PRT_ALL_AXES
 70
0
 62
7
  6
CONTINUOUS
370
-3
390
F
  0
LAYER
  5
205
100
AcDbSymbolTableRecord
100
AcDbLayerTableRecord
  2
03_ALL_CURVES
 70
0
 62
7
  6
CONTINUOUS
370
-3
390
F
  0
LAYER
  5
206
100
AcDbSymbolTableRecord
100
AcDbLayerTableRecord
  2
03__ASM_ALL_CURVES
 70
0
 62
7
  6
CONTINUOUS
370
-3
390
F
  0
LAYER
  5
207
100
AcDbSymbolTableRecord
100
AcDbLayerTableRecord
  2
03___PRT_ALL_CURVES
 70
0
 62
7
  6
CONTINUOUS
370
-3
390
F
  0
LAYER
  5
208
100
AcDbSymbolTableRecord
100
AcDbLayerTableRecord
  2
04_ALL_DTM_PNT
 70
0
 62
7
  6
CONTINUOUS
370
-3
390
F
  0
LAYER
  5
209
100
AcDbSymbolTableRecord
100
AcDbLayerTableRecord
  2
04__ASM_ALL_DTM_PNT
 70
0
 62
7
  6
CONTINUOUS
370
-3
390
F
  0
LAYER
  5
20A
100
AcDbSymbolTableRecord
100
AcDbLayerTableRecord
  2
04___PRT_ALL_DTM_PNT
 70
0
 62
7
  6
CONTINUOUS
370
-3
390
F
  0
LAYER
  5
20B
100
AcDbSymbolTableRecord
100
AcDbLayerTableRecord
  2
05_ALL_DTM_CSYS
 70
0
 62
7
  6
CONTINUOUS
370
-3
390
F
  0
LAYER
  5
20C
100
AcDbSymbolTableRecord
100
AcDbLayerTableRecord
  2
05__ASM_ALL_DTM_CSYS
 70
0
 62
7
  6
CONTINUOUS
370
-3
390
F
  0
LAYER
  5
20D
100
AcDbSymbolTableRecord
100
AcDbLayerTableRecord
  2
05__ASM_DEF_DTM_CSYS
 70
0
 62
7
  6
CONTINUOUS
370
-3
390
F
  0
LAYER
  5
20E
100
AcDbSymbolTableRecord
100
AcDbLayerTableRecord
  2
05___PRT_ALL_DTM_CSYS
 70
0
 62
7
  6
CONTINUOUS
370
-3
390
F
  0
LAYER
  5
20F
100
AcDbSymbolTableRecord
100
AcDbLayerTableRecord
  2
05___PRT_DEF_DTM_CSYS
 70
0
 62
7
  6
CONTINUOUS
370
-3
390
F
  0
LAYER
  5
210
100
AcDbSymbolTableRecord
100
AcDbLayerTableRecord
  2
06_ALL_SURFS
 70
0
 62
7
  6
CONTINUOUS
370
-3
390
F
  0
LAYER
  5
211
100
AcDbSymbolTableRecord
100
AcDbLayerTableRecord
  2
06__ASM_ALL_SURFS
 70
0
 62
7
  6
CONTINUOUS
370
-3
390
F
  0
LAYER
  5
212
100
AcDbSymbolTableRecord
100
AcDbLayerTableRecord
  2
06___PRT_ALL_SURFS
 70
0
 62
7
  6
CONTINUOUS
370
-3
390
F
  0
LAYER
  5
213
100
AcDbSymbolTableRecord
100
AcDbLayerTableRecord
  2
07__ASM_ALL_SKELETONS
 70
0
 62
7
  6
CONTINUOUS
370
-3
390
F
  0
LAYER
  5
214
100
AcDbSymbolTableRecord
100
AcDbLayerTableRecord
  2
125-146_FEATURES
 70
0
 62
7
  6
CONTINUOUS
370
-3
390
F
  0
LAYER
  5
215
100
AcDbSymbolTableRecord
100
AcDbLayerTableRecord
  2
125-146_REF_GEOMETRY
 70
0
 62
7
  6
CONTINUOUS
370
-3
390
F
  0
LAYER
  5
216
100
AcDbSymbolTableRecord
100
AcDbLayerTableRecord
  2
125-194_FEATURES
 70
0
 62
7
  6
CONTINUOUS
370
-3
390
F
  0
LAYER
  5
217
100
AcDbSymbolTableRecord
100
AcDbLayerTableRecord
  2
125-194_REF_GEOMETRY
 70
0
 62
7
  6
CONTINUOUS
370
-3
390
F
  0
LAYER
  5
218
100
AcDbSymbolTableRecord
100
AcDbLayerTableRecord
  2
125-195_FEATURES
 70
0
 62
7
  6
CONTINUOUS
370
-3
390
F
  0
LAYER
  5
219
100
AcDbSymbolTableRecord
100
AcDbLayerTableRecord
  2
125-195_REF_GEOMETRY
 70
0
 62
7
  6
CONTINUOUS
370
-3
390
F
  0
LAYER
  5
21A
100
AcDbSymbolTableRecord
100
AcDbLayerTableRecord
  2
125-198_FEATURES
 70
0
 62
7
  6
CONTINUOUS
370
-3
390
F
  0
LAYER
  5
21B
100
AcDbSymbolTableRecord
100
AcDbLayerTableRecord
  2
125-198_REF_GEOMETRY
 70
0
 62
7
  6
CONTINUOUS
370
-3
390
F
  0
LAYER
  5
21C
100
AcDbSymbolTableRecord
100
AcDbLayerTableRecord
  2
COPY_GEO_FET
 70
0
 62
7
  6
CONTINUOUS
370
-3
390
F
  0
LAYER
  5
21D
100
AcDbSymbolTableRecord
100
AcDbLayerTableRecord
  2
COSMETIC
 70
0
 62
7
  6
CONTINUOUS
370
-3
390
F
  0
LAYER
  5
21E
100
AcDbSymbolTableRecord
100
AcDbLayerTableRecord
  2
CURVES
 70
0
 62
7
  6
CONTINUOUS
370
-3
390
F
  0
LAYER
  5
21F
100
AcDbSymbolTableRecord
100
AcDbLayerTableRecord
  2
CUT_REF_SURF
 70
0
 62
7
  6
CONTINUOUS
370
-3
390
F
  0
LAYER
  5
220
100
AcDbSymbolTableRecord
100
AcDbLayerTableRecord
  2
DATUM
 70
0
 62
7
  6
CONTINUOUS
370
-3
390
F
  0
LAYER
  5
221
100
AcDbSymbolTableRecord
100
AcDbLayerTableRecord
  2
DATUMCURVES
 70
0
 62
7
  6
CONTINUOUS
370
-3
390
F
  0
LAYER
  5
222
100
AcDbSymbolTableRecord
100
AcDbLayerTableRecord
  2
DATUM_PLANES
 70
0
 62
7
  6
CONTINUOUS
370
-3
390
F
  0
LAYER
  5
223
100
AcDbSymbolTableRecord
100
AcDbLayerTableRecord
  2
DIMENSIONS
 70
0
 62
7
  6
CONTINUOUS
370
-3
390
F
  0
LAYER
  5
224
100
AcDbSymbolTableRecord
100
AcDbLayerTableRecord
  2
DMT
 70
0
 62
7
  6
CONTINUOUS
370
-3
390
F
  0
LAYER
  5
225
100
AcDbSymbolTableRecord
100
AcDbLayerTableRecord
  2
DP_SERRATIONS
 70
0
 62
7
  6
CONTINUOUS
370
-3
390
F
  0
LAYER
  5
226
100
AcDbSymbolTableRecord
100
AcDbLayerTableRecord
  2
DRAWINGNOTES
 70
0
 62
7
  6
CONTINUOUS
370
-3
390
F
  0
LAYER
  5
227
100
AcDbSymbolTableRecord
100
AcDbLayerTableRecord
  2
DTM
 70
0
 62
7
  6
CONTINUOUS
370
-3
390
F
  0
LAYER
  5
228
100
AcDbSymbolTableRecord
100
AcDbLayerTableRecord
  2
DTM230
 70
0
 62
7
  6
CONTINUOUS
370
-3
390
F
  0
LAYER
  5
229
100
AcDbSymbolTableRecord
100
AcDbLayerTableRecord
  2
DTM_500001
 70
0
 62
7
  6
CONTINUOUS
370
-3
390
F
  0
LAYER
  5
22A
100
AcDbSymbolTableRecord
100
AcDbLayerTableRecord
  2
DTM_500002
 70
0
 62
7
  6
CONTINUOUS
370
-3
390
F
  0
LAYER
  5
22B
100
AcDbSymbolTableRecord
100
AcDbLayerTableRecord
  2
DTM_515002
 70
0
 62
7
  6
CONTINUOUS
370
-3
390
F
  0
LAYER
  5
22C
100
AcDbSymbolTableRecord
100
AcDbLayerTableRecord
  2
DTM_530-102
 70
0
 62
7
  6
CONTINUOUS
370
-3
390
F
  0
LAYER
  5
22D
100
AcDbSymbolTableRecord
100
AcDbLayerTableRecord
  2
GEOMETRICTOLERANCES
 70
0
 62
7
  6
CONTINUOUS
370
-3
390
F
  0
LAYER
  5
22E
100
AcDbSymbolTableRecord
100
AcDbLayerTableRecord
  2
HIDDEN
 70
0
 62
7
  6
CONTINUOUS
370
-3
390
F
  0
LAYER
  5
22F
100
AcDbSymbolTableRecord
100
AcDbLayerTableRecord
  2
HIDDEN_DRW
 70
0
 62
7
  6
CONTINUOUS
370
-3
390
F
  0
LAYER
  5
230
100
AcDbSymbolTableRecord
100
AcDbLayerTableRecord
  2
LAY0001
 70
0
 62
7
  6
CONTINUOUS
370
-3
390
F
  0
LAYER
  5
231
100
AcDbSymbolTableRecord
100
AcDbLayerTableRecord
  2
PARAMETERDIMENSIONS
 70
0
 62
7
  6
CONTINUOUS
370
-3
390
F
  0
LAYER
  5
232
100
AcDbSymbolTableRecord
100
AcDbLayerTableRecord
  2
PART
 70
0
 62
7
  6
CONTINUOUS
370
-3
390
F
  0
LAYER
  5
233
100
AcDbSymbolTableRecord
100
AcDbLayerTableRecord
  2
PLANE
 70
0
 62
7
  6
CONTINUOUS
370
-3
390
F
  0
LAYER
  5
234
100
AcDbSymbolTableRecord
100
AcDbLayerTableRecord
  2
PLANE_PATTERN
 70
0
 62
7
  6
CONTINUOUS
370
-3
390
F
  0
LAYER
  5
235
100
AcDbSymbolTableRecord
100
AcDbLayerTableRecord
  2
TEXT
 70
0
 62
7
  6
CONTINUOUS
370
-3
390
F
  0
LAYER
  5
236
100
AcDbSymbolTableRecord
100
AcDbLayerTableRecord
  2
THREAD
 70
0
 62
7
  6
CONTINUOUS
370
-3
390
F
  0
LAYER
  5
237
100
AcDbSymbolTableRecord
100
AcDbLayerTableRecord
  2
XSEC_DATUMS
 70
0
 62
7
  6
CONTINUOUS
370
-3
390
F
  0
ENDTAB
  0
TABLE
  2
STYLE
  5
3
100
AcDbSymbolTable
 70
1
  0
STYLE
  5
11
100
AcDbSymbolTableRecord
100
AcDbTextStyleTableRecord
  2
STANDARD
 70
0
 40
0.0
 41
0.8
 50
0.0
 71
0
 42
0.2
  3
txt
  4

  0
STYLE
  5
238
100
AcDbSymbolTableRecord
100
AcDbTextStyleTableRecord
  2
TEXTSTYLE_1
 70
0
 40
0.0
 41
0.8
 50
0.0
 71
0
 42
0.2
  3
gdt
  4

  0
ENDTAB
  0
TABLE
  2
VIEW
  5
6
100
AcDbSymbolTable
 70
0
  0
ENDTAB
  0
TABLE
  2
UCS
  5
7
100
AcDbSymbolTable
 70
0
  0
ENDTAB
  0
TABLE
  2
APPID
  5
9
100
AcDbSymbolTable
 70
1
  0
APPID
  5
239
100
AcDbSymbolTableRecord
100
AcDbRegAppTableRecord
  2
ACAD
 70
0
  0
ENDTAB
  0
TABLE
  2
BLOCK_RECORD
  5
1
100
AcDbSymbolTable
 70
0
  0
BLOCK_RECORD
  5
23A
100
AcDbSymbolTableRecord
100
AcDbBlockTableRecord
  2
*Model_Space
  0
BLOCK_RECORD
  5
23B
100
AcDbSymbolTableRecord
100
AcDbBlockTableRecord
  2
*Paper_Space
  0
BLOCK_RECORD
  5
23C
100
AcDbSymbolTableRecord
100
AcDbBlockTableRecord
  2
_FILLED
  0
BLOCK_RECORD
  5
23D
100
AcDbSymbolTableRecord
100
AcDbBlockTableRecord
  2
*D0
  0
ENDTAB
  0
TABLE
  2
DIMSTYLE
  5
A
100
AcDbSymbolTable
 70
1
100
AcDbDimStyleTable
 71
0
  0
DIMSTYLE
105
23E
100
AcDbSymbolTableRecord
100
AcDbDimStyleTableRecord
  2
STANDARD
 70
0
  3

  4

 40
1.0
 41
0.1875
 42
0.0625
 43
0.38
 44
0.125
 45
0.0
 46
0.0
 47
0.001
 48
0.001
140
0.125
141
0.09
142
0.0
143
25.4
144
1.0
145
0.0
146
1.0
147
0.09
 71
0.0
 72
0.0
 73
1
 74
1
 75
0
 76
0
 77
0
 78
4
170
0
171
2
172
0
173
0
174
0
175
0
176
0
177
0
178
0
270
2
271
3
272
3
273
2
274
2
275
0
280
0
281
0
282
0
283
1
284
4
285
0
286
0
287
3
288
0
340
11
278
46
341
23C
342
23C
343
23C
344
23C
  0
DIMSTYLE
105
23F
100
AcDbSymbolTableRecord
100
AcDbDimStyleTableRecord
  2
DIMSTYLE_1
 70
0
  3

  4

 40
1.0
 41
0.1875
 42
0.0625
 43
0.38
 44
0.125
 45
0.0
 46
0.0
 47
0.0
 48
0.0
140
0.125
141
0.09
142
0.0
143
25.4
144
1.0
145
0.0
146
1.0
147
0.0625
 71
0.0
 72
0.0
 73
1
 74
1
 75
0
 76
0
 77
0
 78
4
170
0
171
2
172
0
173
0
174
0
175
0
176
0
177
0
178
0
270
2
271
2
272
2
273
2
274
2
275
0
280
0
281
0
282
0
283
1
284
4
285
0
286
0
287
3
288
0
340
11
278
46
341
23C
342
23C
343
23C
344
23C
  0
ENDTAB
  0
ENDSEC
  0
SECTION
  2
BLOCKS
  0
BLOCK
  5
20
100
AcDbEntity
  8
0
100
AcDbBlockBegin
  2
*Model_Space
 70
0
 10
0.0
 20
0.0
 30
0.0
  3
*Model_Space
  1

  0
ENDBLK
  5
21
100
AcDbEntity
  8
0
100
AcDbBlockEnd
  0
BLOCK
  5
1C
100
AcDbEntity
  8
0
100
AcDbBlockBegin
  2
*Paper_Space
 70
0
 10
0.0
 20
0.0
 30
0.0
  3
*Paper_Space
  1

  0
ENDBLK
  5
1D
100
AcDbEntity
  8
0
100
AcDbBlockEnd
  0
BLOCK
  5
240
100
AcDbEntity
  8
0
100
AcDbBlockBegin
  2
_FILLED
 70
64
 10
0.0
 20
0.0
  3
_FILLED
  1

  0
SOLID
  5
241
100
AcDbEntity
  8
0
  6
BYBLOCK
 62
0
100
AcDbTrace
 10
0.0
 20
0.0
 11
-1.0
 21
0.1666666667
 12
-1.0
 22
-0.1666666667
 13
-1.0
 23
-0.1666666667
  0
ENDBLK
  5
242
100
AcDbEntity
  8
0
  6
BYBLOCK
 62
0
100
AcDbBlockEnd
  0
BLOCK
  5
243
100
AcDbEntity
  8
0
100
AcDbBlockBegin
 62
6
  6
CONTINUOUS
  2
*D0
 70
65
 10
0.0
 20
0.0
  3
*D0
  1

  0
MTEXT
  5
244
100
AcDbEntity
  8
0
100
AcDbMText
 62
6
  6
CONTINUOUS
  7
STANDARD
 71
1
 72
1
 10
4.9245
 20
9.1582582501
 30
0.0
 11
1.0
 21
0.0
 31
0.0
 44
0.9
  1
2.35 in (59,7 mm)
 40
0.125
 41
1.7
  0
LINE
  5
245
100
AcDbEntity
  8
0
100
AcDbLine
 62
6
  6
CONTINUOUS
 10
4.6745
 20
8.4082582501
 11
4.6745
 21
9.2207582501
  0
LINE
  5
246
100
AcDbEntity
  8
0
100
AcDbLine
 62
6
  6
CONTINUOUS
 10
2.3235
 20
7.8702582501
 11
2.3235
 21
9.2207582501
  0
LINE
  5
247
100
AcDbEntity
  8
0
100
AcDbLine
 62
6
  6
CONTINUOUS
 10
4.6745
 20
9.0957582501
 11
3.499
 21
9.0957582501
  0
LINE
  5
248
100
AcDbEntity
  8
0
100
AcDbLine
 62
6
  6
CONTINUOUS
 10
3.499
 20
9.0957582501
 11
4.862
 21
9.0957582501
  0
LINE
  5
249
100
AcDbEntity
  8
0
100
AcDbLine
 62
6
  6
CONTINUOUS
 10
2.3235
 20
9.0957582501
 11
3.499
 21
9.0957582501
  0
INSERT
  5
24A
100
AcDbEntity
  8
0
100
AcDbBlockReference
 62
6
  6
CONTINUOUS
  2
_FILLED
 10
4.6745
 20
9.0957582501
 41
0.1875
 42
0.1875
 43
0.1875
  0
INSERT
  5
24B
100
AcDbEntity
  8
0
100
AcDbBlockReference
 62
6
  6
CONTINUOUS
  2
_FILLED
 10
2.3235
 20
9.0957582501
 41
0.1875
 42
0.1875
 43
0.1875
 50
180.0
  0
ENDBLK
  5
24C
100
AcDbEntity
  8
0
  6
BYBLOCK
 62
0
100
AcDbBlockEnd
  0
ENDSEC
  0
SECTION
  2
ENTITIES
  0
DIMENSION
  5
24D
100
AcDbEntity
  8
0
100
AcDbDimension
 62
6
  6
CONTINUOUS
  2
*D0
 10
2.3235
 20
9.0957582501
 11
5.7745
 21
9.0957582501
 70
160
 71
1
 42
2.351
  1
<> in (59,7 mm)
  3
DIMSTYLE_1
100
AcDbAlignedDimension
 13
4.6745
 23
8.3457582501
 14
2.3235
 24
7.8077582501
 50
180.0
100
AcDbRotatedDimension
  0
MTEXT
  5
24E
100
AcDbEntity
  8
0
100
AcDbMText
 62
2
  6
CONTINUOUS
  7
STANDARD
 71
1
 72
1
 10
6.5595
 20
7.8702582501
 30
0.0
 11
1.0
 21
0.0
 31
0.0
 44
0.6
  1
Port 1
 40
0.125
 41
0.6
  0
MTEXT
  5
24F
100
AcDbEntity
  8
0
100
AcDbMText
 62
2
  6
CONTINUOUS
  7
STANDARD
 71
1
 72
1
 10
5.5185
 20
7.1512582501
 30
0.0
 11
1.0
 21
0.0
 31
0.0
 44
0.6
  1
Port 2
 40
0.125
 41
0.6
  0
MTEXT
  5
250
100
AcDbEntity
  8
0
100
AcDbMText
 62
2
  6
CONTINUOUS
  7
STANDARD
 71
1
 72
1
 10
4.9245
 20
8.9082582501
 30
0.0
 11
1.0
 21
0.0
 31
0.0
 44
0.6
  1
 LOCATING SHOULDER
 40
0.125
 41
1.8
  0
LINE
  5
251
100
AcDbEntity
  8
0
100
AcDbLine
 62
7
  6
CONTINUOUS
 10
2.3235
 20
7.9607582501
 11
2.3235
 21
7.6547582501
  0
LINE
  5
252
100
AcDbEntity
  8
0
100
AcDbLine
 62
7
  6
CONTINUOUS
 10
2.3545
 20
7.9917582501
 11
2.3545
 21
7.6237582501
  0
LINE
  5
253
100
AcDbEntity
  8
0
100
AcDbLine
 62
7
  6
CONTINUOUS
 10
2.3235
 20
7.9607582501
 11
2.3545
 21
7.9917582501
  0
LINE
  5
254
100
AcDbEntity
  8
0
100
AcDbLine
 62
7
  6
CONTINUOUS
 10
2.6785
 20
7.5601041632
 11
2.6785
 21
8.0554123371
  0
LINE
  5
255
100
AcDbEntity
  8
0
100
AcDbLine
 62
7
  6
CONTINUOUS
 10
2.7405
 20
7.5367582501
 11
2.7405
 21
8.0787582501
  0
LINE
  5
256
100
AcDbEntity
  8
0
100
AcDbLine
 62
7
  6
CONTINUOUS
 10
2.7465
 20
7.5367582501
 11
2.7465
 21
8.0787582501
  0
LINE
  5
257
100
AcDbEntity
  8
0
100
AcDbLine
 62
7
  6
CONTINUOUS
 10
2.752
 20
8.0732582501
 11
2.752
 21
7.5422582501
  0
LINE
  5
258
100
AcDbEntity
  8
0
100
AcDbLine
 62
7
  6
CONTINUOUS
 10
2.768
 20
8.0732582501
 11
2.768
 21
7.5422582501
  0
LINE
  5
259
100
AcDbEntity
  8
0
100
AcDbLine
 62
7
  6
CONTINUOUS
 10
2.8269708513
 20
8.1322291014
 11
2.768
 21
8.0732582501
  0
LINE
  5
25A
100
AcDbEntity
  8
0
100
AcDbLine
 62
7
  6
CONTINUOUS
 10
2.9905
 20
8.2427582501
 11
3.0525
 21
8.3047582501
  0
LINE
  5
25B
100
AcDbEntity
  8
0
100
AcDbLine
 62
7
  6
CONTINUOUS
 10
2.9595
 20
8.0787582501
 11
2.9595
 21
7.5367582501
  0
LINE
  5
25C
100
AcDbEntity
  8
0
100
AcDbLine
 62
7
  6
CONTINUOUS
 10
2.9905
 20
8.2427582501
 11
2.9905
 21
7.3727582501
  0
LINE
  5
25D
100
AcDbEntity
  8
0
100
AcDbLine
 62
7
  6
CONTINUOUS
 10
2.9595
 20
7.5367582501
 11
2.9286285896
 21
7.4832873988
  0
LINE
  5
25E
100
AcDbEntity
  8
0
100
AcDbLine
 62
7
  6
CONTINUOUS
 10
3.0525
 20
8.3047582501
 11
3.0525
 21
7.3107582501
  0
LINE
  5
25F
100
AcDbEntity
  8
0
100
AcDbLine
 62
7
  6
CONTINUOUS
 10
2.752
 20
7.5422582501
 11
2.7465
 21
7.5367582501
  0
LINE
  5
260
100
AcDbEntity
  8
0
100
AcDbLine
 62
7
  6
CONTINUOUS
 10
2.3235
 20
7.6547582501
 11
2.3545
 21
7.6237582501
  0
LINE
  5
261
100
AcDbEntity
  8
0
100
AcDbLine
 62
7
  6
CONTINUOUS
 10
2.8269708513
 20
7.4832873988
 11
2.768
 21
7.5422582501
  0
LINE
  5
262
100
AcDbEntity
  8
0
100
AcDbLine
 62
7
  6
CONTINUOUS
 10
2.9595
 20
8.0787582501
 11
2.9286285896
 21
8.1322291014
  0
LINE
  5
263
100
AcDbEntity
  8
0
100
AcDbLine
 62
7
  6
CONTINUOUS
 10
3.8305
 20
7.2452747504
 11
3.8305
 21
8.3702417499
  0
LINE
  5
264
100
AcDbEntity
  8
0
100
AcDbLine
 62
7
  6
CONTINUOUS
 10
3.8717805442
 20
7.8356697129
 11
3.8717805442
 21
7.7798467874
  0
LINE
  5
265
100
AcDbEntity
  8
0
100
AcDbLine
 62
7
  6
CONTINUOUS
 10
3.8717805442
 20
7.2452747504
 11
3.8717805442
 21
7.2731862131
  0
LINE
  5
266
100
AcDbEntity
  8
0
100
AcDbLine
 62
7
  6
CONTINUOUS
 10
3.8717805442
 20
8.3423302871
 11
3.8717805442
 21
8.3702417499
  0
LINE
  5
267
100
AcDbEntity
  8
0
100
AcDbLine
 62
7
  6
CONTINUOUS
 10
2.9905
 20
7.3727582501
 11
3.0525
 21
7.3107582501
  0
LINE
  5
268
100
AcDbEntity
  8
0
100
AcDbLine
 62
7
  6
CONTINUOUS
 10
2.752
 20
8.0732582501
 11
2.7465
 21
8.0787582501
  0
LINE
  5
269
100
AcDbEntity
  8
0
100
AcDbLine
 62
7
  6
CONTINUOUS
 10
4.3285
 20
8.3702417499
 11
4.3285
 21
8.3423302871
  0
LINE
  5
26A
100
AcDbEntity
  8
0
100
AcDbLine
 62
7
  6
CONTINUOUS
 10
4.3285
 20
7.2452747504
 11
4.3285
 21
7.2731862131
  0
LINE
  5
26B
100
AcDbEntity
  8
0
100
AcDbLine
 62
7
  6
CONTINUOUS
 10
4.3285
 20
7.7798467874
 11
4.3285
 21
7.8356697129
  0
LINE
  5
26C
100
AcDbEntity
  8
0
100
AcDbLine
 62
7
  6
CONTINUOUS
 10
4.4245
 20
7.2697582501
 11
4.4245
 21
8.3457582501
  0
LINE
  5
26D
100
AcDbEntity
  8
THREAD
100
AcDbLine
 62
7
  6
CONTINUOUS
 10
4.8834393102
 20
8.3037582501
 11
4.8651084391
 21
8.2720082499
  0
LINE
  5
26E
100
AcDbEntity
  8
0
100
AcDbLine
 62
7
  6
CONTINUOUS
 10
4.4245
 20
7.2697582501
 11
4.4000137378
 21
7.245271988
  0
LINE
  5
26F
100
AcDbEntity
  8
THREAD
100
AcDbLine
 62
7
  6
CONTINUOUS
 10
4.6958564063
 20
7.2925883771
 11
4.6770000001
 21
7.2817016258
  0
LINE
  5
270
100
AcDbEntity
  8
0
100
AcDbLine
 62
7
  6
CONTINUOUS
 10
4.6715
 20
8.3457582501
 11
4.6715
 21
7.2697582501
  0
LINE
  5
271
100
AcDbEntity
  8
0
100
AcDbLine
 62
7
  6
CONTINUOUS
 10
4.6745
 20
8.3427582235
 11
4.6745
 21
7.2727582767
  0
LINE
  5
272
100
AcDbEntity
  8
0
100
AcDbLine
 62
7
  6
CONTINUOUS
 10
4.6770000001
 20
7.2817016258
 11
4.6770000001
 21
8.3338148744
  0
LINE
  5
273
100
AcDbEntity
  8
0
100
AcDbLine
 62
7
  6
CONTINUOUS
 10
4.6958564062
 20
7.292588377
 11
4.6958564062
 21
8.3229281233
  0
LINE
  5
274
100
AcDbEntity
  8
0
100
AcDbLine
 62
7
  6
CONTINUOUS
 10
4.6983564065
 20
7.2932582501
 11
4.6983564065
 21
8.3222582501
  0
LINE
  5
275
100
AcDbEntity
  8
THREAD
100
AcDbLine
 62
7
  6
CONTINUOUS
 10
4.7215
 20
7.2932582501
 11
4.7215
 21
8.3222582501
  0
LINE
  5
276
100
AcDbEntity
  8
0
100
AcDbLine
 62
7
  6
CONTINUOUS
 10
4.7915
 20
8.3197582501
 11
4.7915
 21
7.2957582501
  0
LINE
  5
277
100
AcDbEntity
  8
0
100
AcDbLine
 62
7
  6
CONTINUOUS
 10
4.8415
 20
8.3197582501
 11
4.8415
 21
7.2957582501
  0
LINE
  5
278
100
AcDbEntity
  8
THREAD
100
AcDbLine
 62
7
  6
CONTINUOUS
 10
4.8542831216
 20
7.3497582501
 11
4.8542831216
 21
8.2657582501
  0
LINE
  5
279
100
AcDbEntity
  8
THREAD
100
AcDbLine
 62
7
  6
CONTINUOUS
 10
4.8651084391
 20
7.3435082503
 11
4.8651084391
 21
8.2720082499
  0
LINE
  5
27A
100
AcDbEntity
  8
THREAD
100
AcDbLine
 62
7
  6
CONTINUOUS
 10
4.8834393102
 20
7.3117582501
 11
4.8834393102
 21
8.3037582501
  0
LINE
  5
27B
100
AcDbEntity
  8
THREAD
100
AcDbLine
 62
7
  6
CONTINUOUS
 10
5.1695
 20
7.3547582501
 11
5.1265
 21
7.3117582501
  0
LINE
  5
27C
100
AcDbEntity
  8
THREAD
100
AcDbLine
 62
7
  6
CONTINUOUS
 10
5.1265
 20
7.3117582501
 11
5.1265
 21
8.3037582501
  0
LINE
  5
27D
100
AcDbEntity
  8
0
100
AcDbLine
 62
7
  6
CONTINUOUS
 10
5.1695
 20
7.3547661679
 11
5.1695
 21
8.2607503323
  0
LINE
  5
27E
100
AcDbEntity
  8
0
100
AcDbLine
 62
7
  6
CONTINUOUS
 10
5.583
 20
7.3937582501
 11
5.6065
 21
7.4172582501
  0
LINE
  5
27F
100
AcDbEntity
  8
THREAD
100
AcDbLine
 62
7
  6
CONTINUOUS
 10
4.8834393102
 20
7.3117582501
 11
4.8651084391
 21
7.3435082503
  0
LINE
  5
280
100
AcDbEntity
  8
0
100
AcDbLine
 62
7
  6
CONTINUOUS
 10
4.6958564063
 20
7.2925883771
 11
4.6983564065
 21
7.2932582501
  0
LINE
  5
281
100
AcDbEntity
  8
0
100
AcDbLine
 62
7
  6
CONTINUOUS
 10
3.8305
 20
7.2452747504
 11
4.4000164999
 21
7.2452747504
  0
LINE
  5
282
100
AcDbEntity
  8
0
100
AcDbLine
 62
7
  6
CONTINUOUS
 10
4.6715
 20
7.2697582501
 11
4.4245
 21
7.2697582501
  0
LINE
  5
283
100
AcDbEntity
  8
0
100
AcDbLine
 62
7
  6
CONTINUOUS
 10
4.3285
 20
7.2731862131
 11
3.8717805442
 21
7.2731862131
  0
LINE
  5
284
100
AcDbEntity
  8
THREAD
100
AcDbLine
 62
7
  6
CONTINUOUS
 10
4.7215
 20
7.2932582501
 11
4.6983564065
 21
7.2932582501
  0
LINE
  5
285
100
AcDbEntity
  8
0
100
AcDbLine
 62
7
  6
CONTINUOUS
 10
4.7915
 20
7.2957582501
 11
4.8415
 21
7.2957582501
  0
LINE
  5
286
100
AcDbEntity
  8
0
100
AcDbLine
 62
7
  6
CONTINUOUS
 10
3.0525
 20
7.3107582501
 11
3.8305
 21
7.3107582501
  0
LINE
  5
287
100
AcDbEntity
  8
THREAD
100
AcDbLine
 62
7
  6
CONTINUOUS
 10
5.1265
 20
7.3117582501
 11
4.8834393102
 21
7.3117582501
  0
LINE
  5
288
100
AcDbEntity
  8
THREAD
100
AcDbLine
 62
7
  6
CONTINUOUS
 10
4.8542831216
 20
7.3497582501
 11
4.8415
 21
7.3497582501
  0
LINE
  5
289
100
AcDbEntity
  8
0
100
AcDbLine
 62
7
  6
CONTINUOUS
 10
6.2794999941
 20
7.3712582501
 11
6.2355
 21
7.3712582501
  0
LINE
  5
28A
100
AcDbEntity
  8
0
100
AcDbLine
 62
7
  6
CONTINUOUS
 10
5.9505
 20
7.3717582501
 11
6.0375
 21
7.3717582501
  0
LINE
  5
28B
100
AcDbEntity
  8
0
100
AcDbLine
 62
7
  6
CONTINUOUS
 10
6.0375
 20
7.3722582501
 11
6.0875
 21
7.3722582501
  0
LINE
  5
28C
100
AcDbEntity
  8
0
100
AcDbLine
 62
7
  6
CONTINUOUS
 10
6.1575
 20
7.3722582501
 11
6.2075
 21
7.3722582501
  0
LINE
  5
28D
100
AcDbEntity
  8
0
100
AcDbLine
 62
7
  6
CONTINUOUS
 10
5.1695
 20
7.3937582501
 11
5.1905
 21
7.3937582501
  0
LINE
  5
28E
100
AcDbEntity
  8
0
100
AcDbLine
 62
7
  6
CONTINUOUS
 10
5.3465
 20
7.3937582501
 11
5.583
 21
7.3937582501
  0
LINE
  5
28F
100
AcDbEntity
  8
0
100
AcDbLine
 62
7
  6
CONTINUOUS
 10
5.6065
 20
7.4172582501
 11
5.9505
 21
7.4172582501
  0
LINE
  5
290
100
AcDbEntity
  8
0
100
AcDbLine
 62
7
  6
CONTINUOUS
 10
6.2355
 20
7.4257582501
 11
6.2075
 21
7.4257582501
  0
LINE
  5
291
100
AcDbEntity
  8
0
100
AcDbLine
 62
7
  6
CONTINUOUS
 10
5.583
 20
7.3937582501
 11
5.583
 21
8.2217582501
  0
LINE
  5
292
100
AcDbEntity
  8
0
100
AcDbLine
 62
7
  6
CONTINUOUS
 10
5.6065
 20
7.4172582501
 11
5.6065
 21
8.1982582501
  0
LINE
  5
293
100
AcDbEntity
  8
0
100
AcDbLine
 62
7
  6
CONTINUOUS
 10
2.9286285896
 20
7.4832873988
 11
2.8269708513
 21
7.4832873988
  0
LINE
  5
294
100
AcDbEntity
  8
0
100
AcDbLine
 62
7
  6
CONTINUOUS
 10
2.9905
 20
7.5367582501
 11
2.9595
 21
7.5367582501
  0
LINE
  5
295
100
AcDbEntity
  8
0
100
AcDbLine
 62
7
  6
CONTINUOUS
 10
2.7465
 20
7.5367582501
 11
2.7405
 21
7.5367582501
  0
LINE
  5
296
100
AcDbEntity
  8
0
100
AcDbLine
 62
7
  6
CONTINUOUS
 10
2.768
 20
7.5422582501
 11
2.752
 21
7.5422582501
  0
LINE
  5
297
100
AcDbEntity
  8
0
100
AcDbLine
 62
7
  6
CONTINUOUS
 10
2.3545
 20
7.6237582501
 11
2.6785
 21
7.6237582501
  0
LINE
  5
298
100
AcDbEntity
  8
0
100
AcDbLine
 62
7
  6
CONTINUOUS
 10
4.4245
 20
8.3457582501
 11
4.4000137378
 21
8.3702445123
  0
LINE
  5
299
100
AcDbEntity
  8
0
100
AcDbLine
 62
7
  6
CONTINUOUS
 10
6.2994999149
 20
7.3912583408
 11
6.2794999049
 21
7.3712583393
  0
LINE
  5
29A
100
AcDbEntity
  8
0
100
AcDbLine
 62
7
  6
CONTINUOUS
 10
2.9286285896
 20
7.6455228245
 11
2.8269708513
 21
7.6455228245
  0
LINE
  5
29B
100
AcDbEntity
  8
0
100
AcDbLine
 62
7
  6
CONTINUOUS
 10
4.3285
 20
7.7798467874
 11
3.8717805442
 21
7.7798467874
  0
LINE
  5
29C
100
AcDbEntity
  8
0
100
AcDbLine
 62
7
  6
CONTINUOUS
 10
5.9505
 20
7.3717582501
 11
5.9505
 21
8.2437582501
  0
LINE
  5
29D
100
AcDbEntity
  8
0
100
AcDbLine
 62
7
  6
CONTINUOUS
 10
4.3285
 20
7.8356697129
 11
3.8717805442
 21
7.8356697129
  0
LINE
  5
29E
100
AcDbEntity
  8
0
100
AcDbLine
 62
7
  6
CONTINUOUS
 10
2.9286285896
 20
7.9699936758
 11
2.8269708513
 21
7.9699936758
  0
LINE
  5
29F
100
AcDbEntity
  8
0
100
AcDbLine
 62
7
  6
CONTINUOUS
 10
2.3545
 20
7.9917582501
 11
2.6785
 21
7.9917582501
  0
LINE
  5
2A0
100
AcDbEntity
  8
THREAD
100
AcDbLine
 62
7
  6
CONTINUOUS
 10
4.6958564063
 20
8.3229281232
 11
4.6770000001
 21
8.3338148744
  0
LINE
  5
2A1
100
AcDbEntity
  8
THREAD
100
AcDbLine
 62
7
  6
CONTINUOUS
 10
5.1695
 20
8.2607582501
 11
5.1265
 21
8.3037582501
  0
LINE
  5
2A2
100
AcDbEntity
  8
0
100
AcDbLine
 62
7
  6
CONTINUOUS
 10
6.0375
 20
8.2437506294
 11
6.0375
 21
7.3717658708
  0
LINE
  5
2A3
100
AcDbEntity
  8
0
100
AcDbLine
 62
7
  6
CONTINUOUS
 10
6.0875
 20
8.2432582501
 11
6.0875
 21
7.3722582501
  0
LINE
  5
2A4
100
AcDbEntity
  8
0
100
AcDbLine
 62
7
  6
CONTINUOUS
 10
6.1575
 20
8.2432582501
 11
6.1575
 21
7.3722582501
  0
LINE
  5
2A5
100
AcDbEntity
  8
0
100
AcDbLine
 62
7
  6
CONTINUOUS
 10
6.2075
 20
8.2432582501
 11
6.2075
 21
7.3722582501
  0
LINE
  5
2A6
100
AcDbEntity
  8
0
100
AcDbLine
 62
7
  6
CONTINUOUS
 10
2.768
 20
8.0732582501
 11
2.752
 21
8.0732582501
  0
LINE
  5
2A7
100
AcDbEntity
  8
0
100
AcDbLine
 62
7
  6
CONTINUOUS
 10
2.9905
 20
8.0787582501
 11
2.9595
 21
8.0787582501
  0
LINE
  5
2A8
100
AcDbEntity
  8
0
100
AcDbLine
 62
7
  6
CONTINUOUS
 10
2.7465
 20
8.0787582501
 11
2.7405
 21
8.0787582501
  0
LINE
  5
2A9
100
AcDbEntity
  8
0
100
AcDbLine
 62
7
  6
CONTINUOUS
 10
2.9286285896
 20
8.1322291014
 11
2.8269708513
 21
8.1322291014
  0
LINE
  5
2AA
100
AcDbEntity
  8
0
100
AcDbLine
 62
7
  6
CONTINUOUS
 10
6.2355
 20
8.1897582501
 11
6.2075
 21
8.1897582501
  0
LINE
  5
2AB
100
AcDbEntity
  8
0
100
AcDbLine
 62
7
  6
CONTINUOUS
 10
5.6065
 20
8.1982582501
 11
5.9505
 21
8.1982582501
  0
LINE
  5
2AC
100
AcDbEntity
  8
0
100
AcDbLine
 62
7
  6
CONTINUOUS
 10
5.1695
 20
8.2217582501
 11
5.1905
 21
8.2217582501
  0
LINE
  5
2AD
100
AcDbEntity
  8
0
100
AcDbLine
 62
7
  6
CONTINUOUS
 10
5.3465
 20
8.2217582501
 11
5.583
 21
8.2217582501
  0
LINE
  5
2AE
100
AcDbEntity
  8
0
100
AcDbLine
 62
7
  6
CONTINUOUS
 10
4.6958564063
 20
8.3229281232
 11
4.6983564065
 21
8.3222582501
  0
LINE
  5
2AF
100
AcDbEntity
  8
0
100
AcDbLine
 62
7
  6
CONTINUOUS
 10
6.2355
 20
7.3712582501
 11
6.2355
 21
8.2442582501
  0
LINE
  5
2B0
100
AcDbEntity
  8
0
100
AcDbLine
 62
7
  6
CONTINUOUS
 10
6.2794999925
 20
8.2442582501
 11
6.2794999925
 21
7.3712582501
  0
LINE
  5
2B1
100
AcDbEntity
  8
0
100
AcDbLine
 62
7
  6
CONTINUOUS
 10
6.2995
 20
8.224250923
 11
6.2995
 21
7.3912655773
  0
LINE
  5
2B2
100
AcDbEntity
  8
0
100
AcDbLine
 62
7
  6
CONTINUOUS
 10
6.0375
 20
8.2432582501
 11
6.0875
 21
8.2432582501
  0
LINE
  5
2B3
100
AcDbEntity
  8
0
100
AcDbLine
 62
7
  6
CONTINUOUS
 10
6.1575
 20
8.2432582501
 11
6.2075
 21
8.2432582501
  0
LINE
  5
2B4
100
AcDbEntity
  8
0
100
AcDbLine
 62
7
  6
CONTINUOUS
 10
5.9505
 20
8.2437582501
 11
6.0375
 21
8.2437582501
  0
LINE
  5
2B5
100
AcDbEntity
  8
0
100
AcDbLine
 62
7
  6
CONTINUOUS
 10
6.2794999941
 20
8.2442582501
 11
6.2355
 21
8.2442582501
  0
LINE
  5
2B6
100
AcDbEntity
  8
THREAD
100
AcDbLine
 62
7
  6
CONTINUOUS
 10
4.8542831216
 20
8.2657582501
 11
4.8415
 21
8.2657582501
  0
LINE
  5
2B7
100
AcDbEntity
  8
THREAD
100
AcDbLine
 62
7
  6
CONTINUOUS
 10
5.1265
 20
8.3037582501
 11
4.8834393102
 21
8.3037582501
  0
LINE
  5
2B8
100
AcDbEntity
  8
0
100
AcDbLine
 62
7
  6
CONTINUOUS
 10
3.0525
 20
8.3047582501
 11
3.8305
 21
8.3047582501
  0
LINE
  5
2B9
100
AcDbEntity
  8
0
100
AcDbLine
 62
7
  6
CONTINUOUS
 10
4.7915
 20
8.3197582501
 11
4.8415
 21
8.3197582501
  0
LINE
  5
2BA
100
AcDbEntity
  8
THREAD
100
AcDbLine
 62
7
  6
CONTINUOUS
 10
4.7215
 20
8.3222582501
 11
4.6983564065
 21
8.3222582501
  0
LINE
  5
2BB
100
AcDbEntity
  8
0
100
AcDbLine
 62
7
  6
CONTINUOUS
 10
4.3285
 20
8.3423302871
 11
3.8717805442
 21
8.3423302871
  0
LINE
  5
2BC
100
AcDbEntity
  8
0
100
AcDbLine
 62
7
  6
CONTINUOUS
 10
4.6715
 20
8.3457582501
 11
4.4245
 21
8.3457582501
  0
LINE
  5
2BD
100
AcDbEntity
  8
0
100
AcDbLine
 62
7
  6
CONTINUOUS
 10
3.8305
 20
8.3702417499
 11
4.4000164999
 21
8.3702417499
  0
LINE
  5
2BE
100
AcDbEntity
  8
0
100
AcDbLine
 62
7
  6
CONTINUOUS
 10
5.583
 20
8.2217582501
 11
5.6065
 21
8.1982582501
  0
LINE
  5
2BF
100
AcDbEntity
  8
0
100
AcDbLine
 62
7
  6
CONTINUOUS
 10
6.2994999149
 20
8.2242581594
 11
6.2794999049
 21
8.244258161
  0
ARC
  5
2C0
100
AcDbEntity
  8
0
100
AcDbCircle
 62
7
  6
CONTINUOUS
 10
2.7405
 20
7.6307582501
 40
0.094
100
AcDbArc
 50
228.732572619
 51
270.0
  0
ARC
  5
2C1
100
AcDbEntity
  8
0
100
AcDbCircle
 62
7
  6
CONTINUOUS
 10
2.7405
 20
7.9847582501
 40
0.094
100
AcDbArc
 50
90.0
 51
131.267427381
  0
CIRCLE
  5
2C2
100
AcDbEntity
  8
0
100
AcDbCircle
 62
7
  6
CONTINUOUS
 10
5.2685
 20
7.8077582501
 40
0.078
  0
ARC
  5
2C3
100
AcDbEntity
  8
THREAD
100
AcDbCircle
 62
7
  6
CONTINUOUS
 10
4.8542831216
 20
7.3372582501
 40
0.0125
100
AcDbArc
 50
30.0000009956
 51
90.0
  0
ARC
  5
2C4
100
AcDbEntity
  8
THREAD
100
AcDbCircle
 62
7
  6
CONTINUOUS
 10
4.8542831216
 20
8.2782582501
 40
0.0125
100
AcDbArc
 50
270.0
 51
329.9999990044
  0
ARC
  5
2C5
100
AcDbEntity
  8
0
100
AcDbCircle
 62
7
  6
CONTINUOUS
 10
4.6795
 20
8.3381450015
 40
0.005
100
AcDbArc
 50
180.0000019771
 51
240.0000010032
  0
ARC
  5
2C6
100
AcDbEntity
  8
0
100
AcDbCircle
 62
7
  6
CONTINUOUS
 10
4.6795
 20
7.2773714988
 40
0.005
100
AcDbArc
 50
119.9999989968
 51
179.9999980229
  0
ARC
  5
2C7
100
AcDbEntity
  8
0
100
AcDbCircle
 62
7
  6
CONTINUOUS
 10
4.6715
 20
8.3427582501
 40
0.003
100
AcDbArc
 50
359.9999162568
 51
90.0
  0
ARC
  5
2C8
100
AcDbEntity
  8
0
100
AcDbCircle
 62
7
  6
CONTINUOUS
 10
4.6715
 20
7.2727582501
 40
0.003
100
AcDbArc
 50
270.0
 51
0.0000837432
  0
SPLINE
  5
2C9
100
AcDbEntity
  8
0
100
AcDbSpline
 62
7
  6
CONTINUOUS
 70
0
 71
3
 72
29
 73
25
 74
0
 42
0.0000001
 43
0.0000001
 44
0.0000000001
 40
0.0
 40
0.0
 40
0.0
 40
0.0
 40
0.0699814326
 40
0.1378931693
 40
0.2035483063
 40
0.2668301071
 40
0.3277577624
 40
0.3574096745
 40
0.3865762134
 40
0.4153250756
 40
0.4437427141
 40
0.4719307121
 40
0.5000000301
 40
0.5280693453
 40
0.5562573422
 40
0.5846749808
 40
0.6134238382
 40
0.6425903726
 40
0.6722422822
 40
0.7331699209
 40
0.796451712
 40
0.8621068357
 40
0.9300185679
 40
1.0
 40
1.0
 40
1.0
 40
1.0
 10
2.8269708513
 20
7.9699936758
 30
0.0
 10
2.8238560267
 20
7.9731085003
 30
0.0
 10
2.8178485704
 20
7.9793787481
 30
0.0
 10
2.8094837005
 20
7.98909302
 30
0.0
 10
2.8020144878
 20
7.9989929526
 30
0.0
 10
2.7955857871
 20
8.0090846152
 30
0.0
 10
2.7911793193
 20
8.0177317355
 30
0.0
 10
2.788352393
 20
8.024723435
 30
0.0
 10
2.7866052759
 20
8.0299552456
 30
0.0
 10
2.7852274621
 20
8.0352163385
 30
0.0
 10
2.7842350053
 20
8.0405012946
 30
0.0
 10
2.7836348105
 20
8.0458021741
 30
0.0
 10
2.7834327377
 20
8.0511113941
 30
0.0
 10
2.7836348076
 20
8.0564206144
 30
0.0
 10
2.78423501
 20
8.0617214928
 30
0.0
 10
2.7852274641
 20
8.0670064488
 30
0.0
 10
2.7866052762
 20
8.0722675418
 30
0.0
 10
2.7883523974
 20
8.0774993502
 30
0.0
 10
2.7911793222
 20
8.0844910486
 30
0.0
 10
2.7955857895
 20
8.0931381672
 30
0.0
 10
2.8020144902
 20
8.1032298268
 30
0.0
 10
2.8094837013
 20
8.1131297584
 30
0.0
 10
2.8178485708
 20
8.1228440292
 30
0.0
 10
2.8238560267
 20
8.1291142769
 30
0.0
 10
2.8269708513
 20
8.1322291014
 30
0.0
  0
SPLINE
  5
2CA
100
AcDbEntity
  8
0
100
AcDbSpline
 62
7
  6
CONTINUOUS
 70
0
 71
3
 72
25
 73
21
 74
0
 42
0.0000001
 43
0.0000001
 44
0.0000000001
 40
0.0
 40
0.0
 40
0.0
 40
0.0
 40
0.0659343996
 40
0.1307786338
 40
0.1945190869
 40
0.2571884297
 40
0.3188803748
 40
0.3494111547
 40
0.3797624252
 40
0.4400381959
 40
0.5000000142
 40
0.5599618336
 40
0.6202376013
 40
0.6505888715
 40
0.68111965
 40
0.7428115909
 40
0.8054809287
 40
0.8692213713
 40
0.9340656013
 40
1.0
 40
1.0
 40
1.0
 40
1.0
 10
2.9286285896
 20
7.4832873988
 30
0.0
 10
2.930516559
 20
7.4865574577
 30
0.0
 10
2.9341349301
 20
7.493117818
 30
0.0
 10
2.939066339
 20
7.5031113106
 30
0.0
 10
2.9433954557
 20
7.5131785063
 30
0.0
 10
2.9470566079
 20
7.5233168535
 30
0.0
 10
2.9495068654
 20
7.5318505182
 30
0.0
 10
2.9510671299
 20
7.5386960865
 30
0.0
 10
2.9523474037
 20
7.5455168866
 30
0.0
 10
2.9534342196
 20
7.5540825263
 30
0.0
 10
2.953871496
 20
7.5644051142
 30
0.0
 10
2.9534342204
 20
7.5747277019
 30
0.0
 10
2.9523474027
 20
7.5832933413
 30
0.0
 10
2.9510671279
 20
7.5901141409
 30
0.0
 10
2.9495068664
 20
7.5969597096
 30
0.0
 10
2.9470566054
 20
7.6054933727
 30
0.0
 10
2.9433954555
 20
7.6156317195
 30
0.0
 10
2.9390663383
 20
7.6256989138
 30
0.0
 10
2.9341349298
 20
7.6356924055
 30
0.0
 10
2.930516559
 20
7.6422527656
 30
0.0
 10
2.9286285896
 20
7.6455228245
 30
0.0
  0
SPLINE
  5
2CB
100
AcDbEntity
  8
0
100
AcDbSpline
 62
7
  6
CONTINUOUS
 70
0
 71
3
 72
29
 73
25
 74
0
 42
0.0000001
 43
0.0000001
 44
0.0000000001
 40
0.0
 40
0.0
 40
0.0
 40
0.0
 40
0.0699814326
 40
0.1378931693
 40
0.2035483063
 40
0.2668301071
 40
0.3277577624
 40
0.3574096745
 40
0.3865762134
 40
0.4153250756
 40
0.4437427141
 40
0.4719307121
 40
0.5000000301
 40
0.5280693453
 40
0.5562573422
 40
0.5846749808
 40
0.6134238382
 40
0.6425903726
 40
0.6722422822
 40
0.7331699209
 40
0.796451712
 40
0.8621068357
 40
0.9300185679
 40
1.0
 40
1.0
 40
1.0
 40
1.0
 10
2.8269708513
 20
7.4832873988
 30
0.0
 10
2.8238560267
 20
7.4864022234
 30
0.0
 10
2.8178485704
 20
7.4926724712
 30
0.0
 10
2.8094837005
 20
7.5023867431
 30
0.0
 10
2.8020144878
 20
7.5122866757
 30
0.0
 10
2.7955857871
 20
7.5223783383
 30
0.0
 10
2.7911793193
 20
7.5310254586
 30
0.0
 10
2.788352393
 20
7.5380171581
 30
0.0
 10
2.7866052759
 20
7.5432489686
 30
0.0
 10
2.7852274621
 20
7.5485100616
 30
0.0
 10
2.7842350053
 20
7.5537950177
 30
0.0
 10
2.7836348105
 20
7.5590958972
 30
0.0
 10
2.7834327377
 20
7.5644051172
 30
0.0
 10
2.7836348076
 20
7.5697143375
 30
0.0
 10
2.78423501
 20
7.5750152159
 30
0.0
 10
2.7852274641
 20
7.5803001719
 30
0.0
 10
2.7866052762
 20
7.5855612648
 30
0.0
 10
2.7883523974
 20
7.5907930732
 30
0.0
 10
2.7911793222
 20
7.5977847716
 30
0.0
 10
2.7955857895
 20
7.6064318903
 30
0.0
 10
2.8020144902
 20
7.6165235498
 30
0.0
 10
2.8094837013
 20
7.6264234815
 30
0.0
 10
2.8178485708
 20
7.6361377523
 30
0.0
 10
2.8238560267
 20
7.6424079999
 30
0.0
 10
2.8269708513
 20
7.6455228245
 30
0.0
  0
SPLINE
  5
2CC
100
AcDbEntity
  8
0
100
AcDbSpline
 62
7
  6
CONTINUOUS
 70
0
 71
3
 72
25
 73
21
 74
0
 42
0.0000001
 43
0.0000001
 44
0.0000000001
 40
0.0
 40
0.0
 40
0.0
 40
0.0
 40
0.1249859891
 40
0.1874862541
 40
0.2499858822
 40
0.2812379746
 40
0.3124899424
 40
0.3437420673
 40
0.3749949169
 40
0.4374972714
 40
0.5000000149
 40
0.5625027595
 40
0.6250051101
 40
0.6562579591
 40
0.6875100837
 40
0.7187620486
 40
0.750014138
 40
0.8125137618
 40
0.8750140159
 40
1.0
 40
1.0
 40
1.0
 40
1.0
 10
2.9286285896
 20
7.6455228245
 30
0.0
 10
2.9324350268
 20
7.6587087096
 30
0.0
 10
2.9376657731
 20
7.6786345076
 30
0.0
 10
2.9434293362
 20
7.7054763623
 30
0.0
 10
2.9464738555
 20
7.7223656271
 30
0.0
 10
2.9485429788
 20
7.7359356738
 30
0.0
 10
2.9499051271
 20
7.7461408609
 30
0.0
 10
2.9510702724
 20
7.7563705574
 30
0.0
 10
2.9523521573
 20
7.7700379542
 30
0.0
 10
2.953436007
 20
7.7871671769
 30
0.0
 10
2.9538709837
 20
7.8077582552
 30
0.0
 10
2.9534360078
 20
7.828349333
 30
0.0
 10
2.9523521563
 20
7.8454785553
 30
0.0
 10
2.9510702703
 20
7.8591459514
 30
0.0
 10
2.9499051274
 20
7.8693756478
 30
0.0
 10
2.9485429781
 20
7.8795808341
 30
0.0
 10
2.9464738535
 20
7.8931508794
 30
0.0
 10
2.9434293361
 20
7.9100401425
 30
0.0
 10
2.9376657721
 20
7.9368819947
 30
0.0
 10
2.9324350266
 20
7.9568077912
 30
0.0
 10
2.9286285896
 20
7.9699936758
 30
0.0
  0
SPLINE
  5
2CD
100
AcDbEntity
  8
0
100
AcDbSpline
 62
7
  6
CONTINUOUS
 70
0
 71
3
 72
29
 73
25
 74
0
 42
0.0000001
 43
0.0000001
 44
0.0000000001
 40
0.0
 40
0.0
 40
0.0
 40
0.0
 40
0.0624904563
 40
0.124986907
 40
0.1874824592
 40
0.2499774484
 40
0.3124737491
 40
0.343727532
 40
0.3749816508
 40
0.4062351141
 40
0.4374899104
 40
0.4687452438
 40
0.5000000338
 40
0.5312548209
 40
0.562510151
 40
0.5937649481
 40
0.6250184069
 40
0.6562725173
 40
0.6875262971
 40
0.7500225805
 40
0.8125175578
 40
0.8750130976
 40
0.937509544
 40
1.0
 40
1.0
 40
1.0
 40
1.0
 10
2.8269708513
 20
7.6455228245
 30
0.0
 10
2.8238128872
 20
7.6518387526
 30
0.0
 10
2.8177161719
 20
7.6645828814
 30
0.0
 10
2.8093492137
 20
7.6840530269
 30
0.0
 10
2.8018856662
 20
7.7038901708
 30
0.0
 10
2.7954741834
 20
7.7240938036
 30
0.0
 10
2.7911318882
 20
7.7412202714
 30
0.0
 10
2.7883365363
 20
7.7550687167
 30
0.0
 10
2.7865940873
 20
7.7655216997
 30
0.0
 10
2.7852206746
 20
7.7760297392
 30
0.0
 10
2.7842319259
 20
7.7865812067
 30
0.0
 10
2.7836341443
 20
7.797162209
 30
0.0
 10
2.7834329292
 20
7.8077582612
 30
0.0
 10
2.7836341413
 20
7.8183543133
 30
0.0
 10
2.7842319307
 20
7.8289353145
 30
0.0
 10
2.7852206767
 20
7.8394867814
 30
0.0
 10
2.7865940874
 20
7.8499948199
 30
0.0
 10
2.7883365409
 20
7.8604478003
 30
0.0
 10
2.7911318911
 20
7.8742962425
 30
0.0
 10
2.7954741857
 20
7.8914227069
 30
0.0
 10
2.8018856688
 20
7.9116263345
 30
0.0
 10
2.8093492145
 20
7.9314634757
 30
0.0
 10
2.8177161724
 20
7.9509336193
 30
0.0
 10
2.8238128872
 20
7.9636777476
 30
0.0
 10
2.8269708513
 20
7.9699936758
 30
0.0
  0
SPLINE
  5
2CE
100
AcDbEntity
  8
0
100
AcDbSpline
 62
7
  6
CONTINUOUS
 70
0
 71
3
 72
25
 73
21
 74
0
 42
0.0000001
 43
0.0000001
 44
0.0000000001
 40
0.0
 40
0.0
 40
0.0
 40
0.0
 40
0.0659343996
 40
0.1307786338
 40
0.1945190869
 40
0.2571884297
 40
0.3188803748
 40
0.3494111547
 40
0.3797624252
 40
0.4400381959
 40
0.5000000142
 40
0.5599618336
 40
0.6202376013
 40
0.6505888715
 40
0.68111965
 40
0.7428115909
 40
0.8054809287
 40
0.8692213713
 40
0.9340656013
 40
1.0
 40
1.0
 40
1.0
 40
1.0
 10
2.9286285896
 20
7.9699936758
 30
0.0
 10
2.930516559
 20
7.9732637347
 30
0.0
 10
2.9341349301
 20
7.9798240949
 30
0.0
 10
2.939066339
 20
7.9898175875
 30
0.0
 10
2.9433954557
 20
7.9998847832
 30
0.0
 10
2.9470566079
 20
8.0100231304
 30
0.0
 10
2.9495068654
 20
8.0185567952
 30
0.0
 10
2.9510671299
 20
8.0254023635
 30
0.0
 10
2.9523474037
 20
8.0322231635
 30
0.0
 10
2.9534342196
 20
8.0407888033
 30
0.0
 10
2.953871496
 20
8.0511113911
 30
0.0
 10
2.9534342204
 20
8.0614339788
 30
0.0
 10
2.9523474027
 20
8.0699996183
 30
0.0
 10
2.9510671279
 20
8.0768204178
 30
0.0
 10
2.9495068664
 20
8.0836659865
 30
0.0
 10
2.9470566054
 20
8.0921996496
 30
0.0
 10
2.9433954555
 20
8.1023379964
 30
0.0
 10
2.9390663383
 20
8.1124051907
 30
0.0
 10
2.9341349298
 20
8.1223986824
 30
0.0
 10
2.930516559
 20
8.1289590425
 30
0.0
 10
2.9286285896
 20
8.1322291014
 30
0.0
  0
SPLINE
  5
2CF
100
AcDbEntity
  8
0
100
AcDbSpline
 62
7
  6
CONTINUOUS
 70
0
 71
3
 72
12
 73
8
 74
0
 42
0.0000001
 43
0.0000001
 44
0.0000000001
 40
0.0
 40
0.0
 40
0.0
 40
0.0
 40
0.2296475305
 40
0.3508339179
 40
0.4757391727
 40
0.7344406907
 40
1.0
 40
1.0
 40
1.0
 40
1.0
 10
5.3205105538
 20
8.0569728964
 30
0.0
 10
5.3168551794
 20
8.0588288775
 30
0.0
 10
5.3110239181
 20
8.0611942319
 30
0.0
 10
5.3028792578
 20
8.0636086513
 30
0.0
 10
5.2940954325
 20
8.0656451821
 30
0.0
 10
5.2826051824
 20
8.0673113151
 30
0.0
 10
5.2732406453
 20
8.0677490992
 30
0.0
 10
5.2685
 20
8.0677490992
 30
0.0
  0
SPLINE
  5
2D0
100
AcDbEntity
  8
0
100
AcDbSpline
 62
7
  6
CONTINUOUS
 70
0
 71
3
 72
23
 73
19
 74
0
 42
0.0000001
 43
0.0000001
 44
0.0000000001
 40
0.0
 40
0.0
 40
0.0
 40
0.0
 40
0.0505733515
 40
0.1024836592
 40
0.1560415893
 40
0.2114578279
 40
0.2688182695
 40
0.3281408474
 40
0.3893705153
 40
0.4523955998
 40
0.5170779438
 40
0.5832355891
 40
0.6506713807
 40
0.7191953071
 40
0.788619815
 40
0.8587604004
 40
0.9293390676
 40
1.0
 40
1.0
 40
1.0
 40
1.0
 10
5.1905
 20
8.1005006784
 30
0.0
 10
5.1904999961
 20
8.0986735119
 30
0.0
 10
5.1907628727
 20
8.0949665131
 30
0.0
 10
5.1919055771
 20
8.0894308296
 30
0.0
 10
5.1937886508
 20
8.0839162456
 30
0.0
 10
5.1963912851
 20
8.0784853376
 30
0.0
 10
5.1996807556
 20
8.0731951643
 30
0.0
 10
5.2036275032
 20
8.0681079834
 30
0.0
 10
5.2081910769
 20
8.0632814188
 30
0.0
 10
5.213328073
 20
8.0587717286
 30
0.0
 10
5.2189935815
 20
8.0546379346
 30
0.0
 10
5.2251321752
 20
8.0509285496
 30
0.0
 10
5.2316890082
 20
8.0476943103
 30
0.0
 10
5.2386051465
 20
8.0449819194
 30
0.0
 10
5.2458162596
 20
8.0428251118
 30
0.0
 10
5.2532554785
 20
8.0412640312
 30
0.0
 10
5.2608418097
 20
8.0403176966
 30
0.0
 10
5.2659470886
 20
8.0401034864
 30
0.0
 10
5.2685
 20
8.0401034864
 30
0.0
  0
SPLINE
  5
2D1
100
AcDbEntity
  8
0
100
AcDbSpline
 62
7
  6
CONTINUOUS
 70
0
 71
3
 72
12
 73
8
 74
0
 42
0.0000001
 43
0.0000001
 44
0.0000000001
 40
0.0
 40
0.0
 40
0.0
 40
0.0
 40
0.2655740968
 40
0.5242647628
 40
0.6491713063
 40
0.7703614634
 40
1.0
 40
1.0
 40
1.0
 40
1.0
 10
5.2685
 20
8.0677490992
 30
0.0
 10
5.2637584426
 20
8.0677490992
 30
0.0
 10
5.2543925448
 20
8.0673112833
 30
0.0
 10
5.2429006811
 20
8.0656444733
 30
0.0
 10
5.2341158479
 20
8.0636073164
 30
0.0
 10
5.2259701828
 20
8.0611924136
 30
0.0
 10
5.2201384903
 20
8.0588260536
 30
0.0
 10
5.2164828998
 20
8.0569696148
 30
0.0
  0
SPLINE
  5
2D2
100
AcDbEntity
  8
0
100
AcDbSpline
 62
7
  6
CONTINUOUS
 70
0
 71
3
 72
23
 73
19
 74
0
 42
0.0000001
 43
0.0000001
 44
0.0000000001
 40
0.0
 40
0.0
 40
0.0
 40
0.0
 40
0.0706609352
 40
0.1412396097
 40
0.211380204
 40
0.2808047161
 40
0.3493286435
 40
0.4167644354
 40
0.4829220819
 40
0.5476044295
 40
0.6106295187
 40
0.6718591915
 40
0.731181774
 40
0.7885422165
 40
0.8439584525
 40
0.8975163735
 40
0.9494266639
 40
1.0
 40
1.0
 40
1.0
 40
1.0
 10
5.2685
 20
8.0401034864
 30
0.0
 10
5.2710529115
 20
8.0401034864
 30
0.0
 10
5.2761581907
 20
8.0403176968
 30
0.0
 10
5.2837445225
 20
8.0412640316
 30
0.0
 10
5.2911837421
 20
8.0428251121
 30
0.0
 10
5.2983948556
 20
8.04498192
 30
0.0
 10
5.3053109939
 20
8.0476943113
 30
0.0
 10
5.3118678269
 20
8.0509285507
 30
0.0
 10
5.3180064205
 20
8.054637936
 30
0.0
 10
5.3236719291
 20
8.0587717304
 30
0.0
 10
5.3288089255
 20
8.0632814209
 30
0.0
 10
5.3333724991
 20
8.0681079862
 30
0.0
 10
5.3373192468
 20
8.0731951675
 30
0.0
 10
5.3406087167
 20
8.0784853412
 30
0.0
 10
5.3432113502
 20
8.0839162491
 30
0.0
 10
5.3450944241
 20
8.0894308319
 30
0.0
 10
5.3462371278
 20
8.094966514
 30
0.0
 10
5.346500004
 20
8.0986735115
 30
0.0
 10
5.3465
 20
8.1005006775
 30
0.0
  0
SPLINE
  5
2D3
100
AcDbEntity
  8
0
100
AcDbSpline
 62
7
  6
CONTINUOUS
 70
0
 71
3
 72
15
 73
11
 74
0
 42
0.0000001
 43
0.0000001
 44
0.0000000001
 40
0.0
 40
0.0
 40
0.0
 40
0.0
 40
0.0385699732
 40
0.1475009557
 40
0.3093760199
 40
0.500000371
 40
0.6906245134
 40
0.8524992288
 40
0.961430033
 40
1.0
 40
1.0
 40
1.0
 40
1.0
 10
5.1905
 20
7.3937582501
 30
0.0
 10
5.1924824025
 20
7.3941317824
 30
0.0
 10
5.2000733389
 20
7.3955094613
 30
0.0
 10
5.2160681976
 20
7.3979849443
 30
0.0
 10
5.2400866543
 20
7.4004915501
 30
0.0
 10
5.2685000474
 20
7.4015401785
 30
0.0
 10
5.2969134219
 20
7.4004915441
 30
0.0
 10
5.3209318398
 20
7.3979849383
 30
0.0
 10
5.3369266709
 20
7.3955094595
 30
0.0
 10
5.3445175978
 20
7.3941317823
 30
0.0
 10
5.3465
 20
7.3937582501
 30
0.0
  0
SPLINE
  5
2D4
100
AcDbEntity
  8
0
100
AcDbSpline
 62
7
  6
CONTINUOUS
 70
0
 71
3
 72
23
 73
19
 74
0
 42
0.0000001
 43
0.0000001
 44
0.0000000001
 40
0.0
 40
0.0
 40
0.0
 40
0.0
 40
0.0505733518
 40
0.10248366
 40
0.1560415906
 40
0.2114578296
 40
0.2688182716
 40
0.3281408498
 40
0.3893705181
 40
0.4523956031
 40
0.5170779478
 40
0.5832355938
 40
0.6506713856
 40
0.7191953114
 40
0.788619818
 40
0.8587604017
 40
0.929339068
 40
1.0
 40
1.0
 40
1.0
 40
1.0
 10
5.3465
 20
7.5150158219
 30
0.0
 10
5.3465000039
 20
7.5168429884
 30
0.0
 10
5.3462371272
 20
7.5205499872
 30
0.0
 10
5.3450944229
 20
7.5260856708
 30
0.0
 10
5.3432113492
 20
7.5316002549
 30
0.0
 10
5.3406087148
 20
7.5370311629
 30
0.0
 10
5.3373192442
 20
7.5423213362
 30
0.0
 10
5.3333724966
 20
7.5474085171
 30
0.0
 10
5.3288089229
 20
7.5522350817
 30
0.0
 10
5.3236719267
 20
7.5567447719
 30
0.0
 10
5.3180064181
 20
7.5608785659
 30
0.0
 10
5.3118678243
 20
7.5645879508
 30
0.0
 10
5.3053109913
 20
7.5678221902
 30
0.0
 10
5.298394853
 20
7.570534581
 30
0.0
 10
5.29118374
 20
7.5726913885
 30
0.0
 10
5.2837445213
 20
7.5742524691
 30
0.0
 10
5.2761581902
 20
7.5751988037
 30
0.0
 10
5.2710529114
 20
7.5754130138
 30
0.0
 10
5.2685
 20
7.5754130138
 30
0.0
  0
SPLINE
  5
2D5
100
AcDbEntity
  8
0
100
AcDbSpline
 62
7
  6
CONTINUOUS
 70
0
 71
3
 72
12
 73
8
 74
0
 42
0.0000001
 43
0.0000001
 44
0.0000000001
 40
0.0
 40
0.0
 40
0.0
 40
0.0
 40
0.2296478431
 40
0.3508337663
 40
0.4757389829
 40
0.7344418569
 40
1.0
 40
1.0
 40
1.0
 40
1.0
 10
5.2164897038
 20
7.5585434743
 30
0.0
 10
5.2201450659
 20
7.5566875055
 30
0.0
 10
5.2259763114
 20
7.5543222102
 30
0.0
 10
5.2341209206
 20
7.5519077944
 30
0.0
 10
5.2429047183
 20
7.5498712891
 30
0.0
 10
5.2543949119
 20
7.5482051894
 30
0.0
 10
5.2637594011
 20
7.547767401
 30
0.0
 10
5.2685
 20
7.547767401
 30
0.0
  0
SPLINE
  5
2D6
100
AcDbEntity
  8
0
100
AcDbSpline
 62
7
  6
CONTINUOUS
 70
0
 71
3
 72
15
 73
11
 74
0
 42
0.0000001
 43
0.0000001
 44
0.0000000001
 40
0.0
 40
0.0
 40
0.0
 40
0.0
 40
0.0385699732
 40
0.1475009557
 40
0.3093760199
 40
0.500000371
 40
0.6906245134
 40
0.8524992288
 40
0.961430033
 40
1.0
 40
1.0
 40
1.0
 40
1.0
 10
5.3465
 20
8.2217582501
 30
0.0
 10
5.3445175975
 20
8.2213847179
 30
0.0
 10
5.3369266611
 20
8.220007039
 30
0.0
 10
5.3209318024
 20
8.2175315559
 30
0.0
 10
5.2969133457
 20
8.2150249501
 30
0.0
 10
5.2684999526
 20
8.2139763217
 30
0.0
 10
5.2400865781
 20
8.2150249561
 30
0.0
 10
5.2160681602
 20
8.2175315619
 30
0.0
 10
5.2000733291
 20
8.2200070407
 30
0.0
 10
5.1924824022
 20
8.2213847179
 30
0.0
 10
5.1905
 20
8.2217582501
 30
0.0
  0
SPLINE
  5
2D7
100
AcDbEntity
  8
0
100
AcDbSpline
 62
7
  6
CONTINUOUS
 70
0
 71
3
 72
12
 73
8
 74
0
 42
0.0000001
 43
0.0000001
 44
0.0000000001
 40
0.0
 40
0.0
 40
0.0
 40
0.0
 40
0.2655572887
 40
0.5242628812
 40
0.6491670637
 40
0.7703511764
 40
1.0
 40
1.0
 40
1.0
 40
1.0
 10
5.2685
 20
7.547767401
 30
0.0
 10
5.2732405243
 20
7.547767401
 30
0.0
 10
5.2826049277
 20
7.5482052043
 30
0.0
 10
5.2940949974
 20
7.5498712347
 30
0.0
 10
5.3028786924
 20
7.5519076788
 30
0.0
 10
5.3110231637
 20
7.5543220626
 30
0.0
 10
5.316854357
 20
7.5566872359
 30
0.0
 10
5.3205096974
 20
7.5585431728
 30
0.0
  0
SPLINE
  5
2D8
100
AcDbEntity
  8
0
100
AcDbSpline
 62
7
  6
CONTINUOUS
 70
0
 71
3
 72
23
 73
19
 74
0
 42
0.0000001
 43
0.0000001
 44
0.0000000001
 40
0.0
 40
0.0
 40
0.0
 40
0.0
 40
0.0706609348
 40
0.1412396081
 40
0.2113802006
 40
0.2808047115
 40
0.3493286385
 40
0.4167644306
 40
0.4829220778
 40
0.547604426
 40
0.6106295157
 40
0.6718591888
 40
0.7311817718
 40
0.7885422147
 40
0.8439584512
 40
0.8975163726
 40
0.9494266635
 40
1.0
 40
1.0
 40
1.0
 40
1.0
 10
5.2685
 20
7.5754130138
 30
0.0
 10
5.2659470885
 20
7.5754130138
 30
0.0
 10
5.2608418094
 20
7.5751988035
 30
0.0
 10
5.2532554777
 20
7.5742524687
 30
0.0
 10
5.2458162583
 20
7.5726913882
 30
0.0
 10
5.2386051449
 20
7.5705345804
 30
0.0
 10
5.2316890066
 20
7.5678221892
 30
0.0
 10
5.2251321736
 20
7.5645879498
 30
0.0
 10
5.2189935799
 20
7.5608785645
 30
0.0
 10
5.2133280712
 20
7.5567447701
 30
0.0
 10
5.2081910748
 20
7.5522350796
 30
0.0
 10
5.2036275011
 20
7.5474085143
 30
0.0
 10
5.1996807534
 20
7.542321333
 30
0.0
 10
5.1963912834
 20
7.5370311592
 30
0.0
 10
5.1937886499
 20
7.5316002514
 30
0.0
 10
5.191905576
 20
7.5260856685
 30
0.0
 10
5.1907628722
 20
7.5205499864
 30
0.0
 10
5.190499996
 20
7.5168429888
 30
0.0
 10
5.1905
 20
7.5150158229
 30
0.0
  0
SPLINE
  5
2D9
100
AcDbEntity
  8
0
100
AcDbSpline
 62
7
  6
CONTINUOUS
 70
0
 71
3
 72
21
 73
17
 74
0
 42
0.0000001
 43
0.0000001
 44
0.0000000001
 40
0.0
 40
0.0
 40
0.0
 40
0.0
 40
0.1265327608
 40
0.1893875967
 40
0.2519469504
 40
0.3142404322
 40
0.3763028769
 40
0.4381971578
 40
0.5000000769
 40
0.561802978
 40
0.6236972543
 40
0.6857596727
 40
0.748053141
 40
0.8106124531
 40
0.8734672486
 40
1.0
 40
1.0
 40
1.0
 40
1.0
 10
4.3285
 20
7.2731862131
 30
0.0
 10
4.3390462034
 20
7.2929813974
 30
0.0
 10
4.3537187437
 20
7.3232408655
 30
0.0
 10
4.3701556676
 20
7.3647847572
 30
0.0
 10
4.3806527576
 20
7.396380092
 30
0.0
 10
4.3891131071
 20
7.4284387012
 30
0.0
 10
4.3953460847
 20
7.4608884146
 30
0.0
 10
4.3991541137
 20
7.4936267993
 30
0.0
 10
4.400447376
 20
7.5265165382
 30
0.0
 10
4.3991541098
 20
7.5594062762
 30
0.0
 10
4.3953460765
 20
7.5921446516
 30
0.0
 10
4.3891130966
 20
7.6245943567
 30
0.0
 10
4.3806527424
 20
7.6566529495
 30
0.0
 10
4.3701556624
 20
7.6882482698
 30
0.0
 10
4.3537187347
 20
7.7297921427
 30
0.0
 10
4.3390462026
 20
7.7600516045
 30
0.0
 10
4.3285
 20
7.7798467874
 30
0.0
  0
SPLINE
  5
2DA
100
AcDbEntity
  8
0
100
AcDbSpline
 62
7
  6
CONTINUOUS
 70
0
 71
3
 72
21
 73
17
 74
0
 42
0.0000001
 43
0.0000001
 44
0.0000000001
 40
0.0
 40
0.0
 40
0.0
 40
0.0
 40
0.0525404593
 40
0.1046468943
 40
0.1569004245
 40
0.2098994112
 40
0.2642054234
 40
0.3202852463
 40
0.3785029121
 40
0.4390970999
 40
0.5021867012
 40
0.5677484803
 40
0.7056236303
 40
0.8508568872
 40
0.9252485562
 40
1.0
 40
1.0
 40
1.0
 40
1.0
 10
5.3465
 20
8.1005006775
 30
0.0
 10
5.346499996
 20
8.1022941894
 30
0.0
 10
5.3462506097
 20
8.1058718178
 30
0.0
 10
5.3451164661
 20
8.1111243235
 30
0.0
 10
5.3432344214
 20
8.1161753319
 30
0.0
 10
5.3406238959
 20
8.1209751812
 30
0.0
 10
5.3373220134
 20
8.1254893596
 30
0.0
 10
5.3333599589
 20
8.1296830656
 30
0.0
 10
5.3287815015
 20
8.1335327972
 30
0.0
 10
5.3236324819
 20
8.1370212168
 30
0.0
 10
5.3179589579
 20
8.1401287132
 30
0.0
 10
5.3096303399
 20
8.1438129377
 30
0.0
 10
5.298217358
 20
8.1473410222
 30
0.0
 10
5.2861610923
 20
8.1494195214
 30
0.0
 10
5.2761441688
 20
8.150268582
 30
0.0
 10
5.2710517022
 20
8.1504121443
 30
0.0
 10
5.2685
 20
8.1504121443
 30
0.0
  0
SPLINE
  5
2DB
100
AcDbEntity
  8
0
100
AcDbSpline
 62
7
  6
CONTINUOUS
 70
0
 71
3
 72
11
 73
7
 74
0
 42
0.0000001
 43
0.0000001
 44
0.0000000001
 40
0.0
 40
0.0
 40
0.0
 40
0.0
 40
0.2512069761
 40
0.501477306
 40
0.7509684529
 40
1.0
 40
1.0
 40
1.0
 40
1.0
 10
3.8717805442
 20
7.8356697129
 30
0.0
 10
3.8655309295
 20
7.8559875409
 30
0.0
 10
3.8541291619
 20
7.8968912415
 30
0.0
 10
3.8410270163
 20
7.9591255546
 30
0.0
 10
3.8326612487
 20
8.0219990373
 30
0.0
 10
3.8306076042
 20
8.064195881
 30
0.0
 10
3.8305
 20
8.0852687971
 30
0.0
  0
SPLINE
  5
2DC
100
AcDbEntity
  8
0
100
AcDbSpline
 62
7
  6
CONTINUOUS
 70
0
 71
3
 72
11
 73
7
 74
0
 42
0.0000001
 43
0.0000001
 44
0.0000000001
 40
0.0
 40
0.0
 40
0.0
 40
0.0
 40
0.2490315579
 40
0.4985227125
 40
0.7487930334
 40
1.0
 40
1.0
 40
1.0
 40
1.0
 10
3.8305
 20
8.0927312029
 30
0.0
 10
3.8306076042
 20
8.1138041199
 30
0.0
 10
3.8326612489
 20
8.1560009652
 30
0.0
 10
3.8410270169
 20
8.2188744487
 30
0.0
 10
3.8541291627
 20
8.2811087607
 30
0.0
 10
3.8655309297
 20
8.3220124598
 30
0.0
 10
3.8717805442
 20
8.3423302871
 30
0.0
  0
SPLINE
  5
2DD
100
AcDbEntity
  8
0
100
AcDbSpline
 62
7
  6
CONTINUOUS
 70
0
 71
3
 72
21
 73
17
 74
0
 42
0.0000001
 43
0.0000001
 44
0.0000000001
 40
0.0
 40
0.0
 40
0.0
 40
0.0
 40
0.1265327608
 40
0.1893875967
 40
0.2519469504
 40
0.3142404322
 40
0.3763028769
 40
0.4381971578
 40
0.5000000769
 40
0.561802978
 40
0.6236972543
 40
0.6857596727
 40
0.748053141
 40
0.8106124531
 40
0.8734672486
 40
1.0
 40
1.0
 40
1.0
 40
1.0
 10
4.3285
 20
7.8356697129
 30
0.0
 10
4.3390462034
 20
7.8554648972
 30
0.0
 10
4.3537187437
 20
7.8857243652
 30
0.0
 10
4.3701556676
 20
7.9272682569
 30
0.0
 10
4.3806527576
 20
7.9588635918
 30
0.0
 10
4.3891131071
 20
7.990922201
 30
0.0
 10
4.3953460847
 20
8.0233719144
 30
0.0
 10
4.3991541137
 20
8.056110299
 30
0.0
 10
4.400447376
 20
8.089000038
 30
0.0
 10
4.3991541098
 20
8.121889776
 30
0.0
 10
4.3953460765
 20
8.1546281514
 30
0.0
 10
4.3891130966
 20
8.1870778564
 30
0.0
 10
4.3806527424
 20
8.2191364493
 30
0.0
 10
4.3701556624
 20
8.2507317696
 30
0.0
 10
4.3537187347
 20
8.2922756424
 30
0.0
 10
4.3390462026
 20
8.3225351043
 30
0.0
 10
4.3285
 20
8.3423302871
 30
0.0
  0
SPLINE
  5
2DE
100
AcDbEntity
  8
0
100
AcDbSpline
 62
7
  6
CONTINUOUS
 70
0
 71
3
 72
21
 73
17
 74
0
 42
0.0000001
 43
0.0000001
 44
0.0000000001
 40
0.0
 40
0.0
 40
0.0
 40
0.0
 40
0.0747514436
 40
0.1491431112
 40
0.2943763597
 40
0.432251499
 40
0.4978132736
 40
0.5609028725
 40
0.6214970629
 40
0.6797147349
 40
0.7357945633
 40
0.7901005785
 40
0.8430995665
 40
0.8953530975
 40
0.9474595338
 40
1.0
 40
1.0
 40
1.0
 40
1.0
 10
5.2685
 20
8.1504121443
 30
0.0
 10
5.2659482978
 20
8.1504121443
 30
0.0
 10
5.2608558314
 20
8.150268582
 30
0.0
 10
5.2508389082
 20
8.1494195215
 30
0.0
 10
5.2387826434
 20
8.1473410225
 30
0.0
 10
5.2273696623
 20
8.1438129384
 30
0.0
 10
5.2190410447
 20
8.1401287147
 30
0.0
 10
5.2133675208
 20
8.1370212184
 30
0.0
 10
5.208218501
 20
8.1335327988
 30
0.0
 10
5.2036400429
 20
8.1296830674
 30
0.0
 10
5.199677988
 20
8.1254893611
 30
0.0
 10
5.1963761051
 20
8.1209751827
 30
0.0
 10
5.1937655793
 20
8.1161753334
 30
0.0
 10
5.1918835343
 20
8.111124325
 30
0.0
 10
5.1907493902
 20
8.1058718192
 30
0.0
 10
5.1905000039
 20
8.1022941905
 30
0.0
 10
5.1905
 20
8.1005006784
 30
0.0
  0
SPLINE
  5
2DF
100
AcDbEntity
  8
0
100
AcDbSpline
 62
7
  6
CONTINUOUS
 70
0
 71
3
 72
21
 73
17
 74
0
 42
0.0000001
 43
0.0000001
 44
0.0000000001
 40
0.0
 40
0.0
 40
0.0
 40
0.0
 40
0.0525404594
 40
0.1046468944
 40
0.1569004245
 40
0.2098994112
 40
0.2642054234
 40
0.3202852463
 40
0.3785029122
 40
0.4390970999
 40
0.5021867012
 40
0.5677484802
 40
0.7056236303
 40
0.8508568872
 40
0.9252485562
 40
1.0
 40
1.0
 40
1.0
 40
1.0
 10
5.1905
 20
7.5150158229
 30
0.0
 10
5.190500004
 20
7.5132223109
 30
0.0
 10
5.1907493903
 20
7.5096446825
 30
0.0
 10
5.1918835338
 20
7.5043921768
 30
0.0
 10
5.1937655786
 20
7.4993411684
 30
0.0
 10
5.1963761041
 20
7.4945413191
 30
0.0
 10
5.1996779866
 20
7.4900271407
 30
0.0
 10
5.203640041
 20
7.4858334347
 30
0.0
 10
5.2082184984
 20
7.4819837031
 30
0.0
 10
5.213367518
 20
7.4784952835
 30
0.0
 10
5.219041042
 20
7.4753877871
 30
0.0
 10
5.22736966
 20
7.4717035625
 30
0.0
 10
5.238782642
 20
7.468175478
 30
0.0
 10
5.2508389077
 20
7.4660969789
 30
0.0
 10
5.2608558312
 20
7.4652479183
 30
0.0
 10
5.2659482978
 20
7.465104356
 30
0.0
 10
5.2685
 20
7.465104356
 30
0.0
  0
SPLINE
  5
2E0
100
AcDbEntity
  8
0
100
AcDbSpline
 62
7
  6
CONTINUOUS
 70
0
 71
3
 72
21
 73
17
 74
0
 42
0.0000001
 43
0.0000001
 44
0.0000000001
 40
0.0
 40
0.0
 40
0.0
 40
0.0
 40
0.0747514436
 40
0.1491431111
 40
0.2943763597
 40
0.432251499
 40
0.4978132736
 40
0.5609028725
 40
0.6214970629
 40
0.6797147349
 40
0.7357945633
 40
0.7901005785
 40
0.8430995665
 40
0.8953530974
 40
0.9474595337
 40
1.0
 40
1.0
 40
1.0
 40
1.0
 10
5.2685
 20
7.465104356
 30
0.0
 10
5.2710517022
 20
7.465104356
 30
0.0
 10
5.2761441687
 20
7.4652479183
 30
0.0
 10
5.2861610918
 20
7.4660969788
 30
0.0
 10
5.2982173567
 20
7.4681754778
 30
0.0
 10
5.3096303377
 20
7.4717035618
 30
0.0
 10
5.3179589554
 20
7.4753877856
 30
0.0
 10
5.3236324793
 20
7.4784952818
 30
0.0
 10
5.328781499
 20
7.4819837014
 30
0.0
 10
5.3333599571
 20
7.4858334328
 30
0.0
 10
5.337322012
 20
7.4900271391
 30
0.0
 10
5.3406238949
 20
7.4945413176
 30
0.0
 10
5.3432344207
 20
7.4993411669
 30
0.0
 10
5.3451164657
 20
7.5043921753
 30
0.0
 10
5.3462506098
 20
7.5096446811
 30
0.0
 10
5.3464999961
 20
7.5132223098
 30
0.0
 10
5.3465
 20
7.5150158219
 30
0.0
  0
SPLINE
  5
2E1
100
AcDbEntity
  8
0
100
AcDbSpline
 62
7
  6
CONTINUOUS
 70
0
 71
3
 72
11
 73
7
 74
0
 42
0.0000001
 43
0.0000001
 44
0.0000000001
 40
0.0
 40
0.0
 40
0.0
 40
0.0
 40
0.2512069761
 40
0.501477306
 40
0.7509684529
 40
1.0
 40
1.0
 40
1.0
 40
1.0
 10
3.8717805442
 20
7.2731862131
 30
0.0
 10
3.8655309295
 20
7.2935040412
 30
0.0
 10
3.8541291619
 20
7.3344077418
 30
0.0
 10
3.8410270163
 20
7.3966420548
 30
0.0
 10
3.8326612487
 20
7.4595155375
 30
0.0
 10
3.8306076042
 20
7.5017123812
 30
0.0
 10
3.8305
 20
7.5227852974
 30
0.0
  0
SPLINE
  5
2E2
100
AcDbEntity
  8
0
100
AcDbSpline
 62
7
  6
CONTINUOUS
 70
0
 71
3
 72
11
 73
7
 74
0
 42
0.0000001
 43
0.0000001
 44
0.0000000001
 40
0.0
 40
0.0
 40
0.0
 40
0.0
 40
0.2490315579
 40
0.4985227125
 40
0.7487930334
 40
1.0
 40
1.0
 40
1.0
 40
1.0
 10
3.8305
 20
7.5302477031
 30
0.0
 10
3.8306076042
 20
7.5513206202
 30
0.0
 10
3.8326612489
 20
7.5935174654
 30
0.0
 10
3.8410270169
 20
7.6563909489
 30
0.0
 10
3.8541291627
 20
7.7186252609
 30
0.0
 10
3.8655309297
 20
7.7595289601
 30
0.0
 10
3.8717805442
 20
7.7798467874
 30
0.0
  0
ELLIPSE
  5
2E3
100
AcDbEntity
  8
0
100
AcDbEllipse
 62
7
  6
CONTINUOUS
 10
6.1225
 20
7.3912582501
 30
0.0
 11
0.035
 21
0.0
 31
0.0
 40
1.0
 41
-3.1415926536
 42
0.0
  0
ELLIPSE
  5
2E4
100
AcDbEntity
  8
0
100
AcDbEllipse
 62
7
  6
CONTINUOUS
 10
6.1225
 20
8.2242582501
 30
0.0
 11
0.035
 21
-0.0
 31
0.0
 40
1.0
 41
0.0
 42
3.1415926536
  0
ELLIPSE
  5
2E5
100
AcDbEntity
  8
0
100
AcDbEllipse
 62
7
  6
CONTINUOUS
 10
4.7565
 20
7.3147582501
 30
0.0
 11
0.0
 21
0.035
 31
0.0
 40
1.0
 41
-4.7123889804
 42
-1.5707963268
  0
ELLIPSE
  5
2E6
100
AcDbEntity
  8
0
100
AcDbEllipse
 62
7
  6
CONTINUOUS
 10
4.7565
 20
8.3007582501
 30
0.0
 11
0.035
 21
0.0
 31
0.0
 40
1.0
 41
6.2831853072
 42
9.4247779608
  0
ENDSEC
  0
SECTION
  2
OBJECTS
  0
DICTIONARY
  5
C
100
AcDbDictionary
280
0
281
1
  3
ACAD_GROUP
350
D
  3
ACAD_MLINESTYLE
350
17
  3
ACAD_LAYOUT
350
1A
  3
ACAD_PLOTSETTINGS
350
19
  3
ACAD_PLOTSTYLENAME
350
E
  0
DICTIONARY
  5
D
102
{ACAD_REACTORS
330
C
102
}
100
AcDbDictionary
280
0
281
1
  0
ACDBDICTIONARYWDFLT
  5
E
102
{ACAD_REACTORS
330
C
102
}
100
AcDbDictionary
281
1
  3
Normal
350
F
100
AcDbDictionaryWithDefault
340
F
  0
DICTIONARY
  5
17
102
{ACAD_REACTORS
330
C
102
}
100
AcDbDictionary
280
0
281
1
  3
Standard
350
18
  0
DICTIONARY
  5
19
102
{ACAD_REACTORS
330
C
102
}
100
AcDbDictionary
281
1
  0
DICTIONARY
  5
1A
102
{ACAD_REACTORS
330
C
102
}
100
AcDbDictionary
281
1
  3
Model
350
2E7
  3
Layout1
350
2E8
  0
ACDBPLACEHOLDER
  5
F
102
{ACAD_REACTORS
330
E
102
}
  0
MLINESTYLE
  5
18
102
{ACAD_REACTORS
330
17
102
}
100
AcDbMlineStyle
  2
STANDARD
 70
0
  3

 62
256
 51
90.0
 52
90.0
 71
2
 49
0.5
 62
256
  6
BYLAYER
 49
-0.5
 62
256
  6
BYLAYER
  0
LAYOUT
  5
2E7
102
{ACAD_REACTORS
330
1A
102
}
100
AcDbPlotSettings
  1

  2
none_device
  4
ANSI_B_(17.00_x_11.00_Inches)
  6

 40
0.0
 41
0.0
 42
0.0
 43
0.0
 44
431.8
 45
279.4
 46
0.0
 47
0.0
 48
0.0
 49
0.0
140
0.0
141
0.0
142
1.0
143
1.0
 70
1024
 72
0
 73
0
 74
0
  7

 75
0
147
1.0
148
0.0
149
0.0
100
AcDbLayout
  1
Model
 70
0
 71
0
 10
0.0
 20
0.0
 11
17.0
 21
11.0
 12
0.0
 22
0.0
 32
0.0
 14
0.0
 24
0.0
 34
0.0
 15
0.0
 25
0.0
 35
0.0
146
0.0
 13
0.0
 23
0.0
 33
0.0
 16
1.0
 26
0.0
 36
0.0
 17
0.0
 27
1.0
 37
0.0
 76
0
330
23A
345
0
346
0
  0
LAYOUT
  5
2E8
102
{ACAD_REACTORS
330
1A
102
}
100
AcDbPlotSettings
  1

  2
none_device
  4
ANSI_B_(17.00_x_11.00_Inches)
  6

 40
0.0
 41
0.0
 42
0.0
 43
0.0
 44
431.8
 45
279.4
 46
0.0
 47
0.0
 48
0.0
 49
0.0
140
0.0
141
0.0
142
1.0
143
1.0
 70
0
 72
0
 73
0
 74
0
  7

 75
0
147
1.0
148
0.0
149
0.0
100
AcDbLayout
  1
Layout1
 70
0
 71
1
 10
0.0
 20
0.0
 11
17.0
 21
11.0
 12
0.0
 22
0.0
 32
0.0
 14
0.0
 24
0.0
 34
0.0
 15
0.0
 25
0.0
 35
0.0
146
0.0
 13
0.0
 23
0.0
 33
0.0
 16
1.0
 26
0.0
 36
0.0
 17
0.0
 27
1.0
 37
0.0
 76
0
330
23B
345
0
346
0
  0
ENDSEC
  0
EOF
