999
DXF file: LRFCXHN.dxf
999
Pro/ENGINEER 2021072 by Parametric Technology Corporation
  0
SECTION
  2
HEADER
  9
$ACADVER
  1
AC1032
  9
$DWGCODEPAGE
  3
ANSI_1252
  9
$EXTMAX
 10
17.0
 20
11.0
 30
0.0
  9
$EXTMIN
 10
0.0
 20
0.0
 30
0.0
  9
$LIMMIN
 10
0.0
 20
0.0
  9
$LIMMAX
 10
17.0
 20
11.0
  9
$VIEWCTR
 10
8.5
 20
5.5
  9
$VIEWSIZE
 40
11.0
  9
$CLAYER
  8
0
  9
$LTSCALE
 40
0.935
  9
$CELTYPE
  6
BYLAYER
  9
$DIMSCALE
 40
1.0
  9
$DIMASZ
 40
0.1875
  9
$DIMEXO
 40
0.0625
  9
$DIMDLI
 40
0.646
  9
$DIMEXE
 40
0.125
  9
$DIMCEN
 40
0.153
  9
$DIMLFAC
 40
1.0
  9
$DIMBLK
  1
_FILLED
  9
$DIMALT
 70
0
  9
$DIMALTF
 40
25.4
  9
$DIMTXT
 40
0.125
  9
$DIMTOL
 70
0
  9
$DIMLIM
 70
0
  9
$DIMTFAC
 40
1.0
  9
$DIMGAP
 40
0.09
  9
$DIMDSEP
 70
46
  9
$AUNITS
 70
0
  9
$PDMODE
 70
3
  9
$PDSIZE
 40
0.3125
  9
$HANDSEED
  5
31D
  9
$TILEMODE
 70
1
  9
$MEASUREMENT
 70
0
  9
$INSUNITS
 70
1
  0
ENDSEC
  0
SECTION
  2
CLASSES
  0
CLASS
  1
ACDBDICTIONARYWDFLT
  2
AcDbDictionaryWithDefault
  3
AutoCAD 2000
 90
0
 91
1
280
0
281
0
  0
CLASS
  1
ACDBPLACEHOLDER
  2
AcDbPlaceHolder
  3
AutoCAD 2000
 90
0
 91
1
280
0
281
0
  0
CLASS
  1
LAYOUT
  2
AcDbLayout
  3
AutoCAD 2000
 90
0
 91
0
280
0
281
0
  0
ENDSEC
  0
SECTION
  2
TABLES
  0
TABLE
  2
VPORT
  5
8
100
AcDbSymbolTable
 70
2
  0
VPORT
  5
1F4
100
AcDbSymbolTableRecord
100
AcDbViewportTableRecord
  2
*ACTIVE
 70
0
 10
0.0
 20
0.0
 11
1.0
 21
1.0
 12
8.5
 22
5.5
 13
0.0
 23
0.0
 14
1.0
 24
1.0
 15
0.0
 25
0.0
 16
0.0
 26
0.0
 36
1.0
 17
0.0
 27
0.0
 37
0.0
 40
11.0
 41
1.5454545455
 42
50.0
 43
0.0
 44
0.0
 50
0.0
 51
0.0
 71
0
 72
100
 73
1
 74
1
 75
0
 76
0
 77
0
 78
0
  0
ENDTAB
  0
TABLE
  2
LTYPE
  5
5
100
AcDbSymbolTable
 70
6
  0
LTYPE
  5
14
100
AcDbSymbolTableRecord
100
AcDbLinetypeTableRecord
  2
BYBLOCK
 70
0
  3

 72
65
 73
0
 40
0.0
  0
LTYPE
  5
15
100
AcDbSymbolTableRecord
100
AcDbLinetypeTableRecord
  2
BYLAYER
 70
0
  3

 72
65
 73
0
 40
0.0
  0
LTYPE
  5
16
100
AcDbSymbolTableRecord
100
AcDbLinetypeTableRecord
  2
CONTINUOUS
 70
64
  3
Solid line
 72
65
 73
0
 40
0.0
  0
LTYPE
  5
1F5
100
AcDbSymbolTableRecord
100
AcDbLinetypeTableRecord
  2
CENTER
 70
64
  3
____ _ ____ _ ____ _ ____ _ ____ _ ____ _ ____
 72
65
 73
4
 40
0.6
 49
0.375
 74
0
 49
-0.075
 74
0
 49
0.075
 74
0
 49
-0.075
 74
0
  0
LTYPE
  5
1F6
100
AcDbSymbolTableRecord
100
AcDbLinetypeTableRecord
  2
HIDDEN
 70
64
  3
- - - - - - - - - - - - - - - - - - - -
 72
65
 73
2
 40
0.2
 49
0.1
 74
0
 49
-0.1
 74
0
  0
LTYPE
  5
1F7
100
AcDbSymbolTableRecord
100
AcDbLinetypeTableRecord
  2
PHANTOM
 70
64
  3
_____ _ _ _____ _ _ _____ _ _ _____
 72
65
 73
6
 40
0.8
 49
0.45
 74
0
 49
-0.05
 74
0
 49
0.1
 74
0
 49
-0.05
 74
0
 49
0.1
 74
0
 49
-0.05
 74
0
  0
LTYPE
  5
1F8
100
AcDbSymbolTableRecord
100
AcDbLinetypeTableRecord
  2
DOT
 70
64
  3
. . . . . . . . . . . . . . . . . . . .
 72
65
 73
2
 40
0.2
 49
0.1
 74
0
 49
-0.1
 74
0
  0
LTYPE
  5
1F9
100
AcDbSymbolTableRecord
100
AcDbLinetypeTableRecord
  2
DASHED
 70
64
  3
- - - - - - - - - - - - - - - - - - - -
 72
65
 73
2
 40
0.2
 49
0.1
 74
0
 49
-0.1
 74
0
  0
ENDTAB
  0
TABLE
  2
LAYER
  5
2
100
AcDbSymbolTable
 70
36
  0
LAYER
  5
10
100
AcDbSymbolTableRecord
100
AcDbLayerTableRecord
  2
0
 70
0
 62
7
  6
CONTINUOUS
370
-3
390
F
  0
LAYER
  5
1FA
100
AcDbSymbolTableRecord
100
AcDbLayerTableRecord
  2
DEFAULT_1
 70
0
 62
7
  6
CENTER
370
-3
390
F
  0
LAYER
  5
1FB
100
AcDbSymbolTableRecord
100
AcDbLayerTableRecord
  2
DEFAULT_2
 70
0
 62
8
  6
HIDDEN
370
-3
390
F
  0
LAYER
  5
1FC
100
AcDbSymbolTableRecord
100
AcDbLayerTableRecord
  2
DEFAULT_3
 70
0
 62
7
  6
PHANTOM
370
-3
390
F
  0
LAYER
  5
1FD
100
AcDbSymbolTableRecord
100
AcDbLayerTableRecord
  2
01_ALL_DTM_PLN
 70
0
 62
7
  6
CONTINUOUS
370
-3
390
F
  0
LAYER
  5
1FE
100
AcDbSymbolTableRecord
100
AcDbLayerTableRecord
  2
01__ASM_ALL_DTM_PLN
 70
0
 62
7
  6
CONTINUOUS
370
-3
390
F
  0
LAYER
  5
1FF
100
AcDbSymbolTableRecord
100
AcDbLayerTableRecord
  2
01__ASM_DEF_DTM_PLN
 70
0
 62
7
  6
CONTINUOUS
370
-3
390
F
  0
LAYER
  5
200
100
AcDbSymbolTableRecord
100
AcDbLayerTableRecord
  2
01___PRT_ALL_DTM_PLN
 70
0
 62
7
  6
CONTINUOUS
370
-3
390
F
  0
LAYER
  5
201
100
AcDbSymbolTableRecord
100
AcDbLayerTableRecord
  2
01___PRT_DEF_DTM_PLN
 70
0
 62
7
  6
CONTINUOUS
370
-3
390
F
  0
LAYER
  5
202
100
AcDbSymbolTableRecord
100
AcDbLayerTableRecord
  2
02_ALL_AXES
 70
0
 62
7
  6
CONTINUOUS
370
-3
390
F
  0
LAYER
  5
203
100
AcDbSymbolTableRecord
100
AcDbLayerTableRecord
  2
02__ASM_ALL_AXES
 70
0
 62
7
  6
CONTINUOUS
370
-3
390
F
  0
LAYER
  5
204
100
AcDbSymbolTableRecord
100
AcDbLayerTableRecord
  2
02___PRT_ALL_AXES
 70
0
 62
7
  6
CONTINUOUS
370
-3
390
F
  0
LAYER
  5
205
100
AcDbSymbolTableRecord
100
AcDbLayerTableRecord
  2
03_ALL_CURVES
 70
0
 62
7
  6
CONTINUOUS
370
-3
390
F
  0
LAYER
  5
206
100
AcDbSymbolTableRecord
100
AcDbLayerTableRecord
  2
03__ASM_ALL_CURVES
 70
0
 62
7
  6
CONTINUOUS
370
-3
390
F
  0
LAYER
  5
207
100
AcDbSymbolTableRecord
100
AcDbLayerTableRecord
  2
03___PRT_ALL_CURVES
 70
0
 62
7
  6
CONTINUOUS
370
-3
390
F
  0
LAYER
  5
208
100
AcDbSymbolTableRecord
100
AcDbLayerTableRecord
  2
04_ALL_DTM_PNT
 70
0
 62
7
  6
CONTINUOUS
370
-3
390
F
  0
LAYER
  5
209
100
AcDbSymbolTableRecord
100
AcDbLayerTableRecord
  2
04__ASM_ALL_DTM_PNT
 70
0
 62
7
  6
CONTINUOUS
370
-3
390
F
  0
LAYER
  5
20A
100
AcDbSymbolTableRecord
100
AcDbLayerTableRecord
  2
04___PRT_ALL_DTM_PNT
 70
0
 62
7
  6
CONTINUOUS
370
-3
390
F
  0
LAYER
  5
20B
100
AcDbSymbolTableRecord
100
AcDbLayerTableRecord
  2
05_ALL_DTM_CSYS
 70
0
 62
7
  6
CONTINUOUS
370
-3
390
F
  0
LAYER
  5
20C
100
AcDbSymbolTableRecord
100
AcDbLayerTableRecord
  2
05__ASM_ALL_DTM_CSYS
 70
0
 62
7
  6
CONTINUOUS
370
-3
390
F
  0
LAYER
  5
20D
100
AcDbSymbolTableRecord
100
AcDbLayerTableRecord
  2
05__ASM_DEF_DTM_CSYS
 70
0
 62
7
  6
CONTINUOUS
370
-3
390
F
  0
LAYER
  5
20E
100
AcDbSymbolTableRecord
100
AcDbLayerTableRecord
  2
05___PRT_ALL_DTM_CSYS
 70
0
 62
7
  6
CONTINUOUS
370
-3
390
F
  0
LAYER
  5
20F
100
AcDbSymbolTableRecord
100
AcDbLayerTableRecord
  2
05___PRT_DEF_DTM_CSYS
 70
0
 62
7
  6
CONTINUOUS
370
-3
390
F
  0
LAYER
  5
210
100
AcDbSymbolTableRecord
100
AcDbLayerTableRecord
  2
06_ALL_SURFS
 70
0
 62
7
  6
CONTINUOUS
370
-3
390
F
  0
LAYER
  5
211
100
AcDbSymbolTableRecord
100
AcDbLayerTableRecord
  2
06__ASM_ALL_SURFS
 70
0
 62
7
  6
CONTINUOUS
370
-3
390
F
  0
LAYER
  5
212
100
AcDbSymbolTableRecord
100
AcDbLayerTableRecord
  2
06___PRT_ALL_SURFS
 70
0
 62
7
  6
CONTINUOUS
370
-3
390
F
  0
LAYER
  5
213
100
AcDbSymbolTableRecord
100
AcDbLayerTableRecord
  2
07__ASM_ALL_SKELETONS
 70
0
 62
7
  6
CONTINUOUS
370
-3
390
F
  0
LAYER
  5
214
100
AcDbSymbolTableRecord
100
AcDbLayerTableRecord
  2
125-021_FEATURES
 70
0
 62
7
  6
CONTINUOUS
370
-3
390
F
  0
LAYER
  5
215
100
AcDbSymbolTableRecord
100
AcDbLayerTableRecord
  2
125-021_REF_GEOMETRY
 70
0
 62
7
  6
CONTINUOUS
370
-3
390
F
  0
LAYER
  5
216
100
AcDbSymbolTableRecord
100
AcDbLayerTableRecord
  2
125-089_FEATURES
 70
0
 62
7
  6
CONTINUOUS
370
-3
390
F
  0
LAYER
  5
217
100
AcDbSymbolTableRecord
100
AcDbLayerTableRecord
  2
125-089_REF_GEOMETRY
 70
0
 62
7
  6
CONTINUOUS
370
-3
390
F
  0
LAYER
  5
218
100
AcDbSymbolTableRecord
100
AcDbLayerTableRecord
  2
125-094_FEATURES
 70
0
 62
7
  6
CONTINUOUS
370
-3
390
F
  0
LAYER
  5
219
100
AcDbSymbolTableRecord
100
AcDbLayerTableRecord
  2
125-094_REF_GEOMETRY
 70
0
 62
7
  6
CONTINUOUS
370
-3
390
F
  0
LAYER
  5
21A
100
AcDbSymbolTableRecord
100
AcDbLayerTableRecord
  2
127-310_FEATURES
 70
0
 62
7
  6
CONTINUOUS
370
-3
390
F
  0
LAYER
  5
21B
100
AcDbSymbolTableRecord
100
AcDbLayerTableRecord
  2
127-310_REF_GEOMETRY
 70
0
 62
7
  6
CONTINUOUS
370
-3
390
F
  0
LAYER
  5
21C
100
AcDbSymbolTableRecord
100
AcDbLayerTableRecord
  2
127-311_FEATURES
 70
0
 62
7
  6
CONTINUOUS
370
-3
390
F
  0
LAYER
  5
21D
100
AcDbSymbolTableRecord
100
AcDbLayerTableRecord
  2
127-311_REF_GEOMETRY
 70
0
 62
7
  6
CONTINUOUS
370
-3
390
F
  0
LAYER
  5
21E
100
AcDbSymbolTableRecord
100
AcDbLayerTableRecord
  2
127-312_FEATURES
 70
0
 62
7
  6
CONTINUOUS
370
-3
390
F
  0
LAYER
  5
21F
100
AcDbSymbolTableRecord
100
AcDbLayerTableRecord
  2
127-312_REF_GEOMETRY
 70
0
 62
7
  6
CONTINUOUS
370
-3
390
F
  0
LAYER
  5
220
100
AcDbSymbolTableRecord
100
AcDbLayerTableRecord
  2
COPY_GEO_FET
 70
0
 62
7
  6
CONTINUOUS
370
-3
390
F
  0
LAYER
  5
221
100
AcDbSymbolTableRecord
100
AcDbLayerTableRecord
  2
COSMETIC
 70
0
 62
7
  6
CONTINUOUS
370
-3
390
F
  0
LAYER
  5
222
100
AcDbSymbolTableRecord
100
AcDbLayerTableRecord
  2
CURVES
 70
0
 62
7
  6
CONTINUOUS
370
-3
390
F
  0
LAYER
  5
223
100
AcDbSymbolTableRecord
100
AcDbLayerTableRecord
  2
CUT_REF_SURF
 70
0
 62
7
  6
CONTINUOUS
370
-3
390
F
  0
LAYER
  5
224
100
AcDbSymbolTableRecord
100
AcDbLayerTableRecord
  2
DATUM
 70
0
 62
7
  6
CONTINUOUS
370
-3
390
F
  0
LAYER
  5
225
100
AcDbSymbolTableRecord
100
AcDbLayerTableRecord
  2
DATUMCURVES
 70
0
 62
7
  6
CONTINUOUS
370
-3
390
F
  0
LAYER
  5
226
100
AcDbSymbolTableRecord
100
AcDbLayerTableRecord
  2
DATUM_ADDED_230
 70
0
 62
7
  6
CONTINUOUS
370
-3
390
F
  0
LAYER
  5
227
100
AcDbSymbolTableRecord
100
AcDbLayerTableRecord
  2
DIMENSIONS
 70
0
 62
7
  6
CONTINUOUS
370
-3
390
F
  0
LAYER
  5
228
100
AcDbSymbolTableRecord
100
AcDbLayerTableRecord
  2
DRAWINGNOTES
 70
0
 62
7
  6
CONTINUOUS
370
-3
390
F
  0
LAYER
  5
229
100
AcDbSymbolTableRecord
100
AcDbLayerTableRecord
  2
DTM
 70
0
 62
7
  6
CONTINUOUS
370
-3
390
F
  0
LAYER
  5
22A
100
AcDbSymbolTableRecord
100
AcDbLayerTableRecord
  2
DTM230
 70
0
 62
7
  6
CONTINUOUS
370
-3
390
F
  0
LAYER
  5
22B
100
AcDbSymbolTableRecord
100
AcDbLayerTableRecord
  2
DTM_500001
 70
0
 62
7
  6
CONTINUOUS
370
-3
390
F
  0
LAYER
  5
22C
100
AcDbSymbolTableRecord
100
AcDbLayerTableRecord
  2
DTM_500002
 70
0
 62
7
  6
CONTINUOUS
370
-3
390
F
  0
LAYER
  5
22D
100
AcDbSymbolTableRecord
100
AcDbLayerTableRecord
  2
DTM_515002
 70
0
 62
7
  6
CONTINUOUS
370
-3
390
F
  0
LAYER
  5
22E
100
AcDbSymbolTableRecord
100
AcDbLayerTableRecord
  2
DTM_SPRING_RH
 70
0
 62
7
  6
CONTINUOUS
370
-3
390
F
  0
LAYER
  5
22F
100
AcDbSymbolTableRecord
100
AcDbLayerTableRecord
  2
DTM_SP_RH_CONSTR
 70
0
 62
7
  6
CONTINUOUS
370
-3
390
F
  0
LAYER
  5
230
100
AcDbSymbolTableRecord
100
AcDbLayerTableRecord
  2
GEOMETRICTOLERANCES
 70
0
 62
7
  6
CONTINUOUS
370
-3
390
F
  0
LAYER
  5
231
100
AcDbSymbolTableRecord
100
AcDbLayerTableRecord
  2
HIDDEN
 70
0
 62
7
  6
CONTINUOUS
370
-3
390
F
  0
LAYER
  5
232
100
AcDbSymbolTableRecord
100
AcDbLayerTableRecord
  2
PARAMETERDIMENSIONS
 70
0
 62
7
  6
CONTINUOUS
370
-3
390
F
  0
LAYER
  5
233
100
AcDbSymbolTableRecord
100
AcDbLayerTableRecord
  2
PLANE
 70
0
 62
7
  6
CONTINUOUS
370
-3
390
F
  0
LAYER
  5
234
100
AcDbSymbolTableRecord
100
AcDbLayerTableRecord
  2
S-151_METRIC_ORING_BOSS_PORT
 70
0
 62
7
  6
CONTINUOUS
370
-3
390
F
  0
LAYER
  5
235
100
AcDbSymbolTableRecord
100
AcDbLayerTableRecord
  2
S-164_NPTF_PORT
 70
0
 62
7
  6
CONTINUOUS
370
-3
390
F
  0
LAYER
  5
236
100
AcDbSymbolTableRecord
100
AcDbLayerTableRecord
  2
S-186_BSPP_PORT
 70
0
 62
7
  6
CONTINUOUS
370
-3
390
F
  0
LAYER
  5
237
100
AcDbSymbolTableRecord
100
AcDbLayerTableRecord
  2
SUN_STD_SAE-4_PORT
 70
0
 62
7
  6
CONTINUOUS
370
-3
390
F
  0
LAYER
  5
238
100
AcDbSymbolTableRecord
100
AcDbLayerTableRecord
  2
T-8A_CAVITY
 70
0
 62
7
  6
CONTINUOUS
370
-3
390
F
  0
LAYER
  5
239
100
AcDbSymbolTableRecord
100
AcDbLayerTableRecord
  2
T-8A_CAVITY-INCOMPLETE
 70
0
 62
7
  6
CONTINUOUS
370
-3
390
F
  0
LAYER
  5
23A
100
AcDbSymbolTableRecord
100
AcDbLayerTableRecord
  2
T-8A_CAVITY-INCOMPLETE_REF_GEOM
 70
0
 62
7
  6
CONTINUOUS
370
-3
390
F
  0
LAYER
  5
23B
100
AcDbSymbolTableRecord
100
AcDbLayerTableRecord
  2
T-8A_CAVITY_REF_GEOMETRY
 70
0
 62
7
  6
CONTINUOUS
370
-3
390
F
  0
LAYER
  5
23C
100
AcDbSymbolTableRecord
100
AcDbLayerTableRecord
  2
TEXT
 70
0
 62
7
  6
CONTINUOUS
370
-3
390
F
  0
LAYER
  5
23D
100
AcDbSymbolTableRecord
100
AcDbLayerTableRecord
  2
THREAD
 70
0
 62
7
  6
CONTINUOUS
370
-3
390
F
  0
ENDTAB
  0
TABLE
  2
STYLE
  5
3
100
AcDbSymbolTable
 70
1
  0
STYLE
  5
11
100
AcDbSymbolTableRecord
100
AcDbTextStyleTableRecord
  2
STANDARD
 70
0
 40
0.0
 41
0.8
 50
0.0
 71
0
 42
0.2
  3
txt
  4

  0
STYLE
  5
23E
100
AcDbSymbolTableRecord
100
AcDbTextStyleTableRecord
  2
TEXTSTYLE_1
 70
0
 40
0.0
 41
0.8
 50
0.0
 71
0
 42
0.2
  3
gdt
  4

  0
ENDTAB
  0
TABLE
  2
VIEW
  5
6
100
AcDbSymbolTable
 70
0
  0
ENDTAB
  0
TABLE
  2
UCS
  5
7
100
AcDbSymbolTable
 70
0
  0
ENDTAB
  0
TABLE
  2
APPID
  5
9
100
AcDbSymbolTable
 70
1
  0
APPID
  5
23F
100
AcDbSymbolTableRecord
100
AcDbRegAppTableRecord
  2
ACAD
 70
0
  0
ENDTAB
  0
TABLE
  2
BLOCK_RECORD
  5
1
100
AcDbSymbolTable
 70
0
  0
BLOCK_RECORD
  5
240
100
AcDbSymbolTableRecord
100
AcDbBlockTableRecord
  2
*Model_Space
  0
BLOCK_RECORD
  5
241
100
AcDbSymbolTableRecord
100
AcDbBlockTableRecord
  2
*Paper_Space
  0
BLOCK_RECORD
  5
242
100
AcDbSymbolTableRecord
100
AcDbBlockTableRecord
  2
_FILLED
  0
BLOCK_RECORD
  5
243
100
AcDbSymbolTableRecord
100
AcDbBlockTableRecord
  2
*D0
  0
ENDTAB
  0
TABLE
  2
DIMSTYLE
  5
A
100
AcDbSymbolTable
 70
1
100
AcDbDimStyleTable
 71
0
  0
DIMSTYLE
105
244
100
AcDbSymbolTableRecord
100
AcDbDimStyleTableRecord
  2
STANDARD
 70
0
  3

  4

 40
1.0
 41
0.1875
 42
0.0625
 43
0.38
 44
0.125
 45
0.0
 46
0.0
 47
0.001
 48
0.001
140
0.125
141
0.09
142
0.0
143
25.4
144
1.0
145
0.0
146
1.0
147
0.09
 71
0
 72
0
 73
1
 74
1
 75
0
 76
0
 77
0
 78
4
 79
1
170
0
171
2
172
0
173
0
174
0
175
0
176
0
177
0
178
0
270
2
179
3
271
3
272
3
273
2
274
2
275
0
280
0
281
0
282
0
283
1
284
4
285
0
286
0
287
3
288
0
340
11
278
46
341
242
342
242
343
242
344
242
  0
DIMSTYLE
105
245
100
AcDbSymbolTableRecord
100
AcDbDimStyleTableRecord
  2
DIMSTYLE_1
 70
0
  3

  4

 40
1.0
 41
0.1875
 42
0.0625
 43
0.38
 44
0.125
 45
0.0
 46
0.0
 47
0.0
 48
0.0
140
0.125
141
0.09
142
0.0
143
25.4
144
1.0
145
0.0
146
1.0
147
0.0625
 71
0
 72
0
 73
1
 74
1
 75
0
 76
0
 77
0
 78
4
 79
1
170
0
171
2
172
0
173
0
174
0
175
0
176
0
177
0
178
0
270
2
179
3
271
2
272
3
273
2
274
2
275
0
280
0
281
0
282
0
283
1
284
4
285
0
286
0
287
3
288
0
340
11
278
46
341
242
342
242
343
242
344
242
  0
ENDTAB
  0
ENDSEC
  0
SECTION
  2
BLOCKS
  0
BLOCK
  5
20
100
AcDbEntity
  8
0
100
AcDbBlockBegin
  2
*Model_Space
 70
0
 10
0.0
 20
0.0
 30
0.0
  3
*Model_Space
  1

  0
ENDBLK
  5
21
100
AcDbEntity
  8
0
100
AcDbBlockEnd
  0
BLOCK
  5
1C
100
AcDbEntity
  8
0
100
AcDbBlockBegin
  2
*Paper_Space
 70
0
 10
0.0
 20
0.0
 30
0.0
  3
*Paper_Space
  1

  0
ENDBLK
  5
1D
100
AcDbEntity
  8
0
100
AcDbBlockEnd
  0
BLOCK
  5
246
100
AcDbEntity
  8
0
100
AcDbBlockBegin
  2
_FILLED
 70
64
 10
0.0
 20
0.0
  3
_FILLED
  1

  0
SOLID
  5
247
100
AcDbEntity
  8
0
  6
BYBLOCK
 62
0
100
AcDbTrace
 10
0.0
 20
0.0
 11
-1.0
 21
0.1666666667
 12
-1.0
 22
-0.1666666667
 13
-1.0
 23
-0.1666666667
  0
ENDBLK
  5
248
100
AcDbEntity
  8
0
  6
BYBLOCK
 62
0
100
AcDbBlockEnd
  0
BLOCK
  5
249
100
AcDbEntity
  8
0
100
AcDbBlockBegin
 62
6
  6
CONTINUOUS
  2
*D0
 70
65
 10
0.0
 20
0.0
  3
*D0
  1

  0
MTEXT
  5
24A
100
AcDbEntity
  8
0
100
AcDbMText
 62
6
  6
CONTINUOUS
  7
STANDARD
 71
1
 72
1
 10
5.25
 20
7.9755
 30
0.0
 11
1.0
 21
0.0
 31
0.0
 73
2
 44
0.9
  1
1.38 in (34,9 mm)
 40
0.125
 41
1.7
  0
LINE
  5
24B
100
AcDbEntity
  8
0
100
AcDbLine
 62
6
  6
CONTINUOUS
 10
5.0
 20
7.6005
 11
5.0
 21
8.038
  0
LINE
  5
24C
100
AcDbEntity
  8
0
100
AcDbLine
 62
6
  6
CONTINUOUS
 10
3.625
 20
7.0625
 11
3.625
 21
8.038
  0
LINE
  5
24D
100
AcDbEntity
  8
0
100
AcDbLine
 62
6
  6
CONTINUOUS
 10
5.0
 20
7.913
 11
4.3125
 21
7.913
  0
LINE
  5
24E
100
AcDbEntity
  8
0
100
AcDbLine
 62
6
  6
CONTINUOUS
 10
4.3125
 20
7.913
 11
5.1875
 21
7.913
  0
LINE
  5
24F
100
AcDbEntity
  8
0
100
AcDbLine
 62
6
  6
CONTINUOUS
 10
3.625
 20
7.913
 11
4.3125
 21
7.913
  0
INSERT
  5
250
100
AcDbEntity
  8
0
100
AcDbBlockReference
 62
6
  6
CONTINUOUS
  2
_FILLED
 10
5.0
 20
7.913
 41
0.1875
 42
0.1875
 43
0.1875
  0
INSERT
  5
251
100
AcDbEntity
  8
0
100
AcDbBlockReference
 62
6
  6
CONTINUOUS
  2
_FILLED
 10
3.625
 20
7.913
 41
0.1875
 42
0.1875
 43
0.1875
 50
180.0
  0
ENDBLK
  5
252
100
AcDbEntity
  8
0
  6
BYBLOCK
 62
0
100
AcDbBlockEnd
  0
ENDSEC
  0
SECTION
  2
ENTITIES
  0
DIMENSION
  5
253
100
AcDbEntity
  8
0
100
AcDbDimension
 62
6
  6
CONTINUOUS
  2
*D0
 10
3.625
 20
7.913
 11
6.1
 21
7.913
 70
160
 71
1
 72
2
 41
0.9
 42
1.375
  1
<> in (34,9 mm)
  3
DIMSTYLE_1
100
AcDbAlignedDimension
 13
5.0
 23
7.538
 14
3.625
 24
7.0
 50
180.0
100
AcDbRotatedDimension
  0
MTEXT
  5
254
100
AcDbEntity
  8
0
100
AcDbMText
 62
2
  6
CONTINUOUS
  7
STANDARD
 71
1
 72
1
 10
6.75
 20
7.0625
 30
0.0
 11
1.0
 21
0.0
 31
0.0
 73
2
 44
0.6
  1
Port 1
 40
0.125
 41
0.6
  0
MTEXT
  5
255
100
AcDbEntity
  8
0
100
AcDbMText
 62
2
  6
CONTINUOUS
  7
STANDARD
 71
1
 72
1
 10
5.55
 20
6.3125
 30
0.0
 11
1.0
 21
0.0
 31
0.0
 73
2
 44
0.6
  1
Port 2
 40
0.125
 41
0.6
  0
MTEXT
  5
256
100
AcDbEntity
  8
0
100
AcDbMText
 62
2
  6
CONTINUOUS
  7
STANDARD
 71
1
 72
1
 10
4.48
 20
6.3125
 30
0.0
 11
1.0
 21
0.0
 31
0.0
 73
2
 44
0.6
  1
Port 3
 40
0.125
 41
0.6
  0
MTEXT
  5
257
100
AcDbEntity
  8
0
100
AcDbMText
 62
2
  6
CONTINUOUS
  7
STANDARD
 71
1
 72
1
 10
5.25
 20
7.7255
 30
0.0
 11
1.0
 21
0.0
 31
0.0
 73
2
 44
0.6
  1
 LOCATING SHOULDER
 40
0.125
 41
1.8
  0
LINE
  5
258
100
AcDbEntity
  8
0
100
AcDbLine
 62
7
  6
CONTINUOUS
 10
3.625
 20
6.445
 11
3.625
 21
7.555
  0
LINE
  5
259
100
AcDbEntity
  8
0
100
AcDbLine
 62
7
  6
CONTINUOUS
 10
3.6293215383
 20
7.562485124
 11
3.625
 21
7.555
  0
LINE
  5
25A
100
AcDbEntity
  8
0
100
AcDbLine
 62
7
  6
CONTINUOUS
 10
3.6293215383
 20
6.437514876
 11
3.625
 21
6.445
  0
LINE
  5
25B
100
AcDbEntity
  8
0
100
AcDbLine
 62
7
  6
CONTINUOUS
 10
3.6706106713
 20
6.4375165002
 11
3.6706106713
 21
6.465427963
  0
LINE
  5
25C
100
AcDbEntity
  8
0
100
AcDbLine
 62
7
  6
CONTINUOUS
 10
3.6706106713
 20
6.9720885372
 11
3.6706106713
 21
7.0279114628
  0
LINE
  5
25D
100
AcDbEntity
  8
0
100
AcDbLine
 62
7
  6
CONTINUOUS
 10
3.6706106713
 20
7.534572037
 11
3.6706106713
 21
7.5624834998
  0
LINE
  5
25E
100
AcDbEntity
  8
0
100
AcDbLine
 62
7
  6
CONTINUOUS
 10
4.1325743742
 20
7.5624834998
 11
4.1325743742
 21
7.534572037
  0
LINE
  5
25F
100
AcDbEntity
  8
0
100
AcDbLine
 62
7
  6
CONTINUOUS
 10
4.1325743742
 20
6.4375165002
 11
4.1325743742
 21
6.465427963
  0
LINE
  5
260
100
AcDbEntity
  8
0
100
AcDbLine
 62
7
  6
CONTINUOUS
 10
4.1325743742
 20
6.9720885372
 11
4.1325743742
 21
7.0279114628
  0
LINE
  5
261
100
AcDbEntity
  8
0
100
AcDbLine
 62
7
  6
CONTINUOUS
 10
4.188
 20
6.462
 11
4.188
 21
7.538
  0
LINE
  5
262
100
AcDbEntity
  8
0
100
AcDbLine
 62
7
  6
CONTINUOUS
 10
4.372
 20
7.538
 11
4.372
 21
6.462
  0
LINE
  5
263
100
AcDbEntity
  8
0
100
AcDbLine
 62
7
  6
CONTINUOUS
 10
4.375
 20
7.5365
 11
4.375
 21
6.4635
  0
LINE
  5
264
100
AcDbEntity
  8
0
100
AcDbLine
 62
7
  6
CONTINUOUS
 10
4.425
 20
7.5365
 11
4.425
 21
6.4635
  0
LINE
  5
265
100
AcDbEntity
  8
0
100
AcDbLine
 62
7
  6
CONTINUOUS
 10
4.495
 20
7.5175
 11
4.495
 21
6.4825
  0
LINE
  5
266
100
AcDbEntity
  8
0
100
AcDbLine
 62
7
  6
CONTINUOUS
 10
4.506
 20
6.5175
 11
4.506
 21
7.4825
  0
LINE
  5
267
100
AcDbEntity
  8
0
100
AcDbLine
 62
7
  6
CONTINUOUS
 10
4.516
 20
7.53475
 11
4.516
 21
6.46525
  0
LINE
  5
268
100
AcDbEntity
  8
0
100
AcDbLine
 62
7
  6
CONTINUOUS
 10
3.6293206006
 20
6.4375165002
 11
4.1738644448
 21
6.4375165002
  0
LINE
  5
269
100
AcDbEntity
  8
0
100
AcDbLine
 62
7
  6
CONTINUOUS
 10
4.997
 20
6.462
 11
4.937301981
 21
6.462
  0
LINE
  5
26A
100
AcDbEntity
  8
0
100
AcDbLine
 62
7
  6
CONTINUOUS
 10
4.372
 20
6.462
 11
4.188
 21
6.462
  0
LINE
  5
26B
100
AcDbEntity
  8
0
100
AcDbLine
 62
7
  6
CONTINUOUS
 10
4.558698019
 20
6.46225
 11
4.519
 21
6.46225
  0
LINE
  5
26C
100
AcDbEntity
  8
0
100
AcDbLine
 62
7
  6
CONTINUOUS
 10
4.375
 20
6.4635
 11
4.425
 21
6.4635
  0
LINE
  5
26D
100
AcDbEntity
  8
0
100
AcDbLine
 62
7
  6
CONTINUOUS
 10
4.1325743742
 20
6.465427963
 11
3.6706106713
 21
6.465427963
  0
LINE
  5
26E
100
AcDbEntity
  8
THREAD
100
AcDbLine
 62
7
  6
CONTINUOUS
 10
5.044
 20
6.4855
 11
5.0238564065
 21
6.4855
  0
LINE
  5
26F
100
AcDbEntity
  8
0
100
AcDbLine
 62
7
  6
CONTINUOUS
 10
5.117
 20
6.488
 11
5.167
 21
6.488
  0
LINE
  5
270
100
AcDbEntity
  8
THREAD
100
AcDbLine
 62
7
  6
CONTINUOUS
 10
5.481
 20
6.504
 11
5.2099393102
 21
6.504
  0
LINE
  5
271
100
AcDbEntity
  8
0
100
AcDbLine
 62
7
  6
CONTINUOUS
 10
4.506
 20
6.5175
 11
4.495
 21
6.5175
  0
LINE
  5
272
100
AcDbEntity
  8
0
100
AcDbLine
 62
7
  6
CONTINUOUS
 10
4.519
 20
7.53775
 11
4.519
 21
6.46225
  0
LINE
  5
273
100
AcDbEntity
  8
0
100
AcDbLine
 62
7
  6
CONTINUOUS
 10
4.558698019
 20
7.53775
 11
4.558698019
 21
6.46225
  0
LINE
  5
274
100
AcDbEntity
  8
0
100
AcDbLine
 62
7
  6
CONTINUOUS
 10
4.5615957965
 20
7.5355264571
 11
4.5615957965
 21
6.4644735429
  0
LINE
  5
275
100
AcDbEntity
  8
127-310_FEATURES
100
AcDbLine
 62
7
  6
CONTINUOUS
 10
4.5823689481
 20
6.542
 11
4.5823689481
 21
7.458
  0
LINE
  5
276
100
AcDbEntity
  8
0
100
AcDbLine
 62
7
  6
CONTINUOUS
 10
4.188
 20
6.462
 11
4.1738635071
 21
6.437514876
  0
LINE
  5
277
100
AcDbEntity
  8
THREAD
100
AcDbLine
 62
7
  6
CONTINUOUS
 10
5.1807831216
 20
6.542
 11
5.167
 21
6.542
  0
LINE
  5
278
100
AcDbEntity
  8
0
100
AcDbLine
 62
7
  6
CONTINUOUS
 10
4.9135640646
 20
6.542
 11
4.5823689481
 21
6.542
  0
LINE
  5
279
100
AcDbEntity
  8
THREAD
100
AcDbLine
 62
7
  6
CONTINUOUS
 10
5.609
 20
6.548
 11
5.525
 21
6.548
  0
LINE
  5
27A
100
AcDbEntity
  8
0
100
AcDbLine
 62
7
  6
CONTINUOUS
 10
6.359
 20
6.5635
 11
6.32
 21
6.5635
  0
LINE
  5
27B
100
AcDbEntity
  8
0
100
AcDbLine
 62
7
  6
CONTINUOUS
 10
6.1155
 20
6.5635
 11
6.0655
 21
6.5635
  0
LINE
  5
27C
100
AcDbEntity
  8
0
100
AcDbLine
 62
7
  6
CONTINUOUS
 10
6.119
 20
6.5645
 11
6.169
 21
6.5645
  0
LINE
  5
27D
100
AcDbEntity
  8
0
100
AcDbLine
 62
7
  6
CONTINUOUS
 10
6.239
 20
6.5645
 11
6.289
 21
6.5645
  0
LINE
  5
27E
100
AcDbEntity
  8
0
100
AcDbLine
 62
7
  6
CONTINUOUS
 10
4.188
 20
7.538
 11
4.1738635071
 21
7.562485124
  0
LINE
  5
27F
100
AcDbEntity
  8
0
100
AcDbLine
 62
7
  6
CONTINUOUS
 10
4.5823689481
 20
6.542
 11
4.5615957965
 21
6.4644735429
  0
LINE
  5
280
100
AcDbEntity
  8
0
100
AcDbLine
 62
7
  6
CONTINUOUS
 10
6.289
 20
6.618
 11
6.307
 21
6.618
  0
LINE
  5
281
100
AcDbEntity
  8
0
100
AcDbLine
 62
7
  6
CONTINUOUS
 10
5.625
 20
6.626
 11
5.89
 21
6.626
  0
LINE
  5
282
100
AcDbEntity
  8
0
100
AcDbLine
 62
7
  6
CONTINUOUS
 10
6.046
 20
6.626
 11
6.062
 21
6.626
  0
LINE
  5
283
100
AcDbEntity
  8
0
100
AcDbLine
 62
7
  6
CONTINUOUS
 10
4.5823689481
 20
7.458
 11
4.5615957965
 21
7.5355264571
  0
LINE
  5
284
100
AcDbEntity
  8
0
100
AcDbLine
 62
7
  6
CONTINUOUS
 10
4.9344042035
 20
7.5357764571
 11
4.9135640646
 21
7.458
  0
LINE
  5
285
100
AcDbEntity
  8
0
100
AcDbLine
 62
7
  6
CONTINUOUS
 10
4.9344042035
 20
6.4642235429
 11
4.9135640646
 21
6.542
  0
LINE
  5
286
100
AcDbEntity
  8
0
100
AcDbLine
 62
7
  6
CONTINUOUS
 10
4.9135640646
 20
6.542
 11
4.9135640646
 21
7.458
  0
LINE
  5
287
100
AcDbEntity
  8
0
100
AcDbLine
 62
7
  6
CONTINUOUS
 10
4.9344042035
 20
7.5357764571
 11
4.9344042035
 21
6.4642235429
  0
LINE
  5
288
100
AcDbEntity
  8
0
100
AcDbLine
 62
7
  6
CONTINUOUS
 10
4.937301981
 20
7.538
 11
4.937301981
 21
6.462
  0
LINE
  5
289
100
AcDbEntity
  8
0
100
AcDbLine
 62
7
  6
CONTINUOUS
 10
4.997
 20
7.538
 11
4.997
 21
6.462
  0
LINE
  5
28A
100
AcDbEntity
  8
0
100
AcDbLine
 62
7
  6
CONTINUOUS
 10
5.0
 20
7.5350025579
 11
5.0
 21
6.4649974421
  0
LINE
  5
28B
100
AcDbEntity
  8
0
100
AcDbLine
 62
7
  6
CONTINUOUS
 10
5.0025
 20
6.4739433757
 11
5.0025
 21
7.5260566243
  0
LINE
  5
28C
100
AcDbEntity
  8
THREAD
100
AcDbLine
 62
7
  6
CONTINUOUS
 10
5.2099393102
 20
7.496
 11
5.1916084378
 21
7.4642499976
  0
LINE
  5
28D
100
AcDbEntity
  8
0
100
AcDbLine
 62
7
  6
CONTINUOUS
 10
4.1325743742
 20
6.9720885372
 11
3.6706106713
 21
6.9720885372
  0
LINE
  5
28E
100
AcDbEntity
  8
THREAD
100
AcDbLine
 62
7
  6
CONTINUOUS
 10
5.2099393102
 20
6.504
 11
5.1916084378
 21
6.5357500024
  0
LINE
  5
28F
100
AcDbEntity
  8
0
100
AcDbLine
 62
7
  6
CONTINUOUS
 10
5.0213564065
 20
6.484830127
 11
5.0213564065
 21
7.515169873
  0
LINE
  5
290
100
AcDbEntity
  8
0
100
AcDbLine
 62
7
  6
CONTINUOUS
 10
5.0238564065
 20
6.4855
 11
5.0238564065
 21
7.5145
  0
LINE
  5
291
100
AcDbEntity
  8
0
100
AcDbLine
 62
7
  6
CONTINUOUS
 10
5.044
 20
7.5145
 11
5.044
 21
6.4855
  0
LINE
  5
292
100
AcDbEntity
  8
0
100
AcDbLine
 62
7
  6
CONTINUOUS
 10
5.047
 20
7.5115
 11
5.047
 21
6.4885
  0
LINE
  5
293
100
AcDbEntity
  8
0
100
AcDbLine
 62
7
  6
CONTINUOUS
 10
4.1325743742
 20
7.0279114628
 11
3.6706106713
 21
7.0279114628
  0
LINE
  5
294
100
AcDbEntity
  8
0
100
AcDbLine
 62
7
  6
CONTINUOUS
 10
5.117
 20
7.512
 11
5.117
 21
6.488
  0
LINE
  5
295
100
AcDbEntity
  8
0
100
AcDbLine
 62
7
  6
CONTINUOUS
 10
5.167
 20
7.512
 11
5.167
 21
6.488
  0
LINE
  5
296
100
AcDbEntity
  8
THREAD
100
AcDbLine
 62
7
  6
CONTINUOUS
 10
5.1807831216
 20
6.5420000001
 11
5.1807831216
 21
7.4579999999
  0
LINE
  5
297
100
AcDbEntity
  8
THREAD
100
AcDbLine
 62
7
  6
CONTINUOUS
 10
5.1916084381
 20
6.535750002
 11
5.1916084381
 21
7.464249998
  0
LINE
  5
298
100
AcDbEntity
  8
THREAD
100
AcDbLine
 62
7
  6
CONTINUOUS
 10
5.2099393102
 20
6.504
 11
5.2099393102
 21
7.496
  0
LINE
  5
299
100
AcDbEntity
  8
0
100
AcDbLine
 62
7
  6
CONTINUOUS
 10
5.625
 20
7.374
 11
5.89
 21
7.374
  0
LINE
  5
29A
100
AcDbEntity
  8
0
100
AcDbLine
 62
7
  6
CONTINUOUS
 10
6.046
 20
7.374
 11
6.062
 21
7.374
  0
LINE
  5
29B
100
AcDbEntity
  8
0
100
AcDbLine
 62
7
  6
CONTINUOUS
 10
6.289
 20
7.382
 11
6.307
 21
7.382
  0
LINE
  5
29C
100
AcDbEntity
  8
THREAD
100
AcDbLine
 62
7
  6
CONTINUOUS
 10
5.481
 20
6.504
 11
5.481
 21
7.496
  0
LINE
  5
29D
100
AcDbEntity
  8
0
100
AcDbLine
 62
7
  6
CONTINUOUS
 10
6.0655
 20
7.4365
 11
6.062
 21
7.433
  0
LINE
  5
29E
100
AcDbEntity
  8
THREAD
100
AcDbLine
 62
7
  6
CONTINUOUS
 10
5.0213564065
 20
6.484830127
 11
5.0025
 21
6.4739433757
  0
LINE
  5
29F
100
AcDbEntity
  8
0
100
AcDbLine
 62
7
  6
CONTINUOUS
 10
5.5665
 20
7.4108581236
 11
5.5255
 21
7.4108581236
  0
LINE
  5
2A0
100
AcDbEntity
  8
0
100
AcDbLine
 62
7
  6
CONTINUOUS
 10
6.119
 20
7.4355
 11
6.169
 21
7.4355
  0
LINE
  5
2A1
100
AcDbEntity
  8
0
100
AcDbLine
 62
7
  6
CONTINUOUS
 10
6.239
 20
7.4355
 11
6.289
 21
7.4355
  0
LINE
  5
2A2
100
AcDbEntity
  8
0
100
AcDbLine
 62
7
  6
CONTINUOUS
 10
6.359
 20
7.4365
 11
6.32
 21
7.4365
  0
LINE
  5
2A3
100
AcDbEntity
  8
0
100
AcDbLine
 62
7
  6
CONTINUOUS
 10
6.1155
 20
7.4365
 11
6.0655
 21
7.4365
  0
LINE
  5
2A4
100
AcDbEntity
  8
THREAD
100
AcDbLine
 62
7
  6
CONTINUOUS
 10
5.609
 20
7.452
 11
5.5665
 21
7.452
  0
LINE
  5
2A5
100
AcDbEntity
  8
THREAD
100
AcDbLine
 62
7
  6
CONTINUOUS
 10
5.5255
 20
7.452
 11
5.525
 21
7.452
  0
LINE
  5
2A6
100
AcDbEntity
  8
THREAD
100
AcDbLine
 62
7
  6
CONTINUOUS
 10
5.1807831216
 20
7.458
 11
5.167
 21
7.458
  0
LINE
  5
2A7
100
AcDbEntity
  8
0
100
AcDbLine
 62
7
  6
CONTINUOUS
 10
4.9135640646
 20
7.458
 11
4.5823689481
 21
7.458
  0
LINE
  5
2A8
100
AcDbEntity
  8
0
100
AcDbLine
 62
7
  6
CONTINUOUS
 10
4.506
 20
7.4825
 11
4.495
 21
7.4825
  0
LINE
  5
2A9
100
AcDbEntity
  8
THREAD
100
AcDbLine
 62
7
  6
CONTINUOUS
 10
5.481
 20
7.496
 11
5.2099393102
 21
7.496
  0
LINE
  5
2AA
100
AcDbEntity
  8
THREAD
100
AcDbLine
 62
7
  6
CONTINUOUS
 10
5.0213564065
 20
7.515169873
 11
5.0025
 21
7.5260566243
  0
LINE
  5
2AB
100
AcDbEntity
  8
0
100
AcDbLine
 62
7
  6
CONTINUOUS
 10
6.0655
 20
6.5635
 11
6.062
 21
6.567
  0
LINE
  5
2AC
100
AcDbEntity
  8
THREAD
100
AcDbLine
 62
7
  6
CONTINUOUS
 10
5.525
 20
6.548
 11
5.525
 21
7.452
  0
LINE
  5
2AD
100
AcDbEntity
  8
0
100
AcDbLine
 62
7
  6
CONTINUOUS
 10
5.5255
 20
7.4108581236
 11
5.5255
 21
7.452
  0
LINE
  5
2AE
100
AcDbEntity
  8
0
100
AcDbLine
 62
7
  6
CONTINUOUS
 10
5.5665
 20
7.4108581236
 11
5.5665
 21
7.452
  0
LINE
  5
2AF
100
AcDbEntity
  8
0
100
AcDbLine
 62
7
  6
CONTINUOUS
 10
5.117
 20
7.512
 11
5.167
 21
7.512
  0
LINE
  5
2B0
100
AcDbEntity
  8
THREAD
100
AcDbLine
 62
7
  6
CONTINUOUS
 10
5.044
 20
7.5145
 11
5.0238564065
 21
7.5145
  0
LINE
  5
2B1
100
AcDbEntity
  8
0
100
AcDbLine
 62
7
  6
CONTINUOUS
 10
4.1325743742
 20
7.534572037
 11
3.6706106713
 21
7.534572037
  0
LINE
  5
2B2
100
AcDbEntity
  8
0
100
AcDbLine
 62
7
  6
CONTINUOUS
 10
4.375
 20
7.5365
 11
4.425
 21
7.5365
  0
LINE
  5
2B3
100
AcDbEntity
  8
0
100
AcDbLine
 62
7
  6
CONTINUOUS
 10
4.558698019
 20
7.53775
 11
4.519
 21
7.53775
  0
LINE
  5
2B4
100
AcDbEntity
  8
0
100
AcDbLine
 62
7
  6
CONTINUOUS
 10
4.997
 20
7.538
 11
4.937301981
 21
7.538
  0
LINE
  5
2B5
100
AcDbEntity
  8
0
100
AcDbLine
 62
7
  6
CONTINUOUS
 10
4.372
 20
7.538
 11
4.188
 21
7.538
  0
LINE
  5
2B6
100
AcDbEntity
  8
0
100
AcDbLine
 62
7
  6
CONTINUOUS
 10
3.6293206006
 20
7.5624834998
 11
4.1738644448
 21
7.5624834998
  0
LINE
  5
2B7
100
AcDbEntity
  8
0
100
AcDbLine
 62
7
  6
CONTINUOUS
 10
5.609
 20
6.548
 11
5.609
 21
7.452
  0
LINE
  5
2B8
100
AcDbEntity
  8
0
100
AcDbLine
 62
7
  6
CONTINUOUS
 10
5.625
 20
6.564
 11
5.625
 21
7.436
  0
LINE
  5
2B9
100
AcDbEntity
  8
THREAD
100
AcDbLine
 62
7
  6
CONTINUOUS
 10
5.525
 20
6.548
 11
5.481
 21
6.504
  0
LINE
  5
2BA
100
AcDbEntity
  8
THREAD
100
AcDbLine
 62
7
  6
CONTINUOUS
 10
5.525
 20
7.452
 11
5.481
 21
7.496
  0
LINE
  5
2BB
100
AcDbEntity
  8
0
100
AcDbLine
 62
7
  6
CONTINUOUS
 10
5.625
 20
6.564
 11
5.609
 21
6.548
  0
LINE
  5
2BC
100
AcDbEntity
  8
0
100
AcDbLine
 62
7
  6
CONTINUOUS
 10
5.625
 20
7.436
 11
5.609
 21
7.452
  0
LINE
  5
2BD
100
AcDbEntity
  8
0
100
AcDbLine
 62
7
  6
CONTINUOUS
 10
5.893
 20
6.9796941711
 11
5.893
 21
7.0203025958
  0
LINE
  5
2BE
100
AcDbEntity
  8
0
100
AcDbLine
 62
7
  6
CONTINUOUS
 10
5.937
 20
6.7792257119
 11
5.937
 21
6.7908002914
  0
LINE
  5
2BF
100
AcDbEntity
  8
0
100
AcDbLine
 62
7
  6
CONTINUOUS
 10
5.937
 20
6.9287403909
 11
5.937
 21
7.0712583925
  0
LINE
  5
2C0
100
AcDbEntity
  8
0
100
AcDbLine
 62
7
  6
CONTINUOUS
 10
5.937
 20
7.2091996954
 11
5.937
 21
7.2207682134
  0
LINE
  5
2C1
100
AcDbEntity
  8
0
100
AcDbLine
 62
7
  6
CONTINUOUS
 10
5.944
 20
7.2218621002
 11
5.944
 21
7.2071350404
  0
LINE
  5
2C2
100
AcDbEntity
  8
0
100
AcDbLine
 62
7
  6
CONTINUOUS
 10
5.944
 20
7.0737060408
 11
5.944
 21
6.9262931867
  0
LINE
  5
2C3
100
AcDbEntity
  8
0
100
AcDbLine
 62
7
  6
CONTINUOUS
 10
5.944
 20
6.7928649605
 11
5.944
 21
6.7781364453
  0
LINE
  5
2C4
100
AcDbEntity
  8
0
100
AcDbLine
 62
7
  6
CONTINUOUS
 10
5.954
 20
7.2232453644
 11
5.954
 21
7.2048278458
  0
LINE
  5
2C5
100
AcDbEntity
  8
0
100
AcDbLine
 62
7
  6
CONTINUOUS
 10
5.954
 20
7.0764341446
 11
5.954
 21
6.9235657904
  0
LINE
  5
2C6
100
AcDbEntity
  8
0
100
AcDbLine
 62
7
  6
CONTINUOUS
 10
5.954
 20
6.7951721427
 11
5.954
 21
6.7767514682
  0
LINE
  5
2C7
100
AcDbEntity
  8
0
100
AcDbLine
 62
7
  6
CONTINUOUS
 10
5.961
 20
6.776413137
 11
5.961
 21
6.7958419305
  0
LINE
  5
2C8
100
AcDbEntity
  8
0
100
AcDbLine
 62
7
  6
CONTINUOUS
 10
5.961
 20
6.9227824624
 11
5.961
 21
7.0772166396
  0
LINE
  5
2C9
100
AcDbEntity
  8
0
100
AcDbLine
 62
7
  6
CONTINUOUS
 10
5.961
 20
7.2041580637
 11
5.961
 21
7.2235852794
  0
LINE
  5
2CA
100
AcDbEntity
  8
0
100
AcDbLine
 62
7
  6
CONTINUOUS
 10
6.005
 20
6.7809305275
 11
6.005
 21
6.7882799072
  0
LINE
  5
2CB
100
AcDbEntity
  8
0
100
AcDbLine
 62
7
  6
CONTINUOUS
 10
6.005
 20
6.9317029353
 11
6.005
 21
7.0682958257
  0
LINE
  5
2CC
100
AcDbEntity
  8
0
100
AcDbLine
 62
7
  6
CONTINUOUS
 10
6.005
 20
7.2117200787
 11
6.005
 21
7.2190671138
  0
LINE
  5
2CD
100
AcDbEntity
  8
0
100
AcDbLine
 62
7
  6
CONTINUOUS
 10
6.012
 20
7.2170089153
 11
6.012
 21
7.2153722953
  0
LINE
  5
2CE
100
AcDbEntity
  8
0
100
AcDbLine
 62
7
  6
CONTINUOUS
 10
6.012
 20
7.0638818031
 11
6.012
 21
6.9361176711
  0
LINE
  5
2CF
100
AcDbEntity
  8
0
100
AcDbLine
 62
7
  6
CONTINUOUS
 10
6.012
 20
6.7846277037
 11
6.012
 21
6.7829960107
  0
LINE
  5
2D0
100
AcDbEntity
  8
0
100
AcDbLine
 62
7
  6
CONTINUOUS
 10
6.022
 20
7.0556414603
 11
6.022
 21
6.9443580238
  0
LINE
  5
2D1
100
AcDbEntity
  8
0
100
AcDbLine
 62
7
  6
CONTINUOUS
 10
6.029
 20
6.9514320572
 11
6.029
 21
7.0485696663
  0
LINE
  5
2D2
100
AcDbEntity
  8
0
100
AcDbLine
 62
7
  6
CONTINUOUS
 10
6.062
 20
6.567
 11
6.062
 21
7.433
  0
LINE
  5
2D3
100
AcDbEntity
  8
0
100
AcDbLine
 62
7
  6
CONTINUOUS
 10
6.0655
 20
6.5635
 11
6.0655
 21
7.4365
  0
LINE
  5
2D4
100
AcDbEntity
  8
0
100
AcDbLine
 62
7
  6
CONTINUOUS
 10
6.119
 20
6.567
 11
6.1155
 21
6.5635
  0
LINE
  5
2D5
100
AcDbEntity
  8
0
100
AcDbLine
 62
7
  6
CONTINUOUS
 10
6.119
 20
7.433
 11
6.1155
 21
7.4365
  0
LINE
  5
2D6
100
AcDbEntity
  8
0
100
AcDbLine
 62
7
  6
CONTINUOUS
 10
6.1155
 20
6.5635
 11
6.1155
 21
7.4365
  0
LINE
  5
2D7
100
AcDbEntity
  8
0
100
AcDbLine
 62
7
  6
CONTINUOUS
 10
6.119
 20
7.4355
 11
6.119
 21
6.5645
  0
LINE
  5
2D8
100
AcDbEntity
  8
0
100
AcDbLine
 62
7
  6
CONTINUOUS
 10
6.169
 20
7.4355
 11
6.169
 21
6.5645
  0
LINE
  5
2D9
100
AcDbEntity
  8
0
100
AcDbLine
 62
7
  6
CONTINUOUS
 10
6.239
 20
7.4355
 11
6.239
 21
6.5645
  0
LINE
  5
2DA
100
AcDbEntity
  8
0
100
AcDbLine
 62
7
  6
CONTINUOUS
 10
6.289
 20
7.4355
 11
6.289
 21
6.5645
  0
LINE
  5
2DB
100
AcDbEntity
  8
0
100
AcDbLine
 62
7
  6
CONTINUOUS
 10
6.375
 20
6.5795
 11
6.359
 21
6.5635
  0
LINE
  5
2DC
100
AcDbEntity
  8
0
100
AcDbLine
 62
7
  6
CONTINUOUS
 10
6.375
 20
7.4205
 11
6.359
 21
7.4365
  0
LINE
  5
2DD
100
AcDbEntity
  8
0
100
AcDbLine
 62
7
  6
CONTINUOUS
 10
6.307
 20
7.382
 11
6.307
 21
6.618
  0
LINE
  5
2DE
100
AcDbEntity
  8
0
100
AcDbLine
 62
7
  6
CONTINUOUS
 10
6.317
 20
6.5665
 11
6.317
 21
7.4335
  0
LINE
  5
2DF
100
AcDbEntity
  8
0
100
AcDbLine
 62
7
  6
CONTINUOUS
 10
6.32
 20
6.5635
 11
6.32
 21
7.4365
  0
LINE
  5
2E0
100
AcDbEntity
  8
0
100
AcDbLine
 62
7
  6
CONTINUOUS
 10
6.359
 20
6.5635
 11
6.359
 21
7.4365
  0
LINE
  5
2E1
100
AcDbEntity
  8
0
100
AcDbLine
 62
7
  6
CONTINUOUS
 10
6.375
 20
6.5795
 11
6.375
 21
7.4205
  0
ARC
  5
2E2
100
AcDbEntity
  8
0
100
AcDbCircle
 62
7
  6
CONTINUOUS
 10
5.9679985433
 20
7.0607618914
 40
0.1631633029
100
AcDbArc
 50
89.999488467
 51
92.4720959681
  0
ARC
  5
2E3
100
AcDbEntity
  8
0
100
AcDbCircle
 62
7
  6
CONTINUOUS
 10
5.967991612
 20
6.9389198617
 40
0.1628450562
100
AcDbArc
 50
267.5256255601
 51
270.0029512388
  0
CIRCLE
  5
2E4
100
AcDbEntity
  8
0
100
AcDbCircle
 62
7
  6
CONTINUOUS
 10
5.968
 20
7.0
 40
0.078
  0
ARC
  5
2E5
100
AcDbEntity
  8
THREAD
100
AcDbCircle
 62
7
  6
CONTINUOUS
 10
5.1807831216
 20
6.5295
 40
0.0125
100
AcDbArc
 50
30.0000125701
 51
90.0
  0
ARC
  5
2E6
100
AcDbEntity
  8
THREAD
100
AcDbCircle
 62
7
  6
CONTINUOUS
 10
5.1807831216
 20
7.4705
 40
0.0125
100
AcDbArc
 50
270.0
 51
329.9999874299
  0
ARC
  5
2E7
100
AcDbEntity
  8
0
100
AcDbCircle
 62
7
  6
CONTINUOUS
 10
6.307
 20
7.392
 40
0.01
100
AcDbArc
 50
270.0
 51
360.0
  0
ARC
  5
2E8
100
AcDbEntity
  8
0
100
AcDbCircle
 62
7
  6
CONTINUOUS
 10
6.307
 20
6.608
 40
0.01
100
AcDbArc
 50
0.0
 51
90.0
  0
ARC
  5
2E9
100
AcDbEntity
  8
0
100
AcDbCircle
 62
7
  6
CONTINUOUS
 10
4.506
 20
7.4925
 40
0.01
100
AcDbArc
 50
270.0
 51
360.0
  0
ARC
  5
2EA
100
AcDbEntity
  8
0
100
AcDbCircle
 62
7
  6
CONTINUOUS
 10
4.506
 20
6.5075
 40
0.01
100
AcDbArc
 50
0.0
 51
90.0
  0
ARC
  5
2EB
100
AcDbEntity
  8
0
100
AcDbCircle
 62
7
  6
CONTINUOUS
 10
5.005
 20
6.4696132487
 40
0.005
100
AcDbArc
 50
119.9999998441
 51
179.9999996888
  0
ARC
  5
2EC
100
AcDbEntity
  8
0
100
AcDbCircle
 62
7
  6
CONTINUOUS
 10
5.0238564065
 20
6.4805
 40
0.005
100
AcDbArc
 50
90.0
 51
119.9999999691
  0
ARC
  5
2ED
100
AcDbEntity
  8
0
100
AcDbCircle
 62
7
  6
CONTINUOUS
 10
5.005
 20
7.5303867513
 40
0.005
100
AcDbArc
 50
180.0000003112
 51
240.0000001559
  0
ARC
  5
2EE
100
AcDbEntity
  8
0
100
AcDbCircle
 62
7
  6
CONTINUOUS
 10
5.0238564065
 20
7.5195
 40
0.005
100
AcDbArc
 50
240.0000000309
 51
270.0
  0
ARC
  5
2EF
100
AcDbEntity
  8
0
100
AcDbCircle
 62
7
  6
CONTINUOUS
 10
6.32
 20
6.5665
 40
0.003
100
AcDbArc
 50
180.0
 51
270.0
  0
ARC
  5
2F0
100
AcDbEntity
  8
0
100
AcDbCircle
 62
7
  6
CONTINUOUS
 10
6.32
 20
7.4335
 40
0.003
100
AcDbArc
 50
90.0
 51
180.0
  0
ARC
  5
2F1
100
AcDbEntity
  8
0
100
AcDbCircle
 62
7
  6
CONTINUOUS
 10
5.044
 20
7.5115
 40
0.003
100
AcDbArc
 50
0.0
 51
90.0
  0
ARC
  5
2F2
100
AcDbEntity
  8
0
100
AcDbCircle
 62
7
  6
CONTINUOUS
 10
4.937301981
 20
7.535
 40
0.003
100
AcDbArc
 50
90.0
 51
165.0
  0
ARC
  5
2F3
100
AcDbEntity
  8
0
100
AcDbCircle
 62
7
  6
CONTINUOUS
 10
4.558698019
 20
7.53475
 40
0.003
100
AcDbArc
 50
14.9999999999
 51
90.0
  0
ARC
  5
2F4
100
AcDbEntity
  8
0
100
AcDbCircle
 62
7
  6
CONTINUOUS
 10
4.519
 20
7.53475
 40
0.003
100
AcDbArc
 50
90.0
 51
180.0
  0
ARC
  5
2F5
100
AcDbEntity
  8
0
100
AcDbCircle
 62
7
  6
CONTINUOUS
 10
4.372
 20
7.535
 40
0.003
100
AcDbArc
 50
0.0
 51
90.0
  0
ARC
  5
2F6
100
AcDbEntity
  8
0
100
AcDbCircle
 62
7
  6
CONTINUOUS
 10
4.997
 20
6.465
 40
0.003
100
AcDbArc
 50
270.0
 51
0.0000036201
  0
ARC
  5
2F7
100
AcDbEntity
  8
0
100
AcDbCircle
 62
7
  6
CONTINUOUS
 10
5.044
 20
6.4885
 40
0.003
100
AcDbArc
 50
270.0
 51
360.0
  0
ARC
  5
2F8
100
AcDbEntity
  8
0
100
AcDbCircle
 62
7
  6
CONTINUOUS
 10
4.937301981
 20
6.465
 40
0.003
100
AcDbArc
 50
195.0
 51
270.0
  0
ARC
  5
2F9
100
AcDbEntity
  8
0
100
AcDbCircle
 62
7
  6
CONTINUOUS
 10
4.558698019
 20
6.46525
 40
0.003
100
AcDbArc
 50
270.0
 51
345.0
  0
ARC
  5
2FA
100
AcDbEntity
  8
0
100
AcDbCircle
 62
7
  6
CONTINUOUS
 10
4.519
 20
6.46525
 40
0.003
100
AcDbArc
 50
180.0
 51
270.0
  0
ARC
  5
2FB
100
AcDbEntity
  8
0
100
AcDbCircle
 62
7
  6
CONTINUOUS
 10
4.372
 20
6.465
 40
0.003
100
AcDbArc
 50
270.0
 51
360.0
  0
ARC
  5
2FC
100
AcDbEntity
  8
0
100
AcDbCircle
 62
7
  6
CONTINUOUS
 10
4.997
 20
7.535
 40
0.003
100
AcDbArc
 50
359.9999963799
 51
90.0
  0
SPLINE
  5
2FD
100
AcDbEntity
  8
0
100
AcDbSpline
 62
7
  6
CONTINUOUS
 70
0
 71
3
 72
9
 73
5
 74
0
 42
0.0000001
 43
0.0000001
 44
0.0000000001
 40
0.0
 40
0.0
 40
0.0
 40
0.0
 40
0.2448182418
 40
1.0
 40
1.0
 40
1.0
 40
1.0
 10
6.0140025655
 20
7.2164178482
 30
0.0
 10
6.0132977885
 20
7.2166874784
 30
0.0
 10
6.0104043984
 20
7.2177504592
 30
0.0
 10
6.0074572378
 20
7.2186652735
 30
0.0
 10
6.0052128556
 20
7.2192823453
 30
0.0
  0
SPLINE
  5
2FE
100
AcDbEntity
  8
0
100
AcDbSpline
 62
7
  6
CONTINUOUS
 70
0
 71
3
 72
11
 73
7
 74
0
 42
0.0000001
 43
0.0000001
 44
0.0000000001
 40
0.0
 40
0.0
 40
0.0
 40
0.0
 40
0.2389494467
 40
0.4870795442
 40
0.7419302368
 40
1.0
 40
1.0
 40
1.0
 40
1.0
 10
6.0052128556
 20
7.2192823453
 30
0.0
 10
6.0023249036
 20
7.2200763604
 30
0.0
 10
5.9963682127
 20
7.2214478865
 30
0.0
 10
5.9871725989
 20
7.2228796006
 30
0.0
 10
5.9776656248
 20
7.2237352763
 30
0.0
 10
5.9712347812
 20
7.2239251943
 30
0.0
 10
5.968
 20
7.2239251943
 30
0.0
  0
SPLINE
  5
2FF
100
AcDbEntity
  8
0
100
AcDbSpline
 62
7
  6
CONTINUOUS
 70
0
 71
3
 72
19
 73
15
 74
0
 42
0.0000001
 43
0.0000001
 44
0.0000000001
 40
0.0
 40
0.0
 40
0.0
 40
0.0
 40
0.0505134849
 40
0.1024515843
 40
0.1561144699
 40
0.2116793644
 40
0.3285760244
 40
0.4530070285
 40
0.5177842205
 40
0.58399888
 40
0.7198159997
 40
0.8590162796
 40
0.9294533584
 40
1.0
 40
1.0
 40
1.0
 40
1.0
 10
5.89
 20
7.2644579381
 30
0.0
 10
5.89
 20
7.2626280867
 30
0.0
 10
5.8902634462
 20
7.2589124477
 30
0.0
 10
5.8914073034
 20
7.2533591332
 30
0.0
 10
5.8932931638
 20
7.2478183404
 30
0.0
 10
5.8968205001
 20
7.2404081693
 30
0.0
 10
5.9030255876
 20
7.2315228573
 30
0.0
 10
5.911042635
 20
7.2237695042
 30
0.0
 10
5.9184875525
 20
7.2182587125
 30
0.0
 10
5.9267372777
 20
7.2132021475
 30
0.0
 10
5.9380770801
 20
7.2081258584
 30
0.0
 10
5.9502562941
 20
7.2049851463
 30
0.0
 10
5.9603344664
 20
7.2037060558
 30
0.0
 10
5.9654444473
 20
7.2034882816
 30
0.0
 10
5.968
 20
7.2034882816
 30
0.0
  0
SPLINE
  5
300
100
AcDbEntity
  8
0
100
AcDbSpline
 62
7
  6
CONTINUOUS
 70
0
 71
3
 72
11
 73
7
 74
0
 42
0.0000001
 43
0.0000001
 44
0.0000000001
 40
0.0
 40
0.0
 40
0.0
 40
0.0
 40
0.2580687143
 40
0.5129223399
 40
0.7610521482
 40
1.0
 40
1.0
 40
1.0
 40
1.0
 10
5.968
 20
6.7760748057
 30
0.0
 10
5.9712345939
 20
6.7760748057
 30
0.0
 10
5.9776651145
 20
6.7762647114
 30
0.0
 10
5.9871716011
 20
6.7771202875
 30
0.0
 10
5.9963667452
 20
6.7785518431
 30
0.0
 10
6.0023231115
 20
6.7799232018
 30
0.0
 10
6.0052109031
 20
6.7807171167
 30
0.0
  0
SPLINE
  5
301
100
AcDbEntity
  8
0
100
AcDbSpline
 62
7
  6
CONTINUOUS
 70
0
 71
3
 72
9
 73
5
 74
0
 42
0.0000001
 43
0.0000001
 44
0.0000000001
 40
0.0
 40
0.0
 40
0.0
 40
0.0
 40
0.2551692154
 40
1.0
 40
1.0
 40
1.0
 40
1.0
 10
6.0052109031
 20
6.7807171167
 30
0.0
 10
6.0059693766
 20
6.7809256371
 30
0.0
 10
6.0089325688
 20
6.7817757641
 30
0.0
 10
6.0118575216
 20
6.7827615337
 30
0.0
 10
6.0140020493
 20
6.7835819552
 30
0.0
  0
SPLINE
  5
302
100
AcDbEntity
  8
0
100
AcDbSpline
 62
7
  6
CONTINUOUS
 70
0
 71
3
 72
11
 73
7
 74
0
 42
0.0000001
 43
0.0000001
 44
0.0000000001
 40
0.0
 40
0.0
 40
0.0
 40
0.0
 40
0.2557596344
 40
0.5085097275
 40
0.7569286243
 40
1.0
 40
1.0
 40
1.0
 40
1.0
 10
5.9609608485
 20
7.2237733458
 30
0.0
 10
5.9589000454
 20
7.2236842181
 30
0.0
 10
5.9548056132
 20
7.2234286697
 30
0.0
 10
5.9487309625
 20
7.2228073625
 30
0.0
 10
5.9427886101
 20
7.2219483173
 30
0.0
 10
5.9388928273
 20
7.2212074771
 30
0.0
 10
5.9369763929
 20
7.220794637
 30
0.0
  0
SPLINE
  5
303
100
AcDbEntity
  8
0
100
AcDbSpline
 62
7
  6
CONTINUOUS
 70
0
 71
3
 72
9
 73
5
 74
0
 42
0.0000001
 43
0.0000001
 44
0.0000000001
 40
0.0
 40
0.0
 40
0.0
 40
0.0
 40
0.5108461643
 40
1.0
 40
1.0
 40
1.0
 40
1.0
 10
5.9369763929
 20
7.220794637
 30
0.0
 10
5.9343768747
 20
7.2202346465
 30
0.0
 10
5.9293223972
 20
7.2189709111
 30
0.0
 10
5.9243760524
 20
7.2173278254
 30
0.0
 10
5.9219979067
 20
7.216418028
 30
0.0
  0
SPLINE
  5
304
100
AcDbEntity
  8
0
100
AcDbSpline
 62
7
  6
CONTINUOUS
 70
0
 71
3
 72
21
 73
17
 74
0
 42
0.0000001
 43
0.0000001
 44
0.0000000001
 40
0.0
 40
0.0
 40
0.0
 40
0.0
 40
0.0386813932
 40
0.1477191582
 40
0.2233951076
 40
0.3095191802
 40
0.4028947192
 40
0.4512134561
 40
0.5000011605
 40
0.5487885798
 40
0.5971067971
 40
0.6904817812
 40
0.776606022
 40
0.852282101
 40
0.9613188164
 40
1.0
 40
1.0
 40
1.0
 40
1.0
 10
6.046
 20
7.374
 30
0.0
 10
6.0440166976
 20
7.3735862439
 30
0.0
 10
6.0364307094
 20
7.3720616114
 30
0.0
 10
6.0248940125
 20
7.3700823199
 30
0.0
 10
6.0108307899
 20
7.3682039209
 30
0.0
 10
5.9975281991
 20
7.3668770143
 30
0.0
 10
5.9856146252
 20
7.3661412744
 30
0.0
 10
5.9756417048
 20
7.3658300135
 30
0.0
 10
5.9679998326
 20
7.3657486964
 30
0.0
 10
5.9603579872
 20
7.3658300043
 30
0.0
 10
5.9503851392
 20
7.3661412985
 30
0.0
 10
5.9384716127
 20
7.3668770289
 30
0.0
 10
5.9251690361
 20
7.3682039445
 30
0.0
 10
5.9111058523
 20
7.3700823367
 30
0.0
 10
5.8995692157
 20
7.3720616294
 30
0.0
 10
5.8919832918
 20
7.3735862474
 30
0.0
 10
5.89
 20
7.374
 30
0.0
  0
SPLINE
  5
305
100
AcDbEntity
  8
0
100
AcDbSpline
 62
7
  6
CONTINUOUS
 70
0
 71
3
 72
19
 73
15
 74
0
 42
0.0000001
 43
0.0000001
 44
0.0000000001
 40
0.0
 40
0.0
 40
0.0
 40
0.0
 40
0.0705466427
 40
0.1409837245
 40
0.2801840082
 40
0.4160011242
 40
0.4822157822
 40
0.5469929742
 40
0.6714239807
 40
0.7883206413
 40
0.8438855344
 40
0.8975484182
 40
0.9494865158
 40
1.0
 40
1.0
 40
1.0
 40
1.0
 10
5.968
 20
6.7965117184
 30
0.0
 10
5.9654444472
 20
6.7965117184
 30
0.0
 10
5.9603344662
 20
6.7962939442
 30
0.0
 10
5.9502562936
 20
6.7950148536
 30
0.0
 10
5.9380770795
 20
6.7918741413
 30
0.0
 10
5.9267372772
 20
6.7867978523
 30
0.0
 10
5.9184875522
 20
6.7817412873
 30
0.0
 10
5.9110426347
 20
6.7762304955
 30
0.0
 10
5.9030255872
 20
6.7684771424
 30
0.0
 10
5.8968204998
 20
6.7595918303
 30
0.0
 10
5.8932931636
 20
6.7521816591
 30
0.0
 10
5.8914073033
 20
6.7466408665
 30
0.0
 10
5.8902634461
 20
6.7410875522
 30
0.0
 10
5.8899999999
 20
6.7373719133
 30
0.0
 10
5.89
 20
6.7355420619
 30
0.0
  0
SPLINE
  5
306
100
AcDbEntity
  8
0
100
AcDbSpline
 62
7
  6
CONTINUOUS
 70
0
 71
3
 72
19
 73
15
 74
0
 42
0.0000001
 43
0.0000001
 44
0.0000000001
 40
0.0
 40
0.0
 40
0.0
 40
0.0
 40
0.0705466428
 40
0.1409837245
 40
0.2801840082
 40
0.4160011242
 40
0.4822157821
 40
0.5469929741
 40
0.6714239806
 40
0.7883206412
 40
0.8438855343
 40
0.8975484181
 40
0.9494865158
 40
1.0
 40
1.0
 40
1.0
 40
1.0
 10
5.968
 20
7.2034882816
 30
0.0
 10
5.9705555528
 20
7.2034882816
 30
0.0
 10
5.9756655338
 20
7.2037060558
 30
0.0
 10
5.9857437064
 20
7.2049851464
 30
0.0
 10
5.9979229205
 20
7.2081258587
 30
0.0
 10
6.0092627228
 20
7.2132021477
 30
0.0
 10
6.0175124478
 20
7.2182587127
 30
0.0
 10
6.0249573653
 20
7.2237695045
 30
0.0
 10
6.0329744127
 20
7.2315228576
 30
0.0
 10
6.0391795002
 20
7.2404081697
 30
0.0
 10
6.0427068364
 20
7.2478183408
 30
0.0
 10
6.0445926966
 20
7.2533591334
 30
0.0
 10
6.0457365539
 20
7.2589124478
 30
0.0
 10
6.0460000001
 20
7.2626280866
 30
0.0
 10
6.046
 20
7.264457938
 30
0.0
  0
SPLINE
  5
307
100
AcDbEntity
  8
0
100
AcDbSpline
 62
7
  6
CONTINUOUS
 70
0
 71
3
 72
19
 73
15
 74
0
 42
0.0000001
 43
0.0000001
 44
0.0000000001
 40
0.0
 40
0.0
 40
0.0
 40
0.0
 40
0.0505134848
 40
0.1024515842
 40
0.1561144698
 40
0.2116793644
 40
0.3285760243
 40
0.4530070285
 40
0.5177842205
 40
0.5839988801
 40
0.7198159997
 40
0.8590162796
 40
0.9294533584
 40
1.0
 40
1.0
 40
1.0
 40
1.0
 10
6.046
 20
6.7355420618
 30
0.0
 10
6.046
 20
6.7373719133
 30
0.0
 10
6.0457365538
 20
6.7410875522
 30
0.0
 10
6.0445926966
 20
6.7466408667
 30
0.0
 10
6.0427068362
 20
6.7521816595
 30
0.0
 10
6.0391794999
 20
6.7595918307
 30
0.0
 10
6.0329744125
 20
6.7684771427
 30
0.0
 10
6.0249573651
 20
6.7762304957
 30
0.0
 10
6.0175124476
 20
6.7817412875
 30
0.0
 10
6.0092627223
 20
6.7867978525
 30
0.0
 10
5.9979229199
 20
6.7918741416
 30
0.0
 10
5.985743706
 20
6.7950148537
 30
0.0
 10
5.9756655336
 20
6.7962939442
 30
0.0
 10
5.9705555527
 20
6.7965117184
 30
0.0
 10
5.968
 20
6.7965117184
 30
0.0
  0
SPLINE
  5
308
100
AcDbEntity
  8
0
100
AcDbSpline
 62
7
  6
CONTINUOUS
 70
0
 71
3
 72
9
 73
5
 74
0
 42
0.0000001
 43
0.0000001
 44
0.0000000001
 40
0.0
 40
0.0
 40
0.0
 40
0.0
 40
0.4891517331
 40
1.0
 40
1.0
 40
1.0
 40
1.0
 10
5.9219973658
 20
6.7835821781
 30
0.0
 10
5.9243762892
 20
6.7826720589
 30
0.0
 10
5.9293243104
 20
6.7810284705
 30
0.0
 10
5.9343805207
 20
6.7797644674
 30
0.0
 10
5.9369809411
 20
6.7792043865
 30
0.0
  0
SPLINE
  5
309
100
AcDbEntity
  8
0
100
AcDbSpline
 62
7
  6
CONTINUOUS
 70
0
 71
3
 72
11
 73
7
 74
0
 42
0.0000001
 43
0.0000001
 44
0.0000000001
 40
0.0
 40
0.0
 40
0.0
 40
0.0
 40
0.2430759109
 40
0.4914961422
 40
0.7442432062
 40
1.0
 40
1.0
 40
1.0
 40
1.0
 10
5.9369809411
 20
6.7792043865
 30
0.0
 10
5.9388970846
 20
6.7787916858
 30
0.0
 10
5.9427922409
 20
6.7780510962
 30
0.0
 10
5.9487335721
 20
6.7771923328
 30
0.0
 10
5.9548071079
 20
6.7765712175
 30
0.0
 10
5.9589007622
 20
6.7763157428
 30
0.0
 10
5.9609611744
 20
6.7762266372
 30
0.0
  0
SPLINE
  5
30A
100
AcDbEntity
  8
0
100
AcDbSpline
 62
7
  6
CONTINUOUS
 70
0
 71
3
 72
21
 73
17
 74
0
 42
0.0000001
 43
0.0000001
 44
0.0000000001
 40
0.0
 40
0.0
 40
0.0
 40
0.0
 40
0.038681412
 40
0.1477192217
 40
0.2233951956
 40
0.3095192771
 40
0.4028948511
 40
0.4512136323
 40
0.5000013677
 40
0.548788775
 40
0.5971069662
 40
0.6904819469
 40
0.7766062132
 40
0.8522822874
 40
0.96131889
 40
1.0
 40
1.0
 40
1.0
 40
1.0
 10
5.89
 20
6.626
 30
0.0
 10
5.8919833033
 20
6.6264137563
 30
0.0
 10
5.8995692948
 20
6.6279383896
 30
0.0
 10
5.9111059963
 20
6.6299176815
 30
0.0
 10
5.925169223
 20
6.6317960805
 30
0.0
 10
5.9384718174
 20
6.6331229874
 30
0.0
 10
5.950385396
 20
6.6338587277
 30
0.0
 10
5.9603583222
 20
6.6341699857
 30
0.0
 10
5.9680001977
 20
6.6342513036
 30
0.0
 10
5.9756420427
 20
6.6341699963
 30
0.0
 10
5.9856148885
 20
6.6338586991
 30
0.0
 10
5.9975284147
 20
6.6331229684
 30
0.0
 10
6.0108309922
 20
6.6317960521
 30
0.0
 10
6.0248941711
 20
6.62991766
 30
0.0
 10
6.0364307975
 20
6.6279383673
 30
0.0
 10
6.0440167119
 20
6.6264137515
 30
0.0
 10
6.046
 20
6.626
 30
0.0
  0
SPLINE
  5
30B
100
AcDbEntity
  8
0
100
AcDbSpline
 62
7
  6
CONTINUOUS
 70
0
 71
3
 72
25
 73
21
 74
0
 42
0.0000001
 43
0.0000001
 44
0.0000000001
 40
0.0
 40
0.0
 40
0.0
 40
0.0
 40
0.0526594818
 40
0.104777833
 40
0.1308350845
 40
0.1569835038
 40
0.2098364394
 40
0.2367173486
 40
0.2639789065
 40
0.3198522366
 40
0.3778719446
 40
0.4382971377
 40
0.5012554096
 40
0.5667583098
 40
0.6346800394
 40
0.7047991348
 40
0.7768152165
 40
0.8503634473
 40
0.9249713431
 40
1.0
 40
1.0
 40
1.0
 40
1.0
 10
6.046
 20
7.264457938
 30
0.0
 10
6.0459999999
 20
7.2662506407
 30
0.0
 10
6.0457517311
 20
7.2698228067
 30
0.0
 10
6.0448056129
 20
7.2741917547
 30
0.0
 10
6.0436802133
 20
7.2775632262
 30
0.0
 10
6.042305753
 20
7.280867859
 30
0.0
 10
6.0405682688
 20
7.2840417011
 30
0.0
 10
6.038504793
 20
7.2870457368
 30
0.0
 10
6.0361846112
 20
7.2899889541
 30
0.0
 10
6.0328547221
 20
7.29347137
 30
0.0
 10
6.0282779815
 20
7.2972671373
 30
0.0
 10
6.0231295224
 20
7.3006960369
 30
0.0
 10
6.0174598418
 20
7.3037476702
 30
0.0
 10
6.0113190682
 20
7.3064091554
 30
0.0
 10
6.0047641421
 20
7.3086746222
 30
0.0
 10
5.9978543796
 20
7.31053692
 30
0.0
 10
5.9906524382
 20
7.3119908445
 30
0.0
 10
5.9832253822
 20
7.3130320724
 30
0.0
 10
5.9756494398
 20
7.313657286
 30
0.0
 10
5.9705542232
 20
7.3137969395
 30
0.0
 10
5.968
 20
7.3137969395
 30
0.0
  0
SPLINE
  5
30C
100
AcDbEntity
  8
0
100
AcDbSpline
 62
7
  6
CONTINUOUS
 70
0
 71
3
 72
25
 73
21
 74
0
 42
0.0000001
 43
0.0000001
 44
0.0000000001
 40
0.0
 40
0.0
 40
0.0
 40
0.0
 40
0.0750286577
 40
0.1496365567
 40
0.2231847926
 40
0.2952008784
 40
0.3653199761
 40
0.433241706
 40
0.4987446065
 40
0.5617028783
 40
0.622128071
 40
0.6801477786
 40
0.7360211079
 40
0.7632826649
 40
0.7901635728
 40
0.8430165055
 40
0.8691649231
 40
0.8952221726
 40
0.9473405201
 40
1.0
 40
1.0
 40
1.0
 40
1.0
 10
5.968
 20
6.6862030605
 30
0.0
 10
5.9705542233
 20
6.6862030605
 30
0.0
 10
5.9756494399
 20
6.6863427141
 30
0.0
 10
5.9832253826
 20
6.6869679277
 30
0.0
 10
5.990652439
 20
6.6880091557
 30
0.0
 10
5.9978543809
 20
6.6894630803
 30
0.0
 10
6.0047641435
 20
6.6913253782
 30
0.0
 10
6.0113190697
 20
6.6935908452
 30
0.0
 10
6.0174598432
 20
6.6962523305
 30
0.0
 10
6.0231295238
 20
6.699303964
 30
0.0
 10
6.0282779827
 20
6.7027328636
 30
0.0
 10
6.0328547232
 20
6.7065286309
 30
0.0
 10
6.036184612
 20
6.710011047
 30
0.0
 10
6.0385047938
 20
6.7129542643
 30
0.0
 10
6.0405682695
 20
6.7159582998
 30
0.0
 10
6.0423057534
 20
6.7191321418
 30
0.0
 10
6.0436802135
 20
6.7224367745
 30
0.0
 10
6.0448056131
 20
6.7258082457
 30
0.0
 10
6.0457517312
 20
6.7301771935
 30
0.0
 10
6.046
 20
6.7337493592
 30
0.0
 10
6.046
 20
6.7355420618
 30
0.0
  0
SPLINE
  5
30D
100
AcDbEntity
  8
0
100
AcDbSpline
 62
7
  6
CONTINUOUS
 70
0
 71
3
 72
25
 73
21
 74
0
 42
0.0000001
 43
0.0000001
 44
0.0000000001
 40
0.0
 40
0.0
 40
0.0
 40
0.0
 40
0.075028658
 40
0.1496365576
 40
0.2231847936
 40
0.2952008787
 40
0.3653199755
 40
0.4332417045
 40
0.4987446044
 40
0.5617028761
 40
0.6221280689
 40
0.6801477767
 40
0.7360211062
 40
0.7632826634
 40
0.7901635715
 40
0.8430165044
 40
0.8691649222
 40
0.8952221719
 40
0.9473405198
 40
1.0
 40
1.0
 40
1.0
 40
1.0
 10
5.968
 20
7.3137969395
 30
0.0
 10
5.9654457767
 20
7.3137969395
 30
0.0
 10
5.96035056
 20
7.3136572859
 30
0.0
 10
5.9527746173
 20
7.3130320723
 30
0.0
 10
5.9453475609
 20
7.3119908443
 30
0.0
 10
5.9381456191
 20
7.3105369197
 30
0.0
 10
5.9312358566
 20
7.3086746218
 30
0.0
 10
5.9246809304
 20
7.3064091548
 30
0.0
 10
5.918540157
 20
7.3037476696
 30
0.0
 10
5.9128704764
 20
7.3006960361
 30
0.0
 10
5.9077220175
 20
7.2972671365
 30
0.0
 10
5.9031452769
 20
7.2934713692
 30
0.0
 10
5.8998153881
 20
7.2899889531
 30
0.0
 10
5.8974952063
 20
7.2870457358
 30
0.0
 10
5.8954317306
 20
7.2840417002
 30
0.0
 10
5.8936942466
 20
7.2808678582
 30
0.0
 10
5.8923197865
 20
7.2775632256
 30
0.0
 10
5.8911943869
 20
7.2741917543
 30
0.0
 10
5.8902482688
 20
7.2698228065
 30
0.0
 10
5.89
 20
7.2662506407
 30
0.0
 10
5.89
 20
7.2644579381
 30
0.0
  0
SPLINE
  5
30E
100
AcDbEntity
  8
0
100
AcDbSpline
 62
7
  6
CONTINUOUS
 70
0
 71
3
 72
25
 73
21
 74
0
 42
0.0000001
 43
0.0000001
 44
0.0000000001
 40
0.0
 40
0.0
 40
0.0
 40
0.0
 40
0.0526594816
 40
0.1047778323
 40
0.1308350836
 40
0.1569835028
 40
0.2098364381
 40
0.2367173472
 40
0.263978905
 40
0.3198522349
 40
0.3778719427
 40
0.4382971356
 40
0.5012554076
 40
0.5667583085
 40
0.6346800389
 40
0.7047991352
 40
0.7768152176
 40
0.8503634482
 40
0.9249713434
 40
1.0
 40
1.0
 40
1.0
 40
1.0
 10
5.89
 20
6.7355420619
 30
0.0
 10
5.8900000001
 20
6.7337493593
 30
0.0
 10
5.8902482689
 20
6.7301771933
 30
0.0
 10
5.8911943871
 20
6.7258082453
 30
0.0
 10
5.8923197867
 20
6.7224367739
 30
0.0
 10
5.8936942469
 20
6.7191321411
 30
0.0
 10
5.8954317312
 20
6.715958299
 30
0.0
 10
5.8974952069
 20
6.7129542633
 30
0.0
 10
5.8998153888
 20
6.710011046
 30
0.0
 10
5.9031452778
 20
6.70652863
 30
0.0
 10
5.9077220184
 20
6.7027328628
 30
0.0
 10
5.9128704774
 20
6.6993039632
 30
0.0
 10
5.9185401581
 20
6.6962523299
 30
0.0
 10
5.9246809317
 20
6.6935908447
 30
0.0
 10
5.9312358579
 20
6.6913253779
 30
0.0
 10
5.9381456204
 20
6.68946308
 30
0.0
 10
5.9453475619
 20
6.6880091555
 30
0.0
 10
5.9527746179
 20
6.6869679276
 30
0.0
 10
5.9603505603
 20
6.686342714
 30
0.0
 10
5.9654457768
 20
6.6862030605
 30
0.0
 10
5.968
 20
6.6862030605
 30
0.0
  0
SPLINE
  5
30F
100
AcDbEntity
  8
0
100
AcDbSpline
 62
7
  6
CONTINUOUS
 70
0
 71
3
 72
15
 73
11
 74
0
 42
0.0000001
 43
0.0000001
 44
0.0000000001
 40
0.0
 40
0.0
 40
0.0
 40
0.0
 40
0.1256079893
 40
0.2507412784
 40
0.3754830329
 40
0.5000000146
 40
0.624516994
 40
0.7492587441
 40
0.8743920159
 40
1.0
 40
1.0
 40
1.0
 40
1.0
 10
3.6706106713
 20
7.0279114628
 30
0.0
 10
3.6642690454
 20
7.0485284237
 30
0.0
 10
3.6527156377
 20
7.090038899
 30
0.0
 10
3.6395159993
 20
7.1532078143
 30
0.0
 10
3.6312138988
 20
7.2170348586
 30
0.0
 10
3.6283748048
 20
7.281241757
 30
0.0
 10
3.6312139
 20
7.3454486546
 30
0.0
 10
3.6395160012
 20
7.4092756947
 30
0.0
 10
3.6527156392
 20
7.4724446052
 30
0.0
 10
3.6642690457
 20
7.5139550769
 30
0.0
 10
3.6706106713
 20
7.534572037
 30
0.0
  0
SPLINE
  5
310
100
AcDbEntity
  8
0
100
AcDbSpline
 62
7
  6
CONTINUOUS
 70
0
 71
3
 72
15
 73
11
 74
0
 42
0.0000001
 43
0.0000001
 44
0.0000000001
 40
0.0
 40
0.0
 40
0.0
 40
0.0
 40
0.1256079893
 40
0.2507412784
 40
0.3754830329
 40
0.5000000146
 40
0.624516994
 40
0.7492587441
 40
0.8743920159
 40
1.0
 40
1.0
 40
1.0
 40
1.0
 10
4.1325743742
 20
7.0279114628
 30
0.0
 10
4.138916
 20
7.0485284237
 30
0.0
 10
4.1504694078
 20
7.090038899
 30
0.0
 10
4.1636690461
 20
7.1532078143
 30
0.0
 10
4.1719711466
 20
7.2170348586
 30
0.0
 10
4.1748102406
 20
7.281241757
 30
0.0
 10
4.1719711454
 20
7.3454486546
 30
0.0
 10
4.1636690442
 20
7.4092756947
 30
0.0
 10
4.1504694062
 20
7.4724446052
 30
0.0
 10
4.1389159997
 20
7.5139550769
 30
0.0
 10
4.1325743742
 20
7.534572037
 30
0.0
  0
SPLINE
  5
311
100
AcDbEntity
  8
0
100
AcDbSpline
 62
7
  6
CONTINUOUS
 70
0
 71
3
 72
15
 73
11
 74
0
 42
0.0000001
 43
0.0000001
 44
0.0000000001
 40
0.0
 40
0.0
 40
0.0
 40
0.0
 40
0.1256079893
 40
0.2507412784
 40
0.3754830329
 40
0.5000000146
 40
0.624516994
 40
0.7492587441
 40
0.8743920159
 40
1.0
 40
1.0
 40
1.0
 40
1.0
 10
3.6706106713
 20
6.465427963
 30
0.0
 10
3.6642690454
 20
6.486044924
 30
0.0
 10
3.6527156377
 20
6.5275553993
 30
0.0
 10
3.6395159993
 20
6.5907243145
 30
0.0
 10
3.6312138988
 20
6.6545513588
 30
0.0
 10
3.6283748048
 20
6.7187582572
 30
0.0
 10
3.6312139
 20
6.7829651549
 30
0.0
 10
3.6395160012
 20
6.8467921949
 30
0.0
 10
3.6527156392
 20
6.9099611055
 30
0.0
 10
3.6642690457
 20
6.9514715771
 30
0.0
 10
3.6706106713
 20
6.9720885372
 30
0.0
  0
SPLINE
  5
312
100
AcDbEntity
  8
0
100
AcDbSpline
 62
7
  6
CONTINUOUS
 70
0
 71
3
 72
15
 73
11
 74
0
 42
0.0000001
 43
0.0000001
 44
0.0000000001
 40
0.0
 40
0.0
 40
0.0
 40
0.0
 40
0.1256079893
 40
0.2507412784
 40
0.3754830329
 40
0.5000000146
 40
0.624516994
 40
0.7492587441
 40
0.8743920159
 40
1.0
 40
1.0
 40
1.0
 40
1.0
 10
4.1325743742
 20
6.465427963
 30
0.0
 10
4.138916
 20
6.486044924
 30
0.0
 10
4.1504694078
 20
6.5275553993
 30
0.0
 10
4.1636690461
 20
6.5907243145
 30
0.0
 10
4.1719711466
 20
6.6545513588
 30
0.0
 10
4.1748102406
 20
6.7187582572
 30
0.0
 10
4.1719711454
 20
6.7829651549
 30
0.0
 10
4.1636690442
 20
6.8467921949
 30
0.0
 10
4.1504694062
 20
6.9099611055
 30
0.0
 10
4.1389159997
 20
6.9514715771
 30
0.0
 10
4.1325743742
 20
6.9720885372
 30
0.0
  0
ELLIPSE
  5
313
100
AcDbEntity
  8
0
100
AcDbEllipse
 62
7
  6
CONTINUOUS
 10
6.204
 20
6.5835
 30
0.0
 11
-0.0
 21
0.035
 31
0.0
 40
1.0
 41
-4.7123889804
 42
-1.5707963268
  0
ELLIPSE
  5
314
100
AcDbEntity
  8
0
100
AcDbEllipse
 62
7
  6
CONTINUOUS
 10
6.204
 20
7.4165
 30
0.0
 11
0.035
 21
-0.0
 31
0.0
 40
1.0
 41
0.0
 42
3.1415926536
  0
ELLIPSE
  5
315
100
AcDbEntity
  8
0
100
AcDbEllipse
 62
7
  6
CONTINUOUS
 10
5.082
 20
6.507
 30
0.0
 11
0.035
 21
0.0
 31
0.0
 40
1.0
 41
-2.6516136893
 42
0.0
  0
ELLIPSE
  5
316
100
AcDbEntity
  8
0
100
AcDbEllipse
 62
7
  6
CONTINUOUS
 10
5.082
 20
6.507
 30
0.0
 11
0.0
 21
0.035
 31
0.0
 40
1.0
 41
-4.3196898987
 42
-4.222410016
  0
ELLIPSE
  5
317
100
AcDbEntity
  8
0
100
AcDbEllipse
 62
7
  6
CONTINUOUS
 10
5.082
 20
6.507
 30
0.0
 11
0.035
 21
0.0
 31
0.0
 40
1.0
 41
-3.1415926536
 42
-2.7488935719
  0
ELLIPSE
  5
318
100
AcDbEntity
  8
0
100
AcDbEllipse
 62
7
  6
CONTINUOUS
 10
5.082
 20
7.493
 30
0.0
 11
0.035
 21
0.0
 31
0.0
 40
1.0
 41
6.2831853072
 42
9.4247779608
  0
ELLIPSE
  5
319
100
AcDbEntity
  8
0
100
AcDbEllipse
 62
7
  6
CONTINUOUS
 10
4.46
 20
6.4825
 30
0.0
 11
-0.0
 21
0.035
 31
0.0
 40
1.0
 41
-4.7123889804
 42
-1.5707963268
  0
ELLIPSE
  5
31A
100
AcDbEntity
  8
0
100
AcDbEllipse
 62
7
  6
CONTINUOUS
 10
4.46
 20
7.5175
 30
0.0
 11
0.035
 21
-0.0
 31
0.0
 40
1.0
 41
0.0
 42
3.1415926536
  0
ENDSEC
  0
SECTION
  2
OBJECTS
  0
DICTIONARY
  5
C
100
AcDbDictionary
280
0
281
1
  3
ACAD_GROUP
350
D
  3
ACAD_MLINESTYLE
350
17
  3
ACAD_LAYOUT
350
1A
  3
ACAD_PLOTSETTINGS
350
19
  3
ACAD_PLOTSTYLENAME
350
E
  0
DICTIONARY
  5
D
102
{ACAD_REACTORS
330
C
102
}
100
AcDbDictionary
280
0
281
1
  0
ACDBDICTIONARYWDFLT
  5
E
102
{ACAD_REACTORS
330
C
102
}
100
AcDbDictionary
281
1
  3
Normal
350
F
100
AcDbDictionaryWithDefault
340
F
  0
DICTIONARY
  5
17
102
{ACAD_REACTORS
330
C
102
}
100
AcDbDictionary
280
0
281
1
  3
Standard
350
18
  0
DICTIONARY
  5
19
102
{ACAD_REACTORS
330
C
102
}
100
AcDbDictionary
281
1
  0
DICTIONARY
  5
1A
102
{ACAD_REACTORS
330
C
102
}
100
AcDbDictionary
281
1
  3
Model
350
31B
  3
Layout1
350
31C
  0
ACDBPLACEHOLDER
  5
F
102
{ACAD_REACTORS
330
E
102
}
  0
MLINESTYLE
  5
18
102
{ACAD_REACTORS
330
17
102
}
100
AcDbMlineStyle
  2
STANDARD
 70
0
  3

 62
256
 51
90.0
 52
90.0
 71
2
 49
0.5
 62
256
  6
BYLAYER
 49
-0.5
 62
256
  6
BYLAYER
  0
LAYOUT
  5
31B
102
{ACAD_REACTORS
330
1A
102
}
100
AcDbPlotSettings
  1

  2
none_device
  4
ANSI_B_(17.00_x_11.00_Inches)
  6

 40
0.0
 41
0.0
 42
0.0
 43
0.0
 44
431.8
 45
279.4
 46
0.0
 47
0.0
 48
0.0
 49
0.0
140
0.0
141
0.0
142
1.0
143
1.0
 70
1024
 72
0
 73
0
 74
0
  7

 75
0
147
1.0
148
0.0
149
0.0
100
AcDbLayout
  1
Model
 70
0
 71
0
 10
0.0
 20
0.0
 11
17.0
 21
11.0
 12
0.0
 22
0.0
 32
0.0
 14
0.0
 24
0.0
 34
0.0
 15
0.0
 25
0.0
 35
0.0
146
0.0
 13
0.0
 23
0.0
 33
0.0
 16
1.0
 26
0.0
 36
0.0
 17
0.0
 27
1.0
 37
0.0
 76
0
330
240
345
0
346
0
  0
LAYOUT
  5
31C
102
{ACAD_REACTORS
330
1A
102
}
100
AcDbPlotSettings
  1

  2
none_device
  4
ANSI_B_(17.00_x_11.00_Inches)
  6

 40
0.0
 41
0.0
 42
0.0
 43
0.0
 44
431.8
 45
279.4
 46
0.0
 47
0.0
 48
0.0
 49
0.0
140
0.0
141
0.0
142
1.0
143
1.0
 70
0
 72
0
 73
0
 74
0
  7

 75
0
147
1.0
148
0.0
149
0.0
100
AcDbLayout
  1
Layout1
 70
0
 71
1
 10
0.0
 20
0.0
 11
17.0
 21
11.0
 12
0.0
 22
0.0
 32
0.0
 14
0.0
 24
0.0
 34
0.0
 15
0.0
 25
0.0
 35
0.0
146
0.0
 13
0.0
 23
0.0
 33
0.0
 16
1.0
 26
0.0
 36
0.0
 17
0.0
 27
1.0
 37
0.0
 76
0
330
241
345
0
346
0
  0
ENDSEC
  0
EOF
