999
DXF file: LRDCXHN.dxf
999
Pro/ENGINEER 2021072 by Parametric Technology Corporation
  0
SECTION
  2
HEADER
  9
$ACADVER
  1
AC1032
  9
$DWGCODEPAGE
  3
ANSI_1252
  9
$EXTMAX
 10
17.0
 20
11.0
 30
0.0
  9
$EXTMIN
 10
0.0
 20
0.0
 30
0.0
  9
$LIMMIN
 10
0.0
 20
0.0
  9
$LIMMAX
 10
17.0
 20
11.0
  9
$VIEWCTR
 10
8.5
 20
5.5
  9
$VIEWSIZE
 40
11.0
  9
$CLAYER
  8
0
  9
$LTSCALE
 40
0.935
  9
$CELTYPE
  6
BYLAYER
  9
$DIMSCALE
 40
1.0
  9
$DIMASZ
 40
0.1875
  9
$DIMEXO
 40
0.0625
  9
$DIMDLI
 40
0.646
  9
$DIMEXE
 40
0.125
  9
$DIMCEN
 40
0.153
  9
$DIMLFAC
 40
1.0
  9
$DIMBLK
  1
_FILLED
  9
$DIMALT
 70
0
  9
$DIMALTF
 40
25.4
  9
$DIMTXT
 40
0.125
  9
$DIMTOL
 70
0
  9
$DIMLIM
 70
0
  9
$DIMTFAC
 40
1.0
  9
$DIMGAP
 40
0.09
  9
$DIMDSEP
 70
46
  9
$AUNITS
 70
0
  9
$PDMODE
 70
3
  9
$PDSIZE
 40
0.3125
  9
$HANDSEED
  5
310
  9
$TILEMODE
 70
1
  9
$MEASUREMENT
 70
0
  9
$INSUNITS
 70
1
  0
ENDSEC
  0
SECTION
  2
CLASSES
  0
CLASS
  1
ACDBDICTIONARYWDFLT
  2
AcDbDictionaryWithDefault
  3
AutoCAD 2000
 90
0
 91
1
280
0
281
0
  0
CLASS
  1
ACDBPLACEHOLDER
  2
AcDbPlaceHolder
  3
AutoCAD 2000
 90
0
 91
1
280
0
281
0
  0
CLASS
  1
LAYOUT
  2
AcDbLayout
  3
AutoCAD 2000
 90
0
 91
0
280
0
281
0
  0
ENDSEC
  0
SECTION
  2
TABLES
  0
TABLE
  2
VPORT
  5
8
100
AcDbSymbolTable
 70
2
  0
VPORT
  5
1F4
100
AcDbSymbolTableRecord
100
AcDbViewportTableRecord
  2
*ACTIVE
 70
0
 10
0.0
 20
0.0
 11
1.0
 21
1.0
 12
8.5
 22
5.5
 13
0.0
 23
0.0
 14
1.0
 24
1.0
 15
0.0
 25
0.0
 16
0.0
 26
0.0
 36
1.0
 17
0.0
 27
0.0
 37
0.0
 40
11.0
 41
1.5454545455
 42
50.0
 43
0.0
 44
0.0
 50
0.0
 51
0.0
 71
0
 72
100
 73
1
 74
1
 75
0
 76
0
 77
0
 78
0
  0
ENDTAB
  0
TABLE
  2
LTYPE
  5
5
100
AcDbSymbolTable
 70
6
  0
LTYPE
  5
14
100
AcDbSymbolTableRecord
100
AcDbLinetypeTableRecord
  2
BYBLOCK
 70
0
  3

 72
65
 73
0
 40
0.0
  0
LTYPE
  5
15
100
AcDbSymbolTableRecord
100
AcDbLinetypeTableRecord
  2
BYLAYER
 70
0
  3

 72
65
 73
0
 40
0.0
  0
LTYPE
  5
16
100
AcDbSymbolTableRecord
100
AcDbLinetypeTableRecord
  2
CONTINUOUS
 70
64
  3
Solid line
 72
65
 73
0
 40
0.0
  0
LTYPE
  5
1F5
100
AcDbSymbolTableRecord
100
AcDbLinetypeTableRecord
  2
CENTER
 70
64
  3
____ _ ____ _ ____ _ ____ _ ____ _ ____ _ ____
 72
65
 73
4
 40
0.6
 49
0.375
 74
0
 49
-0.075
 74
0
 49
0.075
 74
0
 49
-0.075
 74
0
  0
LTYPE
  5
1F6
100
AcDbSymbolTableRecord
100
AcDbLinetypeTableRecord
  2
HIDDEN
 70
64
  3
- - - - - - - - - - - - - - - - - - - -
 72
65
 73
2
 40
0.2
 49
0.1
 74
0
 49
-0.1
 74
0
  0
LTYPE
  5
1F7
100
AcDbSymbolTableRecord
100
AcDbLinetypeTableRecord
  2
PHANTOM
 70
64
  3
_____ _ _ _____ _ _ _____ _ _ _____
 72
65
 73
6
 40
0.8
 49
0.45
 74
0
 49
-0.05
 74
0
 49
0.1
 74
0
 49
-0.05
 74
0
 49
0.1
 74
0
 49
-0.05
 74
0
  0
LTYPE
  5
1F8
100
AcDbSymbolTableRecord
100
AcDbLinetypeTableRecord
  2
DOT
 70
64
  3
. . . . . . . . . . . . . . . . . . . .
 72
65
 73
2
 40
0.2
 49
0.1
 74
0
 49
-0.1
 74
0
  0
LTYPE
  5
1F9
100
AcDbSymbolTableRecord
100
AcDbLinetypeTableRecord
  2
DASHED
 70
64
  3
- - - - - - - - - - - - - - - - - - - -
 72
65
 73
2
 40
0.2
 49
0.1
 74
0
 49
-0.1
 74
0
  0
ENDTAB
  0
TABLE
  2
LAYER
  5
2
100
AcDbSymbolTable
 70
36
  0
LAYER
  5
10
100
AcDbSymbolTableRecord
100
AcDbLayerTableRecord
  2
0
 70
0
 62
7
  6
CONTINUOUS
370
-3
390
F
  0
LAYER
  5
1FA
100
AcDbSymbolTableRecord
100
AcDbLayerTableRecord
  2
DEFAULT_1
 70
0
 62
7
  6
CENTER
370
-3
390
F
  0
LAYER
  5
1FB
100
AcDbSymbolTableRecord
100
AcDbLayerTableRecord
  2
DEFAULT_2
 70
0
 62
8
  6
HIDDEN
370
-3
390
F
  0
LAYER
  5
1FC
100
AcDbSymbolTableRecord
100
AcDbLayerTableRecord
  2
DEFAULT_3
 70
0
 62
7
  6
PHANTOM
370
-3
390
F
  0
LAYER
  5
1FD
100
AcDbSymbolTableRecord
100
AcDbLayerTableRecord
  2
01_ALL_DTM_PLN
 70
0
 62
7
  6
CONTINUOUS
370
-3
390
F
  0
LAYER
  5
1FE
100
AcDbSymbolTableRecord
100
AcDbLayerTableRecord
  2
01__ASM_ALL_DTM_PLN
 70
0
 62
7
  6
CONTINUOUS
370
-3
390
F
  0
LAYER
  5
1FF
100
AcDbSymbolTableRecord
100
AcDbLayerTableRecord
  2
01__ASM_DEF_DTM_PLN
 70
0
 62
7
  6
CONTINUOUS
370
-3
390
F
  0
LAYER
  5
200
100
AcDbSymbolTableRecord
100
AcDbLayerTableRecord
  2
01___PRT_ALL_DTM_PLN
 70
0
 62
7
  6
CONTINUOUS
370
-3
390
F
  0
LAYER
  5
201
100
AcDbSymbolTableRecord
100
AcDbLayerTableRecord
  2
01___PRT_DEF_DTM_PLN
 70
0
 62
7
  6
CONTINUOUS
370
-3
390
F
  0
LAYER
  5
202
100
AcDbSymbolTableRecord
100
AcDbLayerTableRecord
  2
02_ALL_AXES
 70
0
 62
7
  6
CONTINUOUS
370
-3
390
F
  0
LAYER
  5
203
100
AcDbSymbolTableRecord
100
AcDbLayerTableRecord
  2
02__ASM_ALL_AXES
 70
0
 62
7
  6
CONTINUOUS
370
-3
390
F
  0
LAYER
  5
204
100
AcDbSymbolTableRecord
100
AcDbLayerTableRecord
  2
02___PRT_ALL_AXES
 70
0
 62
7
  6
CONTINUOUS
370
-3
390
F
  0
LAYER
  5
205
100
AcDbSymbolTableRecord
100
AcDbLayerTableRecord
  2
03_ALL_CURVES
 70
0
 62
7
  6
CONTINUOUS
370
-3
390
F
  0
LAYER
  5
206
100
AcDbSymbolTableRecord
100
AcDbLayerTableRecord
  2
03__ASM_ALL_CURVES
 70
0
 62
7
  6
CONTINUOUS
370
-3
390
F
  0
LAYER
  5
207
100
AcDbSymbolTableRecord
100
AcDbLayerTableRecord
  2
03___PRT_ALL_CURVES
 70
0
 62
7
  6
CONTINUOUS
370
-3
390
F
  0
LAYER
  5
208
100
AcDbSymbolTableRecord
100
AcDbLayerTableRecord
  2
04_ALL_DTM_PNT
 70
0
 62
7
  6
CONTINUOUS
370
-3
390
F
  0
LAYER
  5
209
100
AcDbSymbolTableRecord
100
AcDbLayerTableRecord
  2
04__ASM_ALL_DTM_PNT
 70
0
 62
7
  6
CONTINUOUS
370
-3
390
F
  0
LAYER
  5
20A
100
AcDbSymbolTableRecord
100
AcDbLayerTableRecord
  2
04___PRT_ALL_DTM_PNT
 70
0
 62
7
  6
CONTINUOUS
370
-3
390
F
  0
LAYER
  5
20B
100
AcDbSymbolTableRecord
100
AcDbLayerTableRecord
  2
05_ALL_DTM_CSYS
 70
0
 62
7
  6
CONTINUOUS
370
-3
390
F
  0
LAYER
  5
20C
100
AcDbSymbolTableRecord
100
AcDbLayerTableRecord
  2
05__ASM_ALL_DTM_CSYS
 70
0
 62
7
  6
CONTINUOUS
370
-3
390
F
  0
LAYER
  5
20D
100
AcDbSymbolTableRecord
100
AcDbLayerTableRecord
  2
05__ASM_DEF_DTM_CSYS
 70
0
 62
7
  6
CONTINUOUS
370
-3
390
F
  0
LAYER
  5
20E
100
AcDbSymbolTableRecord
100
AcDbLayerTableRecord
  2
05___PRT_ALL_DTM_CSYS
 70
0
 62
7
  6
CONTINUOUS
370
-3
390
F
  0
LAYER
  5
20F
100
AcDbSymbolTableRecord
100
AcDbLayerTableRecord
  2
05___PRT_DEF_DTM_CSYS
 70
0
 62
7
  6
CONTINUOUS
370
-3
390
F
  0
LAYER
  5
210
100
AcDbSymbolTableRecord
100
AcDbLayerTableRecord
  2
06_ALL_SURFS
 70
0
 62
7
  6
CONTINUOUS
370
-3
390
F
  0
LAYER
  5
211
100
AcDbSymbolTableRecord
100
AcDbLayerTableRecord
  2
06__ASM_ALL_SURFS
 70
0
 62
7
  6
CONTINUOUS
370
-3
390
F
  0
LAYER
  5
212
100
AcDbSymbolTableRecord
100
AcDbLayerTableRecord
  2
06___PRT_ALL_SURFS
 70
0
 62
7
  6
CONTINUOUS
370
-3
390
F
  0
LAYER
  5
213
100
AcDbSymbolTableRecord
100
AcDbLayerTableRecord
  2
07__ASM_ALL_SKELETONS
 70
0
 62
7
  6
CONTINUOUS
370
-3
390
F
  0
LAYER
  5
214
100
AcDbSymbolTableRecord
100
AcDbLayerTableRecord
  2
126-300_HEX_FEATURES
 70
0
 62
7
  6
CONTINUOUS
370
-3
390
F
  0
LAYER
  5
215
100
AcDbSymbolTableRecord
100
AcDbLayerTableRecord
  2
126-300_REF_GEOMETRY
 70
0
 62
7
  6
CONTINUOUS
370
-3
390
F
  0
LAYER
  5
216
100
AcDbSymbolTableRecord
100
AcDbLayerTableRecord
  2
126-301_HEX_FEATURES
 70
0
 62
7
  6
CONTINUOUS
370
-3
390
F
  0
LAYER
  5
217
100
AcDbSymbolTableRecord
100
AcDbLayerTableRecord
  2
126-301_REF_GEOMETRY
 70
0
 62
7
  6
CONTINUOUS
370
-3
390
F
  0
LAYER
  5
218
100
AcDbSymbolTableRecord
100
AcDbLayerTableRecord
  2
126-302_HEX_FEATURES
 70
0
 62
7
  6
CONTINUOUS
370
-3
390
F
  0
LAYER
  5
219
100
AcDbSymbolTableRecord
100
AcDbLayerTableRecord
  2
126-302_REF_GEOMETRY
 70
0
 62
7
  6
CONTINUOUS
370
-3
390
F
  0
LAYER
  5
21A
100
AcDbSymbolTableRecord
100
AcDbLayerTableRecord
  2
126-303_HEX_FEATURES
 70
0
 62
7
  6
CONTINUOUS
370
-3
390
F
  0
LAYER
  5
21B
100
AcDbSymbolTableRecord
100
AcDbLayerTableRecord
  2
126-303_REF_GEOMETRY
 70
0
 62
7
  6
CONTINUOUS
370
-3
390
F
  0
LAYER
  5
21C
100
AcDbSymbolTableRecord
100
AcDbLayerTableRecord
  2
BSPP_PORT_PER_S-186
 70
0
 62
7
  6
CONTINUOUS
370
-3
390
F
  0
LAYER
  5
21D
100
AcDbSymbolTableRecord
100
AcDbLayerTableRecord
  2
COPY_GEO_FET
 70
0
 62
7
  6
CONTINUOUS
370
-3
390
F
  0
LAYER
  5
21E
100
AcDbSymbolTableRecord
100
AcDbLayerTableRecord
  2
COSMETIC
 70
0
 62
7
  6
CONTINUOUS
370
-3
390
F
  0
LAYER
  5
21F
100
AcDbSymbolTableRecord
100
AcDbLayerTableRecord
  2
COSMETICS
 70
0
 62
7
  6
CONTINUOUS
370
-3
390
F
  0
LAYER
  5
220
100
AcDbSymbolTableRecord
100
AcDbLayerTableRecord
  2
CURVES
 70
0
 62
7
  6
CONTINUOUS
370
-3
390
F
  0
LAYER
  5
221
100
AcDbSymbolTableRecord
100
AcDbLayerTableRecord
  2
CUT_REF_SURF
 70
0
 62
7
  6
CONTINUOUS
370
-3
390
F
  0
LAYER
  5
222
100
AcDbSymbolTableRecord
100
AcDbLayerTableRecord
  2
DATUM
 70
0
 62
7
  6
CONTINUOUS
370
-3
390
F
  0
LAYER
  5
223
100
AcDbSymbolTableRecord
100
AcDbLayerTableRecord
  2
DATUMCURVES
 70
0
 62
7
  6
CONTINUOUS
370
-3
390
F
  0
LAYER
  5
224
100
AcDbSymbolTableRecord
100
AcDbLayerTableRecord
  2
DIMENSIONS
 70
0
 62
7
  6
CONTINUOUS
370
-3
390
F
  0
LAYER
  5
225
100
AcDbSymbolTableRecord
100
AcDbLayerTableRecord
  2
DTM
 70
0
 62
7
  6
CONTINUOUS
370
-3
390
F
  0
LAYER
  5
226
100
AcDbSymbolTableRecord
100
AcDbLayerTableRecord
  2
DTM_500002
 70
0
 62
7
  6
CONTINUOUS
370
-3
390
F
  0
LAYER
  5
227
100
AcDbSymbolTableRecord
100
AcDbLayerTableRecord
  2
DTM_515002
 70
0
 62
7
  6
CONTINUOUS
370
-3
390
F
  0
LAYER
  5
228
100
AcDbSymbolTableRecord
100
AcDbLayerTableRecord
  2
DTM_SPRING_RH
 70
0
 62
7
  6
CONTINUOUS
370
-3
390
F
  0
LAYER
  5
229
100
AcDbSymbolTableRecord
100
AcDbLayerTableRecord
  2
DTM_SP_RH_CONSTR
 70
0
 62
7
  6
CONTINUOUS
370
-3
390
F
  0
LAYER
  5
22A
100
AcDbSymbolTableRecord
100
AcDbLayerTableRecord
  2
GEOMETRICTOLERANCES
 70
0
 62
7
  6
CONTINUOUS
370
-3
390
F
  0
LAYER
  5
22B
100
AcDbSymbolTableRecord
100
AcDbLayerTableRecord
  2
HIDDEN
 70
0
 62
7
  6
CONTINUOUS
370
-3
390
F
  0
LAYER
  5
22C
100
AcDbSymbolTableRecord
100
AcDbLayerTableRecord
  2
LAY0001
 70
0
 62
7
  6
CONTINUOUS
370
-3
390
F
  0
LAYER
  5
22D
100
AcDbSymbolTableRecord
100
AcDbLayerTableRecord
  2
NPTF_PORT_PER_S-164
 70
0
 62
7
  6
CONTINUOUS
370
-3
390
F
  0
LAYER
  5
22E
100
AcDbSymbolTableRecord
100
AcDbLayerTableRecord
  2
PARAMETERDIMENSIONS
 70
0
 62
7
  6
CONTINUOUS
370
-3
390
F
  0
LAYER
  5
22F
100
AcDbSymbolTableRecord
100
AcDbLayerTableRecord
  2
PLANE
 70
0
 62
7
  6
CONTINUOUS
370
-3
390
F
  0
LAYER
  5
230
100
AcDbSymbolTableRecord
100
AcDbLayerTableRecord
  2
STD_SAE-4_PORT
 70
0
 62
7
  6
CONTINUOUS
370
-3
390
F
  0
LAYER
  5
231
100
AcDbSymbolTableRecord
100
AcDbLayerTableRecord
  2
T-8A_CAVITY
 70
0
 62
7
  6
CONTINUOUS
370
-3
390
F
  0
LAYER
  5
232
100
AcDbSymbolTableRecord
100
AcDbLayerTableRecord
  2
T-8A_CAVITY_REF_GEOMETRY
 70
0
 62
7
  6
CONTINUOUS
370
-3
390
F
  0
LAYER
  5
233
100
AcDbSymbolTableRecord
100
AcDbLayerTableRecord
  2
TEXT
 70
0
 62
7
  6
CONTINUOUS
370
-3
390
F
  0
LAYER
  5
234
100
AcDbSymbolTableRecord
100
AcDbLayerTableRecord
  2
THREAD
 70
0
 62
7
  6
CONTINUOUS
370
-3
390
F
  0
LAYER
  5
235
100
AcDbSymbolTableRecord
100
AcDbLayerTableRecord
  2
XSEC_DATUMS
 70
0
 62
7
  6
CONTINUOUS
370
-3
390
F
  0
ENDTAB
  0
TABLE
  2
STYLE
  5
3
100
AcDbSymbolTable
 70
1
  0
STYLE
  5
11
100
AcDbSymbolTableRecord
100
AcDbTextStyleTableRecord
  2
STANDARD
 70
0
 40
0.0
 41
0.8
 50
0.0
 71
0
 42
0.2
  3
txt
  4

  0
STYLE
  5
236
100
AcDbSymbolTableRecord
100
AcDbTextStyleTableRecord
  2
TEXTSTYLE_1
 70
0
 40
0.0
 41
0.8
 50
0.0
 71
0
 42
0.2
  3
gdt
  4

  0
ENDTAB
  0
TABLE
  2
VIEW
  5
6
100
AcDbSymbolTable
 70
0
  0
ENDTAB
  0
TABLE
  2
UCS
  5
7
100
AcDbSymbolTable
 70
0
  0
ENDTAB
  0
TABLE
  2
APPID
  5
9
100
AcDbSymbolTable
 70
1
  0
APPID
  5
237
100
AcDbSymbolTableRecord
100
AcDbRegAppTableRecord
  2
ACAD
 70
0
  0
ENDTAB
  0
TABLE
  2
BLOCK_RECORD
  5
1
100
AcDbSymbolTable
 70
0
  0
BLOCK_RECORD
  5
238
100
AcDbSymbolTableRecord
100
AcDbBlockTableRecord
  2
*Model_Space
  0
BLOCK_RECORD
  5
239
100
AcDbSymbolTableRecord
100
AcDbBlockTableRecord
  2
*Paper_Space
  0
BLOCK_RECORD
  5
23A
100
AcDbSymbolTableRecord
100
AcDbBlockTableRecord
  2
_FILLED
  0
BLOCK_RECORD
  5
23B
100
AcDbSymbolTableRecord
100
AcDbBlockTableRecord
  2
*D0
  0
ENDTAB
  0
TABLE
  2
DIMSTYLE
  5
A
100
AcDbSymbolTable
 70
1
100
AcDbDimStyleTable
 71
0
  0
DIMSTYLE
105
23C
100
AcDbSymbolTableRecord
100
AcDbDimStyleTableRecord
  2
STANDARD
 70
0
  3

  4

 40
1.0
 41
0.1875
 42
0.0625
 43
0.38
 44
0.125
 45
0.0
 46
0.0
 47
0.001
 48
0.001
140
0.125
141
0.09
142
0.0
143
25.4
144
1.0
145
0.0
146
1.0
147
0.09
 71
0
 72
0
 73
1
 74
1
 75
0
 76
0
 77
0
 78
4
 79
1
170
0
171
2
172
0
173
0
174
0
175
0
176
0
177
0
178
0
270
2
179
3
271
3
272
3
273
2
274
2
275
0
280
0
281
0
282
0
283
1
284
4
285
0
286
0
287
3
288
0
340
11
278
46
341
23A
342
23A
343
23A
344
23A
  0
DIMSTYLE
105
23D
100
AcDbSymbolTableRecord
100
AcDbDimStyleTableRecord
  2
DIMSTYLE_1
 70
0
  3

  4

 40
1.0
 41
0.1875
 42
0.0625
 43
0.38
 44
0.125
 45
0.0
 46
0.0
 47
0.0
 48
0.0
140
0.125
141
0.09
142
0.0
143
25.4
144
1.0
145
0.0
146
1.0
147
0.0625
 71
0
 72
0
 73
1
 74
1
 75
0
 76
0
 77
0
 78
4
 79
1
170
0
171
2
172
0
173
0
174
0
175
0
176
0
177
0
178
0
270
2
179
3
271
2
272
3
273
2
274
2
275
0
280
0
281
0
282
0
283
1
284
4
285
0
286
0
287
3
288
0
340
11
278
46
341
23A
342
23A
343
23A
344
23A
  0
ENDTAB
  0
ENDSEC
  0
SECTION
  2
BLOCKS
  0
BLOCK
  5
20
100
AcDbEntity
  8
0
100
AcDbBlockBegin
  2
*Model_Space
 70
0
 10
0.0
 20
0.0
 30
0.0
  3
*Model_Space
  1

  0
ENDBLK
  5
21
100
AcDbEntity
  8
0
100
AcDbBlockEnd
  0
BLOCK
  5
1C
100
AcDbEntity
  8
0
100
AcDbBlockBegin
  2
*Paper_Space
 70
0
 10
0.0
 20
0.0
 30
0.0
  3
*Paper_Space
  1

  0
ENDBLK
  5
1D
100
AcDbEntity
  8
0
100
AcDbBlockEnd
  0
BLOCK
  5
23E
100
AcDbEntity
  8
0
100
AcDbBlockBegin
  2
_FILLED
 70
64
 10
0.0
 20
0.0
  3
_FILLED
  1

  0
SOLID
  5
23F
100
AcDbEntity
  8
0
  6
BYBLOCK
 62
0
100
AcDbTrace
 10
0.0
 20
0.0
 11
-1.0
 21
0.1666666667
 12
-1.0
 22
-0.1666666667
 13
-1.0
 23
-0.1666666667
  0
ENDBLK
  5
240
100
AcDbEntity
  8
0
  6
BYBLOCK
 62
0
100
AcDbBlockEnd
  0
BLOCK
  5
241
100
AcDbEntity
  8
0
100
AcDbBlockBegin
 62
6
  6
CONTINUOUS
  2
*D0
 70
65
 10
0.0
 20
0.0
  3
*D0
  1

  0
MTEXT
  5
242
100
AcDbEntity
  8
0
100
AcDbMText
 62
6
  6
CONTINUOUS
  7
STANDARD
 71
1
 72
1
 10
5.1565
 20
7.8650954917
 30
0.0
 11
1.0
 21
0.0
 31
0.0
 73
2
 44
0.9
  1
1.19 in (30,1 mm)
 40
0.125
 41
1.7
  0
LINE
  5
243
100
AcDbEntity
  8
0
100
AcDbLine
 62
6
  6
CONTINUOUS
 10
4.9065
 20
7.4900954917
 11
4.9065
 21
7.9275954917
  0
LINE
  5
244
100
AcDbEntity
  8
0
100
AcDbLine
 62
6
  6
CONTINUOUS
 10
3.7194999638
 20
7.0625954917
 11
3.7194999638
 21
7.9275954917
  0
LINE
  5
245
100
AcDbEntity
  8
0
100
AcDbLine
 62
6
  6
CONTINUOUS
 10
4.9065
 20
7.8025954917
 11
4.3129999819
 21
7.8025954917
  0
LINE
  5
246
100
AcDbEntity
  8
0
100
AcDbLine
 62
6
  6
CONTINUOUS
 10
4.3129999819
 20
7.8025954917
 11
5.094
 21
7.8025954917
  0
LINE
  5
247
100
AcDbEntity
  8
0
100
AcDbLine
 62
6
  6
CONTINUOUS
 10
3.7194999638
 20
7.8025954917
 11
4.3129999819
 21
7.8025954917
  0
INSERT
  5
248
100
AcDbEntity
  8
0
100
AcDbBlockReference
 62
6
  6
CONTINUOUS
  2
_FILLED
 10
4.9065
 20
7.8025954917
 41
0.1875
 42
0.1875
 43
0.1875
  0
INSERT
  5
249
100
AcDbEntity
  8
0
100
AcDbBlockReference
 62
6
  6
CONTINUOUS
  2
_FILLED
 10
3.7194999638
 20
7.8025954917
 41
0.1875
 42
0.1875
 43
0.1875
 50
180.0
  0
ENDBLK
  5
24A
100
AcDbEntity
  8
0
  6
BYBLOCK
 62
0
100
AcDbBlockEnd
  0
ENDSEC
  0
SECTION
  2
ENTITIES
  0
DIMENSION
  5
24B
100
AcDbEntity
  8
0
100
AcDbDimension
 62
6
  6
CONTINUOUS
  2
*D0
 10
3.7194999638
 20
7.8025954917
 11
6.0065
 21
7.8025954917
 70
160
 71
1
 72
2
 41
0.9
 42
1.1870000362
  1
<> in (30,1 mm)
  3
DIMSTYLE_1
100
AcDbAlignedDimension
 13
4.9065
 23
7.4275954917
 14
3.7194999638
 24
7.0000954917
 50
180.0
100
AcDbRotatedDimension
  0
MTEXT
  5
24C
100
AcDbEntity
  8
0
100
AcDbMText
 62
2
  6
CONTINUOUS
  7
STANDARD
 71
1
 72
1
 10
6.5415
 20
7.0625954917
 30
0.0
 11
1.0
 21
0.0
 31
0.0
 73
2
 44
0.6
  1
Port 1
 40
0.125
 41
0.6
  0
MTEXT
  5
24D
100
AcDbEntity
  8
0
100
AcDbMText
 62
2
  6
CONTINUOUS
  7
STANDARD
 71
1
 72
1
 10
5.6065
 20
6.4685954917
 30
0.0
 11
1.0
 21
0.0
 31
0.0
 73
2
 44
0.6
  1
Port 2
 40
0.125
 41
0.6
  0
MTEXT
  5
24E
100
AcDbEntity
  8
0
100
AcDbMText
 62
2
  6
CONTINUOUS
  7
STANDARD
 71
1
 72
1
 10
4.3865
 20
6.4685954917
 30
0.0
 11
1.0
 21
0.0
 31
0.0
 73
2
 44
0.6
  1
Port 3
 40
0.125
 41
0.6
  0
MTEXT
  5
24F
100
AcDbEntity
  8
0
100
AcDbMText
 62
2
  6
CONTINUOUS
  7
STANDARD
 71
1
 72
1
 10
5.1565
 20
7.6151909834
 30
0.0
 11
1.0
 21
0.0
 31
0.0
 73
2
 44
0.6
  1
 LOCATING SHOULDER
 40
0.125
 41
1.8
  0
LINE
  5
250
100
AcDbEntity
  8
0
100
AcDbLine
 62
7
  6
CONTINUOUS
 10
3.7195
 20
6.57
 11
3.7195
 21
7.43
  0
LINE
  5
251
100
AcDbEntity
  8
0
100
AcDbLine
 62
7
  6
CONTINUOUS
 10
3.724466776
 20
7.4386027084
 11
3.7195
 21
7.43
  0
LINE
  5
252
100
AcDbEntity
  8
0
100
AcDbLine
 62
7
  6
CONTINUOUS
 10
3.724466776
 20
6.5613972916
 11
3.7195
 21
6.57
  0
LINE
  5
253
100
AcDbEntity
  8
0
100
AcDbLine
 62
7
  6
CONTINUOUS
 10
3.7535636659
 20
6.562483966
 11
3.7535636659
 21
6.5920977523
  0
LINE
  5
254
100
AcDbEntity
  8
0
100
AcDbLine
 62
7
  6
CONTINUOUS
 10
3.7535636659
 20
6.9703862137
 11
3.7535636659
 21
7.0296137863
  0
LINE
  5
255
100
AcDbEntity
  8
0
100
AcDbLine
 62
7
  6
CONTINUOUS
 10
3.7535636659
 20
7.4079022477
 11
3.7535636659
 21
7.437516034
  0
LINE
  5
256
100
AcDbEntity
  8
0
100
AcDbLine
 62
7
  6
CONTINUOUS
 10
4.127
 20
7.437516034
 11
4.127
 21
7.4079022477
  0
LINE
  5
257
100
AcDbEntity
  8
0
100
AcDbLine
 62
7
  6
CONTINUOUS
 10
4.127
 20
6.562483966
 11
4.127
 21
6.5920977523
  0
LINE
  5
258
100
AcDbEntity
  8
0
100
AcDbLine
 62
7
  6
CONTINUOUS
 10
4.127
 20
6.9703862137
 11
4.127
 21
7.0296137863
  0
LINE
  5
259
100
AcDbEntity
  8
0
100
AcDbLine
 62
7
  6
CONTINUOUS
 10
4.1875
 20
6.5715
 11
4.1875
 21
7.4285
  0
LINE
  5
25A
100
AcDbEntity
  8
0
100
AcDbLine
 62
7
  6
CONTINUOUS
 10
4.2595
 20
7.4285
 11
4.250977962
 21
7.4191525475
  0
LINE
  5
25B
100
AcDbEntity
  8
0
100
AcDbLine
 62
7
  6
CONTINUOUS
 10
4.2595
 20
6.5715
 11
4.250977962
 21
6.5808474525
  0
LINE
  5
25C
100
AcDbEntity
  8
0
100
AcDbLine
 62
7
  6
CONTINUOUS
 10
4.2395
 20
6.5715
 11
4.2395
 21
7.4285
  0
LINE
  5
25D
100
AcDbEntity
  8
0
100
AcDbLine
 62
7
  6
CONTINUOUS
 10
4.248022038
 20
7.4191525475
 11
4.248022038
 21
6.5808474525
  0
LINE
  5
25E
100
AcDbEntity
  8
0
100
AcDbLine
 62
7
  6
CONTINUOUS
 10
4.250977962
 20
7.4191525475
 11
4.250977962
 21
6.5808474525
  0
LINE
  5
25F
100
AcDbEntity
  8
0
100
AcDbLine
 62
7
  6
CONTINUOUS
 10
4.2595
 20
6.5715
 11
4.2595
 21
7.4285
  0
LINE
  5
260
100
AcDbEntity
  8
0
100
AcDbLine
 62
7
  6
CONTINUOUS
 10
4.3095
 20
7.4285
 11
4.3095
 21
6.5715
  0
LINE
  5
261
100
AcDbEntity
  8
0
100
AcDbLine
 62
7
  6
CONTINUOUS
 10
4.3125
 20
7.428
 11
4.3125
 21
6.572
  0
LINE
  5
262
100
AcDbEntity
  8
0
100
AcDbLine
 62
7
  6
CONTINUOUS
 10
4.3625
 20
7.428
 11
4.3625
 21
6.572
  0
LINE
  5
263
100
AcDbEntity
  8
0
100
AcDbLine
 62
7
  6
CONTINUOUS
 10
4.4325
 20
7.409
 11
4.4325
 21
6.591
  0
LINE
  5
264
100
AcDbEntity
  8
0
100
AcDbLine
 62
7
  6
CONTINUOUS
 10
4.4405
 20
6.626
 11
4.4405
 21
7.374
  0
LINE
  5
265
100
AcDbEntity
  8
0
100
AcDbLine
 62
7
  6
CONTINUOUS
 10
4.4535
 20
7.4255
 11
4.4535
 21
6.5745
  0
LINE
  5
266
100
AcDbEntity
  8
0
100
AcDbLine
 62
7
  6
CONTINUOUS
 10
4.4565
 20
7.4285
 11
4.4565
 21
6.5715
  0
LINE
  5
267
100
AcDbEntity
  8
0
100
AcDbLine
 62
7
  6
CONTINUOUS
 10
4.501198019
 20
7.4285
 11
4.501198019
 21
6.5715
  0
LINE
  5
268
100
AcDbEntity
  8
0
100
AcDbLine
 62
7
  6
CONTINUOUS
 10
4.5040957965
 20
7.4262764571
 11
4.5040957965
 21
6.5737235429
  0
LINE
  5
269
100
AcDbEntity
  8
0
100
AcDbLine
 62
7
  6
CONTINUOUS
 10
4.526409656
 20
6.657
 11
4.526409656
 21
7.343
  0
LINE
  5
26A
100
AcDbEntity
  8
0
100
AcDbLine
 62
7
  6
CONTINUOUS
 10
4.526409656
 20
6.657
 11
4.5040957965
 21
6.5737235429
  0
LINE
  5
26B
100
AcDbEntity
  8
0
100
AcDbLine
 62
7
  6
CONTINUOUS
 10
3.7238459498
 20
6.562483966
 11
4.1784839658
 21
6.562483966
  0
LINE
  5
26C
100
AcDbEntity
  8
0
100
AcDbLine
 62
7
  6
CONTINUOUS
 10
4.501198019
 20
6.5715
 11
4.4565
 21
6.5715
  0
LINE
  5
26D
100
AcDbEntity
  8
0
100
AcDbLine
 62
7
  6
CONTINUOUS
 10
4.3095
 20
6.5715
 11
4.2595
 21
6.5715
  0
LINE
  5
26E
100
AcDbEntity
  8
0
100
AcDbLine
 62
7
  6
CONTINUOUS
 10
4.2395
 20
6.5715
 11
4.1875
 21
6.5715
  0
LINE
  5
26F
100
AcDbEntity
  8
0
100
AcDbLine
 62
7
  6
CONTINUOUS
 10
4.3125
 20
6.572
 11
4.3625
 21
6.572
  0
LINE
  5
270
100
AcDbEntity
  8
0
100
AcDbLine
 62
7
  6
CONTINUOUS
 10
4.9035
 20
6.5725
 11
4.853801981
 21
6.5725
  0
LINE
  5
271
100
AcDbEntity
  8
0
100
AcDbLine
 62
7
  6
CONTINUOUS
 10
4.127
 20
6.5920977523
 11
3.7535636659
 21
6.5920977523
  0
LINE
  5
272
100
AcDbEntity
  8
THREAD
100
AcDbLine
 62
7
  6
CONTINUOUS
 10
4.9505
 20
6.595
 11
4.9312224319
 21
6.595
  0
LINE
  5
273
100
AcDbEntity
  8
0
100
AcDbLine
 62
7
  6
CONTINUOUS
 10
5.0235
 20
6.5955
 11
5.0735
 21
6.5955
  0
LINE
  5
274
100
AcDbEntity
  8
THREAD
100
AcDbLine
 62
7
  6
CONTINUOUS
 10
5.362
 20
6.6125
 11
5.11486196
 21
6.6125
  0
LINE
  5
275
100
AcDbEntity
  8
0
100
AcDbLine
 62
7
  6
CONTINUOUS
 10
4.4405
 20
6.626
 11
4.4325
 21
6.626
  0
LINE
  5
276
100
AcDbEntity
  8
THREAD
100
AcDbLine
 62
7
  6
CONTINUOUS
 10
5.0859944465
 20
6.6495
 11
5.0735
 21
6.6495
  0
LINE
  5
277
100
AcDbEntity
  8
0
100
AcDbLine
 62
7
  6
CONTINUOUS
 10
4.526409656
 20
7.343
 11
4.5040957965
 21
7.4262764571
  0
LINE
  5
278
100
AcDbEntity
  8
0
100
AcDbLine
 62
7
  6
CONTINUOUS
 10
4.248022038
 20
6.5808474525
 11
4.2395
 21
6.5715
  0
LINE
  5
279
100
AcDbEntity
  8
0
100
AcDbLine
 62
7
  6
CONTINUOUS
 10
4.1875
 20
6.5715
 11
4.1784821994
 21
6.5624821994
  0
LINE
  5
27A
100
AcDbEntity
  8
THREAD
100
AcDbLine
 62
7
  6
CONTINUOUS
 10
5.5845
 20
6.657
 11
5.4065
 21
6.657
  0
LINE
  5
27B
100
AcDbEntity
  8
0
100
AcDbLine
 62
7
  6
CONTINUOUS
 10
4.8288582932
 20
6.657
 11
4.526409656
 21
6.657
  0
LINE
  5
27C
100
AcDbEntity
  8
0
100
AcDbLine
 62
7
  6
CONTINUOUS
 10
6.2655
 20
6.6575
 11
6.2185
 21
6.6575
  0
LINE
  5
27D
100
AcDbEntity
  8
0
100
AcDbLine
 62
7
  6
CONTINUOUS
 10
6.0675
 20
6.6575
 11
6.0045
 21
6.6575
  0
LINE
  5
27E
100
AcDbEntity
  8
0
100
AcDbLine
 62
7
  6
CONTINUOUS
 10
6.0725
 20
6.658
 11
6.1225
 21
6.658
  0
LINE
  5
27F
100
AcDbEntity
  8
0
100
AcDbLine
 62
7
  6
CONTINUOUS
 10
6.1925
 20
6.712
 11
6.2135
 21
6.712
  0
LINE
  5
280
100
AcDbEntity
  8
0
100
AcDbLine
 62
7
  6
CONTINUOUS
 10
5.5945
 20
6.72
 11
5.874
 21
6.72
  0
LINE
  5
281
100
AcDbEntity
  8
0
100
AcDbLine
 62
7
  6
CONTINUOUS
 10
5.983
 20
6.72
 11
5.9995
 21
6.72
  0
LINE
  5
282
100
AcDbEntity
  8
0
100
AcDbLine
 62
7
  6
CONTINUOUS
 10
4.1875
 20
7.4285
 11
4.1784821994
 21
7.4375178006
  0
LINE
  5
283
100
AcDbEntity
  8
0
100
AcDbLine
 62
7
  6
CONTINUOUS
 10
4.248022038
 20
7.4191525475
 11
4.2395
 21
7.4285
  0
LINE
  5
284
100
AcDbEntity
  8
0
100
AcDbLine
 62
7
  6
CONTINUOUS
 10
4.8288582932
 20
6.657
 11
4.8288582932
 21
7.343
  0
LINE
  5
285
100
AcDbEntity
  8
0
100
AcDbLine
 62
7
  6
CONTINUOUS
 10
4.8509042035
 20
7.4252764571
 11
4.8288582932
 21
7.343
  0
LINE
  5
286
100
AcDbEntity
  8
0
100
AcDbLine
 62
7
  6
CONTINUOUS
 10
4.8509042035
 20
6.5747235429
 11
4.8288582932
 21
6.657
  0
LINE
  5
287
100
AcDbEntity
  8
0
100
AcDbLine
 62
7
  6
CONTINUOUS
 10
4.8509042035
 20
7.4252764571
 11
4.8509042035
 21
6.5747235429
  0
LINE
  5
288
100
AcDbEntity
  8
0
100
AcDbLine
 62
7
  6
CONTINUOUS
 10
4.853801981
 20
7.4275
 11
4.853801981
 21
6.5725
  0
LINE
  5
289
100
AcDbEntity
  8
0
100
AcDbLine
 62
7
  6
CONTINUOUS
 10
4.9035
 20
7.4275
 11
4.9035
 21
6.5725
  0
LINE
  5
28A
100
AcDbEntity
  8
0
100
AcDbLine
 62
7
  6
CONTINUOUS
 10
4.9065
 20
7.4244999977
 11
4.9065
 21
6.5755000023
  0
LINE
  5
28B
100
AcDbEntity
  8
0
100
AcDbLine
 62
7
  6
CONTINUOUS
 10
4.909
 20
6.5829433757
 11
4.909
 21
7.4170566243
  0
LINE
  5
28C
100
AcDbEntity
  8
THREAD
100
AcDbLine
 62
7
  6
CONTINUOUS
 10
5.11486196
 20
7.3875
 11
5.0972527725
 21
7.3569999927
  0
LINE
  5
28D
100
AcDbEntity
  8
THREAD
100
AcDbLine
 62
7
  6
CONTINUOUS
 10
5.11486196
 20
6.6125
 11
5.0972527725
 21
6.6430000073
  0
LINE
  5
28E
100
AcDbEntity
  8
0
100
AcDbLine
 62
7
  6
CONTINUOUS
 10
4.9287224319
 20
6.594330127
 11
4.9287224319
 21
7.405669873
  0
LINE
  5
28F
100
AcDbEntity
  8
0
100
AcDbLine
 62
7
  6
CONTINUOUS
 10
4.9312224319
 20
6.595
 11
4.9312224319
 21
7.405
  0
LINE
  5
290
100
AcDbEntity
  8
0
100
AcDbLine
 62
7
  6
CONTINUOUS
 10
4.9505
 20
7.405
 11
4.9505
 21
6.595
  0
LINE
  5
291
100
AcDbEntity
  8
0
100
AcDbLine
 62
7
  6
CONTINUOUS
 10
4.9535
 20
7.409
 11
4.9535
 21
6.591
  0
LINE
  5
292
100
AcDbEntity
  8
0
100
AcDbLine
 62
7
  6
CONTINUOUS
 10
4.127
 20
6.9703862137
 11
3.7535636659
 21
6.9703862137
  0
LINE
  5
293
100
AcDbEntity
  8
0
100
AcDbLine
 62
7
  6
CONTINUOUS
 10
5.0235
 20
7.409
 11
5.0235
 21
6.591
  0
LINE
  5
294
100
AcDbEntity
  8
0
100
AcDbLine
 62
7
  6
CONTINUOUS
 10
5.0735
 20
7.4045
 11
5.0735
 21
6.5955
  0
LINE
  5
295
100
AcDbEntity
  8
0
100
AcDbLine
 62
7
  6
CONTINUOUS
 10
5.0859944465
 20
6.6495
 11
5.0859944465
 21
7.3505
  0
LINE
  5
296
100
AcDbEntity
  8
0
100
AcDbLine
 62
7
  6
CONTINUOUS
 10
5.0972527725
 20
6.6430000073
 11
5.0972527725
 21
7.3569999927
  0
LINE
  5
297
100
AcDbEntity
  8
0
100
AcDbLine
 62
7
  6
CONTINUOUS
 10
4.127
 20
7.0296137863
 11
3.7535636659
 21
7.0296137863
  0
LINE
  5
298
100
AcDbEntity
  8
THREAD
100
AcDbLine
 62
7
  6
CONTINUOUS
 10
5.11486196
 20
6.6125
 11
5.11486196
 21
7.3875
  0
LINE
  5
299
100
AcDbEntity
  8
0
100
AcDbLine
 62
7
  6
CONTINUOUS
 10
5.5945
 20
7.28
 11
5.874
 21
7.28
  0
LINE
  5
29A
100
AcDbEntity
  8
0
100
AcDbLine
 62
7
  6
CONTINUOUS
 10
5.983
 20
7.28
 11
5.9995
 21
7.28
  0
LINE
  5
29B
100
AcDbEntity
  8
THREAD
100
AcDbLine
 62
7
  6
CONTINUOUS
 10
5.362
 20
6.6125
 11
5.362
 21
7.3875
  0
LINE
  5
29C
100
AcDbEntity
  8
THREAD
100
AcDbLine
 62
7
  6
CONTINUOUS
 10
4.9287224319
 20
6.594330127
 11
4.909
 21
6.5829433757
  0
LINE
  5
29D
100
AcDbEntity
  8
0
100
AcDbLine
 62
7
  6
CONTINUOUS
 10
6.1925
 20
7.288
 11
6.2135
 21
7.288
  0
LINE
  5
29E
100
AcDbEntity
  8
0
100
AcDbLine
 62
7
  6
CONTINUOUS
 10
5.5335
 20
7.3229149841
 11
5.4995
 21
7.3229149841
  0
LINE
  5
29F
100
AcDbEntity
  8
0
100
AcDbLine
 62
7
  6
CONTINUOUS
 10
6.0725
 20
7.342
 11
6.1225
 21
7.342
  0
LINE
  5
2A0
100
AcDbEntity
  8
0
100
AcDbLine
 62
7
  6
CONTINUOUS
 10
6.2655
 20
7.3425
 11
6.2185
 21
7.3425
  0
LINE
  5
2A1
100
AcDbEntity
  8
0
100
AcDbLine
 62
7
  6
CONTINUOUS
 10
6.0675
 20
7.3425
 11
6.0045
 21
7.3425
  0
LINE
  5
2A2
100
AcDbEntity
  8
THREAD
100
AcDbLine
 62
7
  6
CONTINUOUS
 10
5.5845
 20
7.343
 11
5.5335
 21
7.343
  0
LINE
  5
2A3
100
AcDbEntity
  8
THREAD
100
AcDbLine
 62
7
  6
CONTINUOUS
 10
5.4995
 20
7.343
 11
5.4065
 21
7.343
  0
LINE
  5
2A4
100
AcDbEntity
  8
0
100
AcDbLine
 62
7
  6
CONTINUOUS
 10
4.8288582932
 20
7.343
 11
4.526409656
 21
7.343
  0
LINE
  5
2A5
100
AcDbEntity
  8
THREAD
100
AcDbLine
 62
7
  6
CONTINUOUS
 10
5.0859944465
 20
7.3505
 11
5.0735
 21
7.3505
  0
LINE
  5
2A6
100
AcDbEntity
  8
THREAD
100
AcDbLine
 62
7
  6
CONTINUOUS
 10
4.9287224319
 20
7.405669873
 11
4.909
 21
7.4170566243
  0
LINE
  5
2A7
100
AcDbEntity
  8
THREAD
100
AcDbLine
 62
7
  6
CONTINUOUS
 10
5.4065
 20
6.657
 11
5.4065
 21
7.343
  0
LINE
  5
2A8
100
AcDbEntity
  8
0
100
AcDbLine
 62
7
  6
CONTINUOUS
 10
4.4405
 20
7.374
 11
4.4325
 21
7.374
  0
LINE
  5
2A9
100
AcDbEntity
  8
THREAD
100
AcDbLine
 62
7
  6
CONTINUOUS
 10
5.362
 20
7.3875
 11
5.11486196
 21
7.3875
  0
LINE
  5
2AA
100
AcDbEntity
  8
0
100
AcDbLine
 62
7
  6
CONTINUOUS
 10
5.0235
 20
7.4045
 11
5.0735
 21
7.4045
  0
LINE
  5
2AB
100
AcDbEntity
  8
THREAD
100
AcDbLine
 62
7
  6
CONTINUOUS
 10
4.9505
 20
7.405
 11
4.9312224319
 21
7.405
  0
LINE
  5
2AC
100
AcDbEntity
  8
0
100
AcDbLine
 62
7
  6
CONTINUOUS
 10
4.127
 20
7.4079022477
 11
3.7535636659
 21
7.4079022477
  0
LINE
  5
2AD
100
AcDbEntity
  8
0
100
AcDbLine
 62
7
  6
CONTINUOUS
 10
4.9035
 20
7.4275
 11
4.853801981
 21
7.4275
  0
LINE
  5
2AE
100
AcDbEntity
  8
0
100
AcDbLine
 62
7
  6
CONTINUOUS
 10
4.3125
 20
7.428
 11
4.3625
 21
7.428
  0
LINE
  5
2AF
100
AcDbEntity
  8
0
100
AcDbLine
 62
7
  6
CONTINUOUS
 10
4.501198019
 20
7.4285
 11
4.4565
 21
7.4285
  0
LINE
  5
2B0
100
AcDbEntity
  8
0
100
AcDbLine
 62
7
  6
CONTINUOUS
 10
4.3095
 20
7.4285
 11
4.2595
 21
7.4285
  0
LINE
  5
2B1
100
AcDbEntity
  8
0
100
AcDbLine
 62
7
  6
CONTINUOUS
 10
4.2395
 20
7.4285
 11
4.1875
 21
7.4285
  0
LINE
  5
2B2
100
AcDbEntity
  8
0
100
AcDbLine
 62
7
  6
CONTINUOUS
 10
3.7238459498
 20
7.437516034
 11
4.1784839658
 21
7.437516034
  0
LINE
  5
2B3
100
AcDbEntity
  8
0
100
AcDbLine
 62
7
  6
CONTINUOUS
 10
5.4995
 20
7.3229149841
 11
5.4995
 21
7.342996725
  0
LINE
  5
2B4
100
AcDbEntity
  8
0
100
AcDbLine
 62
7
  6
CONTINUOUS
 10
5.5335
 20
7.3229149841
 11
5.5335
 21
7.342996725
  0
LINE
  5
2B5
100
AcDbEntity
  8
0
100
AcDbLine
 62
7
  6
CONTINUOUS
 10
6.0045
 20
7.3425
 11
5.9995
 21
7.3375
  0
LINE
  5
2B6
100
AcDbEntity
  8
THREAD
100
AcDbLine
 62
7
  6
CONTINUOUS
 10
5.4065
 20
6.657
 11
5.362
 21
6.6125
  0
LINE
  5
2B7
100
AcDbEntity
  8
0
100
AcDbLine
 62
7
  6
CONTINUOUS
 10
6.0045
 20
6.6575
 11
5.9995
 21
6.6625
  0
LINE
  5
2B8
100
AcDbEntity
  8
THREAD
100
AcDbLine
 62
7
  6
CONTINUOUS
 10
5.4065
 20
7.343
 11
5.362
 21
7.3875
  0
LINE
  5
2B9
100
AcDbEntity
  8
0
100
AcDbLine
 62
7
  6
CONTINUOUS
 10
5.5845
 20
6.657
 11
5.5845
 21
7.343
  0
LINE
  5
2BA
100
AcDbEntity
  8
0
100
AcDbLine
 62
7
  6
CONTINUOUS
 10
5.5945
 20
6.6670090766
 11
5.5945
 21
7.3329909234
  0
LINE
  5
2BB
100
AcDbEntity
  8
0
100
AcDbLine
 62
7
  6
CONTINUOUS
 10
6.2185
 20
7.3425
 11
6.2135
 21
7.3375
  0
LINE
  5
2BC
100
AcDbEntity
  8
0
100
AcDbLine
 62
7
  6
CONTINUOUS
 10
6.2185
 20
6.6575
 11
6.2135
 21
6.6625
  0
LINE
  5
2BD
100
AcDbEntity
  8
0
100
AcDbLine
 62
7
  6
CONTINUOUS
 10
5.5945
 20
6.667
 11
5.5845
 21
6.657
  0
LINE
  5
2BE
100
AcDbEntity
  8
0
100
AcDbLine
 62
7
  6
CONTINUOUS
 10
5.5945
 20
7.333
 11
5.5845
 21
7.343
  0
LINE
  5
2BF
100
AcDbEntity
  8
0
100
AcDbLine
 62
7
  6
CONTINUOUS
 10
5.8605
 20
6.95046326
 11
5.8605
 21
7.0495370231
  0
LINE
  5
2C0
100
AcDbEntity
  8
0
100
AcDbLine
 62
7
  6
CONTINUOUS
 10
5.8675
 20
7.052218921
 11
5.8675
 21
6.9477825697
  0
LINE
  5
2C1
100
AcDbEntity
  8
0
100
AcDbLine
 62
7
  6
CONTINUOUS
 10
5.8775
 20
7.0542016468
 11
5.8775
 21
6.9457999751
  0
LINE
  5
2C2
100
AcDbEntity
  8
0
100
AcDbLine
 62
7
  6
CONTINUOUS
 10
5.8845
 20
6.9457988398
 11
5.8845
 21
7.0542005115
  0
LINE
  5
2C3
100
AcDbEntity
  8
0
100
AcDbLine
 62
7
  6
CONTINUOUS
 10
5.9225
 20
6.8347500344
 11
5.9225
 21
6.8437664227
  0
LINE
  5
2C4
100
AcDbEntity
  8
0
100
AcDbLine
 62
7
  6
CONTINUOUS
 10
5.9225
 20
6.9634181669
 11
5.9225
 21
7.0365821381
  0
LINE
  5
2C5
100
AcDbEntity
  8
0
100
AcDbLine
 62
7
  6
CONTINUOUS
 10
5.9225
 20
7.1562335814
 11
5.9225
 21
7.1652501429
  0
LINE
  5
2C6
100
AcDbEntity
  8
0
100
AcDbLine
 62
7
  6
CONTINUOUS
 10
5.9295
 20
7.1654944119
 11
5.9295
 21
7.1557604795
  0
LINE
  5
2C7
100
AcDbEntity
  8
0
100
AcDbLine
 62
7
  6
CONTINUOUS
 10
5.9295
 20
7.026997258
 11
5.9295
 21
6.9730035149
  0
LINE
  5
2C8
100
AcDbEntity
  8
0
100
AcDbLine
 62
7
  6
CONTINUOUS
 10
5.9295
 20
6.8442395195
 11
5.9295
 21
6.8345055511
  0
LINE
  5
2C9
100
AcDbEntity
  8
0
100
AcDbLine
 62
7
  6
CONTINUOUS
 10
5.9395
 20
7.1649704442
 11
5.9395
 21
7.1567066733
  0
LINE
  5
2CA
100
AcDbEntity
  8
0
100
AcDbLine
 62
7
  6
CONTINUOUS
 10
5.9395
 20
6.8432933161
 11
5.9395
 21
6.8350298789
  0
LINE
  5
2CB
100
AcDbEntity
  8
0
100
AcDbLine
 62
7
  6
CONTINUOUS
 10
5.9465
 20
6.8361046217
 11
5.9465
 21
6.841456996
  0
LINE
  5
2CC
100
AcDbEntity
  8
0
100
AcDbLine
 62
7
  6
CONTINUOUS
 10
5.9465
 20
7.1585429994
 11
5.9465
 21
7.1638935515
  0
LINE
  5
2CD
100
AcDbEntity
  8
0
100
AcDbLine
 62
7
  6
CONTINUOUS
 10
5.9995
 20
6.6625
 11
5.9995
 21
7.3375
  0
LINE
  5
2CE
100
AcDbEntity
  8
0
100
AcDbLine
 62
7
  6
CONTINUOUS
 10
6.0045
 20
6.6575
 11
6.0045
 21
7.3425
  0
LINE
  5
2CF
100
AcDbEntity
  8
0
100
AcDbLine
 62
7
  6
CONTINUOUS
 10
6.0725
 20
6.6625
 11
6.0675
 21
6.6575
  0
LINE
  5
2D0
100
AcDbEntity
  8
0
100
AcDbLine
 62
7
  6
CONTINUOUS
 10
6.0725
 20
7.3375
 11
6.0675
 21
7.3425
  0
LINE
  5
2D1
100
AcDbEntity
  8
0
100
AcDbLine
 62
7
  6
CONTINUOUS
 10
6.0675
 20
6.6575
 11
6.0675
 21
7.3425
  0
LINE
  5
2D2
100
AcDbEntity
  8
0
100
AcDbLine
 62
7
  6
CONTINUOUS
 10
6.0725
 20
7.342
 11
6.0725
 21
6.658
  0
LINE
  5
2D3
100
AcDbEntity
  8
0
100
AcDbLine
 62
7
  6
CONTINUOUS
 10
6.1225
 20
7.342
 11
6.1225
 21
6.658
  0
LINE
  5
2D4
100
AcDbEntity
  8
0
100
AcDbLine
 62
7
  6
CONTINUOUS
 10
6.2805
 20
6.6725
 11
6.2655
 21
6.6575
  0
LINE
  5
2D5
100
AcDbEntity
  8
0
100
AcDbLine
 62
7
  6
CONTINUOUS
 10
6.2805
 20
7.3275
 11
6.2655
 21
7.3425
  0
LINE
  5
2D6
100
AcDbEntity
  8
0
100
AcDbLine
 62
7
  6
CONTINUOUS
 10
6.1925
 20
7.323
 11
6.1925
 21
6.677
  0
LINE
  5
2D7
100
AcDbEntity
  8
0
100
AcDbLine
 62
7
  6
CONTINUOUS
 10
6.2135
 20
6.6625
 11
6.2135
 21
7.3375
  0
LINE
  5
2D8
100
AcDbEntity
  8
0
100
AcDbLine
 62
7
  6
CONTINUOUS
 10
6.2185
 20
6.6575
 11
6.2185
 21
7.3425
  0
LINE
  5
2D9
100
AcDbEntity
  8
0
100
AcDbLine
 62
7
  6
CONTINUOUS
 10
6.2655
 20
6.6575
 11
6.2655
 21
7.3425
  0
LINE
  5
2DA
100
AcDbEntity
  8
0
100
AcDbLine
 62
7
  6
CONTINUOUS
 10
6.2805
 20
6.6725
 11
6.2805
 21
7.3275
  0
ARC
  5
2DB
100
AcDbEntity
  8
0
100
AcDbCircle
 62
7
  6
CONTINUOUS
 10
4.4405
 20
6.613
 40
0.013
100
AcDbArc
 50
0.0000148105
 51
90.0
  0
ARC
  5
2DC
100
AcDbEntity
  8
0
100
AcDbCircle
 62
7
  6
CONTINUOUS
 10
5.0859944465
 20
6.6365
 40
0.013
100
AcDbArc
 50
30.0000373581
 51
90.0
  0
ARC
  5
2DD
100
AcDbEntity
  8
0
100
AcDbCircle
 62
7
  6
CONTINUOUS
 10
4.9312224319
 20
6.59
 40
0.005
100
AcDbArc
 50
90.0
 51
119.9999999686
  0
ARC
  5
2DE
100
AcDbEntity
  8
0
100
AcDbCircle
 62
7
  6
CONTINUOUS
 10
4.9115
 20
6.5786132487
 40
0.005
100
AcDbArc
 50
119.9999993692
 51
179.9999987522
  0
ARC
  5
2DF
100
AcDbEntity
  8
0
100
AcDbCircle
 62
7
  6
CONTINUOUS
 10
4.9505
 20
6.598
 40
0.003
100
AcDbArc
 50
270.0
 51
360.0
  0
ARC
  5
2E0
100
AcDbEntity
  8
0
100
AcDbCircle
 62
7
  6
CONTINUOUS
 10
4.853801981
 20
6.5755
 40
0.003
100
AcDbArc
 50
195.0
 51
270.0
  0
ARC
  5
2E1
100
AcDbEntity
  8
0
100
AcDbCircle
 62
7
  6
CONTINUOUS
 10
4.501198019
 20
6.5745
 40
0.003
100
AcDbArc
 50
270.0
 51
345.0
  0
ARC
  5
2E2
100
AcDbEntity
  8
0
100
AcDbCircle
 62
7
  6
CONTINUOUS
 10
4.4565
 20
6.5745
 40
0.003
100
AcDbArc
 50
180.0
 51
270.0
  0
ARC
  5
2E3
100
AcDbEntity
  8
0
100
AcDbCircle
 62
7
  6
CONTINUOUS
 10
4.3095
 20
6.5745
 40
0.003
100
AcDbArc
 50
270.0
 51
360.0
  0
ARC
  5
2E4
100
AcDbEntity
  8
0
100
AcDbCircle
 62
7
  6
CONTINUOUS
 10
4.9035
 20
6.5755
 40
0.003
100
AcDbArc
 50
270.0
 51
0.0000441153
  0
ARC
  5
2E5
100
AcDbEntity
  8
0
100
AcDbCircle
 62
7
  6
CONTINUOUS
 10
4.2495
 20
6.5795
 40
0.002
100
AcDbArc
 50
42.3553148142
 51
137.6446851858
  0
ARC
  5
2E6
100
AcDbEntity
  8
0
100
AcDbCircle
 62
7
  6
CONTINUOUS
 10
4.4405
 20
7.387
 40
0.013
100
AcDbArc
 50
270.0
 51
359.9999851895
  0
ARC
  5
2E7
100
AcDbEntity
  8
0
100
AcDbCircle
 62
7
  6
CONTINUOUS
 10
5.0859944465
 20
7.3635
 40
0.013
100
AcDbArc
 50
270.0
 51
329.9999626419
  0
ARC
  5
2E8
100
AcDbEntity
  8
0
100
AcDbCircle
 62
7
  6
CONTINUOUS
 10
4.9115
 20
7.4213867513
 40
0.005
100
AcDbArc
 50
180.0000012478
 51
240.0000006308
  0
ARC
  5
2E9
100
AcDbEntity
  8
0
100
AcDbCircle
 62
7
  6
CONTINUOUS
 10
4.9312224319
 20
7.41
 40
0.005
100
AcDbArc
 50
240.0000000314
 51
270.0
  0
ARC
  5
2EA
100
AcDbEntity
  8
0
100
AcDbCircle
 62
7
  6
CONTINUOUS
 10
4.9035
 20
7.4245
 40
0.003
100
AcDbArc
 50
359.9999558847
 51
90.0
  0
ARC
  5
2EB
100
AcDbEntity
  8
0
100
AcDbCircle
 62
7
  6
CONTINUOUS
 10
4.9505
 20
7.402
 40
0.003
100
AcDbArc
 50
0.0
 51
90.0
  0
ARC
  5
2EC
100
AcDbEntity
  8
0
100
AcDbCircle
 62
7
  6
CONTINUOUS
 10
4.853801981
 20
7.4245
 40
0.003
100
AcDbArc
 50
90.0
 51
165.0
  0
ARC
  5
2ED
100
AcDbEntity
  8
0
100
AcDbCircle
 62
7
  6
CONTINUOUS
 10
4.501198019
 20
7.4255
 40
0.003
100
AcDbArc
 50
15.0
 51
90.0
  0
ARC
  5
2EE
100
AcDbEntity
  8
0
100
AcDbCircle
 62
7
  6
CONTINUOUS
 10
4.4565
 20
7.4255
 40
0.003
100
AcDbArc
 50
90.0
 51
180.0
  0
ARC
  5
2EF
100
AcDbEntity
  8
0
100
AcDbCircle
 62
7
  6
CONTINUOUS
 10
4.3095
 20
7.4255
 40
0.003
100
AcDbArc
 50
0.0
 51
90.0
  0
ARC
  5
2F0
100
AcDbEntity
  8
0
100
AcDbCircle
 62
7
  6
CONTINUOUS
 10
4.2495
 20
7.4205
 40
0.002
100
AcDbArc
 50
222.3553148142
 51
317.6446851858
  0
ARC
  5
2F1
100
AcDbEntity
  8
0
100
AcDbCircle
 62
7
  6
CONTINUOUS
 10
5.9284893538
 20
6.9442019116
 40
0.1097452158
100
AcDbArc
 50
266.8551979212
 51
270.0055581671
  0
ARC
  5
2F2
100
AcDbEntity
  8
0
100
AcDbCircle
 62
7
  6
CONTINUOUS
 10
5.9284981421
 20
7.0554774407
 40
0.110065863
100
AcDbArc
 50
89.9990328487
 51
93.1401907964
  0
CIRCLE
  5
2F3
100
AcDbEntity
  8
0
100
AcDbCircle
 62
7
  6
CONTINUOUS
 10
5.8825
 20
7.0
 40
0.0545
  0
SPLINE
  5
2F4
100
AcDbEntity
  8
0
100
AcDbSpline
 62
7
  6
CONTINUOUS
 70
0
 71
3
 72
9
 73
5
 74
0
 42
0.0000001
 43
0.0000001
 44
0.0000000001
 40
0.0
 40
0.0
 40
0.0
 40
0.0
 40
0.4926930638
 40
1.0
 40
1.0
 40
1.0
 40
1.0
 10
5.9553826509
 20
7.1619434597
 30
0.0
 10
5.9539582842
 20
7.162365464
 30
0.0
 10
5.9510401462
 20
7.1631321655
 30
0.0
 10
5.9480842989
 20
7.163735299
 30
0.0
 10
5.946578298
 20
7.1640031244
 30
0.0
  0
SPLINE
  5
2F5
100
AcDbEntity
  8
0
100
AcDbSpline
 62
7
  6
CONTINUOUS
 70
0
 71
3
 72
10
 73
6
 74
0
 42
0.0000001
 43
0.0000001
 44
0.0000000001
 40
0.0
 40
0.0
 40
0.0
 40
0.0
 40
0.4940540098
 40
0.7464147166
 40
1.0
 40
1.0
 40
1.0
 40
1.0
 10
5.946578298
 20
7.1640031244
 30
0.0
 10
5.943633324
 20
7.1645268549
 30
0.0
 10
5.9391423359
 20
7.165099722
 30
0.0
 10
5.9330990052
 20
7.1654794956
 30
0.0
 10
5.9300352968
 20
7.1655433037
 30
0.0
 10
5.9285
 20
7.1655433037
 30
0.0
  0
SPLINE
  5
2F6
100
AcDbEntity
  8
0
100
AcDbSpline
 62
7
  6
CONTINUOUS
 70
0
 71
3
 72
10
 73
6
 74
0
 42
0.0000001
 43
0.0000001
 44
0.0000000001
 40
0.0
 40
0.0
 40
0.0
 40
0.0
 40
0.2535866228
 40
0.505948044
 40
1.0
 40
1.0
 40
1.0
 40
1.0
 10
5.9285
 20
6.8344566963
 30
0.0
 10
5.9300352063
 20
6.8344566963
 30
0.0
 10
5.9330987302
 20
6.8345204973
 30
0.0
 10
5.9391416741
 20
6.8349002226
 30
0.0
 10
5.9436323692
 20
6.8354730139
 30
0.0
 10
5.9465771484
 20
6.8359966715
 30
0.0
  0
SPLINE
  5
2F7
100
AcDbEntity
  8
0
100
AcDbSpline
 62
7
  6
CONTINUOUS
 70
0
 71
3
 72
9
 73
5
 74
0
 42
0.0000001
 43
0.0000001
 44
0.0000000001
 40
0.0
 40
0.0
 40
0.0
 40
0.0
 40
0.5073077591
 40
1.0
 40
1.0
 40
1.0
 40
1.0
 10
5.9465771484
 20
6.8359966715
 30
0.0
 10
5.9480835539
 20
6.8362645493
 30
0.0
 10
5.9510401883
 20
6.8368678242
 30
0.0
 10
5.9539590948
 20
6.8376347488
 30
0.0
 10
5.9553838294
 20
6.8380568877
 30
0.0
  0
SPLINE
  5
2F8
100
AcDbEntity
  8
0
100
AcDbSpline
 62
7
  6
CONTINUOUS
 70
0
 71
3
 72
11
 73
7
 74
0
 42
0.0000001
 43
0.0000001
 44
0.0000000001
 40
0.0
 40
0.0
 40
0.0
 40
0.0
 40
0.258745175
 40
0.5127772736
 40
0.7603427198
 40
1.0
 40
1.0
 40
1.0
 40
1.0
 10
5.9224688183
 20
7.1653780388
 30
0.0
 10
5.920645047
 20
7.1652777215
 30
0.0
 10
5.9170349903
 20
7.1649878302
 30
0.0
 10
5.9117125777
 20
7.1642742742
 30
0.0
 10
5.9065714878
 20
7.1632842623
 30
0.0
 10
5.9032383963
 20
7.1624237626
 30
0.0
 10
5.9016163151
 20
7.1619431549
 30
0.0
  0
SPLINE
  5
2F9
100
AcDbEntity
  8
0
100
AcDbSpline
 62
7
  6
CONTINUOUS
 70
0
 71
3
 72
15
 73
11
 74
0
 42
0.0000001
 43
0.0000001
 44
0.0000000001
 40
0.0
 40
0.0
 40
0.0
 40
0.0
 40
0.038605056
 40
0.147575001
 40
0.3094310404
 40
0.5000099387
 40
0.6905879024
 40
0.8524352837
 40
0.9613978757
 40
1.0
 40
1.0
 40
1.0
 40
1.0
 10
5.983
 20
7.28
 30
0.0
 10
5.9816146538
 20
7.2797303245
 30
0.0
 10
5.9763116741
 20
7.2787359322
 30
0.0
 10
5.965138152
 20
7.276948529
 30
0.0
 10
5.9483559705
 20
7.275137145
 30
0.0
 10
5.9284989425
 20
7.274378869
 30
0.0
 10
5.9086422337
 20
7.275137247
 30
0.0
 10
5.8918606836
 20
7.2769486981
 30
0.0
 10
5.880687853
 20
7.278736032
 30
0.0
 10
5.8753852417
 20
7.2797303486
 30
0.0
 10
5.874
 20
7.28
 30
0.0
  0
SPLINE
  5
2FA
100
AcDbEntity
  8
0
100
AcDbSpline
 62
7
  6
CONTINUOUS
 70
0
 71
3
 72
20
 73
16
 74
0
 42
0.0000001
 43
0.0000001
 44
0.0000000001
 40
0.0
 40
0.0
 40
0.0
 40
0.0
 40
0.0706660097
 40
0.1412140976
 40
0.2805845923
 40
0.4164590615
 40
0.4826521025
 40
0.5473752756
 40
0.6104599691
 40
0.6717549007
 40
0.7884262271
 40
0.8438992994
 40
0.8975047814
 40
0.9494345338
 40
1.0
 40
1.0
 40
1.0
 40
1.0
 10
5.9285
 20
6.8443341399
 30
0.0
 10
5.9302849409
 20
6.8443341399
 30
0.0
 10
5.9338537859
 20
6.8441840063
 30
0.0
 10
5.9408923246
 20
6.8433018263
 30
0.0
 10
5.9493985678
 20
6.8411356364
 30
0.0
 10
5.957325205
 20
6.8376278166
 30
0.0
 10
5.9630927451
 20
6.8341285295
 30
0.0
 10
5.9670495029
 20
6.8312269733
 30
0.0
 10
5.9706393101
 20
6.8280649772
 30
0.0
 10
5.9748184841
 20
6.8236293779
 30
0.0
 10
5.9782375425
 20
6.8187637881
 30
0.0
 10
5.9807008042
 20
6.8136096846
 30
0.0
 10
5.9820179075
 20
6.8097509231
 30
0.0
 10
5.9828164135
 20
6.80587922
 30
0.0
 10
5.9830000012
 20
6.803287255
 30
0.0
 10
5.983
 20
6.8020100303
 30
0.0
  0
SPLINE
  5
2FB
100
AcDbEntity
  8
0
100
AcDbSpline
 62
7
  6
CONTINUOUS
 70
0
 71
3
 72
15
 73
11
 74
0
 42
0.0000001
 43
0.0000001
 44
0.0000000001
 40
0.0
 40
0.0
 40
0.0
 40
0.0
 40
0.0386052961
 40
0.147575832
 40
0.3094326308
 40
0.5000122152
 40
0.6905906233
 40
0.852436727
 40
0.9613982694
 40
1.0
 40
1.0
 40
1.0
 40
1.0
 10
5.874
 20
6.72
 30
0.0
 10
5.8753853548
 20
6.7202696776
 30
0.0
 10
5.8806883642
 20
6.7212640759
 30
0.0
 10
5.8918619444
 20
6.7230514848
 30
0.0
 10
5.9086442011
 20
6.7248628664
 30
0.0
 10
5.9285012987
 20
6.7256211307
 30
0.0
 10
5.948358002
 20
6.7248627416
 30
0.0
 10
5.9651394813
 20
6.7230512774
 30
0.0
 10
5.9763122128
 20
6.7212639543
 30
0.0
 10
5.9816147723
 20
6.7202696482
 30
0.0
 10
5.983
 20
6.72
 30
0.0
  0
SPLINE
  5
2FC
100
AcDbEntity
  8
0
100
AcDbSpline
 62
7
  6
CONTINUOUS
 70
0
 71
3
 72
11
 73
7
 74
0
 42
0.0000001
 43
0.0000001
 44
0.0000000001
 40
0.0
 40
0.0
 40
0.0
 40
0.0
 40
0.2396580299
 40
0.4872243544
 40
0.7412564719
 40
1.0
 40
1.0
 40
1.0
 40
1.0
 10
5.9016172001
 20
6.8380565842
 30
0.0
 10
5.9032392184
 20
6.837576017
 30
0.0
 10
5.9065721772
 20
6.836715586
 30
0.0
 10
5.9117130511
 20
6.8357256539
 30
0.0
 10
5.9170352183
 20
6.8350121507
 30
0.0
 10
5.920645099
 20
6.8347222764
 30
0.0
 10
5.9224687756
 20
6.8346219635
 30
0.0
  0
SPLINE
  5
2FD
100
AcDbEntity
  8
0
100
AcDbSpline
 62
7
  6
CONTINUOUS
 70
0
 71
3
 72
20
 73
16
 74
0
 42
0.0000001
 43
0.0000001
 44
0.0000000001
 40
0.0
 40
0.0
 40
0.0
 40
0.0
 40
0.0505654692
 40
0.1024952207
 40
0.1561007024
 40
0.2115737768
 40
0.3282451056
 40
0.389540038
 40
0.4526247318
 40
0.5173479047
 40
0.5835409447
 40
0.7194154129
 40
0.8587859046
 40
0.9293339905
 40
1.0
 40
1.0
 40
1.0
 40
1.0
 10
5.874
 20
6.8020100331
 30
0.0
 10
5.8739999987
 20
6.8032872578
 30
0.0
 10
5.8741835866
 20
6.8058792227
 30
0.0
 10
5.8749820932
 20
6.8097509256
 30
0.0
 10
5.8762991968
 20
6.8136096869
 30
0.0
 10
5.8787624588
 20
6.8187637902
 30
0.0
 10
5.8821815173
 20
6.8236293797
 30
0.0
 10
5.8863606915
 20
6.8280649788
 30
0.0
 10
5.8899504987
 20
6.8312269746
 30
0.0
 10
5.8939072564
 20
6.8341285305
 30
0.0
 10
5.8996747963
 20
6.8376278174
 30
0.0
 10
5.9076014333
 20
6.8411356368
 30
0.0
 10
5.916107676
 20
6.8433018265
 30
0.0
 10
5.9231462144
 20
6.8441840063
 30
0.0
 10
5.9267150592
 20
6.8443341399
 30
0.0
 10
5.9285
 20
6.8443341399
 30
0.0
  0
SPLINE
  5
2FE
100
AcDbEntity
  8
0
100
AcDbSpline
 62
7
  6
CONTINUOUS
 70
0
 71
3
 72
20
 73
16
 74
0
 42
0.0000001
 43
0.0000001
 44
0.0000000001
 40
0.0
 40
0.0
 40
0.0
 40
0.0
 40
0.0706660098
 40
0.1412140974
 40
0.2805845916
 40
0.4164590608
 40
0.4826521017
 40
0.5473752748
 40
0.6104599682
 40
0.6717548999
 40
0.7884262266
 40
0.8438992991
 40
0.8975047809
 40
0.949434533
 40
1.0
 40
1.0
 40
1.0
 40
1.0
 10
5.9285
 20
7.1556658601
 30
0.0
 10
5.9267150591
 20
7.1556658601
 30
0.0
 10
5.9231462142
 20
7.1558159937
 30
0.0
 10
5.9161076755
 20
7.1566981736
 30
0.0
 10
5.9076014324
 20
7.1588643635
 30
0.0
 10
5.8996747952
 20
7.1623721832
 30
0.0
 10
5.8939072552
 20
7.1658714703
 30
0.0
 10
5.8899504974
 20
7.1687730264
 30
0.0
 10
5.8863606902
 20
7.1719350225
 30
0.0
 10
5.8821815162
 20
7.1763706217
 30
0.0
 10
5.8787624578
 20
7.1812362114
 30
0.0
 10
5.8762991961
 20
7.1863903149
 30
0.0
 10
5.8749820927
 20
7.1902490763
 30
0.0
 10
5.8741835865
 20
7.1941207794
 30
0.0
 10
5.8739999988
 20
7.1967127443
 30
0.0
 10
5.874
 20
7.197989969
 30
0.0
  0
SPLINE
  5
2FF
100
AcDbEntity
  8
0
100
AcDbSpline
 62
7
  6
CONTINUOUS
 70
0
 71
3
 72
20
 73
16
 74
0
 42
0.0000001
 43
0.0000001
 44
0.0000000001
 40
0.0
 40
0.0
 40
0.0
 40
0.0
 40
0.0706660096
 40
0.1412140951
 40
0.2805845862
 40
0.4164590545
 40
0.4826520945
 40
0.5473752674
 40
0.6104599612
 40
0.6717548935
 40
0.7884262229
 40
0.8438992982
 40
0.8975047797
 40
0.9494345304
 40
1.0
 40
1.0
 40
1.0
 40
1.0
 10
5.9285
 20
7.1556658601
 30
0.0
 10
5.9302849408
 20
7.1556658601
 30
0.0
 10
5.9338537856
 20
7.1558159937
 30
0.0
 10
5.9408923238
 20
7.1566981735
 30
0.0
 10
5.9493985665
 20
7.1588643632
 30
0.0
 10
5.9573252033
 20
7.1623721824
 30
0.0
 10
5.9630927432
 20
7.1658714692
 30
0.0
 10
5.9670495009
 20
7.1687730251
 30
0.0
 10
5.9706393082
 20
7.1719350209
 30
0.0
 10
5.9748184823
 20
7.1763706198
 30
0.0
 10
5.9782375408
 20
7.1812362093
 30
0.0
 10
5.9807008029
 20
7.1863903125
 30
0.0
 10
5.9820179066
 20
7.1902490737
 30
0.0
 10
5.9828164134
 20
7.1941207765
 30
0.0
 10
5.9830000013
 20
7.1967127414
 30
0.0
 10
5.983
 20
7.1979899661
 30
0.0
  0
SPLINE
  5
300
100
AcDbEntity
  8
0
100
AcDbSpline
 62
7
  6
CONTINUOUS
 70
0
 71
3
 72
23
 73
19
 74
0
 42
0.0000001
 43
0.0000001
 44
0.0000000001
 40
0.0
 40
0.0
 40
0.0
 40
0.0
 40
0.0525738848
 40
0.1046789141
 40
0.1569010612
 40
0.2098518354
 40
0.264092678
 40
0.320104606
 40
0.3782564593
 40
0.4387934464
 40
0.5018313654
 40
0.567373568
 40
0.6352900343
 40
0.7053576915
 40
0.7772789863
 40
0.8506954754
 40
0.9251440505
 40
1.0
 40
1.0
 40
1.0
 40
1.0
 10
5.983
 20
7.1979899661
 30
0.0
 10
5.9829999987
 20
7.199242982
 30
0.0
 10
5.9828261577
 20
7.2017416293
 30
0.0
 10
5.982033978
 20
7.2054089885
 30
0.0
 10
5.9807174279
 20
7.2089325774
 30
0.0
 10
5.9788945916
 20
7.2122798319
 30
0.0
 10
5.9765862075
 20
7.2154242259
 30
0.0
 10
5.9738176361
 20
7.218343469
 30
0.0
 10
5.970619386
 20
7.2210224715
 30
0.0
 10
5.9670212402
 20
7.2234460411
 30
0.0
 10
5.9630584953
 20
7.2256061771
 30
0.0
 10
5.9587664588
 20
7.2274925215
 30
0.0
 10
5.9541852473
 20
7.2290999879
 30
0.0
 10
5.9493565601
 20
7.2304225936
 30
0.0
 10
5.9443243651
 20
7.2314559295
 30
0.0
 10
5.9391355675
 20
7.2321963772
 30
0.0
 10
5.9338433042
 20
7.2326411161
 30
0.0
 10
5.9302840739
 20
7.2327404993
 30
0.0
 10
5.9285
 20
7.2327404993
 30
0.0
  0
SPLINE
  5
301
100
AcDbEntity
  8
0
100
AcDbSpline
 62
7
  6
CONTINUOUS
 70
0
 71
3
 72
23
 73
19
 74
0
 42
0.0000001
 43
0.0000001
 44
0.0000000001
 40
0.0
 40
0.0
 40
0.0
 40
0.0
 40
0.0525738714
 40
0.1046788817
 40
0.1569010184
 40
0.2098517903
 40
0.2640926313
 40
0.3201045576
 40
0.3782564095
 40
0.4387933956
 40
0.5018313146
 40
0.5673735182
 40
0.6352899849
 40
0.7053576486
 40
0.7772789553
 40
0.8506954605
 40
0.9251440465
 40
1.0
 40
1.0
 40
1.0
 40
1.0
 10
5.874
 20
7.197989969
 30
0.0
 10
5.8740000012
 20
7.1992429845
 30
0.0
 10
5.8741738422
 20
7.201741631
 30
0.0
 10
5.874966022
 20
7.2054089889
 30
0.0
 10
5.8762825722
 20
7.2089325768
 30
0.0
 10
5.8781054077
 20
7.2122798311
 30
0.0
 10
5.8804137918
 20
7.2154242248
 30
0.0
 10
5.8831823627
 20
7.218343468
 30
0.0
 10
5.8863806126
 20
7.2210224704
 30
0.0
 10
5.8899787581
 20
7.2234460401
 30
0.0
 10
5.8939415027
 20
7.2256061762
 30
0.0
 10
5.898233539
 20
7.2274925206
 30
0.0
 10
5.9028147504
 20
7.2290999873
 30
0.0
 10
5.9076434379
 20
7.2304225931
 30
0.0
 10
5.9126756334
 20
7.2314559293
 30
0.0
 10
5.9178644317
 20
7.2321963771
 30
0.0
 10
5.9231566956
 20
7.232641116
 30
0.0
 10
5.9267159261
 20
7.2327404993
 30
0.0
 10
5.9285
 20
7.2327404993
 30
0.0
  0
SPLINE
  5
302
100
AcDbEntity
  8
0
100
AcDbSpline
 62
7
  6
CONTINUOUS
 70
0
 71
3
 72
23
 73
19
 74
0
 42
0.0000001
 43
0.0000001
 44
0.0000000001
 40
0.0
 40
0.0
 40
0.0
 40
0.0
 40
0.0748559506
 40
0.149304529
 40
0.2227210235
 40
0.294642323
 40
0.3647099837
 40
0.4326264514
 40
0.4981686545
 40
0.5612065715
 40
0.621743556
 40
0.6798954082
 40
0.7359073362
 40
0.7901481785
 40
0.8430989519
 40
0.8953210956
 40
0.9474261191
 40
1.0
 40
1.0
 40
1.0
 40
1.0
 10
5.9285
 20
6.7672595007
 30
0.0
 10
5.9267159261
 20
6.7672595007
 30
0.0
 10
5.9231566958
 20
6.767358884
 30
0.0
 10
5.9178644322
 20
6.7678036229
 30
0.0
 10
5.9126756344
 20
6.7685440706
 30
0.0
 10
5.9076434391
 20
6.7695774066
 30
0.0
 10
5.9028147518
 20
6.7709000123
 30
0.0
 10
5.8982335402
 20
6.7725074789
 30
0.0
 10
5.8939415039
 20
6.7743938233
 30
0.0
 10
5.8899787591
 20
6.7765539593
 30
0.0
 10
5.8863806135
 20
6.7789775289
 30
0.0
 10
5.8831823635
 20
6.7816565314
 30
0.0
 10
5.8804137923
 20
6.7845757745
 30
0.0
 10
5.8781054081
 20
6.7877201684
 30
0.0
 10
5.8762825721
 20
6.7910674228
 30
0.0
 10
5.874966022
 20
6.7945910114
 30
0.0
 10
5.8741738423
 20
6.7982583702
 30
0.0
 10
5.8740000013
 20
6.8007570173
 30
0.0
 10
5.874
 20
6.8020100331
 30
0.0
  0
SPLINE
  5
303
100
AcDbEntity
  8
0
100
AcDbSpline
 62
7
  6
CONTINUOUS
 70
0
 71
3
 72
23
 73
19
 74
0
 42
0.0000001
 43
0.0000001
 44
0.0000000001
 40
0.0
 40
0.0
 40
0.0
 40
0.0
 40
0.052573868
 40
0.1046788735
 40
0.1569010071
 40
0.209851778
 40
0.2640926186
 40
0.3201045447
 40
0.3782563951
 40
0.4387933781
 40
0.5018312948
 40
0.5673734989
 40
0.6352899673
 40
0.7053576345
 40
0.7772789457
 40
0.8506954561
 40
0.9251440455
 40
1.0
 40
1.0
 40
1.0
 40
1.0
 10
5.983
 20
6.8020100303
 30
0.0
 10
5.9829999988
 20
6.8007570149
 30
0.0
 10
5.9828261579
 20
6.7982583686
 30
0.0
 10
5.982033978
 20
6.794591011
 30
0.0
 10
5.9807174278
 20
6.7910674234
 30
0.0
 10
5.9788945925
 20
6.7877201692
 30
0.0
 10
5.9765862084
 20
6.7845757755
 30
0.0
 10
5.9738176377
 20
6.7816565323
 30
0.0
 10
5.9706193879
 20
6.77897753
 30
0.0
 10
5.9670212427
 20
6.7765539604
 30
0.0
 10
5.9630584982
 20
6.7743938243
 30
0.0
 10
5.958766462
 20
6.7725074799
 30
0.0
 10
5.9541852505
 20
6.7709000129
 30
0.0
 10
5.9493565629
 20
6.7695774071
 30
0.0
 10
5.9443243671
 20
6.7685440708
 30
0.0
 10
5.9391355686
 20
6.767803623
 30
0.0
 10
5.9338433045
 20
6.767358884
 30
0.0
 10
5.9302840739
 20
6.7672595007
 30
0.0
 10
5.9285
 20
6.7672595007
 30
0.0
  0
SPLINE
  5
304
100
AcDbEntity
  8
0
100
AcDbSpline
 62
7
  6
CONTINUOUS
 70
0
 71
3
 72
19
 73
15
 74
0
 42
0.0000001
 43
0.0000001
 44
0.0000000001
 40
0.0
 40
0.0
 40
0.0
 40
0.0
 40
0.1255570989
 40
0.2506679576
 40
0.3130877084
 40
0.3754357534
 40
0.4377309837
 40
0.5000000179
 40
0.5622690537
 40
0.6245642827
 40
0.6869123252
 40
0.7493320735
 40
0.8744429083
 40
1.0
 40
1.0
 40
1.0
 40
1.0
 10
3.7535636659
 20
7.0296137863
 30
0.0
 10
3.7489742637
 20
7.0450270202
 30
0.0
 10
3.7406315149
 20
7.0760520362
 30
0.0
 10
3.7327173624
 20
7.1154008268
 30
0.0
 10
3.7281611242
 20
7.1470876627
 30
0.0
 10
3.7256823816
 20
7.1709256404
 30
0.0
 10
3.7241749663
 20
7.1948256555
 30
0.0
 10
3.7236735152
 20
7.2187580241
 30
0.0
 10
3.72417497
 20
7.2426903924
 30
0.0
 10
3.7256823784
 20
7.2665904077
 30
0.0
 10
3.7281611304
 20
7.2904283836
 30
0.0
 10
3.7327173586
 20
7.3221152171
 30
0.0
 10
3.7406315188
 20
7.3614640021
 30
0.0
 10
3.748974264
 20
7.3924890146
 30
0.0
 10
3.7535636659
 20
7.4079022477
 30
0.0
  0
SPLINE
  5
305
100
AcDbEntity
  8
0
100
AcDbSpline
 62
7
  6
CONTINUOUS
 70
0
 71
3
 72
21
 73
17
 74
0
 42
0.0000001
 43
0.0000001
 44
0.0000000001
 40
0.0
 40
0.0
 40
0.0
 40
0.0
 40
0.1264560126
 40
0.1892875349
 40
0.2518383053
 40
0.3141389815
 40
0.3762244014
 40
0.4381542655
 40
0.5000000641
 40
0.5618458488
 40
0.6237757087
 40
0.6858611075
 40
0.7481617721
 40
0.8107125085
 40
0.8735439971
 40
1.0
 40
1.0
 40
1.0
 40
1.0
 10
4.127
 20
7.0296137863
 30
0.0
 10
4.1346471373
 20
7.0444415588
 30
0.0
 10
4.1452575359
 20
7.0670957235
 30
0.0
 10
4.1570954699
 20
7.0981539187
 30
0.0
 10
4.1646354262
 20
7.1217545486
 30
0.0
 10
4.1706966695
 20
7.1456780355
 30
0.0
 10
4.1751517738
 20
7.1698717309
 30
0.0
 10
4.17786939
 20
7.1942632535
 30
0.0
 10
4.1787910459
 20
7.2187580407
 30
0.0
 10
4.1778693877
 20
7.2432528272
 30
0.0
 10
4.1751517688
 20
7.2676443444
 30
0.0
 10
4.1706966631
 20
7.2918380346
 30
0.0
 10
4.164635417
 20
7.3157615116
 30
0.0
 10
4.1570954668
 20
7.3393621325
 30
0.0
 10
4.1452575302
 20
7.3704203158
 30
0.0
 10
4.1346471367
 20
7.3930744763
 30
0.0
 10
4.127
 20
7.4079022477
 30
0.0
  0
SPLINE
  5
306
100
AcDbEntity
  8
0
100
AcDbSpline
 62
7
  6
CONTINUOUS
 70
0
 71
3
 72
19
 73
15
 74
0
 42
0.0000001
 43
0.0000001
 44
0.0000000001
 40
0.0
 40
0.0
 40
0.0
 40
0.0
 40
0.1255570989
 40
0.2506679576
 40
0.3130877084
 40
0.3754357534
 40
0.4377309837
 40
0.5000000179
 40
0.5622690537
 40
0.6245642827
 40
0.6869123252
 40
0.7493320735
 40
0.8744429083
 40
1.0
 40
1.0
 40
1.0
 40
1.0
 10
3.7535636659
 20
6.5920977523
 30
0.0
 10
3.7489742637
 20
6.6075109862
 30
0.0
 10
3.7406315149
 20
6.6385360022
 30
0.0
 10
3.7327173624
 20
6.6778847928
 30
0.0
 10
3.7281611242
 20
6.7095716287
 30
0.0
 10
3.7256823816
 20
6.7334096064
 30
0.0
 10
3.7241749663
 20
6.7573096215
 30
0.0
 10
3.7236735152
 20
6.7812419901
 30
0.0
 10
3.72417497
 20
6.8051743584
 30
0.0
 10
3.7256823784
 20
6.8290743737
 30
0.0
 10
3.7281611304
 20
6.8529123496
 30
0.0
 10
3.7327173586
 20
6.8845991831
 30
0.0
 10
3.7406315188
 20
6.9239479681
 30
0.0
 10
3.748974264
 20
6.9549729807
 30
0.0
 10
3.7535636659
 20
6.9703862137
 30
0.0
  0
SPLINE
  5
307
100
AcDbEntity
  8
0
100
AcDbSpline
 62
7
  6
CONTINUOUS
 70
0
 71
3
 72
21
 73
17
 74
0
 42
0.0000001
 43
0.0000001
 44
0.0000000001
 40
0.0
 40
0.0
 40
0.0
 40
0.0
 40
0.1264560126
 40
0.1892875349
 40
0.2518383053
 40
0.3141389815
 40
0.3762244014
 40
0.4381542655
 40
0.5000000641
 40
0.5618458488
 40
0.6237757087
 40
0.6858611075
 40
0.7481617721
 40
0.8107125085
 40
0.8735439971
 40
1.0
 40
1.0
 40
1.0
 40
1.0
 10
4.127
 20
6.5920977523
 30
0.0
 10
4.1346471373
 20
6.6069255248
 30
0.0
 10
4.1452575359
 20
6.6295796895
 30
0.0
 10
4.1570954699
 20
6.6606378847
 30
0.0
 10
4.1646354262
 20
6.6842385146
 30
0.0
 10
4.1706966695
 20
6.7081620015
 30
0.0
 10
4.1751517738
 20
6.7323556969
 30
0.0
 10
4.17786939
 20
6.7567472195
 30
0.0
 10
4.1787910459
 20
6.7812420067
 30
0.0
 10
4.1778693877
 20
6.8057367933
 30
0.0
 10
4.1751517688
 20
6.8301283104
 30
0.0
 10
4.1706966631
 20
6.8543220006
 30
0.0
 10
4.164635417
 20
6.8782454777
 30
0.0
 10
4.1570954668
 20
6.9018460985
 30
0.0
 10
4.1452575302
 20
6.9329042818
 30
0.0
 10
4.1346471367
 20
6.9555584424
 30
0.0
 10
4.127
 20
6.9703862137
 30
0.0
  0
ELLIPSE
  5
308
100
AcDbEntity
  8
0
100
AcDbEllipse
 62
7
  6
CONTINUOUS
 10
6.1575
 20
6.677
 30
0.0
 11
0.0
 21
0.035
 31
0.0
 40
1.0
 41
-4.7123889804
 42
-1.5707963268
  0
ELLIPSE
  5
309
100
AcDbEntity
  8
0
100
AcDbEllipse
 62
7
  6
CONTINUOUS
 10
6.1575
 20
7.323
 30
0.0
 11
0.035
 21
0.0
 31
0.0
 40
1.0
 41
0.0
 42
3.1415926536
  0
ELLIPSE
  5
30A
100
AcDbEntity
  8
0
100
AcDbEllipse
 62
7
  6
CONTINUOUS
 10
4.3975
 20
6.591
 30
0.0
 11
0.0
 21
0.035
 31
0.0
 40
1.0
 41
-4.7123889804
 42
-1.5707963268
  0
ELLIPSE
  5
30B
100
AcDbEntity
  8
0
100
AcDbEllipse
 62
7
  6
CONTINUOUS
 10
4.3975
 20
7.409
 30
0.0
 11
0.035
 21
-0.0
 31
0.0
 40
1.0
 41
0.0
 42
3.1415926536
  0
ELLIPSE
  5
30C
100
AcDbEntity
  8
0
100
AcDbEllipse
 62
7
  6
CONTINUOUS
 10
4.9885
 20
6.591
 30
0.0
 11
-0.0
 21
0.035
 31
0.0
 40
1.0
 41
-4.7123889804
 42
-1.5707963268
  0
ELLIPSE
  5
30D
100
AcDbEntity
  8
0
100
AcDbEllipse
 62
7
  6
CONTINUOUS
 10
4.9885
 20
7.409
 30
0.0
 11
0.035
 21
0.0
 31
0.0
 40
1.0
 41
0.0
 42
3.1415926536
  0
ENDSEC
  0
SECTION
  2
OBJECTS
  0
DICTIONARY
  5
C
100
AcDbDictionary
280
0
281
1
  3
ACAD_GROUP
350
D
  3
ACAD_MLINESTYLE
350
17
  3
ACAD_LAYOUT
350
1A
  3
ACAD_PLOTSETTINGS
350
19
  3
ACAD_PLOTSTYLENAME
350
E
  0
DICTIONARY
  5
D
102
{ACAD_REACTORS
330
C
102
}
100
AcDbDictionary
280
0
281
1
  0
ACDBDICTIONARYWDFLT
  5
E
102
{ACAD_REACTORS
330
C
102
}
100
AcDbDictionary
281
1
  3
Normal
350
F
100
AcDbDictionaryWithDefault
340
F
  0
DICTIONARY
  5
17
102
{ACAD_REACTORS
330
C
102
}
100
AcDbDictionary
280
0
281
1
  3
Standard
350
18
  0
DICTIONARY
  5
19
102
{ACAD_REACTORS
330
C
102
}
100
AcDbDictionary
281
1
  0
DICTIONARY
  5
1A
102
{ACAD_REACTORS
330
C
102
}
100
AcDbDictionary
281
1
  3
Model
350
30E
  3
Layout1
350
30F
  0
ACDBPLACEHOLDER
  5
F
102
{ACAD_REACTORS
330
E
102
}
  0
MLINESTYLE
  5
18
102
{ACAD_REACTORS
330
17
102
}
100
AcDbMlineStyle
  2
STANDARD
 70
0
  3

 62
256
 51
90.0
 52
90.0
 71
2
 49
0.5
 62
256
  6
BYLAYER
 49
-0.5
 62
256
  6
BYLAYER
  0
LAYOUT
  5
30E
102
{ACAD_REACTORS
330
1A
102
}
100
AcDbPlotSettings
  1

  2
none_device
  4
ANSI_B_(17.00_x_11.00_Inches)
  6

 40
0.0
 41
0.0
 42
0.0
 43
0.0
 44
431.8
 45
279.4
 46
0.0
 47
0.0
 48
0.0
 49
0.0
140
0.0
141
0.0
142
1.0
143
1.0
 70
1024
 72
0
 73
0
 74
0
  7

 75
0
147
1.0
148
0.0
149
0.0
100
AcDbLayout
  1
Model
 70
0
 71
0
 10
0.0
 20
0.0
 11
17.0
 21
11.0
 12
0.0
 22
0.0
 32
0.0
 14
0.0
 24
0.0
 34
0.0
 15
0.0
 25
0.0
 35
0.0
146
0.0
 13
0.0
 23
0.0
 33
0.0
 16
1.0
 26
0.0
 36
0.0
 17
0.0
 27
1.0
 37
0.0
 76
0
330
238
345
0
346
0
  0
LAYOUT
  5
30F
102
{ACAD_REACTORS
330
1A
102
}
100
AcDbPlotSettings
  1

  2
none_device
  4
ANSI_B_(17.00_x_11.00_Inches)
  6

 40
0.0
 41
0.0
 42
0.0
 43
0.0
 44
431.8
 45
279.4
 46
0.0
 47
0.0
 48
0.0
 49
0.0
140
0.0
141
0.0
142
1.0
143
1.0
 70
0
 72
0
 73
0
 74
0
  7

 75
0
147
1.0
148
0.0
149
0.0
100
AcDbLayout
  1
Layout1
 70
0
 71
1
 10
0.0
 20
0.0
 11
17.0
 21
11.0
 12
0.0
 22
0.0
 32
0.0
 14
0.0
 24
0.0
 34
0.0
 15
0.0
 25
0.0
 35
0.0
146
0.0
 13
0.0
 23
0.0
 33
0.0
 16
1.0
 26
0.0
 36
0.0
 17
0.0
 27
1.0
 37
0.0
 76
0
330
239
345
0
346
0
  0
ENDSEC
  0
EOF
