999
DXF file: LPBDXDN.dxf
999
Pro/ENGINEER 2016010 by Parametric Technology Corporation
  0
SECTION
  2
HEADER
  9
$ACADVER
  1
AC1021
  9
$DWGCODEPAGE
  3
ANSI_1252
  9
$EXTMAX
 10
17.0
 20
11.0
 30
0.0
  9
$EXTMIN
 10
0.0
 20
0.0
 30
0.0
  9
$LIMMIN
 10
0.0
 20
0.0
  9
$LIMMAX
 10
17.0
 20
11.0
  9
$VIEWCTR
 10
8.5
 20
5.5
  9
$VIEWSIZE
 40
11.0
  9
$CLAYER
  8
0
  9
$LTSCALE
 40
0.935
  9
$CELTYPE
  6
BYLAYER
  9
$DIMSCALE
 40
1.0
  9
$DIMASZ
 40
0.1875
  9
$DIMEXO
 40
0.0625
  9
$DIMDLI
 40
0.646
  9
$DIMEXE
 40
0.125
  9
$DIMCEN
 40
0.153
  9
$DIMLFAC
 40
1.0
  9
$DIMBLK
  1
_FILLED
  9
$DIMALT
 70
0
  9
$DIMALTF
 40
25.4
  9
$DIMTXT
 40
0.125
  9
$DIMTOL
 70
0
  9
$DIMLIM
 70
0
  9
$DIMTFAC
 40
1.0
  9
$DIMGAP
 40
0.09
  9
$DIMDSEP
 70
46
  9
$AUNITS
 70
0
  9
$PDMODE
 70
3
  9
$PDSIZE
 40
0.3125
  9
$HANDSEED
  5
2E0
  9
$TILEMODE
 70
1
  9
$MEASUREMENT
 70
0
  9
$INSUNITS
 70
1
  0
ENDSEC
  0
SECTION
  2
CLASSES
  0
CLASS
  1
ACDBDICTIONARYWDFLT
  2
AcDbDictionaryWithDefault
  3
AutoCAD 2000
 90
0
 91
1
280
0
281
0
  0
CLASS
  1
ACDBPLACEHOLDER
  2
AcDbPlaceHolder
  3
AutoCAD 2000
 90
0
 91
1
280
0
281
0
  0
CLASS
  1
LAYOUT
  2
AcDbLayout
  3
AutoCAD 2000
 90
0
 91
0
280
0
281
0
  0
ENDSEC
  0
SECTION
  2
TABLES
  0
TABLE
  2
VPORT
  5
8
100
AcDbSymbolTable
 70
2
  0
VPORT
  5
1F4
100
AcDbSymbolTableRecord
100
AcDbViewportTableRecord
  2
*ACTIVE
 70
0
 10
0.0
 20
0.0
 11
1.0
 21
1.0
 12
8.5
 22
5.5
 13
0.0
 23
0.0
 14
1.0
 24
1.0
 15
0.0
 25
0.0
 16
0.0
 26
0.0
 36
1.0
 17
0.0
 27
0.0
 37
0.0
 40
11.0
 41
1.5454545455
 42
50.0
 43
0.0
 44
0.0
 50
0.0
 51
0.0
 71
0
 72
100
 73
1
 74
1
 75
0
 76
0
 77
0
 78
0
  0
ENDTAB
  0
TABLE
  2
LTYPE
  5
5
100
AcDbSymbolTable
 70
6
  0
LTYPE
  5
14
100
AcDbSymbolTableRecord
100
AcDbLinetypeTableRecord
  2
BYBLOCK
 70
0
  3

 72
65
 73
0
 40
0.0
  0
LTYPE
  5
15
100
AcDbSymbolTableRecord
100
AcDbLinetypeTableRecord
  2
BYLAYER
 70
0
  3

 72
65
 73
0
 40
0.0
  0
LTYPE
  5
16
100
AcDbSymbolTableRecord
100
AcDbLinetypeTableRecord
  2
CONTINUOUS
 70
64
  3
Solid line
 72
65
 73
0
 40
0.0
  0
LTYPE
  5
1F5
100
AcDbSymbolTableRecord
100
AcDbLinetypeTableRecord
  2
CENTER
 70
64
  3
____ _ ____ _ ____ _ ____ _ ____ _ ____ _ ____
 72
65
 73
4
 40
0.6
 49
0.375
 74
0
 49
-0.075
 74
0
 49
0.075
 74
0
 49
-0.075
 74
0
  0
LTYPE
  5
1F6
100
AcDbSymbolTableRecord
100
AcDbLinetypeTableRecord
  2
HIDDEN
 70
64
  3
- - - - - - - - - - - - - - - - - - - -
 72
65
 73
2
 40
0.2
 49
0.1
 74
0
 49
-0.1
 74
0
  0
LTYPE
  5
1F7
100
AcDbSymbolTableRecord
100
AcDbLinetypeTableRecord
  2
PHANTOM
 70
64
  3
_____ _ _ _____ _ _ _____ _ _ _____
 72
65
 73
6
 40
0.8
 49
0.45
 74
0
 49
-0.05
 74
0
 49
0.1
 74
0
 49
-0.05
 74
0
 49
0.1
 74
0
 49
-0.05
 74
0
  0
LTYPE
  5
1F8
100
AcDbSymbolTableRecord
100
AcDbLinetypeTableRecord
  2
DOT
 70
64
  3
. . . . . . . . . . . . . . . . . . . .
 72
65
 73
2
 40
0.2
 49
0.1
 74
0
 49
-0.1
 74
0
  0
LTYPE
  5
1F9
100
AcDbSymbolTableRecord
100
AcDbLinetypeTableRecord
  2
DASHED
 70
64
  3
- - - - - - - - - - - - - - - - - - - -
 72
65
 73
2
 40
0.2
 49
0.1
 74
0
 49
-0.1
 74
0
  0
ENDTAB
  0
TABLE
  2
LAYER
  5
2
100
AcDbSymbolTable
 70
36
  0
LAYER
  5
10
100
AcDbSymbolTableRecord
100
AcDbLayerTableRecord
  2
0
 70
0
 62
7
  6
CONTINUOUS
370
-3
390
F
  0
LAYER
  5
1FA
100
AcDbSymbolTableRecord
100
AcDbLayerTableRecord
  2
DEFAULT_1
 70
0
 62
7
  6
CENTER
370
-3
390
F
  0
LAYER
  5
1FB
100
AcDbSymbolTableRecord
100
AcDbLayerTableRecord
  2
DEFAULT_2
 70
0
 62
8
  6
HIDDEN
370
-3
390
F
  0
LAYER
  5
1FC
100
AcDbSymbolTableRecord
100
AcDbLayerTableRecord
  2
DEFAULT_3
 70
0
 62
7
  6
PHANTOM
370
-3
390
F
  0
LAYER
  5
1FD
100
AcDbSymbolTableRecord
100
AcDbLayerTableRecord
  2
01_ALL_DTM_PLN
 70
0
 62
7
  6
CONTINUOUS
370
-3
390
F
  0
LAYER
  5
1FE
100
AcDbSymbolTableRecord
100
AcDbLayerTableRecord
  2
01__ASM_ALL_DTM_PLN
 70
0
 62
7
  6
CONTINUOUS
370
-3
390
F
  0
LAYER
  5
1FF
100
AcDbSymbolTableRecord
100
AcDbLayerTableRecord
  2
01__ASM_DEF_DTM_PLN
 70
0
 62
7
  6
CONTINUOUS
370
-3
390
F
  0
LAYER
  5
200
100
AcDbSymbolTableRecord
100
AcDbLayerTableRecord
  2
01___PRT_ALL_DTM_PLN
 70
0
 62
7
  6
CONTINUOUS
370
-3
390
F
  0
LAYER
  5
201
100
AcDbSymbolTableRecord
100
AcDbLayerTableRecord
  2
01___PRT_DEF_DTM_PLN
 70
0
 62
7
  6
CONTINUOUS
370
-3
390
F
  0
LAYER
  5
202
100
AcDbSymbolTableRecord
100
AcDbLayerTableRecord
  2
02_ALL_AXES
 70
0
 62
7
  6
CONTINUOUS
370
-3
390
F
  0
LAYER
  5
203
100
AcDbSymbolTableRecord
100
AcDbLayerTableRecord
  2
02__ASM_ALL_AXES
 70
0
 62
7
  6
CONTINUOUS
370
-3
390
F
  0
LAYER
  5
204
100
AcDbSymbolTableRecord
100
AcDbLayerTableRecord
  2
02___PRT_ALL_AXES
 70
0
 62
7
  6
CONTINUOUS
370
-3
390
F
  0
LAYER
  5
205
100
AcDbSymbolTableRecord
100
AcDbLayerTableRecord
  2
03_ALL_CURVES
 70
0
 62
7
  6
CONTINUOUS
370
-3
390
F
  0
LAYER
  5
206
100
AcDbSymbolTableRecord
100
AcDbLayerTableRecord
  2
03__ASM_ALL_CURVES
 70
0
 62
7
  6
CONTINUOUS
370
-3
390
F
  0
LAYER
  5
207
100
AcDbSymbolTableRecord
100
AcDbLayerTableRecord
  2
03___PRT_ALL_CURVES
 70
0
 62
7
  6
CONTINUOUS
370
-3
390
F
  0
LAYER
  5
208
100
AcDbSymbolTableRecord
100
AcDbLayerTableRecord
  2
04_ALL_DTM_PNT
 70
0
 62
7
  6
CONTINUOUS
370
-3
390
F
  0
LAYER
  5
209
100
AcDbSymbolTableRecord
100
AcDbLayerTableRecord
  2
04__ASM_ALL_DTM_PNT
 70
0
 62
7
  6
CONTINUOUS
370
-3
390
F
  0
LAYER
  5
20A
100
AcDbSymbolTableRecord
100
AcDbLayerTableRecord
  2
04___PRT_ALL_DTM_PNT
 70
0
 62
7
  6
CONTINUOUS
370
-3
390
F
  0
LAYER
  5
20B
100
AcDbSymbolTableRecord
100
AcDbLayerTableRecord
  2
05_ALL_DTM_CSYS
 70
0
 62
7
  6
CONTINUOUS
370
-3
390
F
  0
LAYER
  5
20C
100
AcDbSymbolTableRecord
100
AcDbLayerTableRecord
  2
05__ASM_ALL_DTM_CSYS
 70
0
 62
7
  6
CONTINUOUS
370
-3
390
F
  0
LAYER
  5
20D
100
AcDbSymbolTableRecord
100
AcDbLayerTableRecord
  2
05__ASM_DEF_DTM_CSYS
 70
0
 62
7
  6
CONTINUOUS
370
-3
390
F
  0
LAYER
  5
20E
100
AcDbSymbolTableRecord
100
AcDbLayerTableRecord
  2
05___PRT_ALL_DTM_CSYS
 70
0
 62
7
  6
CONTINUOUS
370
-3
390
F
  0
LAYER
  5
20F
100
AcDbSymbolTableRecord
100
AcDbLayerTableRecord
  2
05___PRT_DEF_DTM_CSYS
 70
0
 62
7
  6
CONTINUOUS
370
-3
390
F
  0
LAYER
  5
210
100
AcDbSymbolTableRecord
100
AcDbLayerTableRecord
  2
06_ALL_SURFS
 70
0
 62
7
  6
CONTINUOUS
370
-3
390
F
  0
LAYER
  5
211
100
AcDbSymbolTableRecord
100
AcDbLayerTableRecord
  2
06__ASM_ALL_SURFS
 70
0
 62
7
  6
CONTINUOUS
370
-3
390
F
  0
LAYER
  5
212
100
AcDbSymbolTableRecord
100
AcDbLayerTableRecord
  2
06___PRT_ALL_SURFS
 70
0
 62
7
  6
CONTINUOUS
370
-3
390
F
  0
LAYER
  5
213
100
AcDbSymbolTableRecord
100
AcDbLayerTableRecord
  2
07__ASM_ALL_SKELETONS
 70
0
 62
7
  6
CONTINUOUS
370
-3
390
F
  0
LAYER
  5
214
100
AcDbSymbolTableRecord
100
AcDbLayerTableRecord
  2
124-300_FEATURES
 70
0
 62
7
  6
CONTINUOUS
370
-3
390
F
  0
LAYER
  5
215
100
AcDbSymbolTableRecord
100
AcDbLayerTableRecord
  2
124-300_REF_GEOMETRY
 70
0
 62
7
  6
CONTINUOUS
370
-3
390
F
  0
LAYER
  5
216
100
AcDbSymbolTableRecord
100
AcDbLayerTableRecord
  2
124-301_FEATURES
 70
0
 62
7
  6
CONTINUOUS
370
-3
390
F
  0
LAYER
  5
217
100
AcDbSymbolTableRecord
100
AcDbLayerTableRecord
  2
124-301_REF_GEOMETRY
 70
0
 62
7
  6
CONTINUOUS
370
-3
390
F
  0
LAYER
  5
218
100
AcDbSymbolTableRecord
100
AcDbLayerTableRecord
  2
COPY_GEO_FET
 70
0
 62
7
  6
CONTINUOUS
370
-3
390
F
  0
LAYER
  5
219
100
AcDbSymbolTableRecord
100
AcDbLayerTableRecord
  2
COSMETIC
 70
0
 62
7
  6
CONTINUOUS
370
-3
390
F
  0
LAYER
  5
21A
100
AcDbSymbolTableRecord
100
AcDbLayerTableRecord
  2
CURVES
 70
0
 62
7
  6
CONTINUOUS
370
-3
390
F
  0
LAYER
  5
21B
100
AcDbSymbolTableRecord
100
AcDbLayerTableRecord
  2
CUT_REF_SURF
 70
0
 62
7
  6
CONTINUOUS
370
-3
390
F
  0
LAYER
  5
21C
100
AcDbSymbolTableRecord
100
AcDbLayerTableRecord
  2
DATUM
 70
0
 62
7
  6
CONTINUOUS
370
-3
390
F
  0
LAYER
  5
21D
100
AcDbSymbolTableRecord
100
AcDbLayerTableRecord
  2
DATUMCURVES
 70
0
 62
7
  6
CONTINUOUS
370
-3
390
F
  0
LAYER
  5
21E
100
AcDbSymbolTableRecord
100
AcDbLayerTableRecord
  2
DIMENSIONS
 70
0
 62
7
  6
CONTINUOUS
370
-3
390
F
  0
LAYER
  5
21F
100
AcDbSymbolTableRecord
100
AcDbLayerTableRecord
  2
DTM
 70
0
 62
7
  6
CONTINUOUS
370
-3
390
F
  0
LAYER
  5
220
100
AcDbSymbolTableRecord
100
AcDbLayerTableRecord
  2
DTM230
 70
0
 62
7
  6
CONTINUOUS
370
-3
390
F
  0
LAYER
  5
221
100
AcDbSymbolTableRecord
100
AcDbLayerTableRecord
  2
DTM_500002
 70
0
 62
7
  6
CONTINUOUS
370
-3
390
F
  0
LAYER
  5
222
100
AcDbSymbolTableRecord
100
AcDbLayerTableRecord
  2
DTM_500051
 70
0
 62
7
  6
CONTINUOUS
370
-3
390
F
  0
LAYER
  5
223
100
AcDbSymbolTableRecord
100
AcDbLayerTableRecord
  2
DTM_515002
 70
0
 62
7
  6
CONTINUOUS
370
-3
390
F
  0
LAYER
  5
224
100
AcDbSymbolTableRecord
100
AcDbLayerTableRecord
  2
DTM_SPRING_RH
 70
0
 62
7
  6
CONTINUOUS
370
-3
390
F
  0
LAYER
  5
225
100
AcDbSymbolTableRecord
100
AcDbLayerTableRecord
  2
DTM_SP_RH_CONSTR
 70
0
 62
7
  6
CONTINUOUS
370
-3
390
F
  0
LAYER
  5
226
100
AcDbSymbolTableRecord
100
AcDbLayerTableRecord
  2
GEOMETRICTOLERANCES
 70
0
 62
7
  6
CONTINUOUS
370
-3
390
F
  0
LAYER
  5
227
100
AcDbSymbolTableRecord
100
AcDbLayerTableRecord
  2
HIDDEN
 70
0
 62
7
  6
CONTINUOUS
370
-3
390
F
  0
LAYER
  5
228
100
AcDbSymbolTableRecord
100
AcDbLayerTableRecord
  2
HIDDEN_DRW
 70
0
 62
7
  6
CONTINUOUS
370
-3
390
F
  0
LAYER
  5
229
100
AcDbSymbolTableRecord
100
AcDbLayerTableRecord
  2
PARAMETERDIMENSIONS
 70
0
 62
7
  6
CONTINUOUS
370
-3
390
F
  0
LAYER
  5
22A
100
AcDbSymbolTableRecord
100
AcDbLayerTableRecord
  2
PLANE
 70
0
 62
7
  6
CONTINUOUS
370
-3
390
F
  0
LAYER
  5
22B
100
AcDbSymbolTableRecord
100
AcDbLayerTableRecord
  2
SUN_STD_250-BSPP_PORT
 70
0
 62
7
  6
CONTINUOUS
370
-3
390
F
  0
LAYER
  5
22C
100
AcDbSymbolTableRecord
100
AcDbLayerTableRecord
  2
SUN_STD_SAE-4_PORT
 70
0
 62
7
  6
CONTINUOUS
370
-3
390
F
  0
LAYER
  5
22D
100
AcDbSymbolTableRecord
100
AcDbLayerTableRecord
  2
TEXT
 70
0
 62
7
  6
CONTINUOUS
370
-3
390
F
  0
LAYER
  5
22E
100
AcDbSymbolTableRecord
100
AcDbLayerTableRecord
  2
THREAD
 70
0
 62
7
  6
CONTINUOUS
370
-3
390
F
  0
ENDTAB
  0
TABLE
  2
STYLE
  5
3
100
AcDbSymbolTable
 70
1
  0
STYLE
  5
11
100
AcDbSymbolTableRecord
100
AcDbTextStyleTableRecord
  2
STANDARD
 70
0
 40
0.0
 41
0.8
 50
0.0
 71
0
 42
0.2
  3
txt
  4

  0
STYLE
  5
22F
100
AcDbSymbolTableRecord
100
AcDbTextStyleTableRecord
  2
TEXTSTYLE_1
 70
0
 40
0.0
 41
0.8
 50
0.0
 71
0
 42
0.2
  3
gdt
  4

  0
ENDTAB
  0
TABLE
  2
VIEW
  5
6
100
AcDbSymbolTable
 70
0
  0
ENDTAB
  0
TABLE
  2
UCS
  5
7
100
AcDbSymbolTable
 70
0
  0
ENDTAB
  0
TABLE
  2
APPID
  5
9
100
AcDbSymbolTable
 70
1
  0
APPID
  5
230
100
AcDbSymbolTableRecord
100
AcDbRegAppTableRecord
  2
ACAD
 70
0
  0
ENDTAB
  0
TABLE
  2
BLOCK_RECORD
  5
1
100
AcDbSymbolTable
 70
0
  0
BLOCK_RECORD
  5
231
100
AcDbSymbolTableRecord
100
AcDbBlockTableRecord
  2
*Model_Space
  0
BLOCK_RECORD
  5
232
100
AcDbSymbolTableRecord
100
AcDbBlockTableRecord
  2
*Paper_Space
  0
BLOCK_RECORD
  5
233
100
AcDbSymbolTableRecord
100
AcDbBlockTableRecord
  2
_FILLED
  0
BLOCK_RECORD
  5
234
100
AcDbSymbolTableRecord
100
AcDbBlockTableRecord
  2
*D0
  0
ENDTAB
  0
TABLE
  2
DIMSTYLE
  5
A
100
AcDbSymbolTable
 70
1
100
AcDbDimStyleTable
 71
0
  0
DIMSTYLE
105
235
100
AcDbSymbolTableRecord
100
AcDbDimStyleTableRecord
  2
STANDARD
 70
0
  3

  4

 40
1.0
 41
0.1875
 42
0.0625
 43
0.38
 44
0.125
 45
0.0
 46
0.0
 47
0.001
 48
0.001
140
0.125
141
0.09
142
0.0
143
25.4
144
1.0
145
0.0
146
1.0
147
0.09
 71
0.0
 72
0.0
 73
1
 74
1
 75
0
 76
0
 77
0
 78
4
170
0
171
2
172
0
173
0
174
0
175
0
176
0
177
0
178
0
270
2
271
3
272
3
273
2
274
2
275
0
280
0
281
0
282
0
283
1
284
4
285
0
286
0
287
3
288
0
340
11
278
46
341
233
342
233
343
233
344
233
  0
DIMSTYLE
105
236
100
AcDbSymbolTableRecord
100
AcDbDimStyleTableRecord
  2
DIMSTYLE_1
 70
0
  3

  4

 40
1.0
 41
0.1875
 42
0.0625
 43
0.38
 44
0.125
 45
0.0
 46
0.0
 47
0.0
 48
0.0
140
0.125
141
0.09
142
0.0
143
25.4
144
1.0
145
0.0
146
1.0
147
0.0625
 71
0.0
 72
0.0
 73
1
 74
1
 75
0
 76
0
 77
0
 78
4
170
0
171
2
172
0
173
0
174
0
175
0
176
0
177
0
178
0
270
2
271
2
272
2
273
2
274
2
275
0
280
0
281
0
282
0
283
1
284
4
285
0
286
0
287
3
288
0
340
11
278
46
341
233
342
233
343
233
344
233
  0
ENDTAB
  0
ENDSEC
  0
SECTION
  2
BLOCKS
  0
BLOCK
  5
20
100
AcDbEntity
  8
0
100
AcDbBlockBegin
  2
*Model_Space
 70
0
 10
0.0
 20
0.0
 30
0.0
  3
*Model_Space
  1

  0
ENDBLK
  5
21
100
AcDbEntity
  8
0
100
AcDbBlockEnd
  0
BLOCK
  5
1C
100
AcDbEntity
  8
0
100
AcDbBlockBegin
  2
*Paper_Space
 70
0
 10
0.0
 20
0.0
 30
0.0
  3
*Paper_Space
  1

  0
ENDBLK
  5
1D
100
AcDbEntity
  8
0
100
AcDbBlockEnd
  0
BLOCK
  5
237
100
AcDbEntity
  8
0
100
AcDbBlockBegin
  2
_FILLED
 70
64
 10
0.0
 20
0.0
  3
_FILLED
  1

  0
SOLID
  5
238
100
AcDbEntity
  8
0
  6
BYBLOCK
 62
0
100
AcDbTrace
 10
0.0
 20
0.0
 11
-1.0
 21
0.1666666667
 12
-1.0
 22
-0.1666666667
 13
-1.0
 23
-0.1666666667
  0
ENDBLK
  5
239
100
AcDbEntity
  8
0
  6
BYBLOCK
 62
0
100
AcDbBlockEnd
  0
BLOCK
  5
23A
100
AcDbEntity
  8
0
100
AcDbBlockBegin
 62
6
  6
CONTINUOUS
  2
*D0
 70
65
 10
0.0
 20
0.0
  3
*D0
  1

  0
MTEXT
  5
23B
100
AcDbEntity
  8
0
100
AcDbMText
 62
6
  6
CONTINUOUS
  7
STANDARD
 71
1
 72
1
 10
5.27175
 20
7.7875
 30
0.0
 11
1.0
 21
0.0
 31
0.0
 44
0.9
  1
1.26 in (31,9 mm)
 40
0.125
 41
1.7
  0
LINE
  5
23C
100
AcDbEntity
  8
0
100
AcDbLine
 62
6
  6
CONTINUOUS
 10
5.02175
 20
7.4125
 11
5.02175
 21
7.85
  0
LINE
  5
23D
100
AcDbEntity
  8
0
100
AcDbLine
 62
6
  6
CONTINUOUS
 10
3.765749958
 20
7.0625
 11
3.765749958
 21
7.85
  0
LINE
  5
23E
100
AcDbEntity
  8
0
100
AcDbLine
 62
6
  6
CONTINUOUS
 10
5.02175
 20
7.725
 11
4.393749979
 21
7.725
  0
LINE
  5
23F
100
AcDbEntity
  8
0
100
AcDbLine
 62
6
  6
CONTINUOUS
 10
4.393749979
 20
7.725
 11
5.20925
 21
7.725
  0
LINE
  5
240
100
AcDbEntity
  8
0
100
AcDbLine
 62
6
  6
CONTINUOUS
 10
3.765749958
 20
7.725
 11
4.393749979
 21
7.725
  0
INSERT
  5
241
100
AcDbEntity
  8
0
100
AcDbBlockReference
 62
6
  6
CONTINUOUS
  2
_FILLED
 10
5.02175
 20
7.725
 41
0.1875
 42
0.1875
 43
0.1875
  0
INSERT
  5
242
100
AcDbEntity
  8
0
100
AcDbBlockReference
 62
6
  6
CONTINUOUS
  2
_FILLED
 10
3.765749958
 20
7.725
 41
0.1875
 42
0.1875
 43
0.1875
 50
180.0
  0
ENDBLK
  5
243
100
AcDbEntity
  8
0
  6
BYBLOCK
 62
0
100
AcDbBlockEnd
  0
ENDSEC
  0
SECTION
  2
ENTITIES
  0
DIMENSION
  5
244
100
AcDbEntity
  8
0
100
AcDbDimension
 62
6
  6
CONTINUOUS
  2
*D0
 10
3.765749958
 20
7.725
 11
6.12175
 21
7.725
 70
160
 71
1
 42
1.256000042
  1
<> in (31,9 mm)
  3
DIMSTYLE_1
100
AcDbAlignedDimension
 13
5.02175
 23
7.35
 14
3.765749958
 24
7.0
 50
180.0
100
AcDbRotatedDimension
  0
MTEXT
  5
245
100
AcDbEntity
  8
0
100
AcDbMText
 62
2
  6
CONTINUOUS
  7
STANDARD
 71
1
 72
1
 10
6.49375
 20
7.0625
 30
0.0
 11
1.0
 21
0.0
 31
0.0
 44
0.6
  1
Port 1
 40
0.125
 41
0.6
  0
MTEXT
  5
246
100
AcDbEntity
  8
0
100
AcDbMText
 62
2
  6
CONTINUOUS
  7
STANDARD
 71
1
 72
1
 10
5.66275
 20
6.5785
 30
0.0
 11
1.0
 21
0.0
 31
0.0
 44
0.6
  1
Port 2
 40
0.125
 41
0.6
  0
MTEXT
  5
247
100
AcDbEntity
  8
0
100
AcDbMText
 62
2
  6
CONTINUOUS
  7
STANDARD
 71
1
 72
1
 10
4.52175
 20
6.5785
 30
0.0
 11
1.0
 21
0.0
 31
0.0
 44
0.6
  1
Port 3
 40
0.125
 41
0.6
  0
MTEXT
  5
248
100
AcDbEntity
  8
0
100
AcDbMText
 62
2
  6
CONTINUOUS
  7
STANDARD
 71
1
 72
1
 10
5.27175
 20
7.5375
 30
0.0
 11
1.0
 21
0.0
 31
0.0
 44
0.6
  1
 LOCATING SHOULDER
 40
0.125
 41
1.8
  0
LINE
  5
249
100
AcDbEntity
  8
0
100
AcDbLine
 62
7
  6
CONTINUOUS
 10
3.76575
 20
6.6285064933
 11
3.76575
 21
7.3714935067
  0
LINE
  5
24A
100
AcDbEntity
  8
0
100
AcDbLine
 62
7
  6
CONTINUOUS
 10
3.7960608891
 20
6.6250110002
 11
3.7960608891
 21
6.6411303633
  0
LINE
  5
24B
100
AcDbEntity
  8
0
100
AcDbLine
 62
7
  6
CONTINUOUS
 10
3.7960608891
 20
6.9838806368
 11
3.7960608891
 21
7.0161193632
  0
LINE
  5
24C
100
AcDbEntity
  8
0
100
AcDbLine
 62
7
  6
CONTINUOUS
 10
3.7960608891
 20
7.3588696367
 11
3.7960608891
 21
7.3749889998
  0
LINE
  5
24D
100
AcDbEntity
  8
0
100
AcDbLine
 62
7
  6
CONTINUOUS
 10
3.7683620931
 20
7.376024278
 11
3.76575
 21
7.3715
  0
LINE
  5
24E
100
AcDbEntity
  8
0
100
AcDbLine
 62
7
  6
CONTINUOUS
 10
3.7683620931
 20
6.623975722
 11
3.76575
 21
6.6285
  0
LINE
  5
24F
100
AcDbEntity
  8
0
100
AcDbLine
 62
7
  6
CONTINUOUS
 10
4.2763147552
 20
7.3749889998
 11
4.2763147552
 21
7.3588696367
  0
LINE
  5
250
100
AcDbEntity
  8
0
100
AcDbLine
 62
7
  6
CONTINUOUS
 10
4.2763147552
 20
6.6250110002
 11
4.2763147552
 21
6.6411303633
  0
LINE
  5
251
100
AcDbEntity
  8
0
100
AcDbLine
 62
7
  6
CONTINUOUS
 10
4.2763147552
 20
6.9838806368
 11
4.2763147552
 21
7.0161193632
  0
LINE
  5
252
100
AcDbEntity
  8
0
100
AcDbLine
 62
7
  6
CONTINUOUS
 10
4.31875
 20
6.6495
 11
4.31875
 21
7.3505
  0
LINE
  5
253
100
AcDbEntity
  8
0
100
AcDbLine
 62
7
  6
CONTINUOUS
 10
4.50675
 20
7.351
 11
4.50675
 21
6.649
  0
LINE
  5
254
100
AcDbEntity
  8
0
100
AcDbLine
 62
7
  6
CONTINUOUS
 10
4.55675
 20
7.351
 11
4.55675
 21
6.649
  0
LINE
  5
255
100
AcDbEntity
  8
0
100
AcDbLine
 62
7
  6
CONTINUOUS
 10
4.62675
 20
7.332
 11
4.62675
 21
6.668
  0
LINE
  5
256
100
AcDbEntity
  8
0
100
AcDbLine
 62
7
  6
CONTINUOUS
 10
4.63475
 20
6.703
 11
4.63475
 21
7.297
  0
LINE
  5
257
100
AcDbEntity
  8
0
100
AcDbLine
 62
7
  6
CONTINUOUS
 10
4.64775
 20
6.6495
 11
4.64775
 21
7.3505
  0
LINE
  5
258
100
AcDbEntity
  8
0
100
AcDbLine
 62
7
  6
CONTINUOUS
 10
4.31875
 20
6.6495
 11
4.3040135512
 21
6.623975722
  0
LINE
  5
259
100
AcDbEntity
  8
0
100
AcDbLine
 62
7
  6
CONTINUOUS
 10
3.7677711982
 20
6.6250110002
 11
4.3046044462
 21
6.6250110002
  0
LINE
  5
25A
100
AcDbEntity
  8
0
100
AcDbLine
 62
7
  6
CONTINUOUS
 10
4.2763147552
 20
6.6411303633
 11
3.7960608891
 21
6.6411303633
  0
LINE
  5
25B
100
AcDbEntity
  8
0
100
AcDbLine
 62
7
  6
CONTINUOUS
 10
4.50675
 20
6.649
 11
4.55675
 21
6.649
  0
LINE
  5
25C
100
AcDbEntity
  8
0
100
AcDbLine
 62
7
  6
CONTINUOUS
 10
4.70375
 20
6.6495
 11
4.64775
 21
6.6495
  0
LINE
  5
25D
100
AcDbEntity
  8
0
100
AcDbLine
 62
7
  6
CONTINUOUS
 10
4.50675
 20
6.6495
 11
4.31875
 21
6.6495
  0
LINE
  5
25E
100
AcDbEntity
  8
0
100
AcDbLine
 62
7
  6
CONTINUOUS
 10
5.01875
 20
6.65
 11
4.96475
 21
6.65
  0
LINE
  5
25F
100
AcDbEntity
  8
0
100
AcDbLine
 62
7
  6
CONTINUOUS
 10
4.31875
 20
7.3505
 11
4.3040135512
 21
7.376024278
  0
LINE
  5
260
100
AcDbEntity
  8
0
100
AcDbLine
 62
7
  6
CONTINUOUS
 10
4.70375
 20
6.6495
 11
4.70375
 21
7.3505
  0
LINE
  5
261
100
AcDbEntity
  8
0
100
AcDbLine
 62
7
  6
CONTINUOUS
 10
4.7160756629
 20
6.6955
 11
4.7160756629
 21
7.3045
  0
LINE
  5
262
100
AcDbEntity
  8
THREAD
100
AcDbLine
 62
7
  6
CONTINUOUS
 10
5.05875
 20
6.673
 11
5.0447403811
 21
6.673
  0
LINE
  5
263
100
AcDbEntity
  8
0
100
AcDbLine
 62
7
  6
CONTINUOUS
 10
5.12875
 20
6.6745
 11
5.17875
 21
6.6745
  0
LINE
  5
264
100
AcDbEntity
  8
THREAD
100
AcDbLine
 62
7
  6
CONTINUOUS
 10
5.44575
 20
6.691
 11
5.2154006351
 21
6.691
  0
LINE
  5
265
100
AcDbEntity
  8
0
100
AcDbLine
 62
7
  6
CONTINUOUS
 10
4.938124555
 20
6.6955
 11
4.7160756629
 21
6.6955
  0
LINE
  5
266
100
AcDbEntity
  8
0
100
AcDbLine
 62
7
  6
CONTINUOUS
 10
4.63475
 20
6.703
 11
4.62675
 21
6.703
  0
LINE
  5
267
100
AcDbEntity
  8
THREAD
100
AcDbLine
 62
7
  6
CONTINUOUS
 10
5.58675
 20
6.726
 11
5.48075
 21
6.726
  0
LINE
  5
268
100
AcDbEntity
  8
THREAD
100
AcDbLine
 62
7
  6
CONTINUOUS
 10
5.1862444465
 20
6.7285
 11
5.17875
 21
6.7285
  0
LINE
  5
269
100
AcDbEntity
  8
0
100
AcDbLine
 62
7
  6
CONTINUOUS
 10
6.03725
 20
6.7425
 11
6.07525
 21
6.7425
  0
LINE
  5
26A
100
AcDbEntity
  8
0
100
AcDbLine
 62
7
  6
CONTINUOUS
 10
6.12525
 20
6.7425
 11
6.16325
 21
6.7425
  0
LINE
  5
26B
100
AcDbEntity
  8
0
100
AcDbLine
 62
7
  6
CONTINUOUS
 10
5.99825
 20
6.743
 11
6.03725
 21
6.743
  0
LINE
  5
26C
100
AcDbEntity
  8
0
100
AcDbLine
 62
7
  6
CONTINUOUS
 10
6.18525
 20
6.743
 11
6.23425
 21
6.743
  0
LINE
  5
26D
100
AcDbEntity
  8
0
100
AcDbLine
 62
7
  6
CONTINUOUS
 10
5.62525
 20
6.7515
 11
5.59475
 21
6.7515
  0
LINE
  5
26E
100
AcDbEntity
  8
0
100
AcDbLine
 62
7
  6
CONTINUOUS
 10
4.7160756629
 20
6.6955
 11
4.70375
 21
6.6495
  0
LINE
  5
26F
100
AcDbEntity
  8
0
100
AcDbLine
 62
7
  6
CONTINUOUS
 10
5.97475
 20
6.7665
 11
5.94425
 21
6.7665
  0
LINE
  5
270
100
AcDbEntity
  8
0
100
AcDbLine
 62
7
  6
CONTINUOUS
 10
5.86625
 20
6.7665
 11
5.64025
 21
6.7665
  0
LINE
  5
271
100
AcDbEntity
  8
0
100
AcDbLine
 62
7
  6
CONTINUOUS
 10
6.18525
 20
6.784
 11
6.16325
 21
6.784
  0
LINE
  5
272
100
AcDbEntity
  8
0
100
AcDbLine
 62
7
  6
CONTINUOUS
 10
4.7160756629
 20
7.3045
 11
4.70375
 21
7.3505
  0
LINE
  5
273
100
AcDbEntity
  8
0
100
AcDbLine
 62
7
  6
CONTINUOUS
 10
4.96475
 20
7.35
 11
4.9525583117
 21
7.3045
  0
LINE
  5
274
100
AcDbEntity
  8
0
100
AcDbLine
 62
7
  6
CONTINUOUS
 10
4.96475
 20
6.65
 11
4.9571336293
 21
6.6784246825
  0
LINE
  5
275
100
AcDbEntity
  8
0
100
AcDbLine
 62
7
  6
CONTINUOUS
 10
4.9525583117
 20
7.3045
 11
4.9525583117
 21
7.0
  0
LINE
  5
276
100
AcDbEntity
  8
124-300_FEATURES
100
AcDbLine
 62
7
  6
CONTINUOUS
 10
4.9525583117
 20
6.6957566493
 11
4.9525583117
 21
7.0
  0
LINE
  5
277
100
AcDbEntity
  8
0
100
AcDbLine
 62
7
  6
CONTINUOUS
 10
4.96475
 20
6.65
 11
4.96475
 21
7.35
  0
LINE
  5
278
100
AcDbEntity
  8
0
100
AcDbLine
 62
7
  6
CONTINUOUS
 10
4.2763147552
 20
6.9838806368
 11
3.7960608891
 21
6.9838806368
  0
LINE
  5
279
100
AcDbEntity
  8
0
100
AcDbLine
 62
7
  6
CONTINUOUS
 10
5.01875
 20
7.35
 11
5.01875
 21
6.65
  0
LINE
  5
27A
100
AcDbEntity
  8
0
100
AcDbLine
 62
7
  6
CONTINUOUS
 10
5.02175
 20
7.3469942062
 11
5.02175
 21
6.6530057938
  0
LINE
  5
27B
100
AcDbEntity
  8
0
100
AcDbLine
 62
7
  6
CONTINUOUS
 10
5.02425
 20
6.6619433757
 11
5.02425
 21
7.3380566243
  0
LINE
  5
27C
100
AcDbEntity
  8
0
100
AcDbLine
 62
7
  6
CONTINUOUS
 10
5.0422403811
 20
6.672330127
 11
5.0422403811
 21
7.327669873
  0
LINE
  5
27D
100
AcDbEntity
  8
0
100
AcDbLine
 62
7
  6
CONTINUOUS
 10
5.0447403811
 20
6.673
 11
5.0447403811
 21
7.327
  0
LINE
  5
27E
100
AcDbEntity
  8
THREAD
100
AcDbLine
 62
7
  6
CONTINUOUS
 10
5.05875
 20
6.673
 11
5.05875
 21
7.327
  0
LINE
  5
27F
100
AcDbEntity
  8
THREAD
100
AcDbLine
 62
7
  6
CONTINUOUS
 10
5.2154006351
 20
7.309
 11
5.1975027759
 21
7.2779999985
  0
LINE
  5
280
100
AcDbEntity
  8
0
100
AcDbLine
 62
7
  6
CONTINUOUS
 10
4.2763147552
 20
7.0161193632
 11
3.7960608891
 21
7.0161193632
  0
LINE
  5
281
100
AcDbEntity
  8
THREAD
100
AcDbLine
 62
7
  6
CONTINUOUS
 10
5.2154006351
 20
6.691
 11
5.1975027759
 21
6.7220000015
  0
LINE
  5
282
100
AcDbEntity
  8
0
100
AcDbLine
 62
7
  6
CONTINUOUS
 10
5.12875
 20
7.3255
 11
5.12875
 21
6.6745
  0
LINE
  5
283
100
AcDbEntity
  8
0
100
AcDbLine
 62
7
  6
CONTINUOUS
 10
5.17875
 20
7.3255
 11
5.17875
 21
6.6745
  0
LINE
  5
284
100
AcDbEntity
  8
0
100
AcDbLine
 62
7
  6
CONTINUOUS
 10
5.1862444465
 20
6.7285
 11
5.1862444465
 21
7.2715
  0
LINE
  5
285
100
AcDbEntity
  8
0
100
AcDbLine
 62
7
  6
CONTINUOUS
 10
5.1975027759
 20
6.7220000015
 11
5.1975027759
 21
7.2779999985
  0
LINE
  5
286
100
AcDbEntity
  8
THREAD
100
AcDbLine
 62
7
  6
CONTINUOUS
 10
5.2154006351
 20
6.691
 11
5.2154006351
 21
7.309
  0
LINE
  5
287
100
AcDbEntity
  8
0
100
AcDbLine
 62
7
  6
CONTINUOUS
 10
6.18525
 20
7.216
 11
6.16325
 21
7.216
  0
LINE
  5
288
100
AcDbEntity
  8
0
100
AcDbLine
 62
7
  6
CONTINUOUS
 10
5.97475
 20
7.2335
 11
5.94425
 21
7.2335
  0
LINE
  5
289
100
AcDbEntity
  8
0
100
AcDbLine
 62
7
  6
CONTINUOUS
 10
5.86625
 20
7.2335
 11
5.64025
 21
7.2335
  0
LINE
  5
28A
100
AcDbEntity
  8
0
100
AcDbLine
 62
7
  6
CONTINUOUS
 10
5.54825
 20
7.2431993464
 11
5.51325
 21
7.2431993464
  0
LINE
  5
28B
100
AcDbEntity
  8
0
100
AcDbLine
 62
7
  6
CONTINUOUS
 10
5.62525
 20
7.2485
 11
5.59475
 21
7.2485
  0
LINE
  5
28C
100
AcDbEntity
  8
0
100
AcDbLine
 62
7
  6
CONTINUOUS
 10
5.99825
 20
7.257
 11
6.03725
 21
7.257
  0
LINE
  5
28D
100
AcDbEntity
  8
0
100
AcDbLine
 62
7
  6
CONTINUOUS
 10
6.18525
 20
7.257
 11
6.23425
 21
7.257
  0
LINE
  5
28E
100
AcDbEntity
  8
0
100
AcDbLine
 62
7
  6
CONTINUOUS
 10
6.03725
 20
7.2575
 11
6.07525
 21
7.2575
  0
LINE
  5
28F
100
AcDbEntity
  8
0
100
AcDbLine
 62
7
  6
CONTINUOUS
 10
6.12525
 20
7.2575
 11
6.16325
 21
7.2575
  0
LINE
  5
290
100
AcDbEntity
  8
THREAD
100
AcDbLine
 62
7
  6
CONTINUOUS
 10
5.0422403812
 20
6.6723301271
 11
5.0242500001
 21
6.6619433757
  0
LINE
  5
291
100
AcDbEntity
  8
THREAD
100
AcDbLine
 62
7
  6
CONTINUOUS
 10
5.1862444465
 20
7.2715
 11
5.17875
 21
7.2715
  0
LINE
  5
292
100
AcDbEntity
  8
THREAD
100
AcDbLine
 62
7
  6
CONTINUOUS
 10
5.58675
 20
7.274
 11
5.54825
 21
7.274
  0
LINE
  5
293
100
AcDbEntity
  8
THREAD
100
AcDbLine
 62
7
  6
CONTINUOUS
 10
5.51325
 20
7.274
 11
5.48075
 21
7.274
  0
LINE
  5
294
100
AcDbEntity
  8
0
100
AcDbLine
 62
7
  6
CONTINUOUS
 10
4.63475
 20
7.297
 11
4.62675
 21
7.297
  0
LINE
  5
295
100
AcDbEntity
  8
0
100
AcDbLine
 62
7
  6
CONTINUOUS
 10
4.9525583117
 20
7.3045
 11
4.7160756629
 21
7.3045
  0
LINE
  5
296
100
AcDbEntity
  8
THREAD
100
AcDbLine
 62
7
  6
CONTINUOUS
 10
5.44575
 20
7.309
 11
5.2154006351
 21
7.309
  0
LINE
  5
297
100
AcDbEntity
  8
0
100
AcDbLine
 62
7
  6
CONTINUOUS
 10
5.12875
 20
7.3255
 11
5.17875
 21
7.3255
  0
LINE
  5
298
100
AcDbEntity
  8
THREAD
100
AcDbLine
 62
7
  6
CONTINUOUS
 10
5.05875
 20
7.327
 11
5.0447403811
 21
7.327
  0
LINE
  5
299
100
AcDbEntity
  8
0
100
AcDbLine
 62
7
  6
CONTINUOUS
 10
5.01875
 20
7.35
 11
4.96475
 21
7.35
  0
LINE
  5
29A
100
AcDbEntity
  8
0
100
AcDbLine
 62
7
  6
CONTINUOUS
 10
4.70375
 20
7.3505
 11
4.64775
 21
7.3505
  0
LINE
  5
29B
100
AcDbEntity
  8
0
100
AcDbLine
 62
7
  6
CONTINUOUS
 10
4.50675
 20
7.3505
 11
4.31875
 21
7.3505
  0
LINE
  5
29C
100
AcDbEntity
  8
0
100
AcDbLine
 62
7
  6
CONTINUOUS
 10
4.50675
 20
7.351
 11
4.55675
 21
7.351
  0
LINE
  5
29D
100
AcDbEntity
  8
THREAD
100
AcDbLine
 62
7
  6
CONTINUOUS
 10
5.0422403812
 20
7.3276698729
 11
5.0242500001
 21
7.3380566243
  0
LINE
  5
29E
100
AcDbEntity
  8
0
100
AcDbLine
 62
7
  6
CONTINUOUS
 10
4.2763147552
 20
7.3588696367
 11
3.7960608891
 21
7.3588696367
  0
LINE
  5
29F
100
AcDbEntity
  8
0
100
AcDbLine
 62
7
  6
CONTINUOUS
 10
3.7677711982
 20
7.3749889998
 11
4.3046044462
 21
7.3749889998
  0
LINE
  5
2A0
100
AcDbEntity
  8
THREAD
100
AcDbLine
 62
7
  6
CONTINUOUS
 10
5.44575
 20
6.691
 11
5.44575
 21
7.309
  0
LINE
  5
2A1
100
AcDbEntity
  8
THREAD
100
AcDbLine
 62
7
  6
CONTINUOUS
 10
5.48075
 20
6.726
 11
5.48075
 21
7.274
  0
LINE
  5
2A2
100
AcDbEntity
  8
0
100
AcDbLine
 62
7
  6
CONTINUOUS
 10
5.51325
 20
7.2431993464
 11
5.51325
 21
7.274
  0
LINE
  5
2A3
100
AcDbEntity
  8
0
100
AcDbLine
 62
7
  6
CONTINUOUS
 10
5.99825
 20
7.257
 11
5.97475
 21
7.2335
  0
LINE
  5
2A4
100
AcDbEntity
  8
0
100
AcDbLine
 62
7
  6
CONTINUOUS
 10
5.99825
 20
6.743
 11
5.97475
 21
6.7665
  0
LINE
  5
2A5
100
AcDbEntity
  8
0
100
AcDbLine
 62
7
  6
CONTINUOUS
 10
5.54825
 20
7.2431993464
 11
5.54825
 21
7.274
  0
LINE
  5
2A6
100
AcDbEntity
  8
0
100
AcDbLine
 62
7
  6
CONTINUOUS
 10
5.58675
 20
6.726
 11
5.58675
 21
7.274
  0
LINE
  5
2A7
100
AcDbEntity
  8
0
100
AcDbLine
 62
7
  6
CONTINUOUS
 10
5.59475
 20
6.734
 11
5.59475
 21
7.266
  0
LINE
  5
2A8
100
AcDbEntity
  8
THREAD
100
AcDbLine
 62
7
  6
CONTINUOUS
 10
5.48075
 20
6.726
 11
5.44575
 21
6.691
  0
LINE
  5
2A9
100
AcDbEntity
  8
0
100
AcDbLine
 62
7
  6
CONTINUOUS
 10
5.59475
 20
6.734
 11
5.58675
 21
6.726
  0
LINE
  5
2AA
100
AcDbEntity
  8
THREAD
100
AcDbLine
 62
7
  6
CONTINUOUS
 10
5.48075
 20
7.274
 11
5.44575
 21
7.309
  0
LINE
  5
2AB
100
AcDbEntity
  8
0
100
AcDbLine
 62
7
  6
CONTINUOUS
 10
5.59475
 20
7.266
 11
5.58675
 21
7.274
  0
LINE
  5
2AC
100
AcDbEntity
  8
0
100
AcDbLine
 62
7
  6
CONTINUOUS
 10
5.62525
 20
7.2485
 11
5.62525
 21
6.7515
  0
LINE
  5
2AD
100
AcDbEntity
  8
0
100
AcDbLine
 62
7
  6
CONTINUOUS
 10
5.64025
 20
7.2335
 11
5.64025
 21
6.7665
  0
LINE
  5
2AE
100
AcDbEntity
  8
0
100
AcDbLine
 62
7
  6
CONTINUOUS
 10
5.64025
 20
6.7665
 11
5.62525
 21
6.7515
  0
LINE
  5
2AF
100
AcDbEntity
  8
0
100
AcDbLine
 62
7
  6
CONTINUOUS
 10
5.64025
 20
7.2335
 11
5.62525
 21
7.2485
  0
LINE
  5
2B0
100
AcDbEntity
  8
0
100
AcDbLine
 62
7
  6
CONTINUOUS
 10
5.95325
 20
6.959187511
 11
5.95325
 21
7.0408365518
  0
LINE
  5
2B1
100
AcDbEntity
  8
0
100
AcDbLine
 62
7
  6
CONTINUOUS
 10
5.97475
 20
7.2335
 11
5.97475
 21
7.0151244835
  0
LINE
  5
2B2
100
AcDbEntity
  8
0
100
AcDbLine
 62
7
  6
CONTINUOUS
 10
5.97475
 20
6.9848755165
 11
5.97475
 21
6.7665
  0
LINE
  5
2B3
100
AcDbEntity
  8
0
100
AcDbLine
 62
7
  6
CONTINUOUS
 10
5.99825
 20
7.257
 11
5.99825
 21
6.743
  0
LINE
  5
2B4
100
AcDbEntity
  8
0
100
AcDbLine
 62
7
  6
CONTINUOUS
 10
6.03725
 20
7.2575
 11
6.03725
 21
6.7425
  0
LINE
  5
2B5
100
AcDbEntity
  8
0
100
AcDbLine
 62
7
  6
CONTINUOUS
 10
6.07525
 20
7.2575
 11
6.07525
 21
6.7425
  0
LINE
  5
2B6
100
AcDbEntity
  8
0
100
AcDbLine
 62
7
  6
CONTINUOUS
 10
6.12525
 20
7.2575
 11
6.12525
 21
6.7425
  0
LINE
  5
2B7
100
AcDbEntity
  8
0
100
AcDbLine
 62
7
  6
CONTINUOUS
 10
6.16325
 20
7.2575
 11
6.16325
 21
6.7425
  0
LINE
  5
2B8
100
AcDbEntity
  8
0
100
AcDbLine
 62
7
  6
CONTINUOUS
 10
6.18525
 20
7.257
 11
6.18525
 21
6.743
  0
LINE
  5
2B9
100
AcDbEntity
  8
0
100
AcDbLine
 62
7
  6
CONTINUOUS
 10
6.23425
 20
7.257
 11
6.23425
 21
6.743
  0
ARC
  5
2BA
100
AcDbEntity
  8
124-300_FEATURES
100
AcDbCircle
 62
7
  6
CONTINUOUS
 10
2.4901474541
 20
6.0364711216
 40
2.5491419417
100
AcDbArc
 50
14.601192737
 51
14.9888087562
  0
ARC
  5
2BB
100
AcDbEntity
  8
124-300_FEATURES
100
AcDbCircle
 62
7
  6
CONTINUOUS
 10
4.9528178411
 20
6.2751609178
 40
0.4205958115
100
AcDbArc
 50
90.0353544611
 51
92.0020042729
  0
ARC
  5
2BC
100
AcDbEntity
  8
0
100
AcDbCircle
 62
7
  6
CONTINUOUS
 10
6.2086652412
 20
7.0
 40
0.2339152334
100
AcDbArc
 50
176.6038227287
 51
183.3961772713
  0
ARC
  5
2BD
100
AcDbEntity
  8
0
100
AcDbCircle
 62
7
  6
CONTINUOUS
 10
5.93025
 20
7.0
 40
0.047
100
AcDbArc
 50
17.1474394179
 51
342.8525605821
  0
ARC
  5
2BE
100
AcDbEntity
  8
0
100
AcDbCircle
 62
7
  6
CONTINUOUS
 10
5.90425
 20
7.0
 40
0.0275
100
AcDbArc
 50
237.6752769148
 51
122.1069677125
  0
ARC
  5
2BF
100
AcDbEntity
  8
0
100
AcDbCircle
 62
7
  6
CONTINUOUS
 10
4.63475
 20
6.69
 40
0.013
100
AcDbArc
 50
0.0000101702
 51
90.0
  0
ARC
  5
2C0
100
AcDbEntity
  8
0
100
AcDbCircle
 62
7
  6
CONTINUOUS
 10
5.1862444465
 20
6.7155
 40
0.013
100
AcDbArc
 50
30.0000077227
 51
90.0
  0
ARC
  5
2C1
100
AcDbEntity
  8
0
100
AcDbCircle
 62
7
  6
CONTINUOUS
 10
4.63475
 20
7.31
 40
0.013
100
AcDbArc
 50
270.0
 51
359.9999898298
  0
ARC
  5
2C2
100
AcDbEntity
  8
0
100
AcDbCircle
 62
7
  6
CONTINUOUS
 10
5.1862444465
 20
7.2845
 40
0.013
100
AcDbArc
 50
270.0
 51
329.9999922773
  0
ARC
  5
2C3
100
AcDbEntity
  8
0
100
AcDbCircle
 62
7
  6
CONTINUOUS
 10
5.0447403811
 20
7.332
 40
0.005
100
AcDbArc
 50
240.0000013145
 51
270.0
  0
ARC
  5
2C4
100
AcDbEntity
  8
0
100
AcDbCircle
 62
7
  6
CONTINUOUS
 10
5.02675
 20
7.3423867513
 40
0.005
100
AcDbArc
 50
180.0000022734
 51
240.0000011512
  0
ARC
  5
2C5
100
AcDbEntity
  8
0
100
AcDbCircle
 62
7
  6
CONTINUOUS
 10
5.0447403811
 20
6.668
 40
0.005
100
AcDbArc
 50
90.0
 51
119.9999986855
  0
ARC
  5
2C6
100
AcDbEntity
  8
0
100
AcDbCircle
 62
7
  6
CONTINUOUS
 10
5.02675
 20
6.6576132487
 40
0.005
100
AcDbArc
 50
119.9999988488
 51
179.9999977266
  0
ARC
  5
2C7
100
AcDbEntity
  8
0
100
AcDbCircle
 62
7
  6
CONTINUOUS
 10
5.01875
 20
6.653
 40
0.003
100
AcDbArc
 50
270.0
 51
0.0000358583
  0
ARC
  5
2C8
100
AcDbEntity
  8
0
100
AcDbCircle
 62
7
  6
CONTINUOUS
 10
5.01875
 20
7.347
 40
0.003
100
AcDbArc
 50
359.9999641418
 51
90.0
  0
SPLINE
  5
2C9
100
AcDbEntity
  8
0
100
AcDbSpline
 62
7
  6
CONTINUOUS
 70
0
 71
3
 72
23
 73
19
 74
0
 42
0.0000001
 43
0.0000001
 44
0.0000000001
 40
0.0
 40
0.0
 40
0.0
 40
0.0
 40
0.0508084714
 40
0.1027195043
 40
0.1560865574
 40
0.2111752806
 40
0.2681339083
 40
0.3270408388
 40
0.3878938175
 40
0.4506228796
 40
0.5151213479
 40
0.5812245664
 40
0.6487398016
 40
0.7174716156
 40
0.7872191076
 40
0.8577738782
 40
0.9288289995
 40
1.0
 40
1.0
 40
1.0
 40
1.0
 10
5.85075
 20
7.1651094334
 30
0.0
 10
5.85075
 20
7.1643742717
 30
0.0
 10
5.8508551467
 20
7.1628861762
 30
0.0
 10
5.8513153217
 20
7.1606688636
 30
0.0
 10
5.8520746229
 20
7.1584697696
 30
0.0
 10
5.8531250459
 20
7.1563131704
 30
0.0
 10
5.8544535868
 20
7.1542208045
 30
0.0
 10
5.8560485748
 20
7.1522164421
 30
0.0
 10
5.8578935859
 20
7.1503217259
 30
0.0
 10
5.8599708307
 20
7.1485575532
 30
0.0
 10
5.8622618721
 20
7.1469460372
 30
0.0
 10
5.8647437466
 20
7.1455046068
 30
0.0
 10
5.8673937409
 20
7.144251615
 30
0.0
 10
5.8701875931
 20
7.1432037182
 30
0.0
 10
5.8730991109
 20
7.1423725254
 30
0.0
 10
5.8761011375
 20
7.141771977
 30
0.0
 10
5.8791614055
 20
7.1414083959
 30
0.0
 10
5.8812202072
 20
7.1413262586
 30
0.0
 10
5.88225
 20
7.1413262586
 30
0.0
  0
SPLINE
  5
2CA
100
AcDbEntity
  8
0
100
AcDbSpline
 62
7
  6
CONTINUOUS
 70
0
 71
3
 72
15
 73
11
 74
0
 42
0.0000001
 43
0.0000001
 44
0.0000000001
 40
0.0
 40
0.0
 40
0.0
 40
0.0
 40
0.0384645573
 40
0.1472865905
 40
0.3092426998
 40
0.5000294255
 40
0.6908067239
 40
0.852740068
 40
0.9615429876
 40
1.0
 40
1.0
 40
1.0
 40
1.0
 10
5.94425
 20
7.2335
 30
0.0
 10
5.943259095
 20
7.2333344775
 30
0.0
 10
5.9394608823
 20
7.232723547
 30
0.0
 10
5.9314569697
 20
7.2316271268
 30
0.0
 10
5.9194465536
 20
7.2305199876
 30
0.0
 10
5.905247938
 20
7.2300579192
 30
0.0
 10
5.8910499222
 20
7.2305201667
 30
0.0
 10
5.8790408613
 20
7.2316273945
 30
0.0
 10
5.8710382384
 20
7.2327237065
 30
0.0
 10
5.8672407117
 20
7.2333345161
 30
0.0
 10
5.86625
 20
7.2335
 30
0.0
  0
SPLINE
  5
2CB
100
AcDbEntity
  8
0
100
AcDbSpline
 62
7
  6
CONTINUOUS
 70
0
 71
3
 72
16
 73
12
 74
0
 42
0.0000001
 43
0.0000001
 44
0.0000000001
 40
0.0
 40
0.0
 40
0.0
 40
0.0
 40
0.0510488545
 40
0.1030519646
 40
0.1563954222
 40
0.2113590836
 40
0.3267201931
 40
0.4499238779
 40
0.7160549855
 40
0.8570101656
 40
1.0
 40
1.0
 40
1.0
 40
1.0
 10
5.8877495699
 20
6.8348906922
 30
0.0
 10
5.8877495699
 20
6.8354379057
 30
0.0
 10
5.8876724144
 20
6.836544002
 30
0.0
 10
5.8873292671
 20
6.8381897507
 30
0.0
 10
5.8867625296
 20
6.8398170085
 30
0.0
 10
5.885702811
 20
6.8419732292
 30
0.0
 10
5.88382634
 20
6.8445338255
 30
0.0
 10
5.8797975526
 20
6.8481850995
 30
0.0
 10
5.874588161
 20
6.8507700912
 30
0.0
 10
5.8688331616
 20
6.8521118595
 30
0.0
 10
5.8657827662
 20
6.852345892
 30
0.0
 10
5.86425
 20
6.852345892
 30
0.0
  0
SPLINE
  5
2CC
100
AcDbEntity
  8
0
100
AcDbSpline
 62
7
  6
CONTINUOUS
 70
0
 71
3
 72
15
 73
11
 74
0
 42
0.0000001
 43
0.0000001
 44
0.0000000001
 40
0.0
 40
0.0
 40
0.0
 40
0.0
 40
0.0384639314
 40
0.147284407
 40
0.3092384964
 40
0.5000233959
 40
0.6908008958
 40
0.8527368314
 40
0.9615420842
 40
1.0
 40
1.0
 40
1.0
 40
1.0
 10
5.86625
 20
6.7665
 30
0.0
 10
5.867240889
 20
6.7666655192
 30
0.0
 10
5.8710390455
 20
6.7672764396
 30
0.0
 10
5.8790428484
 20
6.7683728512
 30
0.0
 10
5.8910531222
 20
6.7694799945
 30
0.0
 10
5.905251642
 20
6.7699420775
 30
0.0
 10
5.9194496835
 20
6.769479852
 30
0.0
 10
5.9314588802
 20
6.768372638
 30
0.0
 10
5.9394616551
 20
6.7672763125
 30
0.0
 10
5.9432592652
 20
6.7666654884
 30
0.0
 10
5.94425
 20
6.7665
 30
0.0
  0
SPLINE
  5
2CD
100
AcDbEntity
  8
0
100
AcDbSpline
 62
7
  6
CONTINUOUS
 70
0
 71
3
 72
23
 73
19
 74
0
 42
0.0000001
 43
0.0000001
 44
0.0000000001
 40
0.0
 40
0.0
 40
0.0
 40
0.0
 40
0.0711710003
 40
0.142226121
 40
0.2127808908
 40
0.2825283822
 40
0.3512601959
 40
0.4187754307
 40
0.4848786486
 40
0.5493771168
 40
0.6121061797
 40
0.6729591597
 40
0.7318660914
 40
0.78882472
 40
0.8439134436
 40
0.8972804967
 40
0.949191529
 40
1.0
 40
1.0
 40
1.0
 40
1.0
 10
5.88225
 20
7.1413262586
 30
0.0
 10
5.8832797927
 20
7.1413262586
 30
0.0
 10
5.8853385944
 20
7.1414083959
 30
0.0
 10
5.8883988625
 20
7.141771977
 30
0.0
 10
5.8914008891
 20
7.1423725254
 30
0.0
 10
5.8943124068
 20
7.1432037182
 30
0.0
 10
5.897106259
 20
7.1442516149
 30
0.0
 10
5.8997562532
 20
7.1455046067
 30
0.0
 10
5.9022381277
 20
7.1469460371
 30
0.0
 10
5.9045291692
 20
7.1485575531
 30
0.0
 10
5.906606414
 20
7.1503217258
 30
0.0
 10
5.9084514251
 20
7.1522164421
 30
0.0
 10
5.9100464131
 20
7.1542208045
 30
0.0
 10
5.9113749541
 20
7.1563131704
 30
0.0
 10
5.9124253771
 20
7.1584697696
 30
0.0
 10
5.9131846784
 20
7.1606688636
 30
0.0
 10
5.9136448533
 20
7.1628861762
 30
0.0
 10
5.91375
 20
7.1643742717
 30
0.0
 10
5.91375
 20
7.1651094334
 30
0.0
  0
SPLINE
  5
2CE
100
AcDbEntity
  8
0
100
AcDbSpline
 62
7
  6
CONTINUOUS
 70
0
 71
3
 72
16
 73
12
 74
0
 42
0.0000001
 43
0.0000001
 44
0.0000000001
 40
0.0
 40
0.0
 40
0.0
 40
0.0
 40
0.1429898361
 40
0.2839450181
 40
0.5500761236
 40
0.6732798076
 40
0.7886409165
 40
0.8436045778
 40
0.8969480354
 40
0.9489511455
 40
1.0
 40
1.0
 40
1.0
 40
1.0
 10
5.86425
 20
6.852345892
 30
0.0
 10
5.8627172338
 20
6.852345892
 30
0.0
 10
5.8596668384
 20
6.8521118595
 30
0.0
 10
5.853911839
 20
6.8507700912
 30
0.0
 10
5.8487024474
 20
6.8481850995
 30
0.0
 10
5.84467366
 20
6.8445338255
 30
0.0
 10
5.842797189
 20
6.8419732293
 30
0.0
 10
5.8417374705
 20
6.8398170086
 30
0.0
 10
5.8411707329
 20
6.8381897508
 30
0.0
 10
5.8408275856
 20
6.8365440021
 30
0.0
 10
5.8407504301
 20
6.8354379058
 30
0.0
 10
5.8407504301
 20
6.8348906923
 30
0.0
  0
SPLINE
  5
2CF
100
AcDbEntity
  8
0
100
AcDbSpline
 62
7
  6
CONTINUOUS
 70
0
 71
3
 72
21
 73
17
 74
0
 42
0.0000001
 43
0.0000001
 44
0.0000000001
 40
0.0
 40
0.0
 40
0.0
 40
0.0
 40
0.0522144155
 40
0.1042660123
 40
0.1567013002
 40
0.2100620951
 40
0.2648367096
 40
0.3214250321
 40
0.3801253391
 40
0.4411197037
 40
0.5044862724
 40
0.5701730745
 40
0.7077815363
 40
0.8521229175
 40
0.9259053928
 40
1.0
 40
1.0
 40
1.0
 40
1.0
 10
5.91375
 20
7.1651094334
 30
0.0
 10
5.91375
 20
7.1658348861
 30
0.0
 10
5.9136487535
 20
7.1672856529
 30
0.0
 10
5.9131910677
 20
7.1694212519
 30
0.0
 10
5.9124320704
 20
7.1714865541
 30
0.0
 10
5.9113793857
 20
7.1734610231
 30
0.0
 10
5.9100472713
 20
7.1753294403
 30
0.0
 10
5.9084478589
 20
7.177075987
 30
0.0
 10
5.906598532
 20
7.1786889267
 30
0.0
 10
5.9045177931
 20
7.1801586525
 30
0.0
 10
5.9022244184
 20
7.1814745304
 30
0.0
 10
5.8988622233
 20
7.1830397215
 30
0.0
 10
5.8942546293
 20
7.1845499179
 30
0.0
 10
5.889379984
 20
7.1854461269
 30
0.0
 10
5.885334625
 20
7.1858120305
 30
0.0
 10
5.88327945
 20
7.1858739859
 30
0.0
 10
5.88225
 20
7.1858739859
 30
0.0
  0
SPLINE
  5
2D0
100
AcDbEntity
  8
0
100
AcDbSpline
 62
7
  6
CONTINUOUS
 70
0
 71
3
 72
21
 73
17
 74
0
 42
0.0000001
 43
0.0000001
 44
0.0000000001
 40
0.0
 40
0.0
 40
0.0
 40
0.0
 40
0.074094607
 40
0.1478770817
 40
0.2922184615
 40
0.4298269225
 40
0.4955137242
 40
0.5588802929
 40
0.6198746582
 40
0.6785749665
 40
0.7351632903
 40
0.7899379056
 40
0.843298701
 40
0.8957339886
 40
0.9477855848
 40
1.0
 40
1.0
 40
1.0
 40
1.0
 10
5.88225
 20
7.1858739859
 30
0.0
 10
5.88122055
 20
7.1858739859
 30
0.0
 10
5.879165375
 20
7.1858120305
 30
0.0
 10
5.8751200161
 20
7.1854461269
 30
0.0
 10
5.8702453707
 20
7.1845499179
 30
0.0
 10
5.8656377768
 20
7.1830397215
 30
0.0
 10
5.8622755818
 20
7.1814745304
 30
0.0
 10
5.8599822071
 20
7.1801586525
 30
0.0
 10
5.8579014681
 20
7.1786889268
 30
0.0
 10
5.8560521411
 20
7.1770759871
 30
0.0
 10
5.8544527287
 20
7.1753294403
 30
0.0
 10
5.8531206143
 20
7.1734610231
 30
0.0
 10
5.8520679296
 20
7.1714865541
 30
0.0
 10
5.8513089323
 20
7.1694212519
 30
0.0
 10
5.8508512465
 20
7.167285653
 30
0.0
 10
5.85075
 20
7.1658348861
 30
0.0
 10
5.85075
 20
7.1651094334
 30
0.0
  0
SPLINE
  5
2D1
100
AcDbEntity
  8
0
100
AcDbSpline
 62
7
  6
CONTINUOUS
 70
0
 71
3
 72
22
 73
18
 74
0
 42
0.0000001
 43
0.0000001
 44
0.0000000001
 40
0.0
 40
0.0
 40
0.0
 40
0.0
 40
0.0736547145
 40
0.1470512069
 40
0.2908577927
 40
0.3605481598
 40
0.4283685633
 40
0.4941111478
 40
0.5576383505
 40
0.618879855
 40
0.6778725983
 40
0.73477427
 40
0.7898369602
 40
0.8434216554
 40
0.8959695995
 40
0.9479838264
 40
1.0
 40
1.0
 40
1.0
 40
1.0
 10
5.86425
 20
6.8191118733
 30
0.0
 10
5.8650173603
 20
6.8191118733
 30
0.0
 10
5.8665499301
 20
6.8191600437
 30
0.0
 10
5.86956807
 20
6.8194439332
 30
0.0
 10
5.8725145257
 20
6.8200065979
 30
0.0
 10
5.8753214327
 20
6.8208570366
 30
0.0
 10
5.8772990942
 20
6.8216200082
 30
0.0
 10
5.8791519529
 20
6.8225103128
 30
0.0
 10
5.8808633405
 20
6.8235207836
 30
0.0
 10
5.8824165706
 20
6.8246452622
 30
0.0
 10
5.8837957727
 20
6.8258766462
 30
0.0
 10
5.8849887289
 20
6.8272044342
 30
0.0
 10
5.8859826317
 20
6.8286194653
 30
0.0
 10
5.8867661904
 20
6.8301102915
 30
0.0
 10
5.8873328519
 20
6.8316629597
 30
0.0
 10
5.8876746037
 20
6.8332633423
 30
0.0
 10
5.8877495699
 20
6.8343487698
 30
0.0
 10
5.8877495699
 20
6.8348906922
 30
0.0
  0
SPLINE
  5
2D2
100
AcDbEntity
  8
0
100
AcDbSpline
 62
7
  6
CONTINUOUS
 70
0
 71
3
 72
22
 73
18
 74
0
 42
0.0000001
 43
0.0000001
 44
0.0000000001
 40
0.0
 40
0.0
 40
0.0
 40
0.0
 40
0.0520161736
 40
0.1040304006
 40
0.1565783447
 40
0.21016304
 40
0.2652257304
 40
0.3221274025
 40
0.3811201461
 40
0.4423616511
 40
0.5058888542
 40
0.5716314394
 40
0.6394518435
 40
0.709142211
 40
0.8529487948
 40
0.926345286
 40
1.0
 40
1.0
 40
1.0
 40
1.0
 10
5.8407504301
 20
6.8348906923
 30
0.0
 10
5.8407504301
 20
6.8343487699
 30
0.0
 10
5.8408253963
 20
6.8332633423
 30
0.0
 10
5.841167148
 20
6.8316629597
 30
0.0
 10
5.8417338096
 20
6.8301102916
 30
0.0
 10
5.8425173683
 20
6.8286194654
 30
0.0
 10
5.8435112711
 20
6.8272044343
 30
0.0
 10
5.8447042273
 20
6.8258766463
 30
0.0
 10
5.8460834294
 20
6.8246452622
 30
0.0
 10
5.8476366595
 20
6.8235207836
 30
0.0
 10
5.8493480472
 20
6.8225103128
 30
0.0
 10
5.8512009058
 20
6.8216200082
 30
0.0
 10
5.8531785674
 20
6.8208570365
 30
0.0
 10
5.8559854744
 20
6.8200065979
 30
0.0
 10
5.85893193
 20
6.8194439332
 30
0.0
 10
5.86195007
 20
6.8191600437
 30
0.0
 10
5.8634826397
 20
6.8191118733
 30
0.0
 10
5.86425
 20
6.8191118733
 30
0.0
  0
LINE
  5
2D3
100
AcDbEntity
  8
124-300_FEATURES
100
AcDbLine
 62
7
  6
CONTINUOUS
 10
4.9569621111
 20
6.6790830472
 11
4.9571336293
 21
6.6784246825
  0
SPLINE
  5
2D4
100
AcDbEntity
  8
0
100
AcDbSpline
 62
7
  6
CONTINUOUS
 70
0
 71
3
 72
19
 73
15
 74
0
 42
0.0000001
 43
0.0000001
 44
0.0000000001
 40
0.0
 40
0.0
 40
0.0
 40
0.0
 40
0.1256042504
 40
0.2507288507
 40
0.3131427055
 40
0.3754774425
 40
0.4377532998
 40
0.5000000243
 40
0.5622467514
 40
0.6245226068
 40
0.6868573401
 40
0.7492711918
 40
0.8743957588
 40
1.0
 40
1.0
 40
1.0
 40
1.0
 10
3.7960608891
 20
6.6411303633
 30
0.0
 10
3.7917235065
 20
6.6550705205
 30
0.0
 10
3.7838144454
 20
6.6831395117
 30
0.0
 10
3.7762673445
 20
6.7187808156
 30
0.0
 10
3.7719088084
 20
6.7475024755
 30
0.0
 10
3.7695333894
 20
6.7691172713
 30
0.0
 10
3.768086562
 20
6.7907949275
 30
0.0
 10
3.7676053453
 20
6.8125055089
 30
0.0
 10
3.768086567
 20
6.8342160897
 30
0.0
 10
3.7695333851
 20
6.8558937464
 30
0.0
 10
3.7719088164
 20
6.8775085398
 30
0.0
 10
3.7762673396
 20
6.9062301968
 30
0.0
 10
3.7838144505
 20
6.9418714936
 30
0.0
 10
3.7917235068
 20
6.9699404806
 30
0.0
 10
3.7960608891
 20
6.9838806368
 30
0.0
  0
SPLINE
  5
2D5
100
AcDbEntity
  8
0
100
AcDbSpline
 62
7
  6
CONTINUOUS
 70
0
 71
3
 72
19
 73
15
 74
0
 42
0.0000001
 43
0.0000001
 44
0.0000000001
 40
0.0
 40
0.0
 40
0.0
 40
0.0
 40
0.1256042504
 40
0.2507288507
 40
0.3131427055
 40
0.3754774425
 40
0.4377532998
 40
0.5000000243
 40
0.5622467514
 40
0.6245226068
 40
0.6868573401
 40
0.7492711918
 40
0.8743957588
 40
1.0
 40
1.0
 40
1.0
 40
1.0
 10
4.2763147552
 20
6.6411303633
 30
0.0
 10
4.2806521379
 20
6.6550705205
 30
0.0
 10
4.2885611989
 20
6.6831395117
 30
0.0
 10
4.2961082999
 20
6.7187808156
 30
0.0
 10
4.3004668359
 20
6.7475024755
 30
0.0
 10
4.302842255
 20
6.7691172713
 30
0.0
 10
4.3042890824
 20
6.7907949275
 30
0.0
 10
4.304770299
 20
6.8125055089
 30
0.0
 10
4.3042890774
 20
6.8342160897
 30
0.0
 10
4.3028422592
 20
6.8558937464
 30
0.0
 10
4.3004668279
 20
6.8775085398
 30
0.0
 10
4.2961083047
 20
6.9062301968
 30
0.0
 10
4.2885611938
 20
6.9418714936
 30
0.0
 10
4.2806521376
 20
6.9699404806
 30
0.0
 10
4.2763147552
 20
6.9838806368
 30
0.0
  0
SPLINE
  5
2D6
100
AcDbEntity
  8
0
100
AcDbSpline
 62
7
  6
CONTINUOUS
 70
0
 71
3
 72
19
 73
15
 74
0
 42
0.0000001
 43
0.0000001
 44
0.0000000001
 40
0.0
 40
0.0
 40
0.0
 40
0.0
 40
0.1256042504
 40
0.2507288507
 40
0.3131427055
 40
0.3754774425
 40
0.4377532998
 40
0.5000000243
 40
0.5622467514
 40
0.6245226068
 40
0.6868573401
 40
0.7492711918
 40
0.8743957588
 40
1.0
 40
1.0
 40
1.0
 40
1.0
 10
3.7960608891
 20
7.0161193632
 30
0.0
 10
3.7917235065
 20
7.0300595204
 30
0.0
 10
3.7838144454
 20
7.0581285116
 30
0.0
 10
3.7762673445
 20
7.0937698154
 30
0.0
 10
3.7719088084
 20
7.1224914753
 30
0.0
 10
3.7695333894
 20
7.1441062711
 30
0.0
 10
3.768086562
 20
7.1657839274
 30
0.0
 10
3.7676053453
 20
7.1874945088
 30
0.0
 10
3.768086567
 20
7.2092050895
 30
0.0
 10
3.7695333851
 20
7.2308827462
 30
0.0
 10
3.7719088164
 20
7.2524975396
 30
0.0
 10
3.7762673396
 20
7.2812191966
 30
0.0
 10
3.7838144505
 20
7.3168604934
 30
0.0
 10
3.7917235068
 20
7.3449294805
 30
0.0
 10
3.7960608891
 20
7.3588696367
 30
0.0
  0
SPLINE
  5
2D7
100
AcDbEntity
  8
0
100
AcDbSpline
 62
7
  6
CONTINUOUS
 70
0
 71
3
 72
19
 73
15
 74
0
 42
0.0000001
 43
0.0000001
 44
0.0000000001
 40
0.0
 40
0.0
 40
0.0
 40
0.0
 40
0.1256042504
 40
0.2507288507
 40
0.3131427055
 40
0.3754774425
 40
0.4377532998
 40
0.5000000243
 40
0.5622467514
 40
0.6245226068
 40
0.6868573401
 40
0.7492711918
 40
0.8743957588
 40
1.0
 40
1.0
 40
1.0
 40
1.0
 10
4.2763147552
 20
7.0161193632
 30
0.0
 10
4.2806521379
 20
7.0300595204
 30
0.0
 10
4.2885611989
 20
7.0581285116
 30
0.0
 10
4.2961082999
 20
7.0937698154
 30
0.0
 10
4.3004668359
 20
7.1224914753
 30
0.0
 10
4.302842255
 20
7.1441062711
 30
0.0
 10
4.3042890824
 20
7.1657839274
 30
0.0
 10
4.304770299
 20
7.1874945088
 30
0.0
 10
4.3042890774
 20
7.2092050895
 30
0.0
 10
4.3028422592
 20
7.2308827462
 30
0.0
 10
4.3004668279
 20
7.2524975396
 30
0.0
 10
4.2961083047
 20
7.2812191966
 30
0.0
 10
4.2885611938
 20
7.3168604934
 30
0.0
 10
4.2806521376
 20
7.3449294805
 30
0.0
 10
4.2763147552
 20
7.3588696367
 30
0.0
  0
ELLIPSE
  5
2D8
100
AcDbEntity
  8
0
100
AcDbEllipse
 62
7
  6
CONTINUOUS
 10
6.10025
 20
6.7595
 30
0.0
 11
0.025
 21
-0.0
 31
0.0
 40
1.0
 41
-3.1415926536
 42
0.0
  0
ELLIPSE
  5
2D9
100
AcDbEntity
  8
0
100
AcDbEllipse
 62
7
  6
CONTINUOUS
 10
6.10025
 20
7.2405
 30
0.0
 11
0.025
 21
0.0
 31
0.0
 40
1.0
 41
0.0
 42
3.1415926536
  0
ELLIPSE
  5
2DA
100
AcDbEntity
  8
0
100
AcDbEllipse
 62
7
  6
CONTINUOUS
 10
5.09375
 20
6.6935
 30
0.0
 11
0.0
 21
0.035
 31
0.0
 40
1.0
 41
-4.7123889804
 42
-1.5707963268
  0
ELLIPSE
  5
2DB
100
AcDbEntity
  8
0
100
AcDbEllipse
 62
7
  6
CONTINUOUS
 10
5.09375
 20
7.3065
 30
0.0
 11
0.035
 21
0.0
 31
0.0
 40
1.0
 41
0.0
 42
3.1415926536
  0
ELLIPSE
  5
2DC
100
AcDbEntity
  8
0
100
AcDbEllipse
 62
7
  6
CONTINUOUS
 10
4.59175
 20
6.668
 30
0.0
 11
0.0
 21
0.035
 31
0.0
 40
1.0
 41
-4.7123889804
 42
-1.5707963268
  0
ELLIPSE
  5
2DD
100
AcDbEntity
  8
0
100
AcDbEllipse
 62
7
  6
CONTINUOUS
 10
4.59175
 20
7.332
 30
0.0
 11
0.035
 21
-0.0
 31
0.0
 40
1.0
 41
0.0
 42
3.1415926536
  0
ENDSEC
  0
SECTION
  2
OBJECTS
  0
DICTIONARY
  5
C
100
AcDbDictionary
280
0
281
1
  3
ACAD_GROUP
350
D
  3
ACAD_MLINESTYLE
350
17
  3
ACAD_LAYOUT
350
1A
  3
ACAD_PLOTSETTINGS
350
19
  3
ACAD_PLOTSTYLENAME
350
E
  0
DICTIONARY
  5
D
102
{ACAD_REACTORS
330
C
102
}
100
AcDbDictionary
280
0
281
1
  0
ACDBDICTIONARYWDFLT
  5
E
102
{ACAD_REACTORS
330
C
102
}
100
AcDbDictionary
281
1
  3
Normal
350
F
100
AcDbDictionaryWithDefault
340
F
  0
DICTIONARY
  5
17
102
{ACAD_REACTORS
330
C
102
}
100
AcDbDictionary
280
0
281
1
  3
Standard
350
18
  0
DICTIONARY
  5
19
102
{ACAD_REACTORS
330
C
102
}
100
AcDbDictionary
281
1
  0
DICTIONARY
  5
1A
102
{ACAD_REACTORS
330
C
102
}
100
AcDbDictionary
281
1
  3
Model
350
2DE
  3
Layout1
350
2DF
  0
ACDBPLACEHOLDER
  5
F
102
{ACAD_REACTORS
330
E
102
}
  0
MLINESTYLE
  5
18
102
{ACAD_REACTORS
330
17
102
}
100
AcDbMlineStyle
  2
STANDARD
 70
0
  3

 62
256
 51
90.0
 52
90.0
 71
2
 49
0.5
 62
256
  6
BYLAYER
 49
-0.5
 62
256
  6
BYLAYER
  0
LAYOUT
  5
2DE
102
{ACAD_REACTORS
330
1A
102
}
100
AcDbPlotSettings
  1

  2
none_device
  4
ANSI_B_(17.00_x_11.00_Inches)
  6

 40
0.0
 41
0.0
 42
0.0
 43
0.0
 44
431.8
 45
279.4
 46
0.0
 47
0.0
 48
0.0
 49
0.0
140
0.0
141
0.0
142
1.0
143
1.0
 70
1024
 72
0
 73
0
 74
0
  7

 75
0
147
1.0
148
0.0
149
0.0
100
AcDbLayout
  1
Model
 70
0
 71
0
 10
0.0
 20
0.0
 11
17.0
 21
11.0
 12
0.0
 22
0.0
 32
0.0
 14
0.0
 24
0.0
 34
0.0
 15
0.0
 25
0.0
 35
0.0
146
0.0
 13
0.0
 23
0.0
 33
0.0
 16
1.0
 26
0.0
 36
0.0
 17
0.0
 27
1.0
 37
0.0
 76
0
330
231
345
0
346
0
  0
LAYOUT
  5
2DF
102
{ACAD_REACTORS
330
1A
102
}
100
AcDbPlotSettings
  1

  2
none_device
  4
ANSI_B_(17.00_x_11.00_Inches)
  6

 40
0.0
 41
0.0
 42
0.0
 43
0.0
 44
431.8
 45
279.4
 46
0.0
 47
0.0
 48
0.0
 49
0.0
140
0.0
141
0.0
142
1.0
143
1.0
 70
0
 72
0
 73
0
 74
0
  7

 75
0
147
1.0
148
0.0
149
0.0
100
AcDbLayout
  1
Layout1
 70
0
 71
1
 10
0.0
 20
0.0
 11
17.0
 21
11.0
 12
0.0
 22
0.0
 32
0.0
 14
0.0
 24
0.0
 34
0.0
 15
0.0
 25
0.0
 35
0.0
146
0.0
 13
0.0
 23
0.0
 33
0.0
 16
1.0
 26
0.0
 36
0.0
 17
0.0
 27
1.0
 37
0.0
 76
0
330
232
345
0
346
0
  0
ENDSEC
  0
EOF
