999
DXF file: LHHAXFN.dxf
999
Pro/ENGINEER 2016010 by Parametric Technology Corporation
  0
SECTION
  2
HEADER
  9
$ACADVER
  1
AC1021
  9
$DWGCODEPAGE
  3
ANSI_1252
  9
$EXTMAX
 10
17.0
 20
11.0
 30
0.0
  9
$EXTMIN
 10
0.0
 20
0.0
 30
0.0
  9
$LIMMIN
 10
0.0
 20
0.0
  9
$LIMMAX
 10
17.0
 20
11.0
  9
$VIEWCTR
 10
8.5
 20
5.5
  9
$VIEWSIZE
 40
11.0
  9
$CLAYER
  8
0
  9
$LTSCALE
 40
0.935
  9
$CELTYPE
  6
BYLAYER
  9
$DIMSCALE
 40
1.0
  9
$DIMASZ
 40
0.1875
  9
$DIMEXO
 40
0.0625
  9
$DIMDLI
 40
0.646
  9
$DIMEXE
 40
0.125
  9
$DIMCEN
 40
0.153
  9
$DIMLFAC
 40
1.0
  9
$DIMBLK
  1
_FILLED
  9
$DIMALT
 70
0
  9
$DIMALTF
 40
25.4
  9
$DIMTXT
 40
0.125
  9
$DIMTOL
 70
0
  9
$DIMLIM
 70
0
  9
$DIMTFAC
 40
1.0
  9
$DIMGAP
 40
0.09
  9
$DIMDSEP
 70
46
  9
$AUNITS
 70
0
  9
$PDMODE
 70
3
  9
$PDSIZE
 40
0.3125
  9
$HANDSEED
  5
341
  9
$TILEMODE
 70
1
  9
$MEASUREMENT
 70
0
  9
$INSUNITS
 70
1
  0
ENDSEC
  0
SECTION
  2
CLASSES
  0
CLASS
  1
ACDBDICTIONARYWDFLT
  2
AcDbDictionaryWithDefault
  3
AutoCAD 2000
 90
0
 91
1
280
0
281
0
  0
CLASS
  1
ACDBPLACEHOLDER
  2
AcDbPlaceHolder
  3
AutoCAD 2000
 90
0
 91
1
280
0
281
0
  0
CLASS
  1
LAYOUT
  2
AcDbLayout
  3
AutoCAD 2000
 90
0
 91
0
280
0
281
0
  0
ENDSEC
  0
SECTION
  2
TABLES
  0
TABLE
  2
VPORT
  5
8
100
AcDbSymbolTable
 70
2
  0
VPORT
  5
1F4
100
AcDbSymbolTableRecord
100
AcDbViewportTableRecord
  2
*ACTIVE
 70
0
 10
0.0
 20
0.0
 11
1.0
 21
1.0
 12
8.5
 22
5.5
 13
0.0
 23
0.0
 14
1.0
 24
1.0
 15
0.0
 25
0.0
 16
0.0
 26
0.0
 36
1.0
 17
0.0
 27
0.0
 37
0.0
 40
11.0
 41
1.5454545455
 42
50.0
 43
0.0
 44
0.0
 50
0.0
 51
0.0
 71
0
 72
100
 73
1
 74
1
 75
0
 76
0
 77
0
 78
0
  0
ENDTAB
  0
TABLE
  2
LTYPE
  5
5
100
AcDbSymbolTable
 70
6
  0
LTYPE
  5
14
100
AcDbSymbolTableRecord
100
AcDbLinetypeTableRecord
  2
BYBLOCK
 70
0
  3

 72
65
 73
0
 40
0.0
  0
LTYPE
  5
15
100
AcDbSymbolTableRecord
100
AcDbLinetypeTableRecord
  2
BYLAYER
 70
0
  3

 72
65
 73
0
 40
0.0
  0
LTYPE
  5
16
100
AcDbSymbolTableRecord
100
AcDbLinetypeTableRecord
  2
CONTINUOUS
 70
64
  3
Solid line
 72
65
 73
0
 40
0.0
  0
LTYPE
  5
1F5
100
AcDbSymbolTableRecord
100
AcDbLinetypeTableRecord
  2
CENTER
 70
64
  3
____ _ ____ _ ____ _ ____ _ ____ _ ____ _ ____
 72
65
 73
4
 40
0.6
 49
0.375
 74
0
 49
-0.075
 74
0
 49
0.075
 74
0
 49
-0.075
 74
0
  0
LTYPE
  5
1F6
100
AcDbSymbolTableRecord
100
AcDbLinetypeTableRecord
  2
HIDDEN
 70
64
  3
- - - - - - - - - - - - - - - - - - - -
 72
65
 73
2
 40
0.2
 49
0.1
 74
0
 49
-0.1
 74
0
  0
LTYPE
  5
1F7
100
AcDbSymbolTableRecord
100
AcDbLinetypeTableRecord
  2
PHANTOM
 70
64
  3
_____ _ _ _____ _ _ _____ _ _ _____
 72
65
 73
6
 40
0.8
 49
0.45
 74
0
 49
-0.05
 74
0
 49
0.1
 74
0
 49
-0.05
 74
0
 49
0.1
 74
0
 49
-0.05
 74
0
  0
LTYPE
  5
1F8
100
AcDbSymbolTableRecord
100
AcDbLinetypeTableRecord
  2
DOT
 70
64
  3
. . . . . . . . . . . . . . . . . . . .
 72
65
 73
2
 40
0.2
 49
0.1
 74
0
 49
-0.1
 74
0
  0
LTYPE
  5
1F9
100
AcDbSymbolTableRecord
100
AcDbLinetypeTableRecord
  2
DASHED
 70
64
  3
- - - - - - - - - - - - - - - - - - - -
 72
65
 73
2
 40
0.2
 49
0.1
 74
0
 49
-0.1
 74
0
  0
ENDTAB
  0
TABLE
  2
LAYER
  5
2
100
AcDbSymbolTable
 70
36
  0
LAYER
  5
10
100
AcDbSymbolTableRecord
100
AcDbLayerTableRecord
  2
0
 70
0
 62
7
  6
CONTINUOUS
370
-3
390
F
  0
LAYER
  5
1FA
100
AcDbSymbolTableRecord
100
AcDbLayerTableRecord
  2
DEFAULT_1
 70
0
 62
7
  6
CENTER
370
-3
390
F
  0
LAYER
  5
1FB
100
AcDbSymbolTableRecord
100
AcDbLayerTableRecord
  2
DEFAULT_2
 70
0
 62
8
  6
HIDDEN
370
-3
390
F
  0
LAYER
  5
1FC
100
AcDbSymbolTableRecord
100
AcDbLayerTableRecord
  2
DEFAULT_3
 70
0
 62
7
  6
PHANTOM
370
-3
390
F
  0
LAYER
  5
1FD
100
AcDbSymbolTableRecord
100
AcDbLayerTableRecord
  2
01_ALL_DTM_PLN
 70
0
 62
7
  6
CONTINUOUS
370
-3
390
F
  0
LAYER
  5
1FE
100
AcDbSymbolTableRecord
100
AcDbLayerTableRecord
  2
01__ASM_ALL_DTM_PLN
 70
0
 62
7
  6
CONTINUOUS
370
-3
390
F
  0
LAYER
  5
1FF
100
AcDbSymbolTableRecord
100
AcDbLayerTableRecord
  2
01__ASM_DEF_DTM_PLN
 70
0
 62
7
  6
CONTINUOUS
370
-3
390
F
  0
LAYER
  5
200
100
AcDbSymbolTableRecord
100
AcDbLayerTableRecord
  2
01___PRT_ALL_DTM_PLN
 70
0
 62
7
  6
CONTINUOUS
370
-3
390
F
  0
LAYER
  5
201
100
AcDbSymbolTableRecord
100
AcDbLayerTableRecord
  2
01___PRT_DEF_DTM_PLN
 70
0
 62
7
  6
CONTINUOUS
370
-3
390
F
  0
LAYER
  5
202
100
AcDbSymbolTableRecord
100
AcDbLayerTableRecord
  2
02_ALL_AXES
 70
0
 62
7
  6
CONTINUOUS
370
-3
390
F
  0
LAYER
  5
203
100
AcDbSymbolTableRecord
100
AcDbLayerTableRecord
  2
02__ASM_ALL_AXES
 70
0
 62
7
  6
CONTINUOUS
370
-3
390
F
  0
LAYER
  5
204
100
AcDbSymbolTableRecord
100
AcDbLayerTableRecord
  2
02___PRT_ALL_AXES
 70
0
 62
7
  6
CONTINUOUS
370
-3
390
F
  0
LAYER
  5
205
100
AcDbSymbolTableRecord
100
AcDbLayerTableRecord
  2
03_ALL_CURVES
 70
0
 62
7
  6
CONTINUOUS
370
-3
390
F
  0
LAYER
  5
206
100
AcDbSymbolTableRecord
100
AcDbLayerTableRecord
  2
03__ASM_ALL_CURVES
 70
0
 62
7
  6
CONTINUOUS
370
-3
390
F
  0
LAYER
  5
207
100
AcDbSymbolTableRecord
100
AcDbLayerTableRecord
  2
03___PRT_ALL_CURVES
 70
0
 62
7
  6
CONTINUOUS
370
-3
390
F
  0
LAYER
  5
208
100
AcDbSymbolTableRecord
100
AcDbLayerTableRecord
  2
04_ALL_DTM_PNT
 70
0
 62
7
  6
CONTINUOUS
370
-3
390
F
  0
LAYER
  5
209
100
AcDbSymbolTableRecord
100
AcDbLayerTableRecord
  2
04__ASM_ALL_DTM_PNT
 70
0
 62
7
  6
CONTINUOUS
370
-3
390
F
  0
LAYER
  5
20A
100
AcDbSymbolTableRecord
100
AcDbLayerTableRecord
  2
04___PRT_ALL_DTM_PNT
 70
0
 62
7
  6
CONTINUOUS
370
-3
390
F
  0
LAYER
  5
20B
100
AcDbSymbolTableRecord
100
AcDbLayerTableRecord
  2
05_ALL_DTM_CSYS
 70
0
 62
7
  6
CONTINUOUS
370
-3
390
F
  0
LAYER
  5
20C
100
AcDbSymbolTableRecord
100
AcDbLayerTableRecord
  2
05__ASM_ALL_DTM_CSYS
 70
0
 62
7
  6
CONTINUOUS
370
-3
390
F
  0
LAYER
  5
20D
100
AcDbSymbolTableRecord
100
AcDbLayerTableRecord
  2
05__ASM_DEF_DTM_CSYS
 70
0
 62
7
  6
CONTINUOUS
370
-3
390
F
  0
LAYER
  5
20E
100
AcDbSymbolTableRecord
100
AcDbLayerTableRecord
  2
05___PRT_ALL_DTM_CSYS
 70
0
 62
7
  6
CONTINUOUS
370
-3
390
F
  0
LAYER
  5
20F
100
AcDbSymbolTableRecord
100
AcDbLayerTableRecord
  2
05___PRT_DEF_DTM_CSYS
 70
0
 62
7
  6
CONTINUOUS
370
-3
390
F
  0
LAYER
  5
210
100
AcDbSymbolTableRecord
100
AcDbLayerTableRecord
  2
06_ALL_SURFS
 70
0
 62
7
  6
CONTINUOUS
370
-3
390
F
  0
LAYER
  5
211
100
AcDbSymbolTableRecord
100
AcDbLayerTableRecord
  2
06__ASM_ALL_SURFS
 70
0
 62
7
  6
CONTINUOUS
370
-3
390
F
  0
LAYER
  5
212
100
AcDbSymbolTableRecord
100
AcDbLayerTableRecord
  2
06___PRT_ALL_SURFS
 70
0
 62
7
  6
CONTINUOUS
370
-3
390
F
  0
LAYER
  5
213
100
AcDbSymbolTableRecord
100
AcDbLayerTableRecord
  2
07__ASM_ALL_SKELETONS
 70
0
 62
7
  6
CONTINUOUS
370
-3
390
F
  0
LAYER
  5
214
100
AcDbSymbolTableRecord
100
AcDbLayerTableRecord
  2
128-002_FEATURES
 70
0
 62
7
  6
CONTINUOUS
370
-3
390
F
  0
LAYER
  5
215
100
AcDbSymbolTableRecord
100
AcDbLayerTableRecord
  2
128-002_REF_GEOMETRY
 70
0
 62
7
  6
CONTINUOUS
370
-3
390
F
  0
LAYER
  5
216
100
AcDbSymbolTableRecord
100
AcDbLayerTableRecord
  2
128-003_FEATURES
 70
0
 62
7
  6
CONTINUOUS
370
-3
390
F
  0
LAYER
  5
217
100
AcDbSymbolTableRecord
100
AcDbLayerTableRecord
  2
128-003_REF_GEOMETRY
 70
0
 62
7
  6
CONTINUOUS
370
-3
390
F
  0
LAYER
  5
218
100
AcDbSymbolTableRecord
100
AcDbLayerTableRecord
  2
128-016_FEATURES
 70
0
 62
7
  6
CONTINUOUS
370
-3
390
F
  0
LAYER
  5
219
100
AcDbSymbolTableRecord
100
AcDbLayerTableRecord
  2
128-016_REF_GEOMETRY
 70
0
 62
7
  6
CONTINUOUS
370
-3
390
F
  0
LAYER
  5
21A
100
AcDbSymbolTableRecord
100
AcDbLayerTableRecord
  2
128-100_FEATURES
 70
0
 62
7
  6
CONTINUOUS
370
-3
390
F
  0
LAYER
  5
21B
100
AcDbSymbolTableRecord
100
AcDbLayerTableRecord
  2
128-100_REF_GEOMETRY
 70
0
 62
7
  6
CONTINUOUS
370
-3
390
F
  0
LAYER
  5
21C
100
AcDbSymbolTableRecord
100
AcDbLayerTableRecord
  2
128-101_FEATURES
 70
0
 62
7
  6
CONTINUOUS
370
-3
390
F
  0
LAYER
  5
21D
100
AcDbSymbolTableRecord
100
AcDbLayerTableRecord
  2
128-101_REF_GEOMETRY
 70
0
 62
7
  6
CONTINUOUS
370
-3
390
F
  0
LAYER
  5
21E
100
AcDbSymbolTableRecord
100
AcDbLayerTableRecord
  2
128-102_FEATURES
 70
0
 62
7
  6
CONTINUOUS
370
-3
390
F
  0
LAYER
  5
21F
100
AcDbSymbolTableRecord
100
AcDbLayerTableRecord
  2
128-102_REF_GEOMETRY
 70
0
 62
7
  6
CONTINUOUS
370
-3
390
F
  0
LAYER
  5
220
100
AcDbSymbolTableRecord
100
AcDbLayerTableRecord
  2
128-103_FEATURES
 70
0
 62
7
  6
CONTINUOUS
370
-3
390
F
  0
LAYER
  5
221
100
AcDbSymbolTableRecord
100
AcDbLayerTableRecord
  2
128-103_REF_GEOMETRY
 70
0
 62
7
  6
CONTINUOUS
370
-3
390
F
  0
LAYER
  5
222
100
AcDbSymbolTableRecord
100
AcDbLayerTableRecord
  2
128-104_FEATURES
 70
0
 62
7
  6
CONTINUOUS
370
-3
390
F
  0
LAYER
  5
223
100
AcDbSymbolTableRecord
100
AcDbLayerTableRecord
  2
128-104_REF_GEOMETRY
 70
0
 62
7
  6
CONTINUOUS
370
-3
390
F
  0
LAYER
  5
224
100
AcDbSymbolTableRecord
100
AcDbLayerTableRecord
  2
COPY_GEO_FET
 70
0
 62
7
  6
CONTINUOUS
370
-3
390
F
  0
LAYER
  5
225
100
AcDbSymbolTableRecord
100
AcDbLayerTableRecord
  2
COSMETIC
 70
0
 62
7
  6
CONTINUOUS
370
-3
390
F
  0
LAYER
  5
226
100
AcDbSymbolTableRecord
100
AcDbLayerTableRecord
  2
CURVES
 70
0
 62
7
  6
CONTINUOUS
370
-3
390
F
  0
LAYER
  5
227
100
AcDbSymbolTableRecord
100
AcDbLayerTableRecord
  2
CUT_REF_SURF
 70
0
 62
7
  6
CONTINUOUS
370
-3
390
F
  0
LAYER
  5
228
100
AcDbSymbolTableRecord
100
AcDbLayerTableRecord
  2
DATUM
 70
0
 62
7
  6
CONTINUOUS
370
-3
390
F
  0
LAYER
  5
229
100
AcDbSymbolTableRecord
100
AcDbLayerTableRecord
  2
DATUMCURVES
 70
0
 62
7
  6
CONTINUOUS
370
-3
390
F
  0
LAYER
  5
22A
100
AcDbSymbolTableRecord
100
AcDbLayerTableRecord
  2
DIMENSIONS
 70
0
 62
7
  6
CONTINUOUS
370
-3
390
F
  0
LAYER
  5
22B
100
AcDbSymbolTableRecord
100
AcDbLayerTableRecord
  2
DRAWINGNOTES
 70
0
 62
7
  6
CONTINUOUS
370
-3
390
F
  0
LAYER
  5
22C
100
AcDbSymbolTableRecord
100
AcDbLayerTableRecord
  2
DTM
 70
0
 62
7
  6
CONTINUOUS
370
-3
390
F
  0
LAYER
  5
22D
100
AcDbSymbolTableRecord
100
AcDbLayerTableRecord
  2
DTM230
 70
0
 62
7
  6
CONTINUOUS
370
-3
390
F
  0
LAYER
  5
22E
100
AcDbSymbolTableRecord
100
AcDbLayerTableRecord
  2
DTM_500001
 70
0
 62
7
  6
CONTINUOUS
370
-3
390
F
  0
LAYER
  5
22F
100
AcDbSymbolTableRecord
100
AcDbLayerTableRecord
  2
DTM_500002
 70
0
 62
7
  6
CONTINUOUS
370
-3
390
F
  0
LAYER
  5
230
100
AcDbSymbolTableRecord
100
AcDbLayerTableRecord
  2
DTM_515002
 70
0
 62
7
  6
CONTINUOUS
370
-3
390
F
  0
LAYER
  5
231
100
AcDbSymbolTableRecord
100
AcDbLayerTableRecord
  2
DTM_SPRING_RH
 70
0
 62
7
  6
CONTINUOUS
370
-3
390
F
  0
LAYER
  5
232
100
AcDbSymbolTableRecord
100
AcDbLayerTableRecord
  2
DTM_SP_RH_CONSTR
 70
0
 62
7
  6
CONTINUOUS
370
-3
390
F
  0
LAYER
  5
233
100
AcDbSymbolTableRecord
100
AcDbLayerTableRecord
  2
GEOMETRICTOLERANCES
 70
0
 62
7
  6
CONTINUOUS
370
-3
390
F
  0
LAYER
  5
234
100
AcDbSymbolTableRecord
100
AcDbLayerTableRecord
  2
HIDDEN
 70
0
 62
7
  6
CONTINUOUS
370
-3
390
F
  0
LAYER
  5
235
100
AcDbSymbolTableRecord
100
AcDbLayerTableRecord
  2
HIDDEN_DRW
 70
0
 62
7
  6
CONTINUOUS
370
-3
390
F
  0
LAYER
  5
236
100
AcDbSymbolTableRecord
100
AcDbLayerTableRecord
  2
PARAMETERDIMENSIONS
 70
0
 62
7
  6
CONTINUOUS
370
-3
390
F
  0
LAYER
  5
237
100
AcDbSymbolTableRecord
100
AcDbLayerTableRecord
  2
PLANE
 70
0
 62
7
  6
CONTINUOUS
370
-3
390
F
  0
LAYER
  5
238
100
AcDbSymbolTableRecord
100
AcDbLayerTableRecord
  2
T-8A_CAVITY-INCH
 70
0
 62
7
  6
CONTINUOUS
370
-3
390
F
  0
LAYER
  5
239
100
AcDbSymbolTableRecord
100
AcDbLayerTableRecord
  2
T-8A_CAVITY_REF_GEOMETRY
 70
0
 62
7
  6
CONTINUOUS
370
-3
390
F
  0
LAYER
  5
23A
100
AcDbSymbolTableRecord
100
AcDbLayerTableRecord
  2
TEXT
 70
0
 62
7
  6
CONTINUOUS
370
-3
390
F
  0
LAYER
  5
23B
100
AcDbSymbolTableRecord
100
AcDbLayerTableRecord
  2
THREAD
 70
0
 62
7
  6
CONTINUOUS
370
-3
390
F
  0
LAYER
  5
23C
100
AcDbSymbolTableRecord
100
AcDbLayerTableRecord
  2
XSEC_DATUMS
 70
0
 62
7
  6
CONTINUOUS
370
-3
390
F
  0
ENDTAB
  0
TABLE
  2
STYLE
  5
3
100
AcDbSymbolTable
 70
1
  0
STYLE
  5
11
100
AcDbSymbolTableRecord
100
AcDbTextStyleTableRecord
  2
STANDARD
 70
0
 40
0.0
 41
0.8
 50
0.0
 71
0
 42
0.2
  3
txt
  4

  0
STYLE
  5
23D
100
AcDbSymbolTableRecord
100
AcDbTextStyleTableRecord
  2
TEXTSTYLE_1
 70
0
 40
0.0
 41
0.8
 50
0.0
 71
0
 42
0.2
  3
gdt
  4

  0
ENDTAB
  0
TABLE
  2
VIEW
  5
6
100
AcDbSymbolTable
 70
0
  0
ENDTAB
  0
TABLE
  2
UCS
  5
7
100
AcDbSymbolTable
 70
0
  0
ENDTAB
  0
TABLE
  2
APPID
  5
9
100
AcDbSymbolTable
 70
1
  0
APPID
  5
23E
100
AcDbSymbolTableRecord
100
AcDbRegAppTableRecord
  2
ACAD
 70
0
  0
ENDTAB
  0
TABLE
  2
BLOCK_RECORD
  5
1
100
AcDbSymbolTable
 70
0
  0
BLOCK_RECORD
  5
23F
100
AcDbSymbolTableRecord
100
AcDbBlockTableRecord
  2
*Model_Space
  0
BLOCK_RECORD
  5
240
100
AcDbSymbolTableRecord
100
AcDbBlockTableRecord
  2
*Paper_Space
  0
BLOCK_RECORD
  5
241
100
AcDbSymbolTableRecord
100
AcDbBlockTableRecord
  2
_FILLED
  0
BLOCK_RECORD
  5
242
100
AcDbSymbolTableRecord
100
AcDbBlockTableRecord
  2
*D0
  0
ENDTAB
  0
TABLE
  2
DIMSTYLE
  5
A
100
AcDbSymbolTable
 70
1
100
AcDbDimStyleTable
 71
0
  0
DIMSTYLE
105
243
100
AcDbSymbolTableRecord
100
AcDbDimStyleTableRecord
  2
STANDARD
 70
0
  3

  4

 40
1.0
 41
0.1875
 42
0.0625
 43
0.38
 44
0.125
 45
0.0
 46
0.0
 47
0.001
 48
0.001
140
0.125
141
0.09
142
0.0
143
25.4
144
1.0
145
0.0
146
1.0
147
0.09
 71
0.0
 72
0.0
 73
1
 74
1
 75
0
 76
0
 77
0
 78
4
170
0
171
2
172
0
173
0
174
0
175
0
176
0
177
0
178
0
270
2
271
3
272
3
273
2
274
2
275
0
280
0
281
0
282
0
283
1
284
4
285
0
286
0
287
3
288
0
340
11
278
46
341
241
342
241
343
241
344
241
  0
DIMSTYLE
105
244
100
AcDbSymbolTableRecord
100
AcDbDimStyleTableRecord
  2
DIMSTYLE_1
 70
0
  3

  4

 40
1.0
 41
0.1875
 42
0.0625
 43
0.38
 44
0.125
 45
0.0
 46
0.0
 47
0.0
 48
0.0
140
0.125
141
0.09
142
0.0
143
25.4
144
1.0
145
0.0
146
1.0
147
0.0625
 71
0.0
 72
0.0
 73
1
 74
1
 75
0
 76
0
 77
0
 78
4
170
0
171
2
172
0
173
0
174
0
175
0
176
0
177
0
178
0
270
2
271
2
272
2
273
2
274
2
275
0
280
0
281
0
282
0
283
1
284
4
285
0
286
0
287
3
288
0
340
11
278
46
341
241
342
241
343
241
344
241
  0
ENDTAB
  0
ENDSEC
  0
SECTION
  2
BLOCKS
  0
BLOCK
  5
20
100
AcDbEntity
  8
0
100
AcDbBlockBegin
  2
*Model_Space
 70
0
 10
0.0
 20
0.0
 30
0.0
  3
*Model_Space
  1

  0
ENDBLK
  5
21
100
AcDbEntity
  8
0
100
AcDbBlockEnd
  0
BLOCK
  5
1C
100
AcDbEntity
  8
0
100
AcDbBlockBegin
  2
*Paper_Space
 70
0
 10
0.0
 20
0.0
 30
0.0
  3
*Paper_Space
  1

  0
ENDBLK
  5
1D
100
AcDbEntity
  8
0
100
AcDbBlockEnd
  0
BLOCK
  5
245
100
AcDbEntity
  8
0
100
AcDbBlockBegin
  2
_FILLED
 70
64
 10
0.0
 20
0.0
  3
_FILLED
  1

  0
SOLID
  5
246
100
AcDbEntity
  8
0
  6
BYBLOCK
 62
0
100
AcDbTrace
 10
0.0
 20
0.0
 11
-1.0
 21
0.1666666667
 12
-1.0
 22
-0.1666666667
 13
-1.0
 23
-0.1666666667
  0
ENDBLK
  5
247
100
AcDbEntity
  8
0
  6
BYBLOCK
 62
0
100
AcDbBlockEnd
  0
BLOCK
  5
248
100
AcDbEntity
  8
0
100
AcDbBlockBegin
 62
6
  6
CONTINUOUS
  2
*D0
 70
65
 10
0.0
 20
0.0
  3
*D0
  1

  0
MTEXT
  5
249
100
AcDbEntity
  8
0
100
AcDbMText
 62
6
  6
CONTINUOUS
  7
STANDARD
 71
1
 72
1
 10
3.8115
 20
8.2165003347
 30
0.0
 11
1.0
 21
0.0
 31
0.0
 44
0.9
  1
1.63 in (41,2 mm)
 40
0.125
 41
1.7
  0
LINE
  5
24A
100
AcDbEntity
  8
0
100
AcDbLine
 62
6
  6
CONTINUOUS
 10
3.5615
 20
7.8415003347
 11
3.5615
 21
8.2790003347
  0
LINE
  5
24B
100
AcDbEntity
  8
0
100
AcDbLine
 62
6
  6
CONTINUOUS
 10
1.9365
 20
7.0620003347
 11
1.9365
 21
8.2790003347
  0
LINE
  5
24C
100
AcDbEntity
  8
0
100
AcDbLine
 62
6
  6
CONTINUOUS
 10
3.5615
 20
8.1540003347
 11
2.749
 21
8.1540003347
  0
LINE
  5
24D
100
AcDbEntity
  8
0
100
AcDbLine
 62
6
  6
CONTINUOUS
 10
2.749
 20
8.1540003347
 11
3.749
 21
8.1540003347
  0
LINE
  5
24E
100
AcDbEntity
  8
0
100
AcDbLine
 62
6
  6
CONTINUOUS
 10
1.9365
 20
8.1540003347
 11
2.749
 21
8.1540003347
  0
INSERT
  5
24F
100
AcDbEntity
  8
0
100
AcDbBlockReference
 62
6
  6
CONTINUOUS
  2
_FILLED
 10
3.5615
 20
8.1540003347
 41
0.1875
 42
0.1875
 43
0.1875
  0
INSERT
  5
250
100
AcDbEntity
  8
0
100
AcDbBlockReference
 62
6
  6
CONTINUOUS
  2
_FILLED
 10
1.9365
 20
8.1540003347
 41
0.1875
 42
0.1875
 43
0.1875
 50
180.0
  0
ENDBLK
  5
251
100
AcDbEntity
  8
0
  6
BYBLOCK
 62
0
100
AcDbBlockEnd
  0
ENDSEC
  0
SECTION
  2
ENTITIES
  0
DIMENSION
  5
252
100
AcDbEntity
  8
0
100
AcDbDimension
 62
6
  6
CONTINUOUS
  2
*D0
 10
1.9365
 20
8.1540003347
 11
4.6615
 21
8.1540003347
 70
160
 71
1
 42
1.625
  1
<> in (41,2 mm)
  3
DIMSTYLE_1
100
AcDbAlignedDimension
 13
3.5615
 23
7.7790003347
 14
1.9365
 24
6.9995003347
 50
180.0
100
AcDbRotatedDimension
  0
MTEXT
  5
253
100
AcDbEntity
  8
0
100
AcDbMText
 62
2
  6
CONTINUOUS
  7
STANDARD
 71
1
 72
1
 10
9.2115
 20
7.0620003347
 30
0.0
 11
1.0
 21
0.0
 31
0.0
 44
0.6
  1
Port 1
 40
0.125
 41
0.6
  0
MTEXT
  5
254
100
AcDbEntity
  8
0
100
AcDbMText
 62
2
  6
CONTINUOUS
  7
STANDARD
 71
1
 72
1
 10
7.1115
 20
6.0310003347
 30
0.0
 11
1.0
 21
0.0
 31
0.0
 44
0.6
  1
Port 2
 40
0.125
 41
0.6
  0
MTEXT
  5
255
100
AcDbEntity
  8
0
100
AcDbMText
 62
2
  6
CONTINUOUS
  7
STANDARD
 71
1
 72
1
 10
5.9615
 20
6.0310003347
 30
0.0
 11
1.0
 21
0.0
 31
0.0
 44
0.6
  1
Port 3
 40
0.125
 41
0.6
  0
MTEXT
  5
256
100
AcDbEntity
  8
0
100
AcDbMText
 62
2
  6
CONTINUOUS
  7
STANDARD
 71
1
 72
1
 10
4.7495
 20
6.0310003347
 30
0.0
 11
1.0
 21
0.0
 31
0.0
 44
0.6
  1
Port 4
 40
0.125
 41
0.6
  0
MTEXT
  5
257
100
AcDbEntity
  8
0
100
AcDbMText
 62
2
  6
CONTINUOUS
  7
STANDARD
 71
1
 72
1
 10
3.8115
 20
7.967
 30
0.0
 11
1.0
 21
0.0
 31
0.0
 44
0.6
  1
 LOCATING SHOULDER
 40
0.125
 41
1.8
  0
LINE
  5
258
100
AcDbEntity
  8
0
100
AcDbLine
 62
7
  6
CONTINUOUS
 10
1.9365
 20
6.38
 11
1.9365
 21
7.62
  0
LINE
  5
259
100
AcDbEntity
  8
0
100
AcDbLine
 62
7
  6
CONTINUOUS
 10
1.987884174
 20
6.3749894661
 11
1.987884174
 21
6.3976117836
  0
LINE
  5
25A
100
AcDbEntity
  8
0
100
AcDbLine
 62
7
  6
CONTINUOUS
 10
1.987884174
 20
6.9773776825
 11
1.987884174
 21
7.0226223175
  0
LINE
  5
25B
100
AcDbEntity
  8
0
100
AcDbLine
 62
7
  6
CONTINUOUS
 10
1.987884174
 20
7.6023882164
 11
1.987884174
 21
7.6250105339
  0
LINE
  5
25C
100
AcDbEntity
  8
0
100
AcDbLine
 62
7
  6
CONTINUOUS
 10
1.9393940775
 20
7.6250126892
 11
1.9365
 21
7.62
  0
LINE
  5
25D
100
AcDbEntity
  8
0
100
AcDbLine
 62
7
  6
CONTINUOUS
 10
1.9393940775
 20
6.3749873108
 11
1.9365
 21
6.38
  0
LINE
  5
25E
100
AcDbEntity
  8
0
100
AcDbLine
 62
7
  6
CONTINUOUS
 10
2.680796806
 20
6.291006373
 11
2.680796806
 21
7.708993627
  0
LINE
  5
25F
100
AcDbEntity
  8
0
100
AcDbLine
 62
7
  6
CONTINUOUS
 10
2.7215
 20
7.7795
 11
2.680796806
 21
7.709
  0
LINE
  5
260
100
AcDbEntity
  8
0
100
AcDbLine
 62
7
  6
CONTINUOUS
 10
2.7215
 20
6.2205
 11
2.680796806
 21
6.291
  0
LINE
  5
261
100
AcDbEntity
  8
0
100
AcDbLine
 62
7
  6
CONTINUOUS
 10
2.7215
 20
6.2205
 11
2.7215
 21
7.7795
  0
LINE
  5
262
100
AcDbEntity
  8
0
100
AcDbLine
 62
7
  6
CONTINUOUS
 10
3.5615
 20
6.2205091336
 11
3.5615
 21
7.7794908664
  0
LINE
  5
263
100
AcDbEntity
  8
THREAD
100
AcDbLine
 62
7
  6
CONTINUOUS
 10
3.6085
 20
6.2825125409
 11
3.6085
 21
7.7174874591
  0
LINE
  5
264
100
AcDbEntity
  8
0
100
AcDbLine
 62
7
  6
CONTINUOUS
 10
3.7115
 20
7.718
 11
3.7115
 21
6.282
  0
LINE
  5
265
100
AcDbEntity
  8
0
100
AcDbLine
 62
7
  6
CONTINUOUS
 10
3.7615
 20
7.718
 11
3.7615
 21
6.282
  0
LINE
  5
266
100
AcDbEntity
  8
THREAD
100
AcDbLine
 62
7
  6
CONTINUOUS
 10
3.8092128129
 20
7.7015
 11
3.781499998
 21
7.6534999965
  0
LINE
  5
267
100
AcDbEntity
  8
THREAD
100
AcDbLine
 62
7
  6
CONTINUOUS
 10
3.8092128129
 20
6.2985
 11
3.781499998
 21
6.3465000035
  0
LINE
  5
268
100
AcDbEntity
  8
0
100
AcDbLine
 62
7
  6
CONTINUOUS
 10
3.781499998
 20
6.3465000035
 11
3.781499998
 21
7.6534999965
  0
LINE
  5
269
100
AcDbEntity
  8
THREAD
100
AcDbLine
 62
7
  6
CONTINUOUS
 10
3.8092128129
 20
6.2985
 11
3.8092128129
 21
7.7015
  0
LINE
  5
26A
100
AcDbEntity
  8
THREAD
100
AcDbLine
 62
7
  6
CONTINUOUS
 10
4.1995
 20
6.2985
 11
4.1995
 21
7.7015
  0
LINE
  5
26B
100
AcDbEntity
  8
THREAD
100
AcDbLine
 62
7
  6
CONTINUOUS
 10
4.2495
 20
6.3485
 11
4.2495
 21
7.6515
  0
LINE
  5
26C
100
AcDbEntity
  8
0
100
AcDbLine
 62
7
  6
CONTINUOUS
 10
4.6015
 20
7.561
 11
4.5932071068
 21
7.5527071068
  0
LINE
  5
26D
100
AcDbEntity
  8
0
100
AcDbLine
 62
7
  6
CONTINUOUS
 10
4.6325
 20
7.561
 11
4.6242071068
 21
7.5527071068
  0
LINE
  5
26E
100
AcDbEntity
  8
0
100
AcDbLine
 62
7
  6
CONTINUOUS
 10
3.5615
 20
6.2205
 11
2.7215
 21
6.2205
  0
LINE
  5
26F
100
AcDbEntity
  8
0
100
AcDbLine
 62
7
  6
CONTINUOUS
 10
3.7115
 20
6.282
 11
3.7615
 21
6.282
  0
LINE
  5
270
100
AcDbEntity
  8
THREAD
100
AcDbLine
 62
7
  6
CONTINUOUS
 10
3.6085
 20
6.2825
 11
3.5615
 21
6.2825
  0
LINE
  5
271
100
AcDbEntity
  8
THREAD
100
AcDbLine
 62
7
  6
CONTINUOUS
 10
4.1995
 20
6.2985
 11
3.8092128129
 21
6.2985
  0
LINE
  5
272
100
AcDbEntity
  8
THREAD
100
AcDbLine
 62
7
  6
CONTINUOUS
 10
4.5795
 20
6.3485
 11
4.2495
 21
6.3485
  0
LINE
  5
273
100
AcDbEntity
  8
0
100
AcDbLine
 62
7
  6
CONTINUOUS
 10
5.3995
 20
6.353
 11
5.4495
 21
6.353
  0
LINE
  5
274
100
AcDbEntity
  8
0
100
AcDbLine
 62
7
  6
CONTINUOUS
 10
5.5525
 20
6.353
 11
5.6025
 21
6.353
  0
LINE
  5
275
100
AcDbEntity
  8
0
100
AcDbLine
 62
7
  6
CONTINUOUS
 10
5.3095
 20
6.3535
 11
5.3995
 21
6.3535
  0
LINE
  5
276
100
AcDbEntity
  8
0
100
AcDbLine
 62
7
  6
CONTINUOUS
 10
5.6375
 20
6.3535
 11
5.7275
 21
6.3535
  0
LINE
  5
277
100
AcDbEntity
  8
0
100
AcDbLine
 62
7
  6
CONTINUOUS
 10
1.9393928332
 20
6.3749894661
 11
2.680796806
 21
6.3749894661
  0
LINE
  5
278
100
AcDbEntity
  8
0
100
AcDbLine
 62
7
  6
CONTINUOUS
 10
6.5495
 20
6.376
 11
6.5995
 21
6.376
  0
LINE
  5
279
100
AcDbEntity
  8
0
100
AcDbLine
 62
7
  6
CONTINUOUS
 10
6.7025
 20
6.376
 11
6.7525
 21
6.376
  0
LINE
  5
27A
100
AcDbEntity
  8
0
100
AcDbLine
 62
7
  6
CONTINUOUS
 10
7.7155
 20
6.376
 11
7.7655
 21
6.376
  0
LINE
  5
27B
100
AcDbEntity
  8
0
100
AcDbLine
 62
7
  6
CONTINUOUS
 10
7.8685
 20
6.376
 11
7.9185
 21
6.376
  0
LINE
  5
27C
100
AcDbEntity
  8
0
100
AcDbLine
 62
7
  6
CONTINUOUS
 10
6.877
 20
6.3765
 11
6.7875
 21
6.3765
  0
LINE
  5
27D
100
AcDbEntity
  8
0
100
AcDbLine
 62
7
  6
CONTINUOUS
 10
6.5495
 20
6.3765
 11
6.4595
 21
6.3765
  0
LINE
  5
27E
100
AcDbEntity
  8
0
100
AcDbLine
 62
7
  6
CONTINUOUS
 10
4.6015
 20
6.439
 11
4.5932071068
 21
6.4472928932
  0
LINE
  5
27F
100
AcDbEntity
  8
0
100
AcDbLine
 62
7
  6
CONTINUOUS
 10
4.6325
 20
6.439
 11
4.6242071068
 21
6.4472928932
  0
LINE
  5
280
100
AcDbEntity
  8
0
100
AcDbLine
 62
7
  6
CONTINUOUS
 10
4.4755
 20
7.6353982019
 11
4.4755
 21
7.6514925906
  0
LINE
  5
281
100
AcDbEntity
  8
0
100
AcDbLine
 62
7
  6
CONTINUOUS
 10
4.5155
 20
7.6353982019
 11
4.5155
 21
7.6514925906
  0
LINE
  5
282
100
AcDbEntity
  8
0
100
AcDbLine
 62
7
  6
CONTINUOUS
 10
4.5795
 20
6.3485
 11
4.5795
 21
7.6515
  0
LINE
  5
283
100
AcDbEntity
  8
0
100
AcDbLine
 62
7
  6
CONTINUOUS
 10
4.5925
 20
6.3615
 11
4.5925
 21
7.6385
  0
LINE
  5
284
100
AcDbEntity
  8
0
100
AcDbLine
 62
7
  6
CONTINUOUS
 10
4.5932071068
 20
6.4472928932
 11
4.5932071068
 21
7.5527071068
  0
LINE
  5
285
100
AcDbEntity
  8
0
100
AcDbLine
 62
7
  6
CONTINUOUS
 10
4.6015
 20
6.439
 11
4.6015
 21
7.561
  0
LINE
  5
286
100
AcDbEntity
  8
0
100
AcDbLine
 62
7
  6
CONTINUOUS
 10
2.680796806
 20
6.3976117836
 11
1.987884174
 21
6.3976117836
  0
LINE
  5
287
100
AcDbEntity
  8
0
100
AcDbLine
 62
7
  6
CONTINUOUS
 10
8.0465
 20
6.4
 11
7.9535
 21
6.4
  0
LINE
  5
288
100
AcDbEntity
  8
0
100
AcDbLine
 62
7
  6
CONTINUOUS
 10
7.7155
 20
6.4
 11
7.6255
 21
6.4
  0
LINE
  5
289
100
AcDbEntity
  8
0
100
AcDbLine
 62
7
  6
CONTINUOUS
 10
5.2625
 20
6.439
 11
4.6325
 21
6.439
  0
LINE
  5
28A
100
AcDbEntity
  8
0
100
AcDbLine
 62
7
  6
CONTINUOUS
 10
4.6125
 20
6.439
 11
4.6015
 21
6.439
  0
LINE
  5
28B
100
AcDbEntity
  8
0
100
AcDbLine
 62
7
  6
CONTINUOUS
 10
5.6225
 20
6.441
 11
5.6025
 21
6.441
  0
LINE
  5
28C
100
AcDbEntity
  8
0
100
AcDbLine
 62
7
  6
CONTINUOUS
 10
7.5785
 20
6.456
 11
6.924
 21
6.456
  0
LINE
  5
28D
100
AcDbEntity
  8
0
100
AcDbLine
 62
7
  6
CONTINUOUS
 10
6.4125
 20
6.456
 11
5.7745
 21
6.456
  0
LINE
  5
28E
100
AcDbEntity
  8
0
100
AcDbLine
 62
7
  6
CONTINUOUS
 10
6.7725
 20
6.464
 11
6.7525
 21
6.464
  0
LINE
  5
28F
100
AcDbEntity
  8
0
100
AcDbLine
 62
7
  6
CONTINUOUS
 10
7.9385
 20
6.4875
 11
7.9185
 21
6.4875
  0
LINE
  5
290
100
AcDbEntity
  8
0
100
AcDbLine
 62
7
  6
CONTINUOUS
 10
4.6125
 20
6.439
 11
4.6125
 21
7.561
  0
LINE
  5
291
100
AcDbEntity
  8
0
100
AcDbLine
 62
7
  6
CONTINUOUS
 10
4.6207928932
 20
6.4472928932
 11
4.6207928932
 21
7.5527071068
  0
LINE
  5
292
100
AcDbEntity
  8
0
100
AcDbLine
 62
7
  6
CONTINUOUS
 10
4.6242071068
 20
6.4472928932
 11
4.6242071068
 21
7.5527071068
  0
LINE
  5
293
100
AcDbEntity
  8
0
100
AcDbLine
 62
7
  6
CONTINUOUS
 10
4.6325
 20
6.439
 11
4.6325
 21
7.561
  0
LINE
  5
294
100
AcDbEntity
  8
0
100
AcDbLine
 62
7
  6
CONTINUOUS
 10
5.9275
 20
6.608
 11
5.9375
 21
6.608
  0
LINE
  5
295
100
AcDbEntity
  8
THREAD
100
AcDbLine
 62
7
  6
CONTINUOUS
 10
4.2495
 20
6.3485
 11
4.1995
 21
6.2985
  0
LINE
  5
296
100
AcDbEntity
  8
0
100
AcDbLine
 62
7
  6
CONTINUOUS
 10
2.680796806
 20
6.9773776825
 11
1.987884174
 21
6.9773776825
  0
LINE
  5
297
100
AcDbEntity
  8
0
100
AcDbLine
 62
7
  6
CONTINUOUS
 10
2.680796806
 20
7.0226223175
 11
1.987884174
 21
7.0226223175
  0
LINE
  5
298
100
AcDbEntity
  8
THREAD
100
AcDbLine
 62
7
  6
CONTINUOUS
 10
4.2495
 20
7.6515
 11
4.1995
 21
7.7015
  0
LINE
  5
299
100
AcDbEntity
  8
0
100
AcDbLine
 62
7
  6
CONTINUOUS
 10
4.6207928932
 20
6.4472928932
 11
4.6125
 21
6.439
  0
LINE
  5
29A
100
AcDbEntity
  8
0
100
AcDbLine
 62
7
  6
CONTINUOUS
 10
4.5925
 20
6.3615
 11
4.5795
 21
6.3485
  0
LINE
  5
29B
100
AcDbEntity
  8
0
100
AcDbLine
 62
7
  6
CONTINUOUS
 10
4.6207928932
 20
7.5527071068
 11
4.6125
 21
7.561
  0
LINE
  5
29C
100
AcDbEntity
  8
0
100
AcDbLine
 62
7
  6
CONTINUOUS
 10
4.5925
 20
7.6385
 11
4.5795
 21
7.6515
  0
LINE
  5
29D
100
AcDbEntity
  8
0
100
AcDbLine
 62
7
  6
CONTINUOUS
 10
5.2625
 20
6.439
 11
5.2625
 21
7.561
  0
LINE
  5
29E
100
AcDbEntity
  8
0
100
AcDbLine
 62
7
  6
CONTINUOUS
 10
5.3095
 20
7.6465
 11
5.3095
 21
6.3535
  0
LINE
  5
29F
100
AcDbEntity
  8
0
100
AcDbLine
 62
7
  6
CONTINUOUS
 10
5.3995
 20
7.647
 11
5.3995
 21
6.353
  0
LINE
  5
2A0
100
AcDbEntity
  8
0
100
AcDbLine
 62
7
  6
CONTINUOUS
 10
5.4495
 20
7.647
 11
5.4495
 21
6.353
  0
LINE
  5
2A1
100
AcDbEntity
  8
0
100
AcDbLine
 62
7
  6
CONTINUOUS
 10
5.9275
 20
7.392
 11
5.9375
 21
7.392
  0
LINE
  5
2A2
100
AcDbEntity
  8
0
100
AcDbLine
 62
7
  6
CONTINUOUS
 10
5.5525
 20
7.647
 11
5.5525
 21
6.353
  0
LINE
  5
2A3
100
AcDbEntity
  8
0
100
AcDbLine
 62
7
  6
CONTINUOUS
 10
5.6025
 20
7.647
 11
5.6025
 21
6.353
  0
LINE
  5
2A4
100
AcDbEntity
  8
0
100
AcDbLine
 62
7
  6
CONTINUOUS
 10
5.6225
 20
6.441
 11
5.6225
 21
7.559
  0
LINE
  5
2A5
100
AcDbEntity
  8
0
100
AcDbLine
 62
7
  6
CONTINUOUS
 10
5.6375
 20
7.6465
 11
5.6375
 21
6.3535
  0
LINE
  5
2A6
100
AcDbEntity
  8
0
100
AcDbLine
 62
7
  6
CONTINUOUS
 10
7.9385
 20
7.5125
 11
7.9185
 21
7.5125
  0
LINE
  5
2A7
100
AcDbEntity
  8
0
100
AcDbLine
 62
7
  6
CONTINUOUS
 10
6.7725
 20
7.536
 11
6.7525
 21
7.536
  0
LINE
  5
2A8
100
AcDbEntity
  8
0
100
AcDbLine
 62
7
  6
CONTINUOUS
 10
7.5785
 20
7.544
 11
6.924
 21
7.544
  0
LINE
  5
2A9
100
AcDbEntity
  8
0
100
AcDbLine
 62
7
  6
CONTINUOUS
 10
6.4125
 20
7.544
 11
5.7745
 21
7.544
  0
LINE
  5
2AA
100
AcDbEntity
  8
0
100
AcDbLine
 62
7
  6
CONTINUOUS
 10
5.6225
 20
7.559
 11
5.6025
 21
7.559
  0
LINE
  5
2AB
100
AcDbEntity
  8
0
100
AcDbLine
 62
7
  6
CONTINUOUS
 10
5.2625
 20
7.561
 11
4.6325
 21
7.561
  0
LINE
  5
2AC
100
AcDbEntity
  8
0
100
AcDbLine
 62
7
  6
CONTINUOUS
 10
4.6125
 20
7.561
 11
4.6015
 21
7.561
  0
LINE
  5
2AD
100
AcDbEntity
  8
0
100
AcDbLine
 62
7
  6
CONTINUOUS
 10
8.0465
 20
7.6
 11
7.9535
 21
7.6
  0
LINE
  5
2AE
100
AcDbEntity
  8
0
100
AcDbLine
 62
7
  6
CONTINUOUS
 10
7.7155
 20
7.6
 11
7.6255
 21
7.6
  0
LINE
  5
2AF
100
AcDbEntity
  8
0
100
AcDbLine
 62
7
  6
CONTINUOUS
 10
2.680796806
 20
7.6023882164
 11
1.987884174
 21
7.6023882164
  0
LINE
  5
2B0
100
AcDbEntity
  8
0
100
AcDbLine
 62
7
  6
CONTINUOUS
 10
6.877
 20
7.6235
 11
6.7875
 21
7.6235
  0
LINE
  5
2B1
100
AcDbEntity
  8
0
100
AcDbLine
 62
7
  6
CONTINUOUS
 10
6.5495
 20
7.6235
 11
6.4595
 21
7.6235
  0
LINE
  5
2B2
100
AcDbEntity
  8
0
100
AcDbLine
 62
7
  6
CONTINUOUS
 10
6.5495
 20
7.624
 11
6.5995
 21
7.624
  0
LINE
  5
2B3
100
AcDbEntity
  8
0
100
AcDbLine
 62
7
  6
CONTINUOUS
 10
6.7025
 20
7.624
 11
6.7525
 21
7.624
  0
LINE
  5
2B4
100
AcDbEntity
  8
0
100
AcDbLine
 62
7
  6
CONTINUOUS
 10
7.7155
 20
7.624
 11
7.7655
 21
7.624
  0
LINE
  5
2B5
100
AcDbEntity
  8
0
100
AcDbLine
 62
7
  6
CONTINUOUS
 10
7.8685
 20
7.624
 11
7.9185
 21
7.624
  0
LINE
  5
2B6
100
AcDbEntity
  8
0
100
AcDbLine
 62
7
  6
CONTINUOUS
 10
2.680796806
 20
7.6250105339
 11
1.9393928332
 21
7.6250105339
  0
LINE
  5
2B7
100
AcDbEntity
  8
0
100
AcDbLine
 62
7
  6
CONTINUOUS
 10
4.5155
 20
7.6353982019
 11
4.507567423
 21
7.6353982019
  0
LINE
  5
2B8
100
AcDbEntity
  8
0
100
AcDbLine
 62
7
  6
CONTINUOUS
 10
4.483432577
 20
7.6353982019
 11
4.4755
 21
7.6353982019
  0
LINE
  5
2B9
100
AcDbEntity
  8
0
100
AcDbLine
 62
7
  6
CONTINUOUS
 10
5.3095
 20
7.6465
 11
5.3995
 21
7.6465
  0
LINE
  5
2BA
100
AcDbEntity
  8
0
100
AcDbLine
 62
7
  6
CONTINUOUS
 10
5.6375
 20
7.6465
 11
5.7275
 21
7.6465
  0
LINE
  5
2BB
100
AcDbEntity
  8
0
100
AcDbLine
 62
7
  6
CONTINUOUS
 10
5.3995
 20
7.647
 11
5.4495
 21
7.647
  0
LINE
  5
2BC
100
AcDbEntity
  8
0
100
AcDbLine
 62
7
  6
CONTINUOUS
 10
5.5525
 20
7.647
 11
5.6025
 21
7.647
  0
LINE
  5
2BD
100
AcDbEntity
  8
THREAD
100
AcDbLine
 62
7
  6
CONTINUOUS
 10
4.5795
 20
7.6515
 11
4.5155
 21
7.6515
  0
LINE
  5
2BE
100
AcDbEntity
  8
THREAD
100
AcDbLine
 62
7
  6
CONTINUOUS
 10
4.4755
 20
7.6515
 11
4.2495
 21
7.6515
  0
LINE
  5
2BF
100
AcDbEntity
  8
0
100
AcDbLine
 62
7
  6
CONTINUOUS
 10
5.7275
 20
7.6465
 11
5.7275
 21
6.3535
  0
LINE
  5
2C0
100
AcDbEntity
  8
0
100
AcDbLine
 62
7
  6
CONTINUOUS
 10
5.7745
 20
6.456
 11
5.7745
 21
7.544
  0
LINE
  5
2C1
100
AcDbEntity
  8
THREAD
100
AcDbLine
 62
7
  6
CONTINUOUS
 10
4.1995
 20
7.7015
 11
3.8092128129
 21
7.7015
  0
LINE
  5
2C2
100
AcDbEntity
  8
THREAD
100
AcDbLine
 62
7
  6
CONTINUOUS
 10
3.6085
 20
7.7175
 11
3.5615
 21
7.7175
  0
LINE
  5
2C3
100
AcDbEntity
  8
0
100
AcDbLine
 62
7
  6
CONTINUOUS
 10
3.7115
 20
7.718
 11
3.7615
 21
7.718
  0
LINE
  5
2C4
100
AcDbEntity
  8
0
100
AcDbLine
 62
7
  6
CONTINUOUS
 10
3.5615
 20
7.7795
 11
2.7215
 21
7.7795
  0
LINE
  5
2C5
100
AcDbEntity
  8
0
100
AcDbLine
 62
7
  6
CONTINUOUS
 10
5.9205
 20
7.4007193223
 11
5.9205
 21
7.3835994961
  0
LINE
  5
2C6
100
AcDbEntity
  8
0
100
AcDbLine
 62
7
  6
CONTINUOUS
 10
5.9205
 20
7.0189961279
 11
5.9205
 21
6.9809720836
  0
LINE
  5
2C7
100
AcDbEntity
  8
0
100
AcDbLine
 62
7
  6
CONTINUOUS
 10
5.9205
 20
6.6157237906
 11
5.9205
 21
6.5992809769
  0
LINE
  5
2C8
100
AcDbEntity
  8
0
100
AcDbLine
 62
7
  6
CONTINUOUS
 10
5.9275
 20
7.392
 11
5.9275
 21
7.381879012
  0
LINE
  5
2C9
100
AcDbEntity
  8
0
100
AcDbLine
 62
7
  6
CONTINUOUS
 10
5.9275
 20
7.0496370708
 11
5.9275
 21
6.9503532103
  0
LINE
  5
2CA
100
AcDbEntity
  8
0
100
AcDbLine
 62
7
  6
CONTINUOUS
 10
5.9275
 20
6.618370936
 11
5.9275
 21
6.608
  0
LINE
  5
2CB
100
AcDbEntity
  8
0
100
AcDbLine
 62
7
  6
CONTINUOUS
 10
5.9375
 20
7.392
 11
5.9375
 21
7.3794529743
  0
LINE
  5
2CC
100
AcDbEntity
  8
0
100
AcDbLine
 62
7
  6
CONTINUOUS
 10
5.9375
 20
7.0730093524
 11
5.9375
 21
6.9269939025
  0
LINE
  5
2CD
100
AcDbEntity
  8
0
100
AcDbLine
 62
7
  6
CONTINUOUS
 10
5.9375
 20
6.6206370968
 11
5.9375
 21
6.608
  0
LINE
  5
2CE
100
AcDbEntity
  8
0
100
AcDbLine
 62
7
  6
CONTINUOUS
 10
5.9445
 20
7.402111443
 11
5.9445
 21
7.3777547478
  0
LINE
  5
2CF
100
AcDbEntity
  8
0
100
AcDbLine
 62
7
  6
CONTINUOUS
 10
5.9445
 20
7.085127381
 11
5.9445
 21
6.9148546643
  0
LINE
  5
2D0
100
AcDbEntity
  8
0
100
AcDbLine
 62
7
  6
CONTINUOUS
 10
5.9445
 20
6.6219128212
 11
5.9445
 21
6.5978898314
  0
LINE
  5
2D1
100
AcDbEntity
  8
0
100
AcDbLine
 62
7
  6
CONTINUOUS
 10
5.9825
 20
7.4029586204
 11
5.9825
 21
7.3734922766
  0
LINE
  5
2D2
100
AcDbEntity
  8
0
100
AcDbLine
 62
7
  6
CONTINUOUS
 10
5.9825
 20
7.1249294675
 11
5.9825
 21
6.8750720361
  0
LINE
  5
2D3
100
AcDbEntity
  8
0
100
AcDbLine
 62
7
  6
CONTINUOUS
 10
5.9825
 20
6.6258317067
 11
5.9825
 21
6.5970429875
  0
LINE
  5
2D4
100
AcDbEntity
  8
0
100
AcDbLine
 62
7
  6
CONTINUOUS
 10
6.0765
 20
7.1551367305
 11
6.0765
 21
6.8448624434
  0
LINE
  5
2D5
100
AcDbEntity
  8
0
100
AcDbLine
 62
7
  6
CONTINUOUS
 10
6.4125
 20
6.456
 11
6.4125
 21
7.544
  0
LINE
  5
2D6
100
AcDbEntity
  8
0
100
AcDbLine
 62
7
  6
CONTINUOUS
 10
6.4595
 20
6.3765
 11
6.4595
 21
7.6235
  0
LINE
  5
2D7
100
AcDbEntity
  8
0
100
AcDbLine
 62
7
  6
CONTINUOUS
 10
6.5495
 20
7.624
 11
6.5495
 21
6.376
  0
LINE
  5
2D8
100
AcDbEntity
  8
0
100
AcDbLine
 62
7
  6
CONTINUOUS
 10
6.5995
 20
7.624
 11
6.5995
 21
6.376
  0
LINE
  5
2D9
100
AcDbEntity
  8
0
100
AcDbLine
 62
7
  6
CONTINUOUS
 10
6.7025
 20
7.624
 11
6.7025
 21
6.376
  0
LINE
  5
2DA
100
AcDbEntity
  8
0
100
AcDbLine
 62
7
  6
CONTINUOUS
 10
6.7525
 20
7.624
 11
6.7525
 21
6.376
  0
LINE
  5
2DB
100
AcDbEntity
  8
0
100
AcDbLine
 62
7
  6
CONTINUOUS
 10
6.7725
 20
6.464
 11
6.7725
 21
7.536
  0
LINE
  5
2DC
100
AcDbEntity
  8
0
100
AcDbLine
 62
7
  6
CONTINUOUS
 10
6.7875
 20
6.3765
 11
6.7875
 21
7.6235
  0
LINE
  5
2DD
100
AcDbEntity
  8
0
100
AcDbLine
 62
7
  6
CONTINUOUS
 10
6.877
 20
6.3765
 11
6.877
 21
7.6235
  0
LINE
  5
2DE
100
AcDbEntity
  8
0
100
AcDbLine
 62
7
  6
CONTINUOUS
 10
6.924
 20
6.456
 11
6.924
 21
7.544
  0
LINE
  5
2DF
100
AcDbEntity
  8
0
100
AcDbLine
 62
7
  6
CONTINUOUS
 10
7.1045
 20
7.1546553122
 11
7.1045
 21
6.8453412169
  0
LINE
  5
2E0
100
AcDbEntity
  8
0
100
AcDbLine
 62
7
  6
CONTINUOUS
 10
7.2295
 20
7.0733934324
 11
7.2295
 21
6.9265950038
  0
LINE
  5
2E1
100
AcDbEntity
  8
0
100
AcDbLine
 62
7
  6
CONTINUOUS
 10
7.2425
 20
7.0406259975
 11
7.2425
 21
6.9593598455
  0
LINE
  5
2E2
100
AcDbEntity
  8
0
100
AcDbLine
 62
7
  6
CONTINUOUS
 10
7.5785
 20
6.456
 11
7.5785
 21
7.544
  0
LINE
  5
2E3
100
AcDbEntity
  8
0
100
AcDbLine
 62
7
  6
CONTINUOUS
 10
7.6255
 20
6.4
 11
7.6255
 21
7.6
  0
LINE
  5
2E4
100
AcDbEntity
  8
0
100
AcDbLine
 62
7
  6
CONTINUOUS
 10
7.7155
 20
7.624
 11
7.7155
 21
6.376
  0
LINE
  5
2E5
100
AcDbEntity
  8
0
100
AcDbLine
 62
7
  6
CONTINUOUS
 10
7.7655
 20
7.624
 11
7.7655
 21
6.376
  0
LINE
  5
2E6
100
AcDbEntity
  8
0
100
AcDbLine
 62
7
  6
CONTINUOUS
 10
8.0635
 20
6.417
 11
8.0465
 21
6.4
  0
LINE
  5
2E7
100
AcDbEntity
  8
0
100
AcDbLine
 62
7
  6
CONTINUOUS
 10
8.0635
 20
7.583
 11
8.0465
 21
7.6
  0
LINE
  5
2E8
100
AcDbEntity
  8
0
100
AcDbLine
 62
7
  6
CONTINUOUS
 10
7.8685
 20
7.624
 11
7.8685
 21
6.376
  0
LINE
  5
2E9
100
AcDbEntity
  8
0
100
AcDbLine
 62
7
  6
CONTINUOUS
 10
7.9185
 20
7.624
 11
7.9185
 21
6.376
  0
LINE
  5
2EA
100
AcDbEntity
  8
0
100
AcDbLine
 62
7
  6
CONTINUOUS
 10
7.9385
 20
6.4875
 11
7.9385
 21
7.5125
  0
LINE
  5
2EB
100
AcDbEntity
  8
0
100
AcDbLine
 62
7
  6
CONTINUOUS
 10
7.9535
 20
6.4
 11
7.9535
 21
7.6
  0
LINE
  5
2EC
100
AcDbEntity
  8
0
100
AcDbLine
 62
7
  6
CONTINUOUS
 10
8.0465
 20
6.4
 11
8.0465
 21
7.6
  0
LINE
  5
2ED
100
AcDbEntity
  8
0
100
AcDbLine
 62
7
  6
CONTINUOUS
 10
8.0635
 20
6.417
 11
8.0635
 21
7.583
  0
ARC
  5
2EE
100
AcDbEntity
  8
0
100
AcDbCircle
 62
7
  6
CONTINUOUS
 10
5.2625
 20
6.392
 40
0.047
100
AcDbArc
 50
0.0
 51
90.0
  0
ARC
  5
2EF
100
AcDbEntity
  8
0
100
AcDbCircle
 62
7
  6
CONTINUOUS
 10
5.7745
 20
6.409
 40
0.047
100
AcDbArc
 50
90.0
 51
180.0
  0
ARC
  5
2F0
100
AcDbEntity
  8
0
100
AcDbCircle
 62
7
  6
CONTINUOUS
 10
3.7538639713
 20
6.342
 40
0.028
100
AcDbArc
 50
9.2483656811
 51
74.046509438
  0
ARC
  5
2F1
100
AcDbEntity
  8
0
100
AcDbCircle
 62
7
  6
CONTINUOUS
 10
5.6225
 20
6.426
 40
0.015
100
AcDbArc
 50
0.000000001
 51
90.0
  0
ARC
  5
2F2
100
AcDbEntity
  8
0
100
AcDbCircle
 62
7
  6
CONTINUOUS
 10
4.6225
 20
6.4455857864
 40
0.0024142136
100
AcDbArc
 50
45.0
 51
135.0
  0
ARC
  5
2F3
100
AcDbEntity
  8
0
100
AcDbCircle
 62
7
  6
CONTINUOUS
 10
4.5915
 20
6.4455857864
 40
0.0024142136
100
AcDbArc
 50
45.0
 51
64.6007962233
  0
CIRCLE
  5
2F4
100
AcDbEntity
  8
0
100
AcDbCircle
 62
7
  6
CONTINUOUS
 10
5.0895
 20
7.0
 40
0.156
  0
ARC
  5
2F5
100
AcDbEntity
  8
0
100
AcDbCircle
 62
7
  6
CONTINUOUS
 10
5.2625
 20
7.608
 40
0.047
100
AcDbArc
 50
270.0
 51
360.0
  0
ARC
  5
2F6
100
AcDbEntity
  8
0
100
AcDbCircle
 62
7
  6
CONTINUOUS
 10
5.7745
 20
7.591
 40
0.047
100
AcDbArc
 50
180.0
 51
270.0
  0
ARC
  5
2F7
100
AcDbEntity
  8
0
100
AcDbCircle
 62
7
  6
CONTINUOUS
 10
3.7538639713
 20
7.658
 40
0.028
100
AcDbArc
 50
285.9534905218
 51
350.7516344152
  0
ARC
  5
2F8
100
AcDbEntity
  8
0
100
AcDbCircle
 62
7
  6
CONTINUOUS
 10
5.6225
 20
7.574
 40
0.015
100
AcDbArc
 50
270.0
 51
359.9999999973
  0
ARC
  5
2F9
100
AcDbEntity
  8
0
100
AcDbCircle
 62
7
  6
CONTINUOUS
 10
4.6225
 20
7.5544142136
 40
0.0024142136
100
AcDbArc
 50
225.0
 51
315.0
  0
ARC
  5
2FA
100
AcDbEntity
  8
0
100
AcDbCircle
 62
7
  6
CONTINUOUS
 10
4.5915
 20
7.5544142136
 40
0.0024142136
100
AcDbArc
 50
295.3992037767
 51
315.0
  0
ARC
  5
2FB
100
AcDbEntity
  8
0
100
AcDbCircle
 62
7
  6
CONTINUOUS
 10
5.9832853681
 20
6.4195542388
 40
0.9834347081
100
AcDbArc
 50
90.0430406855
 51
92.2560564274
  0
ARC
  5
2FC
100
AcDbEntity
  8
0
100
AcDbCircle
 62
7
  6
CONTINUOUS
 10
5.9587583065
 20
6.918649576
 40
0.483682479
100
AcDbArc
 50
94.569858854
 51
94.9929011993
  0
ARC
  5
2FD
100
AcDbEntity
  8
0
100
AcDbCircle
 62
7
  6
CONTINUOUS
 10
6.0246805789
 20
6.8678626121
 40
0.2687990972
100
AcDbArc
 50
260.9397772434
 51
261.4045892389
  0
ARC
  5
2FE
100
AcDbEntity
  8
0
100
AcDbCircle
 62
7
  6
CONTINUOUS
 10
7.5785
 20
6.409
 40
0.047
100
AcDbArc
 50
0.0
 51
90.0
  0
ARC
  5
2FF
100
AcDbEntity
  8
0
100
AcDbCircle
 62
7
  6
CONTINUOUS
 10
6.4125
 20
6.409
 40
0.047
100
AcDbArc
 50
0.0
 51
90.0
  0
ARC
  5
300
100
AcDbEntity
  8
0
100
AcDbCircle
 62
7
  6
CONTINUOUS
 10
6.924
 20
6.409
 40
0.047
100
AcDbArc
 50
90.0
 51
180.0
  0
ARC
  5
301
100
AcDbEntity
  8
0
100
AcDbCircle
 62
7
  6
CONTINUOUS
 10
7.9385
 20
6.4725
 40
0.015
100
AcDbArc
 50
0.0000000015
 51
90.0
  0
ARC
  5
302
100
AcDbEntity
  8
0
100
AcDbCircle
 62
7
  6
CONTINUOUS
 10
6.7725
 20
6.449
 40
0.015
100
AcDbArc
 50
0.0000000014
 51
90.0
  0
ARC
  5
303
100
AcDbEntity
  8
0
100
AcDbCircle
 62
7
  6
CONTINUOUS
 10
5.9275
 20
6.601
 40
0.007
100
AcDbArc
 50
90.0
 51
180.0
  0
ARC
  5
304
100
AcDbEntity
  8
0
100
AcDbCircle
 62
7
  6
CONTINUOUS
 10
5.9375
 20
6.601
 40
0.007
100
AcDbArc
 50
0.0
 51
90.0
  0
ARC
  5
305
100
AcDbEntity
  8
0
100
AcDbCircle
 62
7
  6
CONTINUOUS
 10
5.9832852617
 20
7.5804334025
 40
0.9834223553
100
AcDbArc
 50
267.7438086556
 51
269.9569419167
  0
ARC
  5
306
100
AcDbEntity
  8
0
100
AcDbCircle
 62
7
  6
CONTINUOUS
 10
5.9582707646
 20
7.0755195334
 40
0.4778312825
100
AcDbArc
 50
265.0039008726
 51
265.4326479129
  0
ARC
  5
307
100
AcDbEntity
  8
0
100
AcDbCircle
 62
7
  6
CONTINUOUS
 10
6.0262866523
 20
7.1215812249
 40
0.2794767097
100
AcDbArc
 50
98.1201495317
 51
98.7162418248
  0
ARC
  5
308
100
AcDbEntity
  8
0
100
AcDbCircle
 62
7
  6
CONTINUOUS
 10
6.0240011325
 20
7.1364820263
 40
0.2644016481
100
AcDbArc
 50
98.7160161156
 51
99.0903496065
  0
CIRCLE
  5
309
100
AcDbEntity
  8
0
100
AcDbCircle
 62
7
  6
CONTINUOUS
 10
6.0745
 20
7.0
 40
0.156
  0
CIRCLE
  5
30A
100
AcDbEntity
  8
0
100
AcDbCircle
 62
7
  6
CONTINUOUS
 10
7.0925
 20
7.0
 40
0.156
  0
ARC
  5
30B
100
AcDbEntity
  8
0
100
AcDbCircle
 62
7
  6
CONTINUOUS
 10
6.4125
 20
7.591
 40
0.047
100
AcDbArc
 50
270.0
 51
360.0
  0
ARC
  5
30C
100
AcDbEntity
  8
0
100
AcDbCircle
 62
7
  6
CONTINUOUS
 10
7.5785
 20
7.591
 40
0.047
100
AcDbArc
 50
270.0
 51
360.0
  0
ARC
  5
30D
100
AcDbEntity
  8
0
100
AcDbCircle
 62
7
  6
CONTINUOUS
 10
6.924
 20
7.591
 40
0.047
100
AcDbArc
 50
180.0
 51
270.0
  0
ARC
  5
30E
100
AcDbEntity
  8
0
100
AcDbCircle
 62
7
  6
CONTINUOUS
 10
7.9385
 20
7.5275
 40
0.015
100
AcDbArc
 50
270.0
 51
359.9999999957
  0
ARC
  5
30F
100
AcDbEntity
  8
0
100
AcDbCircle
 62
7
  6
CONTINUOUS
 10
6.7725
 20
7.551
 40
0.015
100
AcDbArc
 50
270.0
 51
359.9999999961
  0
ARC
  5
310
100
AcDbEntity
  8
0
100
AcDbCircle
 62
7
  6
CONTINUOUS
 10
5.9275
 20
7.399
 40
0.007
100
AcDbArc
 50
180.0
 51
270.0
  0
ARC
  5
311
100
AcDbEntity
  8
0
100
AcDbCircle
 62
7
  6
CONTINUOUS
 10
5.9375
 20
7.399
 40
0.007
100
AcDbArc
 50
270.0
 51
360.0
  0
SPLINE
  5
312
100
AcDbEntity
  8
0
100
AcDbSpline
 62
7
  6
CONTINUOUS
 70
0
 71
3
 72
15
 73
11
 74
0
 42
0.0000001
 43
0.0000001
 44
0.0000000001
 40
0.0
 40
0.0
 40
0.0
 40
0.0
 40
0.1131755822
 40
0.2364771161
 40
0.3665424422
 40
0.4999947658
 40
0.6334486375
 40
0.7635174495
 40
0.8868226853
 40
1.0
 40
1.0
 40
1.0
 40
1.0
 10
4.507567423
 20
7.6353982019
 30
0.0
 10
4.5066663909
 20
7.6352437551
 30
0.0
 10
4.5047745347
 20
7.6349736567
 30
0.0
 10
4.5018271373
 20
7.6346845977
 30
0.0
 10
4.4987068227
 20
7.634507221
 30
0.0
 10
4.4955001145
 20
7.6344464854
 30
0.0
 10
4.4922933781
 20
7.6345072147
 30
0.0
 10
4.4891729923
 20
7.6346845854
 30
0.0
 10
4.4862255236
 20
7.6349736556
 30
0.0
 10
4.4843336229
 20
7.6352437527
 30
0.0
 10
4.483432577
 20
7.6353982019
 30
0.0
  0
SPLINE
  5
313
100
AcDbEntity
  8
0
100
AcDbSpline
 62
7
  6
CONTINUOUS
 70
0
 71
3
 72
15
 73
11
 74
0
 42
0.0000001
 43
0.0000001
 44
0.0000000001
 40
0.0
 40
0.0
 40
0.0
 40
0.0
 40
0.1256344711
 40
0.2507761758
 40
0.3755069661
 40
0.5000000172
 40
0.6244930656
 40
0.7492238507
 40
0.8743655347
 40
1.0
 40
1.0
 40
1.0
 40
1.0
 10
1.987884174
 20
6.3976117836
 30
0.0
 10
1.9804660441
 20
6.4211807147
 30
0.0
 10
1.9669288595
 20
6.4686426983
 30
0.0
 10
1.9514132634
 20
6.5409102539
 30
0.0
 10
1.9416280131
 20
6.6139713291
 30
0.0
 10
1.9382763088
 20
6.6874947427
 30
0.0
 10
1.9416280148
 20
6.7610181551
 30
0.0
 10
1.951413266
 20
6.8340792245
 30
0.0
 10
1.9669288617
 20
6.9063467737
 30
0.0
 10
1.9804660444
 20
6.9538087525
 30
0.0
 10
1.987884174
 20
6.9773776825
 30
0.0
  0
SPLINE
  5
314
100
AcDbEntity
  8
0
100
AcDbSpline
 62
7
  6
CONTINUOUS
 70
0
 71
3
 72
15
 73
11
 74
0
 42
0.0000001
 43
0.0000001
 44
0.0000000001
 40
0.0
 40
0.0
 40
0.0
 40
0.0
 40
0.1256344711
 40
0.2507761758
 40
0.3755069661
 40
0.5000000172
 40
0.6244930656
 40
0.7492238507
 40
0.8743655347
 40
1.0
 40
1.0
 40
1.0
 40
1.0
 10
1.987884174
 20
7.0226223175
 30
0.0
 10
1.9804660441
 20
7.0461912486
 30
0.0
 10
1.9669288595
 20
7.0936532323
 30
0.0
 10
1.9514132634
 20
7.1659207878
 30
0.0
 10
1.9416280131
 20
7.238981863
 30
0.0
 10
1.9382763088
 20
7.3125052766
 30
0.0
 10
1.9416280148
 20
7.386028689
 30
0.0
 10
1.951413266
 20
7.4590897584
 30
0.0
 10
1.9669288617
 20
7.5313573076
 30
0.0
 10
1.9804660444
 20
7.5788192864
 30
0.0
 10
1.987884174
 20
7.6023882164
 30
0.0
  0
SPLINE
  5
315
100
AcDbEntity
  8
0
100
AcDbSpline
 62
7
  6
CONTINUOUS
 70
0
 71
3
 72
15
 73
11
 74
0
 42
0.0000001
 43
0.0000001
 44
0.0000000001
 40
0.0
 40
0.0
 40
0.0
 40
0.0
 40
0.0978945572
 40
0.202086029
 40
0.313921109
 40
0.4341967004
 40
0.5631835918
 40
0.7008505559
 40
0.8467129096
 40
1.0
 40
1.0
 40
1.0
 40
1.0
 10
6.1405000091
 20
7.471117591
 30
0.0
 10
6.1404999636
 20
7.4686788304
 30
0.0
 10
6.1400213931
 20
7.4636366043
 30
0.0
 10
6.1380171531
 20
7.4560482303
 30
0.0
 10
6.1347407326
 20
7.4483102315
 30
0.0
 10
6.1302297856
 20
7.4405047347
 30
0.0
 10
6.1245318149
 20
7.4327097049
 30
0.0
 10
6.117695191
 20
7.425018224
 30
0.0
 10
6.1097885437
 20
7.4175244787
 30
0.0
 10
6.1039859085
 20
7.4128344566
 30
0.0
 10
6.1009302366
 20
7.4105441762
 30
0.0
  0
SPLINE
  5
316
100
AcDbEntity
  8
0
100
AcDbSpline
 62
7
  6
CONTINUOUS
 70
0
 71
3
 72
14
 73
10
 74
0
 42
0.0000001
 43
0.0000001
 44
0.0000000001
 40
0.0
 40
0.0
 40
0.0
 40
0.0
 40
0.1096583309
 40
0.2249496956
 40
0.3454157913
 40
0.4704457191
 40
0.5992844346
 40
0.7311360249
 40
1.0
 40
1.0
 40
1.0
 40
1.0
 10
6.0794934435
 20
7.397112349
 30
0.0
 10
6.0760589229
 20
7.3977007316
 30
0.0
 10
6.0689871111
 20
7.3987564777
 30
0.0
 10
6.0580811481
 20
7.4000086419
 30
0.0
 10
6.0466586049
 20
7.401003222
 30
0.0
 10
6.0347874786
 20
7.4017695478
 30
0.0
 10
6.0225429922
 20
7.4023325233
 30
0.0
 10
6.0057231895
 20
7.4028510847
 30
0.0
 10
5.9929889494
 20
7.4029907588
 30
0.0
 10
5.9844453996
 20
7.402990337
 30
0.0
  0
LINE
  5
317
100
AcDbEntity
  8
0
100
AcDbLine
 62
7
  6
CONTINUOUS
 10
5.9844453996
 20
7.402990337
 11
5.9825466103
 21
7.4029886694
  0
SPLINE
  5
318
100
AcDbEntity
  8
0
100
AcDbSpline
 62
7
  6
CONTINUOUS
 70
0
 71
3
 72
9
 73
5
 74
0
 42
0.0000001
 43
0.0000001
 44
0.0000000001
 40
0.0
 40
0.0
 40
0.0
 40
0.0
 40
0.2557179204
 40
1.0
 40
1.0
 40
1.0
 40
1.0
 10
5.9445720294
 20
7.4022266677
 30
0.0
 10
5.9424944393
 20
7.4021420871
 30
0.0
 10
5.9343713247
 20
7.4017790359
 30
0.0
 10
5.926253832
 20
7.4012767154
 30
0.0
 10
5.9202211249
 20
7.4007943946
 30
0.0
  0
SPLINE
  5
319
100
AcDbEntity
  8
0
100
AcDbSpline
 62
7
  6
CONTINUOUS
 70
0
 71
3
 72
9
 73
5
 74
0
 42
0.0000001
 43
0.0000001
 44
0.0000000001
 40
0.0
 40
0.0
 40
0.0
 40
0.0
 40
0.5152738875
 40
1.0
 40
1.0
 40
1.0
 40
1.0
 10
5.9166623001
 20
7.4004967164
 30
0.0
 10
5.9119779529
 20
7.400087154
 30
0.0
 10
5.9028981042
 20
7.3991553645
 30
0.0
 10
5.8938610932
 20
7.3978584483
 30
0.0
 10
5.8895011779
 20
7.3971114289
 30
0.0
  0
SPLINE
  5
31A
100
AcDbEntity
  8
0
100
AcDbSpline
 62
7
  6
CONTINUOUS
 70
0
 71
3
 72
9
 73
5
 74
0
 42
0.0000001
 43
0.0000001
 44
0.0000000001
 40
0.0
 40
0.0
 40
0.0
 40
0.0
 40
0.5105703198
 40
1.0
 40
1.0
 40
1.0
 40
1.0
 10
6.0291839992
 20
7.3783977503
 30
0.0
 10
6.0208051837
 20
7.3802989263
 30
0.0
 10
6.0046120622
 20
7.3850635435
 30
0.0
 10
5.989157251
 20
7.391851901
 30
0.0
 10
5.9818518843
 20
7.3956550714
 30
0.0
  0
SPLINE
  5
31B
100
AcDbEntity
  8
0
100
AcDbSpline
 62
7
  6
CONTINUOUS
 70
0
 71
3
 72
11
 73
7
 74
0
 42
0.0000001
 43
0.0000001
 44
0.0000000001
 40
0.0
 40
0.0
 40
0.0
 40
0.0
 40
0.2642966468
 40
0.5198793472
 40
0.7654682872
 40
1.0
 40
1.0
 40
1.0
 40
1.0
 10
6.0290791169
 20
6.5980166491
 30
0.0
 10
6.0251390506
 20
6.5982061238
 30
0.0
 10
6.0173916864
 20
6.5986430838
 30
0.0
 10
6.0059995332
 20
6.5995157461
 30
0.0
 10
5.9950738903
 20
6.600622557
 30
0.0
 10
5.9879679558
 20
6.601559354
 30
0.0
 10
5.9845069017
 20
6.6020825708
 30
0.0
  0
SPLINE
  5
31C
100
AcDbEntity
  8
0
100
AcDbSpline
 62
7
  6
CONTINUOUS
 70
0
 71
3
 72
35
 73
31
 74
0
 42
0.0000001
 43
0.0000001
 44
0.0000000001
 40
0.0
 40
0.0
 40
0.0
 40
0.0
 40
0.0198772821
 40
0.0411619879
 40
0.0641377461
 40
0.0889570001
 40
0.1156693134
 40
0.1442367153
 40
0.1745554227
 40
0.2064931397
 40
0.2398946333
 40
0.2745981028
 40
0.347157338
 40
0.4227764894
 40
0.4612913719
 40
0.4999997888
 40
0.5387083149
 40
0.5772234518
 40
0.6528432015
 40
0.7254025587
 40
0.7601058654
 40
0.7935071674
 40
0.8254447848
 40
0.855763626
 40
0.8843312728
 40
0.9110436793
 40
0.9358626968
 40
0.9588381925
 40
0.9801227584
 40
1.0
 40
1.0
 40
1.0
 40
1.0
 10
4.9335
 20
6.5141597485
 30
0.0
 10
4.9335
 20
6.5167917645
 30
0.0
 10
4.934060351
 20
6.5222515414
 30
0.0
 10
4.9363936128
 20
6.5304535241
 30
0.0
 10
4.9402062389
 20
6.5388016728
 30
0.0
 10
4.9454393698
 20
6.5471925798
 30
0.0
 10
4.9520332671
 20
6.5555246527
 30
0.0
 10
4.9599196144
 20
6.5636883518
 30
0.0
 10
4.9690229503
 20
6.5715696328
 30
0.0
 10
4.9792617501
 20
6.5790492103
 30
0.0
 10
4.9905459609
 20
6.5860136499
 30
0.0
 10
5.0071015456
 20
6.5945802638
 30
0.0
 10
5.0298018556
 20
6.6032745022
 30
0.0
 10
5.0540154514
 20
6.60870303
 30
0.0
 10
5.074145195
 20
6.6109395995
 30
0.0
 10
5.0894999298
 20
6.6115130485
 30
0.0
 10
5.1048546965
 20
6.6109395853
 30
0.0
 10
5.1249845725
 20
6.608703045
 30
0.0
 10
5.1491982822
 20
6.6032744285
 30
0.0
 10
5.1718986699
 20
6.5945801865
 30
0.0
 10
5.188454206
 20
6.5860135451
 30
0.0
 10
5.1997383688
 20
6.5790491433
 30
0.0
 10
5.2099771436
 20
6.5715695658
 30
0.0
 10
5.2190804891
 20
6.5636882386
 30
0.0
 10
5.2269668587
 20
6.5555244757
 30
0.0
 10
5.2335607764
 20
6.5471924011
 30
0.0
 10
5.2387938483
 20
6.5388015195
 30
0.0
 10
5.2426064206
 20
6.5304534409
 30
0.0
 10
5.2449396586
 20
6.5222515125
 30
0.0
 10
5.2455
 20
6.5167917592
 30
0.0
 10
5.2455
 20
6.5141597485
 30
0.0
  0
SPLINE
  5
31D
100
AcDbEntity
  8
0
100
AcDbSpline
 62
7
  6
CONTINUOUS
 70
0
 71
3
 72
35
 73
31
 74
0
 42
0.0000001
 43
0.0000001
 44
0.0000000001
 40
0.0
 40
0.0
 40
0.0
 40
0.0
 40
0.0198772844
 40
0.0411620033
 40
0.0641377946
 40
0.088957083
 40
0.1156693954
 40
0.1442367794
 40
0.1745554752
 40
0.2064931985
 40
0.2398947027
 40
0.2745981765
 40
0.3471574029
 40
0.4227765349
 40
0.4612914027
 40
0.4999998051
 40
0.5387083164
 40
0.5772234392
 40
0.6528431689
 40
0.7254025172
 40
0.7601058275
 40
0.7935071386
 40
0.82544476
 40
0.8557635875
 40
0.8843312137
 40
0.9110436164
 40
0.9358626618
 40
0.958838184
 40
0.9801227581
 40
1.0
 40
1.0
 40
1.0
 40
1.0
 10
5.2455
 20
7.4858402515
 30
0.0
 10
5.2455
 20
7.4832082352
 30
0.0
 10
5.2449396486
 20
7.4777484563
 30
0.0
 10
5.2426063842
 20
7.4695464676
 30
0.0
 10
5.2387937509
 20
7.4611983102
 30
0.0
 10
5.2335606122
 20
7.4528073978
 30
0.0
 10
5.2269667147
 20
7.4444753224
 30
0.0
 10
5.2190803668
 20
7.4363116292
 30
0.0
 10
5.209977031
 20
7.428430353
 30
0.0
 10
5.199738229
 20
7.4209507774
 30
0.0
 10
5.1884540158
 20
7.4139863363
 30
0.0
 10
5.1718984288
 20
7.405419725
 30
0.0
 10
5.1491981211
 20
7.3967254898
 30
0.0
 10
5.1249845302
 20
7.3912969662
 30
0.0
 10
5.1048547927
 20
7.3890603989
 30
0.0
 10
5.0895000637
 20
7.3884869521
 30
0.0
 10
5.0741453028
 20
7.3890604138
 30
0.0
 10
5.0540154333
 20
7.3912969544
 30
0.0
 10
5.0298017288
 20
7.3967255676
 30
0.0
 10
5.0071013439
 20
7.4054198073
 30
0.0
 10
4.9905458064
 20
7.4139864474
 30
0.0
 10
4.979261642
 20
7.4209508508
 30
0.0
 10
4.9690228664
 20
7.428430427
 30
0.0
 10
4.9599195221
 20
7.4363117494
 30
0.0
 10
4.9520331537
 20
7.4444755065
 30
0.0
 10
4.9454392371
 20
7.4528075827
 30
0.0
 10
4.9402061596
 20
7.4611984684
 30
0.0
 10
4.9363935811
 20
7.4695465535
 30
0.0
 10
4.9340603412
 20
7.4777484863
 30
0.0
 10
4.9335
 20
7.4832082408
 30
0.0
 10
4.9335
 20
7.4858402515
 30
0.0
  0
SPLINE
  5
31E
100
AcDbEntity
  8
0
100
AcDbSpline
 62
7
  6
CONTINUOUS
 70
0
 71
3
 72
20
 73
16
 74
0
 42
0.0000001
 43
0.0000001
 44
0.0000000001
 40
0.0
 40
0.0
 40
0.0
 40
0.0
 40
0.0548883997
 40
0.111825481
 40
0.2307953544
 40
0.292460854
 40
0.3553078318
 40
0.4836115387
 40
0.548688908
 40
0.6140636947
 40
0.6795115507
 40
0.7448125629
 40
0.809739826
 40
0.8740694045
 40
1.0
 40
1.0
 40
1.0
 40
1.0
 10
6.1009302366
 20
7.4105441762
 30
0.0
 10
6.0980692238
 20
7.4083997963
 30
0.0
 10
6.0920891064
 20
7.4042291342
 30
0.0
 10
6.0792268355
 20
7.3964312852
 30
0.0
 10
6.065249214
 20
7.3896797896
 30
0.0
 10
6.050396815
 20
7.384094071
 30
0.0
 10
6.0346479482
 20
7.3792502812
 30
0.0
 10
6.0182621802
 20
7.3758192651
 30
0.0
 10
6.0015074965
 20
7.3739065934
 30
0.0
 10
5.988755111
 20
7.3732423494
 30
0.0
 10
5.9759720366
 20
7.3733767853
 30
0.0
 10
5.9632513708
 20
7.3743027536
 30
0.0
 10
5.950683371
 20
7.3760024779
 30
0.0
 10
5.9343738861
 20
7.3792510757
 30
0.0
 10
5.9224499069
 20
7.3827768927
 30
0.0
 10
5.9147437273
 20
7.3855887
 30
0.0
  0
SPLINE
  5
31F
100
AcDbEntity
  8
0
100
AcDbSpline
 62
7
  6
CONTINUOUS
 70
0
 71
3
 72
10
 73
6
 74
0
 42
0.0000001
 43
0.0000001
 44
0.0000000001
 40
0.0
 40
0.0
 40
0.0
 40
0.0
 40
0.5171134
 40
0.7635793131
 40
1.0
 40
1.0
 40
1.0
 40
1.0
 10
5.9147437273
 20
7.3855887
 30
0.0
 10
5.906147743
 20
7.3887251765
 30
0.0
 10
5.8937471049
 20
7.3942452696
 30
0.0
 10
5.8784626095
 20
7.4031817729
 30
0.0
 10
5.8714173102
 20
7.4080351304
 30
0.0
 10
5.8680697634
 20
7.4105441762
 30
0.0
  0
SPLINE
  5
320
100
AcDbEntity
  8
0
100
AcDbSpline
 62
7
  6
CONTINUOUS
 70
0
 71
3
 72
35
 73
31
 74
0
 42
0.0000001
 43
0.0000001
 44
0.0000000001
 40
0.0
 40
0.0
 40
0.0
 40
0.0
 40
0.0198641005
 40
0.0411598164
 40
0.0641648399
 40
0.0890245396
 40
0.1157815136
 40
0.144391628
 40
0.174746144
 40
0.2067090267
 40
0.2401230594
 40
0.2748255239
 40
0.34734342
 40
0.4228798832
 40
0.461344471
 40
0.4999997291
 40
0.5386550997
 40
0.5771199447
 40
0.6526570224
 40
0.7251750594
 40
0.7598773699
 40
0.7932912206
 40
0.8252540145
 40
0.8556086734
 40
0.8842190417
 40
0.9109761165
 40
0.9358355916
 40
0.9588403612
 40
0.98013594
 40
1.0
 40
1.0
 40
1.0
 40
1.0
 10
6.9365
 20
6.5288821803
 30
0.0
 10
6.9365
 20
6.5315169676
 30
0.0
 10
6.9370617563
 20
6.5369857002
 30
0.0
 10
6.9393966186
 20
6.5452058834
 30
0.0
 10
6.9432106858
 20
6.5535821471
 30
0.0
 10
6.948444764
 20
6.5620100325
 30
0.0
 10
6.9550387558
 20
6.5703866164
 30
0.0
 10
6.9629240658
 20
6.5786008503
 30
0.0
 10
6.9720251163
 20
6.5865371009
 30
0.0
 10
6.9822604947
 20
6.5940745557
 30
0.0
 10
6.9935407184
 20
6.6010978945
 30
0.0
 10
7.0100878245
 20
6.609741676
 30
0.0
 10
7.0327813657
 20
6.6185257721
 30
0.0
 10
7.0570022551
 20
6.6240185827
 30
0.0
 10
7.0771395024
 20
6.6262819249
 30
0.0
 10
7.0924999064
 20
6.6268624729
 30
0.0
 10
7.1078603425
 20
6.6262819118
 30
0.0
 10
7.1279977267
 20
6.6240186092
 30
0.0
 10
7.1522187356
 20
6.6185257092
 30
0.0
 10
7.1749123613
 20
6.6097416112
 30
0.0
 10
7.1914594247
 20
6.601097803
 30
0.0
 10
7.2027396041
 20
6.5940745009
 30
0.0
 10
7.2129749622
 20
6.5865370461
 30
0.0
 10
7.2220760258
 20
6.5786007474
 30
0.0
 10
7.2299613623
 20
6.570386449
 30
0.0
 10
7.2365553764
 20
6.56200986
 30
0.0
 10
7.2417893987
 20
6.5535819978
 30
0.0
 10
7.2456034142
 20
6.5452058019
 30
0.0
 10
7.2479382534
 20
6.5369856717
 30
0.0
 10
7.2485
 20
6.5315169622
 30
0.0
 10
7.2485
 20
6.5288821803
 30
0.0
  0
SPLINE
  5
321
100
AcDbEntity
  8
0
100
AcDbSpline
 62
7
  6
CONTINUOUS
 70
0
 71
3
 72
35
 73
31
 74
0
 42
0.0000001
 43
0.0000001
 44
0.0000000001
 40
0.0
 40
0.0
 40
0.0
 40
0.0
 40
0.019864103
 40
0.0411598312
 40
0.0641648841
 40
0.089024614
 40
0.115781586
 40
0.1443916834
 40
0.1747461891
 40
0.2067090789
 40
0.2401231229
 40
0.2748255925
 40
0.3473434813
 40
0.4228799268
 40
0.4613445008
 40
0.4999997452
 40
0.5386551019
 40
0.5771199336
 40
0.6526569931
 40
0.7251750228
 40
0.7598773379
 40
0.7932911984
 40
0.825253997
 40
0.8556086434
 40
0.884218992
 40
0.9109760618
 40
0.9358355601
 40
0.9588403526
 40
0.9801359392
 40
1.0
 40
1.0
 40
1.0
 40
1.0
 10
7.2485
 20
7.4711178197
 30
0.0
 10
7.2485
 20
7.4684830321
 30
0.0
 10
7.2479382433
 20
7.4630142975
 30
0.0
 10
7.2456033786
 20
7.4547941088
 30
0.0
 10
7.241789305
 20
7.4464178373
 30
0.0
 10
7.2365552199
 20
7.4379899473
 30
0.0
 10
7.2299612282
 20
7.4296133616
 30
0.0
 10
7.222075918
 20
7.421399133
 30
0.0
 10
7.2129748674
 20
7.4134628867
 30
0.0
 10
7.2027394867
 20
7.4059254333
 30
0.0
 10
7.1914592604
 20
7.3989020928
 30
0.0
 10
7.1749121518
 20
7.3902583135
 30
0.0
 10
7.1522186123
 20
7.3814742203
 30
0.0
 10
7.1279977273
 20
7.3759814136
 30
0.0
 10
7.1078604857
 20
7.3737180736
 30
0.0
 10
7.0925000872
 20
7.3731375277
 30
0.0
 10
7.0771396565
 20
7.3737180873
 30
0.0
 10
7.0570022784
 20
7.3759813903
 30
0.0
 10
7.0327812742
 20
7.3814742873
 30
0.0
 10
7.0100876507
 20
7.3902583834
 30
0.0
 10
6.9935405857
 20
7.3989021906
 30
0.0
 10
6.9822604045
 20
7.4059254946
 30
0.0
 10
6.9720250454
 20
7.4134629485
 30
0.0
 10
6.9629239829
 20
7.4213992428
 30
0.0
 10
6.9550386481
 20
7.4296135361
 30
0.0
 10
6.9484446352
 20
7.4379901258
 30
0.0
 10
6.9432106082
 20
7.4464179914
 30
0.0
 10
6.9393965874
 20
7.4547941928
 30
0.0
 10
6.9370617465
 20
7.463014327
 30
0.0
 10
6.9365
 20
7.4684830377
 30
0.0
 10
6.9365
 20
7.4711178197
 30
0.0
  0
SPLINE
  5
322
100
AcDbEntity
  8
0
100
AcDbSpline
 62
7
  6
CONTINUOUS
 70
0
 71
3
 72
15
 73
11
 74
0
 42
0.0000001
 43
0.0000001
 44
0.0000000001
 40
0.0
 40
0.0
 40
0.0
 40
0.0
 40
0.1187273945
 40
0.2426936701
 40
0.3703935015
 40
0.5000072191
 40
0.6296195939
 40
0.7573162163
 40
0.8812779657
 40
1.0
 40
1.0
 40
1.0
 40
1.0
 10
5.1581132409
 20
7.4004282491
 30
0.0
 10
5.152698058
 20
7.4009109564
 30
0.0
 10
5.1416109414
 20
7.4017019922
 30
0.0
 10
5.1246661054
 20
7.402464197
 30
0.0
 10
5.1072113046
 20
7.4028996134
 30
0.0
 10
5.0894933347
 20
7.4030360957
 30
0.0
 10
5.0717755136
 20
7.402899386
 30
0.0
 10
5.0543211334
 20
7.4024637665
 30
0.0
 10
5.0373769095
 20
7.4017012877
 30
0.0
 10
5.0262902606
 20
7.4009100506
 30
0.0
 10
5.0208753341
 20
7.4004272307
 30
0.0
  0
SPLINE
  5
323
100
AcDbEntity
  8
0
100
AcDbSpline
 62
7
  6
CONTINUOUS
 70
0
 71
3
 72
21
 73
17
 74
0
 42
0.0000001
 43
0.0000001
 44
0.0000000001
 40
0.0
 40
0.0
 40
0.0
 40
0.0
 40
0.054859124
 40
0.1125237485
 40
0.1727655077
 40
0.2352795909
 40
0.2996902988
 40
0.3656017353
 40
0.4999978172
 40
0.6343935879
 40
0.7003051031
 40
0.7647160154
 40
0.8272305271
 40
0.8874731805
 40
0.945139187
 40
1.0
 40
1.0
 40
1.0
 40
1.0
 10
7.1873286125
 20
7.3971405283
 30
0.0
 10
7.183899899
 20
7.397725479
 30
0.0
 10
7.1768411013
 20
7.3987752495
 30
0.0
 10
7.1659567264
 20
7.4000208018
 30
0.0
 10
7.1545591534
 20
7.4010104603
 30
0.0
 10
7.1427159125
 20
7.4017732652
 30
0.0
 10
7.1305017388
 20
7.4023339242
 30
0.0
 10
7.1137251622
 20
7.4028507059
 30
0.0
 10
7.0925030245
 20
7.4030839851
 30
0.0
 10
7.0712808806
 20
7.4028508236
 30
0.0
 10
7.0545043025
 20
7.4023341515
 30
0.0
 10
7.0422900796
 20
7.4017735844
 30
0.0
 10
7.0304467342
 20
7.4010108989
 30
0.0
 10
7.0190489778
 20
7.4000213722
 30
0.0
 10
7.0081643338
 20
7.3987759627
 30
0.0
 10
7.0011053239
 20
7.3977262978
 30
0.0
 10
6.9976764926
 20
7.3971414006
 30
0.0
  0
SPLINE
  5
324
100
AcDbEntity
  8
0
100
AcDbSpline
 62
7
  6
CONTINUOUS
 70
0
 71
3
 72
9
 73
5
 74
0
 42
0.0000001
 43
0.0000001
 44
0.0000000001
 40
0.0
 40
0.0
 40
0.0
 40
0.0
 40
0.4850828153
 40
1.0
 40
1.0
 40
1.0
 40
1.0
 10
5.8900103402
 20
6.6028018915
 30
0.0
 10
5.8942919411
 20
6.602077648
 30
0.0
 10
5.9031583021
 20
6.6008168112
 30
0.0
 10
5.9120654576
 20
6.5999052455
 30
0.0
 10
5.9166574328
 20
6.599503709
 30
0.0
  0
SPLINE
  5
325
100
AcDbEntity
  8
0
100
AcDbSpline
 62
7
  6
CONTINUOUS
 70
0
 71
3
 72
9
 73
5
 74
0
 42
0.0000001
 43
0.0000001
 44
0.0000000001
 40
0.0
 40
0.0
 40
0.0
 40
0.0
 40
0.2439038843
 40
1.0
 40
1.0
 40
1.0
 40
1.0
 10
5.9202206137
 20
6.5992056448
 30
0.0
 10
5.9221974462
 20
6.5990475923
 30
0.0
 10
5.9303062795
 20
6.5984480195
 30
0.0
 10
5.9384274958
 20
6.5980234901
 30
0.0
 10
5.9445700954
 20
6.597773408
 30
0.0
  0
LINE
  5
326
100
AcDbEntity
  8
0
100
AcDbLine
 62
7
  6
CONTINUOUS
 10
5.9825462147
 20
6.5970113249
 11
5.9845546004
 21
6.597009663
  0
SPLINE
  5
327
100
AcDbEntity
  8
0
100
AcDbSpline
 62
7
  6
CONTINUOUS
 70
0
 71
3
 72
14
 73
10
 74
0
 42
0.0000001
 43
0.0000001
 44
0.0000000001
 40
0.0
 40
0.0
 40
0.0
 40
0.0
 40
0.2686478164
 40
0.4004170069
 40
0.5292081313
 40
0.6542366062
 40
0.7747578166
 40
0.8901638075
 40
1.0
 40
1.0
 40
1.0
 40
1.0
 10
5.9845546004
 20
6.597009663
 30
0.0
 10
5.993036639
 20
6.5970100818
 30
0.0
 10
6.0056799147
 20
6.5971490124
 30
0.0
 10
6.0223811893
 20
6.5976618049
 30
0.0
 10
6.0345432935
 20
6.5982176787
 30
0.0
 10
6.0463389694
 20
6.5989734778
 30
0.0
 10
6.0576944022
 20
6.5999535859
 30
0.0
 10
6.0685428423
 20
6.6011865177
 30
0.0
 10
6.0755802129
 20
6.602225029
 30
0.0
 10
6.0789994834
 20
6.6028035518
 30
0.0
  0
SPLINE
  5
328
100
AcDbEntity
  8
0
100
AcDbSpline
 62
7
  6
CONTINUOUS
 70
0
 71
3
 72
20
 73
16
 74
0
 42
0.0000001
 43
0.0000001
 44
0.0000000001
 40
0.0
 40
0.0
 40
0.0
 40
0.0
 40
0.0432741806
 40
0.0885535117
 40
0.1362401029
 40
0.1866369479
 40
0.2399143195
 40
0.2961299281
 40
0.3552838434
 40
0.4173248107
 40
0.4821404682
 40
0.5495917258
 40
0.6917169008
 40
0.8423494219
 40
1.0
 40
1.0
 40
1.0
 40
1.0
 10
5.8284999913
 20
6.5288821804
 30
0.0
 10
5.8284999418
 20
6.5307318504
 30
0.0
 10
5.8287718362
 20
6.5345208536
 30
0.0
 10
5.829933689
 20
6.5402409314
 30
0.0
 10
5.8318449703
 20
6.5460763289
 30
0.0
 10
5.8344948506
 20
6.5519898746
 30
0.0
 10
5.8378644661
 20
6.5579458489
 30
0.0
 10
5.8419318486
 20
6.5639064599
 30
0.0
 10
5.8466756205
 20
6.5698311665
 30
0.0
 10
5.8520720752
 20
6.57567807
 30
0.0
 10
5.8580932151
 20
6.5814067184
 30
0.0
 10
5.8670721738
 20
6.588961462
 30
0.0
 10
5.879712047
 20
6.5978151765
 30
0.0
 10
5.8966038704
 20
6.6071192891
 30
0.0
 10
5.9087739674
 20
6.612245013
 30
0.0
 10
5.9151086079
 20
6.6145426725
 30
0.0
  0
SPLINE
  5
329
100
AcDbEntity
  8
0
100
AcDbSpline
 62
7
  6
CONTINUOUS
 70
0
 71
3
 72
30
 73
26
 74
0
 42
0.0000001
 43
0.0000001
 44
0.0000000001
 40
0.0
 40
0.0
 40
0.0
 40
0.0
 40
0.0707649315
 40
0.1067930091
 40
0.1431431567
 40
0.179738877
 40
0.2165072246
 40
0.2533738305
 40
0.2902599142
 40
0.3270861753
 40
0.3637754379
 40
0.400255257
 40
0.4364509096
 40
0.5766888155
 40
0.6432824434
 40
0.7067312811
 40
0.7665034208
 40
0.8221243485
 40
0.8732202946
 40
0.8970334269
 40
0.9196867096
 40
0.9412125466
 40
0.9616892402
 40
0.981234806
 40
1.0
 40
1.0
 40
1.0
 40
1.0
 10
5.9151086079
 20
6.6145426725
 30
0.0
 10
5.9210901868
 20
6.6167122717
 30
0.0
 10
5.930282407
 20
6.619554666
 30
0.0
 10
5.9428222197
 20
6.6224693848
 30
0.0
 10
5.9524649882
 20
6.6242319462
 30
0.0
 10
5.9622466987
 20
6.6255401444
 30
0.0
 10
5.9721269084
 20
6.6263752952
 30
0.0
 10
5.9820619977
 20
6.6267312071
 30
0.0
 10
5.992007865
 20
6.6266093395
 30
0.0
 10
6.0019205667
 20
6.6260095696
 30
0.0
 10
6.0117556304
 20
6.624931025
 30
0.0
 10
6.0214721658
 20
6.6233887686
 30
0.0
 10
6.0402170173
 20
6.619491072
 30
0.0
 10
6.0611047319
 20
6.6125239415
 30
0.0
 10
6.0828355544
 20
6.6015823311
 30
0.0
 10
6.0972892021
 20
6.5924502243
 30
0.0
 10
6.1099650705
 20
6.5825068383
 30
0.0
 10
6.120681192
 20
6.5720083263
 30
0.0
 10
6.1280092919
 20
6.5627891834
 30
0.0
 10
6.1326711629
 20
6.5553487779
 30
0.0
 10
6.1354943929
 20
6.5499177543
 30
0.0
 10
6.1377097723
 20
6.5445337391
 30
0.0
 10
6.1393057307
 20
6.5392242651
 30
0.0
 10
6.1402744506
 20
6.534017101
 30
0.0
 10
6.1405000406
 20
6.5305692466
 30
0.0
 10
6.1405000091
 20
6.5288819564
 30
0.0
  0
SPLINE
  5
32A
100
AcDbEntity
  8
0
100
AcDbSpline
 62
7
  6
CONTINUOUS
 70
0
 71
3
 72
15
 73
11
 74
0
 42
0.0000001
 43
0.0000001
 44
0.0000000001
 40
0.0
 40
0.0
 40
0.0
 40
0.0
 40
0.1187271401
 40
0.2426933135
 40
0.3703931645
 40
0.5000069847
 40
0.6296194937
 40
0.7573162297
 40
0.8812780252
 40
1.0
 40
1.0
 40
1.0
 40
1.0
 10
5.0208856738
 20
6.5995718476
 30
0.0
 10
5.0263009093
 20
6.5990891226
 30
0.0
 10
5.0373881421
 20
6.5982980583
 30
0.0
 10
5.0543331665
 20
6.5975358265
 30
0.0
 10
5.0717881786
 20
6.5971003936
 30
0.0
 10
5.0895063741
 20
6.5969639031
 30
0.0
 10
5.1072244251
 20
6.5971006118
 30
0.0
 10
5.1246790294
 20
6.5975362376
 30
0.0
 10
5.1416234622
 20
6.5982987316
 30
0.0
 10
5.1527102438
 20
6.5990899875
 30
0.0
 10
5.1581252323
 20
6.5995728198
 30
0.0
  0
SPLINE
  5
32B
100
AcDbEntity
  8
0
100
AcDbSpline
 62
7
  6
CONTINUOUS
 70
0
 71
3
 72
21
 73
17
 74
0
 42
0.0000001
 43
0.0000001
 44
0.0000000001
 40
0.0
 40
0.0
 40
0.0
 40
0.0
 40
0.0548592629
 40
0.1125239925
 40
0.172765824
 40
0.2352799453
 40
0.2996906609
 40
0.3656020787
 40
0.4999980618
 40
0.634393698
 40
0.7003051503
 40
0.7647160113
 40
0.8272304889
 40
0.8874731302
 40
0.9451391487
 40
1.0
 40
1.0
 40
1.0
 40
1.0
 10
6.9976720735
 20
6.6028593547
 30
0.0
 10
7.0011007785
 20
6.6022744155
 30
0.0
 10
7.0081595554
 20
6.6012246656
 30
0.0
 10
7.0190438928
 20
6.5999791371
 30
0.0
 10
7.0304414183
 20
6.5989894973
 30
0.0
 10
7.0422846025
 20
6.5982267072
 30
0.0
 10
7.0544987115
 20
6.5976660591
 30
0.0
 10
7.0712751896
 20
6.5971492881
 30
0.0
 10
7.0924971953
 20
6.5969160161
 30
0.0
 10
7.1137192042
 20
6.5971491788
 30
0.0
 10
7.1304956747
 20
6.597665848
 30
0.0
 10
7.1427098215
 20
6.5982264106
 30
0.0
 10
7.1545530961
 20
6.598989089
 30
0.0
 10
7.1659507883
 20
6.5999786051
 30
0.0
 10
7.176835376
 20
6.6012240002
 30
0.0
 10
7.1838943517
 20
6.6022736519
 30
0.0
 10
7.1873231674
 20
6.6028585414
 30
0.0
  0
SPLINE
  5
32C
100
AcDbEntity
  8
0
100
AcDbSpline
 62
7
  6
CONTINUOUS
 70
0
 71
3
 72
15
 73
11
 74
0
 42
0.0000001
 43
0.0000001
 44
0.0000000001
 40
0.0
 40
0.0
 40
0.0
 40
0.0
 40
0.1532864944
 40
0.2991485924
 40
0.4368156696
 40
0.565802589
 40
0.686078203
 40
0.7979133733
 40
0.9021048772
 40
1.0
 40
1.0
 40
1.0
 40
1.0
 10
5.8680697634
 20
7.4105441762
 30
0.0
 10
5.8650140943
 20
7.4128344544
 30
0.0
 10
5.85921146
 20
7.4175244791
 30
0.0
 10
5.8513048074
 20
7.4250182383
 30
0.0
 10
5.8444681591
 20
7.432709734
 30
0.0
 10
5.8387701677
 20
7.4405047898
 30
0.0
 10
5.8342592155
 20
7.4483103182
 30
0.0
 10
5.8309827998
 20
7.4560483523
 30
0.0
 10
5.8289786221
 20
7.4636367855
 30
0.0
 10
5.8285000566
 20
7.4686790369
 30
0.0
 10
5.8284999913
 20
7.4711178188
 30
0.0
  0
SPLINE
  5
32D
100
AcDbEntity
  8
0
100
AcDbSpline
 62
7
  6
CONTINUOUS
 70
0
 71
3
 72
11
 73
7
 74
0
 42
0.0000001
 43
0.0000001
 44
0.0000000001
 40
0.0
 40
0.0
 40
0.0
 40
0.0
 40
0.2356948907
 40
0.4816021091
 40
0.7367504445
 40
1.0
 40
1.0
 40
1.0
 40
1.0
 10
5.9868107374
 20
7.3982559137
 30
0.0
 10
5.9901056709
 20
7.3987263464
 30
0.0
 10
5.9968549464
 20
7.399573008
 30
0.0
 10
6.0072106097
 20
7.4005844004
 30
0.0
 10
6.0179743009
 20
7.401390506
 30
0.0
 10
6.0252837469
 20
7.4018003264
 30
0.0
 10
6.0289968912
 20
7.401979364
 30
0.0
  0
SPLINE
  5
32E
100
AcDbEntity
  8
0
100
AcDbSpline
 62
7
  6
CONTINUOUS
 70
0
 71
3
 72
9
 73
5
 74
0
 42
0.0000001
 43
0.0000001
 44
0.0000000001
 40
0.0
 40
0.0
 40
0.0
 40
0.0
 40
0.4894420744
 40
1.0
 40
1.0
 40
1.0
 40
1.0
 10
5.9818518774
 20
6.604344925
 30
0.0
 10
5.9891432496
 20
6.6081408103
 30
0.0
 10
6.0045670304
 20
6.6149178698
 30
0.0
 10
6.0207268184
 20
6.6196790151
 30
0.0
 10
6.0290882497
 20
6.6215804996
 30
0.0
  0
SPLINE
  5
32F
100
AcDbEntity
  8
0
100
AcDbSpline
 62
7
  6
CONTINUOUS
 70
0
 71
3
 72
16
 73
12
 74
0
 42
0.0000001
 43
0.0000001
 44
0.0000000001
 40
0.0
 40
0.0
 40
0.0
 40
0.0
 40
0.1116447048
 40
0.2212395082
 40
0.2763811767
 40
0.3322596618
 40
0.4477258198
 40
0.5705886039
 40
0.702916966
 40
0.8459048886
 40
1.0
 40
1.0
 40
1.0
 40
1.0
 10
6.1405000091
 20
6.5288819564
 30
0.0
 10
6.1404999656
 20
6.5265513364
 30
0.0
 10
6.1400786802
 20
6.5219195091
 30
0.0
 10
6.1384293152
 20
6.5163499455
 30
0.0
 10
6.1364859612
 20
6.512167705
 30
0.0
 10
6.1340891693
 20
6.5080846565
 30
0.0
 10
6.1302497842
 20
6.5032471322
 30
0.0
 10
6.1245027346
 20
6.4980247731
 30
0.0
 10
6.1176215329
 20
6.4933226663
 30
0.0
 10
6.1096817401
 20
6.4891293621
 30
0.0
 10
6.1039452971
 20
6.4867502601
 30
0.0
 10
6.1009302366
 20
6.485629045
 30
0.0
  0
SPLINE
  5
330
100
AcDbEntity
  8
0
100
AcDbSpline
 62
7
  6
CONTINUOUS
 70
0
 71
3
 72
16
 73
12
 74
0
 42
0.0000001
 43
0.0000001
 44
0.0000000001
 40
0.0
 40
0.0
 40
0.0
 40
0.0
 40
0.1540944455
 40
0.297082053
 40
0.4294104364
 40
0.5522732451
 40
0.6677393879
 40
0.7236178464
 40
0.7787596669
 40
0.8883552234
 40
1.0
 40
1.0
 40
1.0
 40
1.0
 10
5.8680697634
 20
6.485629045
 30
0.0
 10
5.8650547056
 20
6.4867502591
 30
0.0
 10
5.859318263
 20
6.4891293648
 30
0.0
 10
5.851378466
 20
6.4933226822
 30
0.0
 10
5.8444972359
 20
6.4980247875
 30
0.0
 10
5.8387501682
 20
6.5032471696
 30
0.0
 10
5.8349107847
 20
6.5080847208
 30
0.0
 10
5.8325139832
 20
6.5121677853
 30
0.0
 10
5.8305706483
 20
6.516350074
 30
0.0
 10
5.8289213477
 20
6.5219196973
 30
0.0
 10
5.8285000536
 20
6.526551551
 30
0.0
 10
5.8284999913
 20
6.5288821804
 30
0.0
  0
SPLINE
  5
331
100
AcDbEntity
  8
0
100
AcDbSpline
 62
7
  6
CONTINUOUS
 70
0
 71
3
 72
45
 73
41
 74
0
 42
0.0000001
 43
0.0000001
 44
0.0000000001
 40
0.0
 40
0.0
 40
0.0
 40
0.0
 40
0.0105086621
 40
0.0208583521
 40
0.0311329447
 40
0.0414181633
 40
0.0517998869
 40
0.062366266
 40
0.0843618637
 40
0.107985933
 40
0.1336200949
 40
0.1614821819
 40
0.1916604632
 40
0.2241398115
 40
0.2588282256
 40
0.2955526581
 40
0.3340908383
 40
0.374156828
 40
0.4154152044
 40
0.4574991696
 40
0.4999996403
 40
0.5425002374
 40
0.584584485
 40
0.6258431725
 40
0.6659094339
 40
0.704447742
 40
0.7411720607
 40
0.775860267
 40
0.8083394512
 40
0.8385177033
 40
0.8663799753
 40
0.8920144067
 40
0.9156386142
 40
0.9376341815
 40
0.9482004839
 40
0.9585820809
 40
0.9688671874
 40
0.9791417017
 40
0.9894913494
 40
1.0
 40
1.0
 40
1.0
 40
1.0
 10
5.2455
 20
6.5141597485
 30
0.0
 10
5.2455
 20
6.5128932322
 30
0.0
 10
5.2453759625
 20
6.5103773495
 30
0.0
 10
5.2448058984
 20
6.5066621612
 30
0.0
 10
5.2438561761
 20
6.5030527739
 30
0.0
 10
5.2425298648
 20
6.4995601528
 30
0.0
 10
5.240828982
 20
6.4961943143
 30
0.0
 10
5.2380336286
 20
6.4918294113
 30
0.0
 10
5.2335637106
 20
6.4866886709
 30
0.0
 10
5.2269098653
 20
6.4812103927
 30
0.0
 10
5.2189732956
 20
6.4763273385
 30
0.0
 10
5.2098369711
 20
6.4720192765
 30
0.0
 10
5.1995788805
 20
6.4682710696
 30
0.0
 10
5.1882880221
 20
6.4650528027
 30
0.0
 10
5.1760578763
 20
6.4623408038
 30
0.0
 10
5.1629918439
 20
6.4601061218
 30
0.0
 10
5.1492040457
 20
6.4583218913
 30
0.0
 10
5.134819537
 20
6.456964111
 30
0.0
 10
5.119974808
 20
6.4560112561
 30
0.0
 10
5.1048169596
 20
6.4554453049
 30
0.0
 10
5.0895001128
 20
6.4552594122
 30
0.0
 10
5.0741832318
 20
6.4554452933
 30
0.0
 10
5.0590252968
 20
6.4560112516
 30
0.0
 10
5.0441804635
 20
6.4569641093
 30
0.0
 10
5.0297958695
 20
6.4583218984
 30
0.0
 10
5.0160080378
 20
6.4601061391
 30
0.0
 10
5.0029420299
 20
6.462340826
 30
0.0
 10
4.9907119421
 20
6.4650528142
 30
0.0
 10
4.9794211266
 20
6.4682710547
 30
0.0
 10
4.9691630373
 20
6.4720192648
 30
0.0
 10
4.960026679
 20
6.4763273765
 30
0.0
 10
4.9520900532
 20
6.4812104717
 30
0.0
 10
4.9454361592
 20
6.4866887676
 30
0.0
 10
4.9409662834
 20
6.4918295516
 30
0.0
 10
4.938170958
 20
6.4961944367
 30
0.0
 10
4.9364700716
 20
6.4995602307
 30
0.0
 10
4.9351437779
 20
6.5030528185
 30
0.0
 10
4.9341940768
 20
6.5066621825
 30
0.0
 10
4.9336240316
 20
6.5103773575
 30
0.0
 10
4.9335
 20
6.5128932336
 30
0.0
 10
4.9335
 20
6.5141597485
 30
0.0
  0
SPLINE
  5
332
100
AcDbEntity
  8
0
100
AcDbSpline
 62
7
  6
CONTINUOUS
 70
0
 71
3
 72
45
 73
41
 74
0
 42
0.0000001
 43
0.0000001
 44
0.0000000001
 40
0.0
 40
0.0
 40
0.0
 40
0.0
 40
0.0105360783
 40
0.0208920461
 40
0.0311578596
 40
0.0414252924
 40
0.0517856909
 40
0.0623291891
 40
0.0842765661
 40
0.1078513961
 40
0.1334386194
 40
0.1612635808
 40
0.191418519
 40
0.223887366
 40
0.2585733263
 40
0.2953148205
 40
0.3338742927
 40
0.3739786791
 40
0.4152911703
 40
0.4574315723
 40
0.5000003006
 40
0.542569053
 40
0.5847094469
 40
0.6260218513
 40
0.6661262724
 40
0.7046856575
 40
0.741427071
 40
0.7761130152
 40
0.8085817663
 40
0.838736645
 40
0.8665615421
 40
0.8921487048
 40
0.9157234652
 40
0.937670826
 40
0.9482143093
 40
0.9585746801
 40
0.9688421315
 40
0.9791079905
 40
0.989463984
 40
1.0
 40
1.0
 40
1.0
 40
1.0
 10
5.8284999913
 20
7.4711178188
 30
0.0
 10
5.8284999574
 20
7.4723860426
 30
0.0
 10
5.8286237243
 20
7.4749028459
 30
0.0
 10
5.8291941885
 20
7.478616287
 30
0.0
 10
5.8301446626
 20
7.4822181778
 30
0.0
 10
5.8314718945
 20
7.4856993081
 30
0.0
 10
5.8331730166
 20
7.4890513997
 30
0.0
 10
5.8359692241
 20
7.4933949216
 30
0.0
 10
5.8404412748
 20
7.4985035802
 30
0.0
 10
5.847094725
 20
7.5039382989
 30
0.0
 10
5.8550326335
 20
7.5087665626
 30
0.0
 10
5.8641683249
 20
7.5130152979
 30
0.0
 10
5.8744245466
 20
7.516703263
 30
0.0
 10
5.8857132668
 20
7.5198583931
 30
0.0
 10
5.8979405481
 20
7.5225116053
 30
0.0
 10
5.9110034247
 20
7.5246903814
 30
0.0
 10
5.9247891709
 20
7.5264245807
 30
0.0
 10
5.9391727827
 20
7.5277424029
 30
0.0
 10
5.9540185451
 20
7.5286653401
 30
0.0
 10
5.9691794737
 20
7.5292106968
 30
0.0
 10
5.9845002225
 20
7.5293931187
 30
0.0
 10
5.9998209708
 20
7.5292106986
 30
0.0
 10
6.0149818894
 20
7.5286653043
 30
0.0
 10
6.0298276452
 20
7.5277423811
 30
0.0
 10
6.0442112382
 20
7.5264245333
 30
0.0
 10
6.0579969664
 20
7.524690321
 30
0.0
 10
6.0710598193
 20
7.522511538
 30
0.0
 10
6.0832870753
 20
7.5198583146
 30
0.0
 10
6.0945757627
 20
7.5167031478
 30
0.0
 10
6.104831965
 20
7.513015205
 30
0.0
 10
6.1139676089
 20
7.508766416
 30
0.0
 10
6.1219054794
 20
7.5039381428
 30
0.0
 10
6.1285589249
 20
7.4985034385
 30
0.0
 10
6.1330308934
 20
7.4933947232
 30
0.0
 10
6.135827087
 20
7.4890512038
 30
0.0
 10
6.1375282185
 20
7.4856991189
 30
0.0
 10
6.1388554061
 20
7.4822179654
 30
0.0
 10
6.139805832
 20
7.4786160512
 30
0.0
 10
6.1403762619
 20
7.4749026047
 30
0.0
 10
6.1405000328
 20
7.4723858073
 30
0.0
 10
6.1405000091
 20
7.471117591
 30
0.0
  0
SPLINE
  5
333
100
AcDbEntity
  8
0
100
AcDbSpline
 62
7
  6
CONTINUOUS
 70
0
 71
3
 72
45
 73
41
 74
0
 42
0.0000001
 43
0.0000001
 44
0.0000000001
 40
0.0
 40
0.0
 40
0.0
 40
0.0
 40
0.0105086621
 40
0.0208583521
 40
0.0311329447
 40
0.0414181633
 40
0.0517998869
 40
0.062366266
 40
0.0843618637
 40
0.107985933
 40
0.1336200949
 40
0.1614821819
 40
0.1916604632
 40
0.2241398115
 40
0.2588282256
 40
0.2955526581
 40
0.3340908383
 40
0.374156828
 40
0.4154152044
 40
0.4574991696
 40
0.4999996403
 40
0.5425002374
 40
0.584584485
 40
0.6258431725
 40
0.6659094339
 40
0.704447742
 40
0.7411720607
 40
0.775860267
 40
0.8083394512
 40
0.8385177033
 40
0.8663799753
 40
0.8920144067
 40
0.9156386142
 40
0.9376341815
 40
0.9482004839
 40
0.9585820809
 40
0.9688671874
 40
0.9791417017
 40
0.9894913494
 40
1.0
 40
1.0
 40
1.0
 40
1.0
 10
4.9335
 20
7.4858402515
 30
0.0
 10
4.9335
 20
7.4871067678
 30
0.0
 10
4.9336240375
 20
7.4896226505
 30
0.0
 10
4.9341941016
 20
7.4933378388
 30
0.0
 10
4.9351438239
 20
7.4969472261
 30
0.0
 10
4.9364701352
 20
7.5004398472
 30
0.0
 10
4.938171018
 20
7.5038056857
 30
0.0
 10
4.9409663714
 20
7.5081705887
 30
0.0
 10
4.9454362894
 20
7.5133113291
 30
0.0
 10
4.9520901347
 20
7.5187896073
 30
0.0
 10
4.9600267044
 20
7.5236726615
 30
0.0
 10
4.9691630289
 20
7.5279807235
 30
0.0
 10
4.9794211195
 20
7.5317289304
 30
0.0
 10
4.9907119779
 20
7.5349471973
 30
0.0
 10
5.0029421237
 20
7.5376591962
 30
0.0
 10
5.0160081561
 20
7.5398938782
 30
0.0
 10
5.0297959543
 20
7.5416781087
 30
0.0
 10
5.044180463
 20
7.543035889
 30
0.0
 10
5.059025192
 20
7.5439887439
 30
0.0
 10
5.0741830404
 20
7.5445546951
 30
0.0
 10
5.0894998872
 20
7.5447405878
 30
0.0
 10
5.1048167682
 20
7.5445547067
 30
0.0
 10
5.1199747032
 20
7.5439887484
 30
0.0
 10
5.1348195365
 20
7.5430358907
 30
0.0
 10
5.1492041305
 20
7.5416781016
 30
0.0
 10
5.1629919622
 20
7.5398938609
 30
0.0
 10
5.1760579701
 20
7.537659174
 30
0.0
 10
5.1882880579
 20
7.5349471858
 30
0.0
 10
5.1995788734
 20
7.5317289453
 30
0.0
 10
5.2098369627
 20
7.5279807352
 30
0.0
 10
5.218973321
 20
7.5236726235
 30
0.0
 10
5.2269099468
 20
7.5187895283
 30
0.0
 10
5.2335638408
 20
7.5133112324
 30
0.0
 10
5.2380337166
 20
7.5081704484
 30
0.0
 10
5.240829042
 20
7.5038055633
 30
0.0
 10
5.2425299284
 20
7.5004397693
 30
0.0
 10
5.2438562221
 20
7.4969471815
 30
0.0
 10
5.2448059232
 20
7.4933378175
 30
0.0
 10
5.2453759684
 20
7.4896226425
 30
0.0
 10
5.2455
 20
7.4871067664
 30
0.0
 10
5.2455
 20
7.4858402515
 30
0.0
  0
SPLINE
  5
334
100
AcDbEntity
  8
0
100
AcDbSpline
 62
7
  6
CONTINUOUS
 70
0
 71
3
 72
23
 73
19
 74
0
 42
0.0000001
 43
0.0000001
 44
0.0000000001
 40
0.0
 40
0.0
 40
0.0
 40
0.0
 40
0.0512463554
 40
0.1065609517
 40
0.1656223652
 40
0.2280424585
 40
0.293349879
 40
0.3609204635
 40
0.4300613389
 40
0.4999996221
 40
0.5699381047
 40
0.6390794747
 40
0.7066506738
 40
0.7719586672
 40
0.8343788362
 40
0.8934397832
 40
0.9487538664
 40
1.0
 40
1.0
 40
1.0
 40
1.0
 10
6.1009302366
 20
6.485629045
 30
0.0
 10
6.0971544053
 20
6.4842249208
 30
0.0
 10
6.0891666111
 20
6.4816669062
 30
0.0
 10
6.0765129268
 20
6.4785704962
 30
0.0
 10
6.062841922
 20
6.4760350171
 30
0.0
 10
6.0482927527
 20
6.4740237203
 30
0.0
 10
6.0330131016
 20
6.4724999772
 30
0.0
 10
6.0171657668
 20
6.4714360947
 30
0.0
 10
6.0009313478
 20
6.4708061433
 30
0.0
 10
5.9845000731
 20
6.4705994906
 30
0.0
 10
5.9680687593
 20
6.4708061345
 30
0.0
 10
5.9518342377
 20
6.471436095
 30
0.0
 10
5.9359867709
 20
6.4724999841
 30
0.0
 10
5.9207070215
 20
6.4740237454
 30
0.0
 10
5.9061578407
 20
6.4760350623
 30
0.0
 10
5.8924869062
 20
6.478570529
 30
0.0
 10
5.8798333136
 20
6.4816669186
 30
0.0
 10
5.8718455784
 20
6.4842249269
 30
0.0
 10
5.8680697634
 20
6.485629045
 30
0.0
  0
SPLINE
  5
335
100
AcDbEntity
  8
0
100
AcDbSpline
 62
7
  6
CONTINUOUS
 70
0
 71
3
 72
43
 73
39
 74
0
 42
0.0000001
 43
0.0000001
 44
0.0000000001
 40
0.0
 40
0.0
 40
0.0
 40
0.0
 40
0.0105214332
 40
0.0208758113
 40
0.0311476032
 40
0.0414233472
 40
0.0517899279
 40
0.0623367674
 40
0.0842852852
 40
0.1078592951
 40
0.1334470178
 40
0.1612706575
 40
0.1914208529
 40
0.2238844203
 40
0.2585705554
 40
0.2953070547
 40
0.3338721982
 40
0.3739792751
 40
0.4152910314
 40
0.4999996223
 40
0.584708631
 40
0.6260207037
 40
0.6661280604
 40
0.7046933388
 40
0.7414297291
 40
0.7761156591
 40
0.8085790641
 40
0.8387292323
 40
0.8665530589
 40
0.8921410508
 40
0.9157151968
 40
0.9376636846
 40
0.9482104467
 40
0.9585768986
 40
0.968852529
 40
0.9791242423
 40
0.9894785782
 40
1.0
 40
1.0
 40
1.0
 40
1.0
 10
7.2485
 20
6.5288821803
 30
0.0
 10
7.2485
 20
6.5276157359
 30
0.0
 10
7.2483760124
 20
6.5251009361
 30
0.0
 10
7.2478056887
 20
6.5213887958
 30
0.0
 10
7.2468554651
 20
6.517785334
 30
0.0
 10
7.2455284434
 20
6.5143015224
 30
0.0
 10
7.2438266563
 20
6.5109473855
 30
0.0
 10
7.2410302222
 20
6.5066025916
 30
0.0
 10
7.2365582375
 20
6.5014931736
 30
0.0
 10
7.2299024477
 20
6.4960613407
 30
0.0
 10
7.2219655473
 20
6.4912323813
 30
0.0
 10
7.2128306595
 20
6.4869835439
 30
0.0
 10
7.2025754783
 20
6.4832972573
 30
0.0
 10
7.1912884103
 20
6.4801412287
 30
0.0
 10
7.1790622269
 20
6.4774893145
 30
0.0
 10
7.1659994844
 20
6.4753103522
 30
0.0
 10
7.1522136286
 20
6.4735752286
 30
0.0
 10
7.1378291822
 20
6.4722578544
 30
0.0
 10
7.1178689348
 20
6.4710181631
 30
0.0
 10
7.0925000841
 20
6.4704336927
 30
0.0
 10
7.0671311951
 20
6.4710181568
 30
0.0
 10
7.0471708256
 20
6.4722578523
 30
0.0
 10
7.0327862916
 20
6.4735752345
 30
0.0
 10
7.0190003999
 20
6.4753103689
 30
0.0
 10
7.0059376801
 20
6.4774893362
 30
0.0
 10
6.9937115535
 20
6.48014124
 30
0.0
 10
6.9824245278
 20
6.4832972428
 30
0.0
 10
6.9721693473
 20
6.4869835328
 30
0.0
 10
6.9630344252
 20
6.4912324202
 30
0.0
 10
6.9550974688
 20
6.4960614204
 30
0.0
 10
6.9484416305
 20
6.5014932709
 30
0.0
 10
6.9439696891
 20
6.5066027332
 30
0.0
 10
6.9411732831
 20
6.5109475089
 30
0.0
 10
6.9394714919
 20
6.5143016006
 30
0.0
 10
6.9381444881
 20
6.5177853786
 30
0.0
 10
6.937194286
 20
6.521388817
 30
0.0
 10
6.9366239816
 20
6.525100944
 30
0.0
 10
6.9365
 20
6.5276157373
 30
0.0
 10
6.9365
 20
6.5288821803
 30
0.0
  0
SPLINE
  5
336
100
AcDbEntity
  8
0
100
AcDbSpline
 62
7
  6
CONTINUOUS
 70
0
 71
3
 72
43
 73
39
 74
0
 42
0.0000001
 43
0.0000001
 44
0.0000000001
 40
0.0
 40
0.0
 40
0.0
 40
0.0
 40
0.0105214332
 40
0.0208758113
 40
0.0311476032
 40
0.0414233472
 40
0.0517899279
 40
0.0623367674
 40
0.0842852852
 40
0.1078592951
 40
0.1334470178
 40
0.1612706575
 40
0.1914208529
 40
0.2238844203
 40
0.2585705554
 40
0.2953070547
 40
0.3338721982
 40
0.3739792751
 40
0.4152910314
 40
0.4999996223
 40
0.584708631
 40
0.6260207037
 40
0.6661280604
 40
0.7046933388
 40
0.7414297291
 40
0.7761156591
 40
0.8085790641
 40
0.8387292323
 40
0.8665530589
 40
0.8921410508
 40
0.9157151968
 40
0.9376636846
 40
0.9482104467
 40
0.9585768986
 40
0.968852529
 40
0.9791242423
 40
0.9894785782
 40
1.0
 40
1.0
 40
1.0
 40
1.0
 10
6.9365
 20
7.4711178197
 30
0.0
 10
6.9365
 20
7.4723842641
 30
0.0
 10
6.9366239876
 20
7.4748990639
 30
0.0
 10
6.9371943113
 20
7.4786112042
 30
0.0
 10
6.9381445349
 20
7.482214666
 30
0.0
 10
6.9394715566
 20
7.4856984776
 30
0.0
 10
6.9411733437
 20
7.4890526145
 30
0.0
 10
6.9439697778
 20
7.4933974084
 30
0.0
 10
6.9484417625
 20
7.4985068264
 30
0.0
 10
6.9550975523
 20
7.5039386593
 30
0.0
 10
6.9630344527
 20
7.5087676187
 30
0.0
 10
6.9721693405
 20
7.5130164561
 30
0.0
 10
6.9824245217
 20
7.5167027427
 30
0.0
 10
6.9937115897
 20
7.5198587713
 30
0.0
 10
7.0059377731
 20
7.5225106855
 30
0.0
 10
7.0190005156
 20
7.5246896478
 30
0.0
 10
7.0327863714
 20
7.5264247714
 30
0.0
 10
7.0471708178
 20
7.5277421456
 30
0.0
 10
7.0671310652
 20
7.5289818369
 30
0.0
 10
7.0924999159
 20
7.5295663073
 30
0.0
 10
7.1178688049
 20
7.5289818432
 30
0.0
 10
7.1378291744
 20
7.5277421477
 30
0.0
 10
7.1522137084
 20
7.5264247655
 30
0.0
 10
7.1659996001
 20
7.5246896311
 30
0.0
 10
7.1790623199
 20
7.5225106638
 30
0.0
 10
7.1912884465
 20
7.51985876
 30
0.0
 10
7.2025754722
 20
7.5167027572
 30
0.0
 10
7.2128306527
 20
7.5130164672
 30
0.0
 10
7.2219655748
 20
7.5087675798
 30
0.0
 10
7.2299025312
 20
7.5039385796
 30
0.0
 10
7.2365583695
 20
7.4985067291
 30
0.0
 10
7.2410303109
 20
7.4933972668
 30
0.0
 10
7.2438267169
 20
7.4890524911
 30
0.0
 10
7.2455285081
 20
7.4856983994
 30
0.0
 10
7.2468555119
 20
7.4822146214
 30
0.0
 10
7.247805714
 20
7.478611183
 30
0.0
 10
7.2483760184
 20
7.474899056
 30
0.0
 10
7.2485
 20
7.4723842627
 30
0.0
 10
7.2485
 20
7.4711178197
 30
0.0
  0
ELLIPSE
  5
337
100
AcDbEntity
  8
0
100
AcDbEllipse
 62
7
  6
CONTINUOUS
 10
7.817
 20
6.436
 30
0.0
 11
0.0515
 21
0.0
 31
0.0
 40
1.0
 41
-3.1415926536
 42
0.0
  0
ELLIPSE
  5
338
100
AcDbEntity
  8
0
100
AcDbEllipse
 62
7
  6
CONTINUOUS
 10
7.817
 20
7.564
 30
0.0
 11
0.0515
 21
-0.0
 31
0.0
 40
1.0
 41
0.0
 42
3.1415926536
  0
ELLIPSE
  5
339
100
AcDbEntity
  8
0
100
AcDbEllipse
 62
7
  6
CONTINUOUS
 10
5.501
 20
6.4125
 30
0.0
 11
0.0515
 21
0.0
 31
0.0
 40
1.0
 41
3.1415926536
 42
6.2831853072
  0
ELLIPSE
  5
33A
100
AcDbEntity
  8
0
100
AcDbEllipse
 62
7
  6
CONTINUOUS
 10
5.501
 20
7.5875
 30
0.0
 11
0.0515
 21
-0.0
 31
0.0
 40
1.0
 41
0.0
 42
3.1415926536
  0
ELLIPSE
  5
33B
100
AcDbEntity
  8
0
100
AcDbEllipse
 62
7
  6
CONTINUOUS
 10
6.651
 20
6.4125
 30
0.0
 11
0.0515
 21
-0.0
 31
0.0
 40
1.0
 41
-3.1415926536
 42
0.0
  0
ELLIPSE
  5
33C
100
AcDbEntity
  8
0
100
AcDbEllipse
 62
7
  6
CONTINUOUS
 10
6.651
 20
7.5875
 30
0.0
 11
0.0515
 21
-0.0
 31
0.0
 40
1.0
 41
0.0
 42
3.1415926536
  0
ELLIPSE
  5
33D
100
AcDbEntity
  8
0
100
AcDbEllipse
 62
7
  6
CONTINUOUS
 10
3.66
 20
6.3185
 30
0.0
 11
0.0
 21
0.0515
 31
0.0
 40
1.0
 41
-4.7123889804
 42
-1.5707963268
  0
ELLIPSE
  5
33E
100
AcDbEntity
  8
0
100
AcDbEllipse
 62
7
  6
CONTINUOUS
 10
3.66
 20
7.6815
 30
0.0
 11
0.0515
 21
0.0
 31
0.0
 40
1.0
 41
0.0
 42
3.1415926536
  0
ENDSEC
  0
SECTION
  2
OBJECTS
  0
DICTIONARY
  5
C
100
AcDbDictionary
280
0
281
1
  3
ACAD_GROUP
350
D
  3
ACAD_MLINESTYLE
350
17
  3
ACAD_LAYOUT
350
1A
  3
ACAD_PLOTSETTINGS
350
19
  3
ACAD_PLOTSTYLENAME
350
E
  0
DICTIONARY
  5
D
102
{ACAD_REACTORS
330
C
102
}
100
AcDbDictionary
280
0
281
1
  0
ACDBDICTIONARYWDFLT
  5
E
102
{ACAD_REACTORS
330
C
102
}
100
AcDbDictionary
281
1
  3
Normal
350
F
100
AcDbDictionaryWithDefault
340
F
  0
DICTIONARY
  5
17
102
{ACAD_REACTORS
330
C
102
}
100
AcDbDictionary
280
0
281
1
  3
Standard
350
18
  0
DICTIONARY
  5
19
102
{ACAD_REACTORS
330
C
102
}
100
AcDbDictionary
281
1
  0
DICTIONARY
  5
1A
102
{ACAD_REACTORS
330
C
102
}
100
AcDbDictionary
281
1
  3
Model
350
33F
  3
Layout1
350
340
  0
ACDBPLACEHOLDER
  5
F
102
{ACAD_REACTORS
330
E
102
}
  0
MLINESTYLE
  5
18
102
{ACAD_REACTORS
330
17
102
}
100
AcDbMlineStyle
  2
STANDARD
 70
0
  3

 62
256
 51
90.0
 52
90.0
 71
2
 49
0.5
 62
256
  6
BYLAYER
 49
-0.5
 62
256
  6
BYLAYER
  0
LAYOUT
  5
33F
102
{ACAD_REACTORS
330
1A
102
}
100
AcDbPlotSettings
  1

  2
none_device
  4
ANSI_B_(17.00_x_11.00_Inches)
  6

 40
0.0
 41
0.0
 42
0.0
 43
0.0
 44
431.8
 45
279.4
 46
0.0
 47
0.0
 48
0.0
 49
0.0
140
0.0
141
0.0
142
1.0
143
1.0
 70
1024
 72
0
 73
0
 74
0
  7

 75
0
147
1.0
148
0.0
149
0.0
100
AcDbLayout
  1
Model
 70
0
 71
0
 10
0.0
 20
0.0
 11
17.0
 21
11.0
 12
0.0
 22
0.0
 32
0.0
 14
0.0
 24
0.0
 34
0.0
 15
0.0
 25
0.0
 35
0.0
146
0.0
 13
0.0
 23
0.0
 33
0.0
 16
1.0
 26
0.0
 36
0.0
 17
0.0
 27
1.0
 37
0.0
 76
0
330
23F
345
0
346
0
  0
LAYOUT
  5
340
102
{ACAD_REACTORS
330
1A
102
}
100
AcDbPlotSettings
  1

  2
none_device
  4
ANSI_B_(17.00_x_11.00_Inches)
  6

 40
0.0
 41
0.0
 42
0.0
 43
0.0
 44
431.8
 45
279.4
 46
0.0
 47
0.0
 48
0.0
 49
0.0
140
0.0
141
0.0
142
1.0
143
1.0
 70
0
 72
0
 73
0
 74
0
  7

 75
0
147
1.0
148
0.0
149
0.0
100
AcDbLayout
  1
Layout1
 70
0
 71
1
 10
0.0
 20
0.0
 11
17.0
 21
11.0
 12
0.0
 22
0.0
 32
0.0
 14
0.0
 24
0.0
 34
0.0
 15
0.0
 25
0.0
 35
0.0
146
0.0
 13
0.0
 23
0.0
 33
0.0
 16
1.0
 26
0.0
 36
0.0
 17
0.0
 27
1.0
 37
0.0
 76
0
330
240
345
0
346
0
  0
ENDSEC
  0
EOF
