999
DXF file: FVDAXAN.dxf
999
Pro/ENGINEER 2021072 by Parametric Technology Corporation
  0
SECTION
  2
HEADER
  9
$ACADVER
  1
AC1032
  9
$DWGCODEPAGE
  3
ANSI_1252
  9
$EXTMAX
 10
17.0
 20
11.0
 30
0.0
  9
$EXTMIN
 10
0.0
 20
0.0
 30
0.0
  9
$LIMMIN
 10
0.0
 20
0.0
  9
$LIMMAX
 10
17.0
 20
11.0
  9
$VIEWCTR
 10
8.5
 20
5.5
  9
$VIEWSIZE
 40
11.0
  9
$CLAYER
  8
0
  9
$LTSCALE
 40
0.935
  9
$CELTYPE
  6
BYLAYER
  9
$DIMSCALE
 40
1.0
  9
$DIMASZ
 40
0.1875
  9
$DIMEXO
 40
0.0625
  9
$DIMDLI
 40
0.646
  9
$DIMEXE
 40
0.125
  9
$DIMCEN
 40
0.153
  9
$DIMLFAC
 40
1.0
  9
$DIMBLK
  1
_FILLED
  9
$DIMALT
 70
0
  9
$DIMALTF
 40
25.4
  9
$DIMTXT
 40
0.125
  9
$DIMTOL
 70
0
  9
$DIMLIM
 70
0
  9
$DIMTFAC
 40
1.0
  9
$DIMGAP
 40
0.09
  9
$DIMDSEP
 70
46
  9
$AUNITS
 70
0
  9
$PDMODE
 70
3
  9
$PDSIZE
 40
0.3125
  9
$HANDSEED
  5
341
  9
$TILEMODE
 70
1
  9
$MEASUREMENT
 70
0
  9
$INSUNITS
 70
1
  0
ENDSEC
  0
SECTION
  2
CLASSES
  0
CLASS
  1
ACDBDICTIONARYWDFLT
  2
AcDbDictionaryWithDefault
  3
AutoCAD 2000
 90
0
 91
1
280
0
281
0
  0
CLASS
  1
ACDBPLACEHOLDER
  2
AcDbPlaceHolder
  3
AutoCAD 2000
 90
0
 91
1
280
0
281
0
  0
CLASS
  1
LAYOUT
  2
AcDbLayout
  3
AutoCAD 2000
 90
0
 91
0
280
0
281
0
  0
ENDSEC
  0
SECTION
  2
TABLES
  0
TABLE
  2
VPORT
  5
8
100
AcDbSymbolTable
 70
2
  0
VPORT
  5
1F4
100
AcDbSymbolTableRecord
100
AcDbViewportTableRecord
  2
*ACTIVE
 70
0
 10
0.0
 20
0.0
 11
1.0
 21
1.0
 12
8.5
 22
5.5
 13
0.0
 23
0.0
 14
1.0
 24
1.0
 15
0.0
 25
0.0
 16
0.0
 26
0.0
 36
1.0
 17
0.0
 27
0.0
 37
0.0
 40
11.0
 41
1.5454545455
 42
50.0
 43
0.0
 44
0.0
 50
0.0
 51
0.0
 71
0
 72
100
 73
1
 74
1
 75
0
 76
0
 77
0
 78
0
  0
ENDTAB
  0
TABLE
  2
LTYPE
  5
5
100
AcDbSymbolTable
 70
6
  0
LTYPE
  5
14
100
AcDbSymbolTableRecord
100
AcDbLinetypeTableRecord
  2
BYBLOCK
 70
0
  3

 72
65
 73
0
 40
0.0
  0
LTYPE
  5
15
100
AcDbSymbolTableRecord
100
AcDbLinetypeTableRecord
  2
BYLAYER
 70
0
  3

 72
65
 73
0
 40
0.0
  0
LTYPE
  5
16
100
AcDbSymbolTableRecord
100
AcDbLinetypeTableRecord
  2
CONTINUOUS
 70
64
  3
Solid line
 72
65
 73
0
 40
0.0
  0
LTYPE
  5
1F5
100
AcDbSymbolTableRecord
100
AcDbLinetypeTableRecord
  2
CENTER
 70
64
  3
____ _ ____ _ ____ _ ____ _ ____ _ ____ _ ____
 72
65
 73
4
 40
0.6
 49
0.375
 74
0
 49
-0.075
 74
0
 49
0.075
 74
0
 49
-0.075
 74
0
  0
LTYPE
  5
1F6
100
AcDbSymbolTableRecord
100
AcDbLinetypeTableRecord
  2
HIDDEN
 70
64
  3
- - - - - - - - - - - - - - - - - - - -
 72
65
 73
2
 40
0.2
 49
0.1
 74
0
 49
-0.1
 74
0
  0
LTYPE
  5
1F7
100
AcDbSymbolTableRecord
100
AcDbLinetypeTableRecord
  2
PHANTOM
 70
64
  3
_____ _ _ _____ _ _ _____ _ _ _____
 72
65
 73
6
 40
0.8
 49
0.45
 74
0
 49
-0.05
 74
0
 49
0.1
 74
0
 49
-0.05
 74
0
 49
0.1
 74
0
 49
-0.05
 74
0
  0
LTYPE
  5
1F8
100
AcDbSymbolTableRecord
100
AcDbLinetypeTableRecord
  2
DOT
 70
64
  3
. . . . . . . . . . . . . . . . . . . .
 72
65
 73
2
 40
0.2
 49
0.1
 74
0
 49
-0.1
 74
0
  0
LTYPE
  5
1F9
100
AcDbSymbolTableRecord
100
AcDbLinetypeTableRecord
  2
DASHED
 70
64
  3
- - - - - - - - - - - - - - - - - - - -
 72
65
 73
2
 40
0.2
 49
0.1
 74
0
 49
-0.1
 74
0
  0
ENDTAB
  0
TABLE
  2
LAYER
  5
2
100
AcDbSymbolTable
 70
36
  0
LAYER
  5
10
100
AcDbSymbolTableRecord
100
AcDbLayerTableRecord
  2
0
 70
0
 62
7
  6
CONTINUOUS
370
-3
390
F
  0
LAYER
  5
1FA
100
AcDbSymbolTableRecord
100
AcDbLayerTableRecord
  2
DEFAULT_1
 70
0
 62
7
  6
CENTER
370
-3
390
F
  0
LAYER
  5
1FB
100
AcDbSymbolTableRecord
100
AcDbLayerTableRecord
  2
DEFAULT_2
 70
0
 62
8
  6
HIDDEN
370
-3
390
F
  0
LAYER
  5
1FC
100
AcDbSymbolTableRecord
100
AcDbLayerTableRecord
  2
DEFAULT_3
 70
0
 62
7
  6
PHANTOM
370
-3
390
F
  0
LAYER
  5
1FD
100
AcDbSymbolTableRecord
100
AcDbLayerTableRecord
  2
01_ALL_DTM_PLN
 70
0
 62
7
  6
CONTINUOUS
370
-3
390
F
  0
LAYER
  5
1FE
100
AcDbSymbolTableRecord
100
AcDbLayerTableRecord
  2
01__ASM_ALL_DTM_PLN
 70
0
 62
7
  6
CONTINUOUS
370
-3
390
F
  0
LAYER
  5
1FF
100
AcDbSymbolTableRecord
100
AcDbLayerTableRecord
  2
01__ASM_DEF_DTM_PLN
 70
0
 62
7
  6
CONTINUOUS
370
-3
390
F
  0
LAYER
  5
200
100
AcDbSymbolTableRecord
100
AcDbLayerTableRecord
  2
01___PRT_ALL_DTM_PLN
 70
0
 62
7
  6
CONTINUOUS
370
-3
390
F
  0
LAYER
  5
201
100
AcDbSymbolTableRecord
100
AcDbLayerTableRecord
  2
01___PRT_DEF_DTM_PLN
 70
0
 62
7
  6
CONTINUOUS
370
-3
390
F
  0
LAYER
  5
202
100
AcDbSymbolTableRecord
100
AcDbLayerTableRecord
  2
02_ALL_AXES
 70
0
 62
7
  6
CONTINUOUS
370
-3
390
F
  0
LAYER
  5
203
100
AcDbSymbolTableRecord
100
AcDbLayerTableRecord
  2
02__ASM_ALL_AXES
 70
0
 62
7
  6
CONTINUOUS
370
-3
390
F
  0
LAYER
  5
204
100
AcDbSymbolTableRecord
100
AcDbLayerTableRecord
  2
02___PRT_ALL_AXES
 70
0
 62
7
  6
CONTINUOUS
370
-3
390
F
  0
LAYER
  5
205
100
AcDbSymbolTableRecord
100
AcDbLayerTableRecord
  2
03_ALL_CURVES
 70
0
 62
7
  6
CONTINUOUS
370
-3
390
F
  0
LAYER
  5
206
100
AcDbSymbolTableRecord
100
AcDbLayerTableRecord
  2
03__ASM_ALL_CURVES
 70
0
 62
7
  6
CONTINUOUS
370
-3
390
F
  0
LAYER
  5
207
100
AcDbSymbolTableRecord
100
AcDbLayerTableRecord
  2
03___PRT_ALL_CURVES
 70
0
 62
7
  6
CONTINUOUS
370
-3
390
F
  0
LAYER
  5
208
100
AcDbSymbolTableRecord
100
AcDbLayerTableRecord
  2
04_ALL_DTM_PNT
 70
0
 62
7
  6
CONTINUOUS
370
-3
390
F
  0
LAYER
  5
209
100
AcDbSymbolTableRecord
100
AcDbLayerTableRecord
  2
04__ASM_ALL_DTM_PNT
 70
0
 62
7
  6
CONTINUOUS
370
-3
390
F
  0
LAYER
  5
20A
100
AcDbSymbolTableRecord
100
AcDbLayerTableRecord
  2
04___PRT_ALL_DTM_PNT
 70
0
 62
7
  6
CONTINUOUS
370
-3
390
F
  0
LAYER
  5
20B
100
AcDbSymbolTableRecord
100
AcDbLayerTableRecord
  2
05_ALL_DTM_CSYS
 70
0
 62
7
  6
CONTINUOUS
370
-3
390
F
  0
LAYER
  5
20C
100
AcDbSymbolTableRecord
100
AcDbLayerTableRecord
  2
05__ASM_ALL_DTM_CSYS
 70
0
 62
7
  6
CONTINUOUS
370
-3
390
F
  0
LAYER
  5
20D
100
AcDbSymbolTableRecord
100
AcDbLayerTableRecord
  2
05__ASM_DEF_DTM_CSYS
 70
0
 62
7
  6
CONTINUOUS
370
-3
390
F
  0
LAYER
  5
20E
100
AcDbSymbolTableRecord
100
AcDbLayerTableRecord
  2
05___PRT_ALL_DTM_CSYS
 70
0
 62
7
  6
CONTINUOUS
370
-3
390
F
  0
LAYER
  5
20F
100
AcDbSymbolTableRecord
100
AcDbLayerTableRecord
  2
05___PRT_DEF_DTM_CSYS
 70
0
 62
7
  6
CONTINUOUS
370
-3
390
F
  0
LAYER
  5
210
100
AcDbSymbolTableRecord
100
AcDbLayerTableRecord
  2
06_ALL_SURFS
 70
0
 62
7
  6
CONTINUOUS
370
-3
390
F
  0
LAYER
  5
211
100
AcDbSymbolTableRecord
100
AcDbLayerTableRecord
  2
06__ASM_ALL_SURFS
 70
0
 62
7
  6
CONTINUOUS
370
-3
390
F
  0
LAYER
  5
212
100
AcDbSymbolTableRecord
100
AcDbLayerTableRecord
  2
06___PRT_ALL_SURFS
 70
0
 62
7
  6
CONTINUOUS
370
-3
390
F
  0
LAYER
  5
213
100
AcDbSymbolTableRecord
100
AcDbLayerTableRecord
  2
07__ASM_ALL_SKELETONS
 70
0
 62
7
  6
CONTINUOUS
370
-3
390
F
  0
LAYER
  5
214
100
AcDbSymbolTableRecord
100
AcDbLayerTableRecord
  2
1
 70
0
 62
7
  6
CONTINUOUS
370
-3
390
F
  0
LAYER
  5
215
100
AcDbSymbolTableRecord
100
AcDbLayerTableRecord
  2
10
 70
0
 62
7
  6
CONTINUOUS
370
-3
390
F
  0
LAYER
  5
216
100
AcDbSymbolTableRecord
100
AcDbLayerTableRecord
  2
11
 70
0
 62
7
  6
CONTINUOUS
370
-3
390
F
  0
LAYER
  5
217
100
AcDbSymbolTableRecord
100
AcDbLayerTableRecord
  2
12
 70
0
 62
7
  6
CONTINUOUS
370
-3
390
F
  0
LAYER
  5
218
100
AcDbSymbolTableRecord
100
AcDbLayerTableRecord
  2
125-159_FEATURES
 70
0
 62
7
  6
CONTINUOUS
370
-3
390
F
  0
LAYER
  5
219
100
AcDbSymbolTableRecord
100
AcDbLayerTableRecord
  2
125-159_REF_GEOMETRY
 70
0
 62
7
  6
CONTINUOUS
370
-3
390
F
  0
LAYER
  5
21A
100
AcDbSymbolTableRecord
100
AcDbLayerTableRecord
  2
127-510_FEATURES
 70
0
 62
7
  6
CONTINUOUS
370
-3
390
F
  0
LAYER
  5
21B
100
AcDbSymbolTableRecord
100
AcDbLayerTableRecord
  2
127-510_NOTES
 70
0
 62
7
  6
CONTINUOUS
370
-3
390
F
  0
LAYER
  5
21C
100
AcDbSymbolTableRecord
100
AcDbLayerTableRecord
  2
127-510_REF_GEOMETRY
 70
0
 62
7
  6
CONTINUOUS
370
-3
390
F
  0
LAYER
  5
21D
100
AcDbSymbolTableRecord
100
AcDbLayerTableRecord
  2
127-511_FEATURES
 70
0
 62
7
  6
CONTINUOUS
370
-3
390
F
  0
LAYER
  5
21E
100
AcDbSymbolTableRecord
100
AcDbLayerTableRecord
  2
127-511_REF_GEOMETRY
 70
0
 62
7
  6
CONTINUOUS
370
-3
390
F
  0
LAYER
  5
21F
100
AcDbSymbolTableRecord
100
AcDbLayerTableRecord
  2
127-512_FEATURES
 70
0
 62
7
  6
CONTINUOUS
370
-3
390
F
  0
LAYER
  5
220
100
AcDbSymbolTableRecord
100
AcDbLayerTableRecord
  2
127-512_REF_GEOMETRY
 70
0
 62
7
  6
CONTINUOUS
370
-3
390
F
  0
LAYER
  5
221
100
AcDbSymbolTableRecord
100
AcDbLayerTableRecord
  2
127-513_FEATURES
 70
0
 62
7
  6
CONTINUOUS
370
-3
390
F
  0
LAYER
  5
222
100
AcDbSymbolTableRecord
100
AcDbLayerTableRecord
  2
127-513_REF_GEOMETRY
 70
0
 62
7
  6
CONTINUOUS
370
-3
390
F
  0
LAYER
  5
223
100
AcDbSymbolTableRecord
100
AcDbLayerTableRecord
  2
13
 70
0
 62
7
  6
CONTINUOUS
370
-3
390
F
  0
LAYER
  5
224
100
AcDbSymbolTableRecord
100
AcDbLayerTableRecord
  2
14
 70
0
 62
7
  6
CONTINUOUS
370
-3
390
F
  0
LAYER
  5
225
100
AcDbSymbolTableRecord
100
AcDbLayerTableRecord
  2
15
 70
0
 62
7
  6
CONTINUOUS
370
-3
390
F
  0
LAYER
  5
226
100
AcDbSymbolTableRecord
100
AcDbLayerTableRecord
  2
16
 70
0
 62
7
  6
CONTINUOUS
370
-3
390
F
  0
LAYER
  5
227
100
AcDbSymbolTableRecord
100
AcDbLayerTableRecord
  2
17
 70
0
 62
7
  6
CONTINUOUS
370
-3
390
F
  0
LAYER
  5
228
100
AcDbSymbolTableRecord
100
AcDbLayerTableRecord
  2
18
 70
0
 62
7
  6
CONTINUOUS
370
-3
390
F
  0
LAYER
  5
229
100
AcDbSymbolTableRecord
100
AcDbLayerTableRecord
  2
19
 70
0
 62
7
  6
CONTINUOUS
370
-3
390
F
  0
LAYER
  5
22A
100
AcDbSymbolTableRecord
100
AcDbLayerTableRecord
  2
2
 70
0
 62
7
  6
CONTINUOUS
370
-3
390
F
  0
LAYER
  5
22B
100
AcDbSymbolTableRecord
100
AcDbLayerTableRecord
  2
20
 70
0
 62
7
  6
CONTINUOUS
370
-3
390
F
  0
LAYER
  5
22C
100
AcDbSymbolTableRecord
100
AcDbLayerTableRecord
  2
21
 70
0
 62
7
  6
CONTINUOUS
370
-3
390
F
  0
LAYER
  5
22D
100
AcDbSymbolTableRecord
100
AcDbLayerTableRecord
  2
22
 70
0
 62
7
  6
CONTINUOUS
370
-3
390
F
  0
LAYER
  5
22E
100
AcDbSymbolTableRecord
100
AcDbLayerTableRecord
  2
23
 70
0
 62
7
  6
CONTINUOUS
370
-3
390
F
  0
LAYER
  5
22F
100
AcDbSymbolTableRecord
100
AcDbLayerTableRecord
  2
24
 70
0
 62
7
  6
CONTINUOUS
370
-3
390
F
  0
LAYER
  5
230
100
AcDbSymbolTableRecord
100
AcDbLayerTableRecord
  2
25
 70
0
 62
7
  6
CONTINUOUS
370
-3
390
F
  0
LAYER
  5
231
100
AcDbSymbolTableRecord
100
AcDbLayerTableRecord
  2
26
 70
0
 62
7
  6
CONTINUOUS
370
-3
390
F
  0
LAYER
  5
232
100
AcDbSymbolTableRecord
100
AcDbLayerTableRecord
  2
27
 70
0
 62
7
  6
CONTINUOUS
370
-3
390
F
  0
LAYER
  5
233
100
AcDbSymbolTableRecord
100
AcDbLayerTableRecord
  2
28
 70
0
 62
7
  6
CONTINUOUS
370
-3
390
F
  0
LAYER
  5
234
100
AcDbSymbolTableRecord
100
AcDbLayerTableRecord
  2
29
 70
0
 62
7
  6
CONTINUOUS
370
-3
390
F
  0
LAYER
  5
235
100
AcDbSymbolTableRecord
100
AcDbLayerTableRecord
  2
3
 70
0
 62
7
  6
CONTINUOUS
370
-3
390
F
  0
LAYER
  5
236
100
AcDbSymbolTableRecord
100
AcDbLayerTableRecord
  2
30
 70
0
 62
7
  6
CONTINUOUS
370
-3
390
F
  0
LAYER
  5
237
100
AcDbSymbolTableRecord
100
AcDbLayerTableRecord
  2
31
 70
0
 62
7
  6
CONTINUOUS
370
-3
390
F
  0
LAYER
  5
238
100
AcDbSymbolTableRecord
100
AcDbLayerTableRecord
  2
32
 70
0
 62
7
  6
CONTINUOUS
370
-3
390
F
  0
LAYER
  5
239
100
AcDbSymbolTableRecord
100
AcDbLayerTableRecord
  2
4
 70
0
 62
7
  6
CONTINUOUS
370
-3
390
F
  0
LAYER
  5
23A
100
AcDbSymbolTableRecord
100
AcDbLayerTableRecord
  2
5
 70
0
 62
7
  6
CONTINUOUS
370
-3
390
F
  0
LAYER
  5
23B
100
AcDbSymbolTableRecord
100
AcDbLayerTableRecord
  2
6
 70
0
 62
7
  6
CONTINUOUS
370
-3
390
F
  0
LAYER
  5
23C
100
AcDbSymbolTableRecord
100
AcDbLayerTableRecord
  2
7
 70
0
 62
7
  6
CONTINUOUS
370
-3
390
F
  0
LAYER
  5
23D
100
AcDbSymbolTableRecord
100
AcDbLayerTableRecord
  2
8
 70
0
 62
7
  6
CONTINUOUS
370
-3
390
F
  0
LAYER
  5
23E
100
AcDbSymbolTableRecord
100
AcDbLayerTableRecord
  2
9
 70
0
 62
7
  6
CONTINUOUS
370
-3
390
F
  0
LAYER
  5
23F
100
AcDbSymbolTableRecord
100
AcDbLayerTableRecord
  2
ALL_DATUM_FEAT
 70
0
 62
7
  6
CONTINUOUS
370
-3
390
F
  0
LAYER
  5
240
100
AcDbSymbolTableRecord
100
AcDbLayerTableRecord
  2
AXIS
 70
0
 62
7
  6
CONTINUOUS
370
-3
390
F
  0
LAYER
  5
241
100
AcDbSymbolTableRecord
100
AcDbLayerTableRecord
  2
COPY_GEO_FET
 70
0
 62
7
  6
CONTINUOUS
370
-3
390
F
  0
LAYER
  5
242
100
AcDbSymbolTableRecord
100
AcDbLayerTableRecord
  2
COSMETIC
 70
0
 62
7
  6
CONTINUOUS
370
-3
390
F
  0
LAYER
  5
243
100
AcDbSymbolTableRecord
100
AcDbLayerTableRecord
  2
CSYS
 70
0
 62
7
  6
CONTINUOUS
370
-3
390
F
  0
LAYER
  5
244
100
AcDbSymbolTableRecord
100
AcDbLayerTableRecord
  2
CURVES
 70
0
 62
7
  6
CONTINUOUS
370
-3
390
F
  0
LAYER
  5
245
100
AcDbSymbolTableRecord
100
AcDbLayerTableRecord
  2
CUT_REF_SURF
 70
0
 62
7
  6
CONTINUOUS
370
-3
390
F
  0
LAYER
  5
246
100
AcDbSymbolTableRecord
100
AcDbLayerTableRecord
  2
DATUM
 70
0
 62
7
  6
CONTINUOUS
370
-3
390
F
  0
LAYER
  5
247
100
AcDbSymbolTableRecord
100
AcDbLayerTableRecord
  2
DATUMCURVES
 70
0
 62
7
  6
CONTINUOUS
370
-3
390
F
  0
LAYER
  5
248
100
AcDbSymbolTableRecord
100
AcDbLayerTableRecord
  2
DATUM_PLANES
 70
0
 62
7
  6
CONTINUOUS
370
-3
390
F
  0
LAYER
  5
249
100
AcDbSymbolTableRecord
100
AcDbLayerTableRecord
  2
DIMENSIONS
 70
0
 62
7
  6
CONTINUOUS
370
-3
390
F
  0
LAYER
  5
24A
100
AcDbSymbolTableRecord
100
AcDbLayerTableRecord
  2
DIMS
 70
0
 62
7
  6
CONTINUOUS
370
-3
390
F
  0
LAYER
  5
24B
100
AcDbSymbolTableRecord
100
AcDbLayerTableRecord
  2
DRAWINGNOTES
 70
0
 62
7
  6
CONTINUOUS
370
-3
390
F
  0
LAYER
  5
24C
100
AcDbSymbolTableRecord
100
AcDbLayerTableRecord
  2
DTM
 70
0
 62
7
  6
CONTINUOUS
370
-3
390
F
  0
LAYER
  5
24D
100
AcDbSymbolTableRecord
100
AcDbLayerTableRecord
  2
DTM230
 70
0
 62
7
  6
CONTINUOUS
370
-3
390
F
  0
LAYER
  5
24E
100
AcDbSymbolTableRecord
100
AcDbLayerTableRecord
  2
DTM_500001
 70
0
 62
7
  6
CONTINUOUS
370
-3
390
F
  0
LAYER
  5
24F
100
AcDbSymbolTableRecord
100
AcDbLayerTableRecord
  2
DTM_500002
 70
0
 62
7
  6
CONTINUOUS
370
-3
390
F
  0
LAYER
  5
250
100
AcDbSymbolTableRecord
100
AcDbLayerTableRecord
  2
DTM_515002
 70
0
 62
7
  6
CONTINUOUS
370
-3
390
F
  0
LAYER
  5
251
100
AcDbSymbolTableRecord
100
AcDbLayerTableRecord
  2
DTM_SPRING_RH
 70
0
 62
7
  6
CONTINUOUS
370
-3
390
F
  0
LAYER
  5
252
100
AcDbSymbolTableRecord
100
AcDbLayerTableRecord
  2
DTM_SP_RH_CONSTR
 70
0
 62
7
  6
CONTINUOUS
370
-3
390
F
  0
LAYER
  5
253
100
AcDbSymbolTableRecord
100
AcDbLayerTableRecord
  2
GEOMETRICTOLERANCES
 70
0
 62
7
  6
CONTINUOUS
370
-3
390
F
  0
LAYER
  5
254
100
AcDbSymbolTableRecord
100
AcDbLayerTableRecord
  2
HIDDEN
 70
0
 62
7
  6
CONTINUOUS
370
-3
390
F
  0
LAYER
  5
255
100
AcDbSymbolTableRecord
100
AcDbLayerTableRecord
  2
HIDDEN_DRW
 70
0
 62
7
  6
CONTINUOUS
370
-3
390
F
  0
LAYER
  5
256
100
AcDbSymbolTableRecord
100
AcDbLayerTableRecord
  2
PARAMETERDIMENSIONS
 70
0
 62
7
  6
CONTINUOUS
370
-3
390
F
  0
LAYER
  5
257
100
AcDbSymbolTableRecord
100
AcDbLayerTableRecord
  2
PLANE
 70
0
 62
7
  6
CONTINUOUS
370
-3
390
F
  0
LAYER
  5
258
100
AcDbSymbolTableRecord
100
AcDbLayerTableRecord
  2
SUN_STD_SAE-6_PORT
 70
0
 62
7
  6
CONTINUOUS
370
-3
390
F
  0
LAYER
  5
259
100
AcDbSymbolTableRecord
100
AcDbLayerTableRecord
  2
SURFACES
 70
0
 62
7
  6
CONTINUOUS
370
-3
390
F
  0
LAYER
  5
25A
100
AcDbSymbolTableRecord
100
AcDbLayerTableRecord
  2
T-8A_CAVITY
 70
0
 62
7
  6
CONTINUOUS
370
-3
390
F
  0
LAYER
  5
25B
100
AcDbSymbolTableRecord
100
AcDbLayerTableRecord
  2
T-8A_CAVITY-INCOMPLETE
 70
0
 62
7
  6
CONTINUOUS
370
-3
390
F
  0
LAYER
  5
25C
100
AcDbSymbolTableRecord
100
AcDbLayerTableRecord
  2
T-8A_CAVITY-INCOMPLETE-REF_GEOM
 70
0
 62
7
  6
CONTINUOUS
370
-3
390
F
  0
LAYER
  5
25D
100
AcDbSymbolTableRecord
100
AcDbLayerTableRecord
  2
T-8A_CAVITY_REF_GEOMETRY
 70
0
 62
7
  6
CONTINUOUS
370
-3
390
F
  0
LAYER
  5
25E
100
AcDbSymbolTableRecord
100
AcDbLayerTableRecord
  2
TEXT
 70
0
 62
7
  6
CONTINUOUS
370
-3
390
F
  0
LAYER
  5
25F
100
AcDbSymbolTableRecord
100
AcDbLayerTableRecord
  2
THREAD
 70
0
 62
7
  6
CONTINUOUS
370
-3
390
F
  0
LAYER
  5
260
100
AcDbSymbolTableRecord
100
AcDbLayerTableRecord
  2
XSEC_DATUMS
 70
0
 62
7
  6
CONTINUOUS
370
-3
390
F
  0
ENDTAB
  0
TABLE
  2
STYLE
  5
3
100
AcDbSymbolTable
 70
1
  0
STYLE
  5
11
100
AcDbSymbolTableRecord
100
AcDbTextStyleTableRecord
  2
STANDARD
 70
0
 40
0.0
 41
0.8
 50
0.0
 71
0
 42
0.2
  3
txt
  4

  0
STYLE
  5
261
100
AcDbSymbolTableRecord
100
AcDbTextStyleTableRecord
  2
TEXTSTYLE_1
 70
0
 40
0.0
 41
0.8
 50
0.0
 71
0
 42
0.2
  3
gdt
  4

  0
ENDTAB
  0
TABLE
  2
VIEW
  5
6
100
AcDbSymbolTable
 70
0
  0
ENDTAB
  0
TABLE
  2
UCS
  5
7
100
AcDbSymbolTable
 70
0
  0
ENDTAB
  0
TABLE
  2
APPID
  5
9
100
AcDbSymbolTable
 70
1
  0
APPID
  5
262
100
AcDbSymbolTableRecord
100
AcDbRegAppTableRecord
  2
ACAD
 70
0
  0
ENDTAB
  0
TABLE
  2
BLOCK_RECORD
  5
1
100
AcDbSymbolTable
 70
0
  0
BLOCK_RECORD
  5
263
100
AcDbSymbolTableRecord
100
AcDbBlockTableRecord
  2
*Model_Space
  0
BLOCK_RECORD
  5
264
100
AcDbSymbolTableRecord
100
AcDbBlockTableRecord
  2
*Paper_Space
  0
BLOCK_RECORD
  5
265
100
AcDbSymbolTableRecord
100
AcDbBlockTableRecord
  2
_FILLED
  0
BLOCK_RECORD
  5
266
100
AcDbSymbolTableRecord
100
AcDbBlockTableRecord
  2
*D0
  0
ENDTAB
  0
TABLE
  2
DIMSTYLE
  5
A
100
AcDbSymbolTable
 70
1
100
AcDbDimStyleTable
 71
0
  0
DIMSTYLE
105
267
100
AcDbSymbolTableRecord
100
AcDbDimStyleTableRecord
  2
STANDARD
 70
0
  3

  4

 40
1.0
 41
0.1875
 42
0.0625
 43
0.38
 44
0.125
 45
0.0
 46
0.0
 47
0.001
 48
0.001
140
0.125
141
0.09
142
0.0
143
25.4
144
1.0
145
0.0
146
1.0
147
0.09
 71
0
 72
0
 73
1
 74
1
 75
0
 76
0
 77
0
 78
4
 79
1
170
0
171
2
172
0
173
0
174
0
175
0
176
0
177
0
178
0
270
2
179
3
271
3
272
3
273
2
274
2
275
0
280
0
281
0
282
0
283
1
284
4
285
0
286
0
287
3
288
0
340
11
278
46
341
265
342
265
343
265
344
265
  0
DIMSTYLE
105
268
100
AcDbSymbolTableRecord
100
AcDbDimStyleTableRecord
  2
DIMSTYLE_1
 70
0
  3

  4

 40
1.0
 41
0.1875
 42
0.0625
 43
0.38
 44
0.125
 45
0.0
 46
0.0
 47
0.0
 48
0.0
140
0.125
141
0.09
142
0.0
143
25.4
144
1.0
145
0.0
146
1.0
147
0.0625
 71
0
 72
0
 73
1
 74
1
 75
0
 76
0
 77
0
 78
4
 79
1
170
0
171
2
172
0
173
0
174
0
175
0
176
0
177
0
178
0
270
2
179
3
271
2
272
3
273
2
274
2
275
0
280
0
281
0
282
0
283
1
284
4
285
0
286
0
287
3
288
0
340
11
278
46
341
265
342
265
343
265
344
265
  0
ENDTAB
  0
ENDSEC
  0
SECTION
  2
BLOCKS
  0
BLOCK
  5
20
100
AcDbEntity
  8
0
100
AcDbBlockBegin
  2
*Model_Space
 70
0
 10
0.0
 20
0.0
 30
0.0
  3
*Model_Space
  1

  0
ENDBLK
  5
21
100
AcDbEntity
  8
0
100
AcDbBlockEnd
  0
BLOCK
  5
1C
100
AcDbEntity
  8
0
100
AcDbBlockBegin
  2
*Paper_Space
 70
0
 10
0.0
 20
0.0
 30
0.0
  3
*Paper_Space
  1

  0
ENDBLK
  5
1D
100
AcDbEntity
  8
0
100
AcDbBlockEnd
  0
BLOCK
  5
269
100
AcDbEntity
  8
0
100
AcDbBlockBegin
  2
_FILLED
 70
64
 10
0.0
 20
0.0
  3
_FILLED
  1

  0
SOLID
  5
26A
100
AcDbEntity
  8
0
  6
BYBLOCK
 62
0
100
AcDbTrace
 10
0.0
 20
0.0
 11
-1.0
 21
0.1666666667
 12
-1.0
 22
-0.1666666667
 13
-1.0
 23
-0.1666666667
  0
ENDBLK
  5
26B
100
AcDbEntity
  8
0
  6
BYBLOCK
 62
0
100
AcDbBlockEnd
  0
BLOCK
  5
26C
100
AcDbEntity
  8
0
100
AcDbBlockBegin
 62
6
  6
CONTINUOUS
  2
*D0
 70
65
 10
0.0
 20
0.0
  3
*D0
  1

  0
MTEXT
  5
26D
100
AcDbEntity
  8
0
100
AcDbMText
 62
6
  6
CONTINUOUS
  7
STANDARD
 71
1
 72
1
 10
5.5625
 20
7.9755
 30
0.0
 11
1.0
 21
0.0
 31
0.0
 73
2
 44
0.9
  1
2.00 in (50,8 mm)
 40
0.125
 41
1.7
  0
LINE
  5
26E
100
AcDbEntity
  8
0
100
AcDbLine
 62
6
  6
CONTINUOUS
 10
5.3125
 20
7.6005
 11
5.3125
 21
8.038
  0
LINE
  5
26F
100
AcDbEntity
  8
0
100
AcDbLine
 62
6
  6
CONTINUOUS
 10
3.3125
 20
7.0625
 11
3.3125
 21
8.038
  0
LINE
  5
270
100
AcDbEntity
  8
0
100
AcDbLine
 62
6
  6
CONTINUOUS
 10
5.3125
 20
7.913
 11
4.3125
 21
7.913
  0
LINE
  5
271
100
AcDbEntity
  8
0
100
AcDbLine
 62
6
  6
CONTINUOUS
 10
4.3125
 20
7.913
 11
5.5
 21
7.913
  0
LINE
  5
272
100
AcDbEntity
  8
0
100
AcDbLine
 62
6
  6
CONTINUOUS
 10
3.3125
 20
7.913
 11
4.3125
 21
7.913
  0
INSERT
  5
273
100
AcDbEntity
  8
0
100
AcDbBlockReference
 62
6
  6
CONTINUOUS
  2
_FILLED
 10
5.3125
 20
7.913
 41
0.1875
 42
0.1875
 43
0.1875
  0
INSERT
  5
274
100
AcDbEntity
  8
0
100
AcDbBlockReference
 62
6
  6
CONTINUOUS
  2
_FILLED
 10
3.3125
 20
7.913
 41
0.1875
 42
0.1875
 43
0.1875
 50
180.0
  0
ENDBLK
  5
275
100
AcDbEntity
  8
0
  6
BYBLOCK
 62
0
100
AcDbBlockEnd
  0
ENDSEC
  0
SECTION
  2
ENTITIES
  0
DIMENSION
  5
276
100
AcDbEntity
  8
0
100
AcDbDimension
 62
6
  6
CONTINUOUS
  2
*D0
 10
3.3125
 20
7.913
 11
6.4125
 21
7.913
 70
160
 71
1
 72
2
 41
0.9
 42
2.0
  1
<> in (50,8 mm)
  3
DIMSTYLE_1
100
AcDbAlignedDimension
 13
5.3125
 23
7.538
 14
3.3125
 24
7.0
 50
180.0
100
AcDbRotatedDimension
  0
MTEXT
  5
277
100
AcDbEntity
  8
0
100
AcDbMText
 62
2
  6
CONTINUOUS
  7
STANDARD
 71
1
 72
1
 10
7.2625
 20
7.0625
 30
0.0
 11
1.0
 21
0.0
 31
0.0
 73
2
 44
0.6
  1
Port 1\PControlled Flow Inlet
 40
0.125
 41
2.1
  0
MTEXT
  5
278
100
AcDbEntity
  8
0
100
AcDbMText
 62
2
  6
CONTINUOUS
  7
STANDARD
 71
1
 72
1
 10
5.9625
 20
6.2965
 30
0.0
 11
1.0
 21
0.0
 31
0.0
 73
2
 44
0.6
  1
Port 2\PBypass\PFlow
 40
0.125
 41
0.6
  0
MTEXT
  5
279
100
AcDbEntity
  8
0
100
AcDbMText
 62
2
  6
CONTINUOUS
  7
STANDARD
 71
1
 72
1
 10
4.8125
 20
6.2965
 30
0.0
 11
1.0
 21
0.0
 31
0.0
 73
2
 44
0.6
  1
Port 3\PPriority\PFlow
 40
0.125
 41
0.8
  0
MTEXT
  5
27A
100
AcDbEntity
  8
0
100
AcDbMText
 62
2
  6
CONTINUOUS
  7
STANDARD
 71
1
 72
1
 10
4.1125
 20
6.2965
 30
0.0
 11
1.0
 21
0.0
 31
0.0
 73
2
 44
0.6
  1
Port 4\PVent
 40
0.125
 41
0.6
  0
MTEXT
  5
27B
100
AcDbEntity
  8
0
100
AcDbMText
 62
2
  6
CONTINUOUS
  7
STANDARD
 71
1
 72
1
 10
5.5625
 20
7.7253082664
 30
0.0
 11
1.0
 21
0.0
 31
0.0
 73
2
 44
0.6
  1
 LOCATING SHOULDER
 40
0.125
 41
1.8
  0
LINE
  5
27C
100
AcDbEntity
  8
0
100
AcDbLine
 62
7
  6
CONTINUOUS
 10
3.3125
 20
6.4425
 11
3.3125
 21
7.5575
  0
LINE
  5
27D
100
AcDbEntity
  8
0
100
AcDbLine
 62
7
  6
CONTINUOUS
 10
3.3162492663
 20
7.5639939196
 11
3.3125
 21
7.5575
  0
LINE
  5
27E
100
AcDbEntity
  8
0
100
AcDbLine
 62
7
  6
CONTINUOUS
 10
3.3162492663
 20
6.4360060804
 11
3.3125
 21
6.4425
  0
LINE
  5
27F
100
AcDbEntity
  8
0
100
AcDbLine
 62
7
  6
CONTINUOUS
 10
3.3566672956
 20
6.4375165002
 11
3.3566672956
 21
6.465427963
  0
LINE
  5
280
100
AcDbEntity
  8
0
100
AcDbLine
 62
7
  6
CONTINUOUS
 10
3.3566672956
 20
6.9720885372
 11
3.3566672956
 21
7.0279114628
  0
LINE
  5
281
100
AcDbEntity
  8
0
100
AcDbLine
 62
7
  6
CONTINUOUS
 10
3.3566672956
 20
7.534572037
 11
3.3566672956
 21
7.5624834998
  0
LINE
  5
282
100
AcDbEntity
  8
0
100
AcDbLine
 62
7
  6
CONTINUOUS
 10
3.8277346282
 20
7.5624834998
 11
3.8277346282
 21
7.534572037
  0
LINE
  5
283
100
AcDbEntity
  8
0
100
AcDbLine
 62
7
  6
CONTINUOUS
 10
3.8277346282
 20
6.4375165002
 11
3.8277346282
 21
6.465427963
  0
LINE
  5
284
100
AcDbEntity
  8
0
100
AcDbLine
 62
7
  6
CONTINUOUS
 10
3.8277346282
 20
6.9720885372
 11
3.8277346282
 21
7.0279114628
  0
LINE
  5
285
100
AcDbEntity
  8
0
100
AcDbLine
 62
7
  6
CONTINUOUS
 10
3.8745
 20
6.447
 11
3.8745
 21
7.553
  0
LINE
  5
286
100
AcDbEntity
  8
0
100
AcDbLine
 62
7
  6
CONTINUOUS
 10
4.0935
 20
6.4470096657
 11
4.0935
 21
7.5529903343
  0
LINE
  5
287
100
AcDbEntity
  8
0
100
AcDbLine
 62
7
  6
CONTINUOUS
 10
4.1435
 20
7.551
 11
4.1435
 21
6.449
  0
LINE
  5
288
100
AcDbEntity
  8
0
100
AcDbLine
 62
7
  6
CONTINUOUS
 10
4.2135
 20
7.532
 11
4.2135
 21
6.468
  0
LINE
  5
289
100
AcDbEntity
  8
0
100
AcDbLine
 62
7
  6
CONTINUOUS
 10
4.2215
 20
6.503
 11
4.2215
 21
7.497
  0
LINE
  5
28A
100
AcDbEntity
  8
0
100
AcDbLine
 62
7
  6
CONTINUOUS
 10
4.2345
 20
6.447
 11
4.2345
 21
7.553
  0
LINE
  5
28B
100
AcDbEntity
  8
0
100
AcDbLine
 62
7
  6
CONTINUOUS
 10
4.2935
 20
6.447
 11
4.2935
 21
7.553
  0
LINE
  5
28C
100
AcDbEntity
  8
0
100
AcDbLine
 62
7
  6
CONTINUOUS
 10
3.8745
 20
6.447
 11
3.8681526575
 21
6.4360060804
  0
LINE
  5
28D
100
AcDbEntity
  8
0
100
AcDbLine
 62
7
  6
CONTINUOUS
 10
3.8745
 20
7.553
 11
3.8681526575
 21
7.5639939196
  0
LINE
  5
28E
100
AcDbEntity
  8
127-511_FEATURES
100
AcDbLine
 62
7
  6
CONTINUOUS
 10
4.3123904181
 20
6.5175
 11
4.3123904181
 21
7.4825
  0
LINE
  5
28F
100
AcDbEntity
  8
0
100
AcDbLine
 62
7
  6
CONTINUOUS
 10
5.3338564063
 20
6.484830127
 11
5.3363564065
 21
6.4855
  0
LINE
  5
290
100
AcDbEntity
  8
0
100
AcDbLine
 62
7
  6
CONTINUOUS
 10
4.3123904181
 20
6.5175
 11
4.2935
 21
6.447
  0
LINE
  5
291
100
AcDbEntity
  8
0
100
AcDbLine
 62
7
  6
CONTINUOUS
 10
4.6345
 20
7.538
 11
4.6196288198
 21
7.4825
  0
LINE
  5
292
100
AcDbEntity
  8
0
100
AcDbLine
 62
7
  6
CONTINUOUS
 10
3.315386957
 20
6.4375165002
 11
3.8690149668
 21
6.4375165002
  0
LINE
  5
293
100
AcDbEntity
  8
0
100
AcDbLine
 62
7
  6
CONTINUOUS
 10
4.2935
 20
6.447
 11
4.2345
 21
6.447
  0
LINE
  5
294
100
AcDbEntity
  8
0
100
AcDbLine
 62
7
  6
CONTINUOUS
 10
4.0935
 20
6.447
 11
3.8745
 21
6.447
  0
LINE
  5
295
100
AcDbEntity
  8
0
100
AcDbLine
 62
7
  6
CONTINUOUS
 10
4.0935
 20
6.449
 11
4.1435
 21
6.449
  0
LINE
  5
296
100
AcDbEntity
  8
0
100
AcDbLine
 62
7
  6
CONTINUOUS
 10
4.6875
 20
6.449
 11
4.7375
 21
6.449
  0
LINE
  5
297
100
AcDbEntity
  8
0
100
AcDbLine
 62
7
  6
CONTINUOUS
 10
4.8075
 20
6.449
 11
4.8575
 21
6.449
  0
LINE
  5
298
100
AcDbEntity
  8
0
100
AcDbLine
 62
7
  6
CONTINUOUS
 10
5.3095
 20
6.462
 11
5.2475
 21
6.462
  0
LINE
  5
299
100
AcDbEntity
  8
0
100
AcDbLine
 62
7
  6
CONTINUOUS
 10
4.9325
 20
6.462
 11
4.8855
 21
6.462
  0
LINE
  5
29A
100
AcDbEntity
  8
0
100
AcDbLine
 62
7
  6
CONTINUOUS
 10
4.6875
 20
6.462
 11
4.6345
 21
6.462
  0
LINE
  5
29B
100
AcDbEntity
  8
0
100
AcDbLine
 62
7
  6
CONTINUOUS
 10
3.8277346282
 20
6.465427963
 11
3.3566672956
 21
6.465427963
  0
LINE
  5
29C
100
AcDbEntity
  8
THREAD
100
AcDbLine
 62
7
  6
CONTINUOUS
 10
5.3595
 20
6.4855
 11
5.3363564065
 21
6.4855
  0
LINE
  5
29D
100
AcDbEntity
  8
0
100
AcDbLine
 62
7
  6
CONTINUOUS
 10
5.4295
 20
6.488
 11
5.4795
 21
6.488
  0
LINE
  5
29E
100
AcDbEntity
  8
0
100
AcDbLine
 62
7
  6
CONTINUOUS
 10
4.2215
 20
6.503
 11
4.2135
 21
6.503
  0
LINE
  5
29F
100
AcDbEntity
  8
THREAD
100
AcDbLine
 62
7
  6
CONTINUOUS
 10
5.7935
 20
6.504
 11
5.5224393102
 21
6.504
  0
LINE
  5
2A0
100
AcDbEntity
  8
0
100
AcDbLine
 62
7
  6
CONTINUOUS
 10
4.8725
 20
6.5175
 11
4.8575
 21
6.5175
  0
LINE
  5
2A1
100
AcDbEntity
  8
0
100
AcDbLine
 62
7
  6
CONTINUOUS
 10
4.6196288198
 20
6.5175
 11
4.3123904181
 21
6.5175
  0
LINE
  5
2A2
100
AcDbEntity
  8
0
100
AcDbLine
 62
7
  6
CONTINUOUS
 10
4.3123904181
 20
7.4825
 11
4.2935
 21
7.553
  0
LINE
  5
2A3
100
AcDbEntity
  8
0
100
AcDbLine
 62
7
  6
CONTINUOUS
 10
4.6345
 20
6.462
 11
4.6196288198
 21
6.5175
  0
LINE
  5
2A4
100
AcDbEntity
  8
0
100
AcDbLine
 62
7
  6
CONTINUOUS
 10
4.6196288198
 20
6.5175
 11
4.6196288198
 21
7.4825
  0
LINE
  5
2A5
100
AcDbEntity
  8
0
100
AcDbLine
 62
7
  6
CONTINUOUS
 10
4.6345
 20
6.462
 11
4.6345
 21
7.538
  0
LINE
  5
2A6
100
AcDbEntity
  8
THREAD
100
AcDbLine
 62
7
  6
CONTINUOUS
 10
5.4929944465
 20
6.542
 11
5.4795
 21
6.542
  0
LINE
  5
2A7
100
AcDbEntity
  8
0
100
AcDbLine
 62
7
  6
CONTINUOUS
 10
5.2260640646
 20
6.542
 11
5.203
 21
6.542
  0
LINE
  5
2A8
100
AcDbEntity
  8
0
100
AcDbLine
 62
7
  6
CONTINUOUS
 10
4.984
 20
6.542
 11
4.9539359354
 21
6.542
  0
LINE
  5
2A9
100
AcDbEntity
  8
THREAD
100
AcDbLine
 62
7
  6
CONTINUOUS
 10
5.9225
 20
6.548
 11
5.8375
 21
6.548
  0
LINE
  5
2AA
100
AcDbEntity
  8
0
100
AcDbLine
 62
7
  6
CONTINUOUS
 10
6.3665
 20
6.5635
 11
6.4325
 21
6.5635
  0
LINE
  5
2AB
100
AcDbEntity
  8
0
100
AcDbLine
 62
7
  6
CONTINUOUS
 10
6.6305
 20
6.5635
 11
6.6715
 21
6.5635
  0
LINE
  5
2AC
100
AcDbEntity
  8
0
100
AcDbLine
 62
7
  6
CONTINUOUS
 10
6.4325
 20
6.5645
 11
6.4825
 21
6.5645
  0
LINE
  5
2AD
100
AcDbEntity
  8
0
100
AcDbLine
 62
7
  6
CONTINUOUS
 10
6.5525
 20
6.5645
 11
6.6025
 21
6.5645
  0
LINE
  5
2AE
100
AcDbEntity
  8
0
100
AcDbLine
 62
7
  6
CONTINUOUS
 10
6.6305
 20
6.618
 11
6.6025
 21
6.618
  0
LINE
  5
2AF
100
AcDbEntity
  8
0
100
AcDbLine
 62
7
  6
CONTINUOUS
 10
6.3665
 20
6.626
 11
6.2185
 21
6.626
  0
LINE
  5
2B0
100
AcDbEntity
  8
0
100
AcDbLine
 62
7
  6
CONTINUOUS
 10
6.0625
 20
6.626
 11
5.9375
 21
6.626
  0
LINE
  5
2B1
100
AcDbEntity
  8
0
100
AcDbLine
 62
7
  6
CONTINUOUS
 10
4.6875
 20
7.551
 11
4.6875
 21
6.449
  0
LINE
  5
2B2
100
AcDbEntity
  8
0
100
AcDbLine
 62
7
  6
CONTINUOUS
 10
4.7375
 20
7.551
 11
4.7375
 21
6.449
  0
LINE
  5
2B3
100
AcDbEntity
  8
0
100
AcDbLine
 62
7
  6
CONTINUOUS
 10
4.8075
 20
7.551
 11
4.8075
 21
6.449
  0
LINE
  5
2B4
100
AcDbEntity
  8
0
100
AcDbLine
 62
7
  6
CONTINUOUS
 10
4.8575
 20
7.551
 11
4.8575
 21
6.449
  0
LINE
  5
2B5
100
AcDbEntity
  8
0
100
AcDbLine
 62
7
  6
CONTINUOUS
 10
4.8725
 20
6.5175
 11
4.8725
 21
7.4825
  0
LINE
  5
2B6
100
AcDbEntity
  8
0
100
AcDbLine
 62
7
  6
CONTINUOUS
 10
4.8855
 20
6.462
 11
4.8855
 21
7.538
  0
LINE
  5
2B7
100
AcDbEntity
  8
0
100
AcDbLine
 62
7
  6
CONTINUOUS
 10
4.9325
 20
6.462
 11
4.9325
 21
7.538
  0
LINE
  5
2B8
100
AcDbEntity
  8
0
100
AcDbLine
 62
7
  6
CONTINUOUS
 10
4.9539359354
 20
6.542
 11
4.9539359354
 21
7.458
  0
LINE
  5
2B9
100
AcDbEntity
  8
0
100
AcDbLine
 62
7
  6
CONTINUOUS
 10
5.0005
 20
6.9428532434
 11
5.0005
 21
7.0571544281
  0
LINE
  5
2BA
100
AcDbEntity
  8
0
100
AcDbLine
 62
7
  6
CONTINUOUS
 10
3.8277346282
 20
6.9720885372
 11
3.3566672956
 21
6.9720885372
  0
LINE
  5
2BB
100
AcDbEntity
  8
0
100
AcDbLine
 62
7
  6
CONTINUOUS
 10
4.9539359354
 20
6.542
 11
4.9325
 21
6.462
  0
LINE
  5
2BC
100
AcDbEntity
  8
0
100
AcDbLine
 62
7
  6
CONTINUOUS
 10
5.2475
 20
7.538
 11
5.2260640646
 21
7.458
  0
LINE
  5
2BD
100
AcDbEntity
  8
0
100
AcDbLine
 62
7
  6
CONTINUOUS
 10
3.8277346282
 20
7.0279114628
 11
3.3566672956
 21
7.0279114628
  0
LINE
  5
2BE
100
AcDbEntity
  8
0
100
AcDbLine
 62
7
  6
CONTINUOUS
 10
4.9539359354
 20
7.458
 11
4.9325
 21
7.538
  0
LINE
  5
2BF
100
AcDbEntity
  8
0
100
AcDbLine
 62
7
  6
CONTINUOUS
 10
5.2475
 20
6.462
 11
5.2260640646
 21
6.542
  0
LINE
  5
2C0
100
AcDbEntity
  8
0
100
AcDbLine
 62
7
  6
CONTINUOUS
 10
5.2260640646
 20
6.542
 11
5.2260640646
 21
7.458
  0
LINE
  5
2C1
100
AcDbEntity
  8
0
100
AcDbLine
 62
7
  6
CONTINUOUS
 10
5.2475
 20
6.462
 11
5.2475
 21
7.538
  0
LINE
  5
2C2
100
AcDbEntity
  8
THREAD
100
AcDbLine
 62
7
  6
CONTINUOUS
 10
5.5224393102
 20
7.496
 11
5.5042527763
 21
7.4644999993
  0
LINE
  5
2C3
100
AcDbEntity
  8
THREAD
100
AcDbLine
 62
7
  6
CONTINUOUS
 10
5.5224393102
 20
6.504
 11
5.5042527763
 21
6.5355000007
  0
LINE
  5
2C4
100
AcDbEntity
  8
0
100
AcDbLine
 62
7
  6
CONTINUOUS
 10
5.3095
 20
7.538
 11
5.3095
 21
6.462
  0
LINE
  5
2C5
100
AcDbEntity
  8
0
100
AcDbLine
 62
7
  6
CONTINUOUS
 10
5.3125
 20
7.5349999749
 11
5.3125
 21
6.4650000251
  0
LINE
  5
2C6
100
AcDbEntity
  8
0
100
AcDbLine
 62
7
  6
CONTINUOUS
 10
5.3150000001
 20
6.4739433757
 11
5.3150000001
 21
7.5260566243
  0
LINE
  5
2C7
100
AcDbEntity
  8
0
100
AcDbLine
 62
7
  6
CONTINUOUS
 10
5.3338564062
 20
6.4848301269
 11
5.3338564062
 21
7.5151698731
  0
LINE
  5
2C8
100
AcDbEntity
  8
0
100
AcDbLine
 62
7
  6
CONTINUOUS
 10
5.3363564065
 20
6.4855
 11
5.3363564065
 21
7.5145
  0
LINE
  5
2C9
100
AcDbEntity
  8
THREAD
100
AcDbLine
 62
7
  6
CONTINUOUS
 10
5.3595
 20
6.4855
 11
5.3595
 21
7.5145
  0
LINE
  5
2CA
100
AcDbEntity
  8
0
100
AcDbLine
 62
7
  6
CONTINUOUS
 10
5.4295
 20
7.512
 11
5.4295
 21
6.488
  0
LINE
  5
2CB
100
AcDbEntity
  8
0
100
AcDbLine
 62
7
  6
CONTINUOUS
 10
5.4795
 20
7.512
 11
5.4795
 21
6.488
  0
LINE
  5
2CC
100
AcDbEntity
  8
0
100
AcDbLine
 62
7
  6
CONTINUOUS
 10
6.3665
 20
7.374
 11
6.2185
 21
7.374
  0
LINE
  5
2CD
100
AcDbEntity
  8
0
100
AcDbLine
 62
7
  6
CONTINUOUS
 10
6.0625
 20
7.374
 11
5.9375
 21
7.374
  0
LINE
  5
2CE
100
AcDbEntity
  8
0
100
AcDbLine
 62
7
  6
CONTINUOUS
 10
6.6305
 20
7.382
 11
6.6025
 21
7.382
  0
LINE
  5
2CF
100
AcDbEntity
  8
0
100
AcDbLine
 62
7
  6
CONTINUOUS
 10
5.883
 20
7.4108581236
 11
5.843
 21
7.4108581236
  0
LINE
  5
2D0
100
AcDbEntity
  8
0
100
AcDbLine
 62
7
  6
CONTINUOUS
 10
6.4325
 20
7.4355
 11
6.4825
 21
7.4355
  0
LINE
  5
2D1
100
AcDbEntity
  8
0
100
AcDbLine
 62
7
  6
CONTINUOUS
 10
6.5525
 20
7.4355
 11
6.6025
 21
7.4355
  0
LINE
  5
2D2
100
AcDbEntity
  8
0
100
AcDbLine
 62
7
  6
CONTINUOUS
 10
6.3665
 20
7.4365
 11
6.4325
 21
7.4365
  0
LINE
  5
2D3
100
AcDbEntity
  8
0
100
AcDbLine
 62
7
  6
CONTINUOUS
 10
6.6305
 20
7.4365
 11
6.6715
 21
7.4365
  0
LINE
  5
2D4
100
AcDbEntity
  8
THREAD
100
AcDbLine
 62
7
  6
CONTINUOUS
 10
5.9225
 20
7.452
 11
5.883
 21
7.452
  0
LINE
  5
2D5
100
AcDbEntity
  8
THREAD
100
AcDbLine
 62
7
  6
CONTINUOUS
 10
5.843
 20
7.452
 11
5.8375
 21
7.452
  0
LINE
  5
2D6
100
AcDbEntity
  8
THREAD
100
AcDbLine
 62
7
  6
CONTINUOUS
 10
5.4929944465
 20
7.458
 11
5.4795
 21
7.458
  0
LINE
  5
2D7
100
AcDbEntity
  8
0
100
AcDbLine
 62
7
  6
CONTINUOUS
 10
5.2260640646
 20
7.458
 11
5.203
 21
7.458
  0
LINE
  5
2D8
100
AcDbEntity
  8
0
100
AcDbLine
 62
7
  6
CONTINUOUS
 10
4.984
 20
7.458
 11
4.9539359354
 21
7.458
  0
LINE
  5
2D9
100
AcDbEntity
  8
0
100
AcDbLine
 62
7
  6
CONTINUOUS
 10
4.8725
 20
7.4825
 11
4.8575
 21
7.4825
  0
LINE
  5
2DA
100
AcDbEntity
  8
0
100
AcDbLine
 62
7
  6
CONTINUOUS
 10
4.6196288198
 20
7.4825
 11
4.3123904181
 21
7.4825
  0
LINE
  5
2DB
100
AcDbEntity
  8
THREAD
100
AcDbLine
 62
7
  6
CONTINUOUS
 10
5.4929944465
 20
6.542
 11
5.4929944465
 21
7.458
  0
LINE
  5
2DC
100
AcDbEntity
  8
THREAD
100
AcDbLine
 62
7
  6
CONTINUOUS
 10
5.5042527763
 20
6.5355000008
 11
5.5042527763
 21
7.4644999992
  0
LINE
  5
2DD
100
AcDbEntity
  8
THREAD
100
AcDbLine
 62
7
  6
CONTINUOUS
 10
5.5224393102
 20
6.504
 11
5.5224393102
 21
7.496
  0
LINE
  5
2DE
100
AcDbEntity
  8
THREAD
100
AcDbLine
 62
7
  6
CONTINUOUS
 10
5.7935
 20
7.496
 11
5.5224393102
 21
7.496
  0
LINE
  5
2DF
100
AcDbEntity
  8
0
100
AcDbLine
 62
7
  6
CONTINUOUS
 10
4.2215
 20
7.497
 11
4.2135
 21
7.497
  0
LINE
  5
2E0
100
AcDbEntity
  8
0
100
AcDbLine
 62
7
  6
CONTINUOUS
 10
5.4295
 20
7.512
 11
5.4795
 21
7.512
  0
LINE
  5
2E1
100
AcDbEntity
  8
THREAD
100
AcDbLine
 62
7
  6
CONTINUOUS
 10
5.3595
 20
7.5145
 11
5.3363564065
 21
7.5145
  0
LINE
  5
2E2
100
AcDbEntity
  8
0
100
AcDbLine
 62
7
  6
CONTINUOUS
 10
3.8277346282
 20
7.534572037
 11
3.3566672956
 21
7.534572037
  0
LINE
  5
2E3
100
AcDbEntity
  8
0
100
AcDbLine
 62
7
  6
CONTINUOUS
 10
5.3095
 20
7.538
 11
5.2475
 21
7.538
  0
LINE
  5
2E4
100
AcDbEntity
  8
0
100
AcDbLine
 62
7
  6
CONTINUOUS
 10
4.9325
 20
7.538
 11
4.8855
 21
7.538
  0
LINE
  5
2E5
100
AcDbEntity
  8
0
100
AcDbLine
 62
7
  6
CONTINUOUS
 10
4.6875
 20
7.538
 11
4.6345
 21
7.538
  0
LINE
  5
2E6
100
AcDbEntity
  8
0
100
AcDbLine
 62
7
  6
CONTINUOUS
 10
4.0935
 20
7.551
 11
4.1435
 21
7.551
  0
LINE
  5
2E7
100
AcDbEntity
  8
0
100
AcDbLine
 62
7
  6
CONTINUOUS
 10
4.6875
 20
7.551
 11
4.7375
 21
7.551
  0
LINE
  5
2E8
100
AcDbEntity
  8
0
100
AcDbLine
 62
7
  6
CONTINUOUS
 10
4.8075
 20
7.551
 11
4.8575
 21
7.551
  0
LINE
  5
2E9
100
AcDbEntity
  8
0
100
AcDbLine
 62
7
  6
CONTINUOUS
 10
4.2935
 20
7.553
 11
4.2345
 21
7.553
  0
LINE
  5
2EA
100
AcDbEntity
  8
0
100
AcDbLine
 62
7
  6
CONTINUOUS
 10
4.0935
 20
7.553
 11
3.8745
 21
7.553
  0
LINE
  5
2EB
100
AcDbEntity
  8
0
100
AcDbLine
 62
7
  6
CONTINUOUS
 10
3.315386957
 20
7.5624834998
 11
3.8690149668
 21
7.5624834998
  0
LINE
  5
2EC
100
AcDbEntity
  8
0
100
AcDbLine
 62
7
  6
CONTINUOUS
 10
5.3338564063
 20
7.515169873
 11
5.3363564065
 21
7.5145
  0
LINE
  5
2ED
100
AcDbEntity
  8
THREAD
100
AcDbLine
 62
7
  6
CONTINUOUS
 10
5.3338564063
 20
6.484830127
 11
5.3150000001
 21
6.4739433758
  0
LINE
  5
2EE
100
AcDbEntity
  8
THREAD
100
AcDbLine
 62
7
  6
CONTINUOUS
 10
5.3338564063
 20
7.515169873
 11
5.3150000001
 21
7.5260566242
  0
LINE
  5
2EF
100
AcDbEntity
  8
THREAD
100
AcDbLine
 62
7
  6
CONTINUOUS
 10
5.7935
 20
6.504
 11
5.7935
 21
7.496
  0
LINE
  5
2F0
100
AcDbEntity
  8
THREAD
100
AcDbLine
 62
7
  6
CONTINUOUS
 10
5.8375
 20
6.548
 11
5.8375
 21
7.452
  0
LINE
  5
2F1
100
AcDbEntity
  8
0
100
AcDbLine
 62
7
  6
CONTINUOUS
 10
5.843
 20
7.4108581236
 11
5.843
 21
7.452
  0
LINE
  5
2F2
100
AcDbEntity
  8
0
100
AcDbLine
 62
7
  6
CONTINUOUS
 10
5.883
 20
7.4108581236
 11
5.883
 21
7.452
  0
LINE
  5
2F3
100
AcDbEntity
  8
0
100
AcDbLine
 62
7
  6
CONTINUOUS
 10
5.9225
 20
6.548
 11
5.9225
 21
7.452
  0
LINE
  5
2F4
100
AcDbEntity
  8
0
100
AcDbLine
 62
7
  6
CONTINUOUS
 10
5.9375
 20
6.5630119113
 11
5.9375
 21
7.4369880887
  0
LINE
  5
2F5
100
AcDbEntity
  8
THREAD
100
AcDbLine
 62
7
  6
CONTINUOUS
 10
5.8375
 20
6.548
 11
5.7935
 21
6.504
  0
LINE
  5
2F6
100
AcDbEntity
  8
THREAD
100
AcDbLine
 62
7
  6
CONTINUOUS
 10
5.8375
 20
7.452
 11
5.7935
 21
7.496
  0
LINE
  5
2F7
100
AcDbEntity
  8
0
100
AcDbLine
 62
7
  6
CONTINUOUS
 10
5.9375
 20
6.563
 11
5.9225
 21
6.548
  0
LINE
  5
2F8
100
AcDbEntity
  8
0
100
AcDbLine
 62
7
  6
CONTINUOUS
 10
5.9375
 20
7.437
 11
5.9225
 21
7.452
  0
LINE
  5
2F9
100
AcDbEntity
  8
0
100
AcDbLine
 62
7
  6
CONTINUOUS
 10
6.1055
 20
6.7803146203
 11
6.1055
 21
6.7893436822
  0
LINE
  5
2FA
100
AcDbEntity
  8
0
100
AcDbLine
 62
7
  6
CONTINUOUS
 10
6.1055
 20
6.9306742951
 11
6.1055
 21
7.0693283128
  0
LINE
  5
2FB
100
AcDbEntity
  8
0
100
AcDbLine
 62
7
  6
CONTINUOUS
 10
6.1055
 20
7.2106563435
 11
6.1055
 21
7.2197848685
  0
LINE
  5
2FC
100
AcDbEntity
  8
0
100
AcDbLine
 62
7
  6
CONTINUOUS
 10
6.1125
 20
7.2211282184
 11
6.1125
 21
7.2084222236
  0
LINE
  5
2FD
100
AcDbEntity
  8
0
100
AcDbLine
 62
7
  6
CONTINUOUS
 10
6.1125
 20
7.0724533387
 11
6.1125
 21
6.9275451402
  0
LINE
  5
2FE
100
AcDbEntity
  8
0
100
AcDbLine
 62
7
  6
CONTINUOUS
 10
6.1125
 20
6.7915777838
 11
6.1125
 21
6.7787781161
  0
LINE
  5
2FF
100
AcDbEntity
  8
0
100
AcDbLine
 62
7
  6
CONTINUOUS
 10
6.1225
 20
7.2228267449
 11
6.1225
 21
7.2053434783
  0
LINE
  5
300
100
AcDbEntity
  8
0
100
AcDbLine
 62
7
  6
CONTINUOUS
 10
6.1225
 20
7.0754736195
 11
6.1225
 21
6.9245273838
  0
LINE
  5
301
100
AcDbEntity
  8
0
100
AcDbLine
 62
7
  6
CONTINUOUS
 10
6.1225
 20
6.7946565378
 11
6.1225
 21
6.7771724897
  0
LINE
  5
302
100
AcDbEntity
  8
0
100
AcDbLine
 62
7
  6
CONTINUOUS
 10
6.1295
 20
6.7766312543
 11
6.1295
 21
6.7953779969
  0
LINE
  5
303
100
AcDbEntity
  8
0
100
AcDbLine
 62
7
  6
CONTINUOUS
 10
6.1295
 20
6.9230323848
 11
6.1295
 21
7.0769657636
  0
LINE
  5
304
100
AcDbEntity
  8
0
100
AcDbLine
 62
7
  6
CONTINUOUS
 10
6.1295
 20
7.2046220129
 11
6.1295
 21
7.2233607114
  0
LINE
  5
305
100
AcDbEntity
  8
0
100
AcDbLine
 62
7
  6
CONTINUOUS
 10
6.1955
 20
6.945144769
 11
6.1955
 21
7.0548585964
  0
LINE
  5
306
100
AcDbEntity
  8
0
100
AcDbLine
 62
7
  6
CONTINUOUS
 10
6.2025
 20
7.0470668579
 11
6.2025
 21
6.9529275721
  0
LINE
  5
307
100
AcDbEntity
  8
0
100
AcDbLine
 62
7
  6
CONTINUOUS
 10
6.2125
 20
7.0294461835
 11
6.2125
 21
6.9705614922
  0
LINE
  5
308
100
AcDbEntity
  8
0
100
AcDbLine
 62
7
  6
CONTINUOUS
 10
6.3665
 20
7.4365
 11
6.3665
 21
6.5635
  0
LINE
  5
309
100
AcDbEntity
  8
0
100
AcDbLine
 62
7
  6
CONTINUOUS
 10
6.4325
 20
7.4365
 11
6.4325
 21
6.5635
  0
LINE
  5
30A
100
AcDbEntity
  8
0
100
AcDbLine
 62
7
  6
CONTINUOUS
 10
6.4825
 20
7.4355
 11
6.4825
 21
6.5645
  0
LINE
  5
30B
100
AcDbEntity
  8
0
100
AcDbLine
 62
7
  6
CONTINUOUS
 10
6.5525
 20
7.4355
 11
6.5525
 21
6.5645
  0
LINE
  5
30C
100
AcDbEntity
  8
0
100
AcDbLine
 62
7
  6
CONTINUOUS
 10
6.6715
 20
6.5635
 11
6.6875
 21
6.5795
  0
LINE
  5
30D
100
AcDbEntity
  8
0
100
AcDbLine
 62
7
  6
CONTINUOUS
 10
6.6715
 20
7.4365
 11
6.6875
 21
7.4205
  0
LINE
  5
30E
100
AcDbEntity
  8
0
100
AcDbLine
 62
7
  6
CONTINUOUS
 10
6.6025
 20
7.4355
 11
6.6025
 21
6.5645
  0
LINE
  5
30F
100
AcDbEntity
  8
0
100
AcDbLine
 62
7
  6
CONTINUOUS
 10
6.6305
 20
7.4365
 11
6.6305
 21
6.5635
  0
LINE
  5
310
100
AcDbEntity
  8
0
100
AcDbLine
 62
7
  6
CONTINUOUS
 10
6.6715
 20
7.4365
 11
6.6715
 21
6.5635
  0
LINE
  5
311
100
AcDbEntity
  8
0
100
AcDbLine
 62
7
  6
CONTINUOUS
 10
6.6875
 20
7.4205
 11
6.6875
 21
6.5795
  0
ARC
  5
312
100
AcDbEntity
  8
0
100
AcDbCircle
 62
7
  6
CONTINUOUS
 10
6.1404916275
 20
7.0614858007
 40
0.1624393938
100
AcDbArc
 50
89.9970468268
 51
93.9016635334
  0
ARC
  5
313
100
AcDbEntity
  8
0
100
AcDbCircle
 62
7
  6
CONTINUOUS
 10
6.1404607346
 20
6.9375986237
 40
0.1615238228
100
AcDbArc
 50
266.0880886037
 51
270.0139282351
  0
CIRCLE
  5
314
100
AcDbEntity
  8
127-511_FEATURES
100
AcDbCircle
 62
7
  6
CONTINUOUS
 10
5.0935
 20
7.0
 40
0.1095
  0
CIRCLE
  5
315
100
AcDbEntity
  8
0
100
AcDbCircle
 62
7
  6
CONTINUOUS
 10
6.1405
 20
7.0
 40
0.078
  0
ARC
  5
316
100
AcDbEntity
  8
0
100
AcDbCircle
 62
7
  6
CONTINUOUS
 10
4.2215
 20
6.49
 40
0.013
100
AcDbArc
 50
0.0000127488
 51
90.0
  0
ARC
  5
317
100
AcDbEntity
  8
0
100
AcDbCircle
 62
7
  6
CONTINUOUS
 10
4.8725
 20
6.5045
 40
0.013
100
AcDbArc
 50
0.0000131385
 51
90.0
  0
ARC
  5
318
100
AcDbEntity
  8
THREAD
100
AcDbCircle
 62
7
  6
CONTINUOUS
 10
5.4929944465
 20
6.529
 40
0.013
100
AcDbArc
 50
30.0000035347
 51
90.0
  0
ARC
  5
319
100
AcDbEntity
  8
0
100
AcDbCircle
 62
7
  6
CONTINUOUS
 10
4.2215
 20
7.51
 40
0.013
100
AcDbArc
 50
270.0
 51
359.9999872512
  0
ARC
  5
31A
100
AcDbEntity
  8
0
100
AcDbCircle
 62
7
  6
CONTINUOUS
 10
4.8725
 20
7.4955
 40
0.013
100
AcDbArc
 50
270.0
 51
359.9999868615
  0
ARC
  5
31B
100
AcDbEntity
  8
THREAD
100
AcDbCircle
 62
7
  6
CONTINUOUS
 10
5.4929944465
 20
7.471
 40
0.013
100
AcDbArc
 50
270.0
 51
329.9999964653
  0
ARC
  5
31C
100
AcDbEntity
  8
0
100
AcDbCircle
 62
7
  6
CONTINUOUS
 10
5.3175
 20
7.5303867513
 40
0.005
100
AcDbArc
 50
180.0000035594
 51
240.0000017825
  0
ARC
  5
31D
100
AcDbEntity
  8
0
100
AcDbCircle
 62
7
  6
CONTINUOUS
 10
5.3175
 20
6.4696132487
 40
0.005
100
AcDbArc
 50
119.9999982175
 51
179.9999964405
  0
ARC
  5
31E
100
AcDbEntity
  8
0
100
AcDbCircle
 62
7
  6
CONTINUOUS
 10
5.3095
 20
7.535
 40
0.003
100
AcDbArc
 50
359.9999216731
 51
90.0
  0
ARC
  5
31F
100
AcDbEntity
  8
0
100
AcDbCircle
 62
7
  6
CONTINUOUS
 10
5.3095
 20
6.465
 40
0.003
100
AcDbArc
 50
270.0
 51
0.0000783269
  0
SPLINE
  5
320
100
AcDbEntity
  8
0
100
AcDbSpline
 62
7
  6
CONTINUOUS
 70
0
 71
3
 72
22
 73
18
 74
0
 42
0.0000001
 43
0.0000001
 44
0.0000000001
 40
0.0
 40
0.0
 40
0.0
 40
0.0
 40
0.0705028414
 40
0.1409143509
 40
0.2108938693
 40
0.2801999924
 40
0.3486560595
 40
0.4160766695
 40
0.5468931744
 40
0.6100340743
 40
0.6714082675
 40
0.7308910942
 40
0.7884114073
 40
0.8439507816
 40
0.8975926934
 40
0.9495124775
 40
1.0
 40
1.0
 40
1.0
 40
1.0
 10
6.1405
 20
7.2034882816
 30
0.0
 10
6.1430549921
 20
7.2034882816
 30
0.0
 10
6.1481641777
 20
7.2037063283
 30
0.0
 10
6.1557544547
 20
7.2046699859
 30
0.0
 10
6.1631947823
 20
7.2062613994
 30
0.0
 10
6.1704056483
 20
7.2084550304
 30
0.0
 10
6.1773213483
 20
7.2112130239
 30
0.0
 10
6.1859692224
 20
7.2155466189
 30
0.0
 10
6.193882678
 20
7.2208568204
 30
0.0
 10
6.2008068646
 20
7.2270101815
 30
0.0
 10
6.2053691929
 20
7.2318873093
 30
0.0
 10
6.2093135265
 20
7.2370220233
 30
0.0
 10
6.2126051352
 20
7.2423519875
 30
0.0
 10
6.2152068844
 20
7.2478183149
 30
0.0
 10
6.2170916624
 20
7.253359013
 30
0.0
 10
6.2182379087
 20
7.2589119245
 30
0.0
 10
6.2184991351
 20
7.2626276314
 30
0.0
 10
6.2184991459
 20
7.2644572771
 30
0.0
  0
SPLINE
  5
321
100
AcDbEntity
  8
0
100
AcDbSpline
 62
7
  6
CONTINUOUS
 70
0
 71
3
 72
22
 73
18
 74
0
 42
0.0000001
 43
0.0000001
 44
0.0000000001
 40
0.0
 40
0.0
 40
0.0
 40
0.0
 40
0.0705028387
 40
0.1409143453
 40
0.2108938609
 40
0.2801999815
 40
0.3486560466
 40
0.4160766552
 40
0.5468931587
 40
0.6100340589
 40
0.6714082531
 40
0.7308910813
 40
0.7884113964
 40
0.8439507729
 40
0.8975926871
 40
0.9495124739
 40
1.0
 40
1.0
 40
1.0
 40
1.0
 10
6.1405
 20
6.7965117184
 30
0.0
 10
6.1379450084
 20
6.7965117184
 30
0.0
 10
6.1328358238
 20
6.7962936718
 30
0.0
 10
6.1252455482
 20
6.7953300146
 30
0.0
 10
6.117805222
 20
6.7937386017
 30
0.0
 10
6.1105943572
 20
6.7915449715
 30
0.0
 10
6.1036786583
 20
6.788786979
 30
0.0
 10
6.0950307854
 20
6.7844533856
 30
0.0
 10
6.0871173304
 20
6.7791431858
 30
0.0
 10
6.080193144
 20
6.7729898268
 30
0.0
 10
6.0756308154
 20
6.7681127004
 30
0.0
 10
6.0716864813
 20
6.7629779879
 30
0.0
 10
6.0683948718
 20
6.7576480251
 30
0.0
 10
6.0657931213
 20
6.7521816991
 30
0.0
 10
6.0639083418
 20
6.7466410023
 30
0.0
 10
6.0627620936
 20
6.7410880917
 30
0.0
 10
6.0625008658
 20
6.7373723852
 30
0.0
 10
6.0625008541
 20
6.7355427397
 30
0.0
  0
SPLINE
  5
322
100
AcDbEntity
  8
0
100
AcDbSpline
 62
7
  6
CONTINUOUS
 70
0
 71
3
 72
9
 73
5
 74
0
 42
0.0000001
 43
0.0000001
 44
0.0000000001
 40
0.0
 40
0.0
 40
0.0
 40
0.0
 40
0.2439364401
 40
1.0
 40
1.0
 40
1.0
 40
1.0
 10
6.0947610416
 20
6.7834818059
 30
0.0
 10
6.0956060462
 20
6.7831617297
 30
0.0
 10
6.0990907717
 20
6.7819044674
 30
0.0
 10
6.1026501437
 20
6.7808576043
 30
0.0
 10
6.1053646929
 20
6.7801686065
 30
0.0
  0
SPLINE
  5
323
100
AcDbEntity
  8
0
100
AcDbSpline
 62
7
  6
CONTINUOUS
 70
0
 71
3
 72
9
 73
5
 74
0
 42
0.0000001
 43
0.0000001
 44
0.0000000001
 40
0.0
 40
0.0
 40
0.0
 40
0.0
 40
0.489561871
 40
1.0
 40
1.0
 40
1.0
 40
1.0
 10
6.1053646929
 20
6.7801686065
 30
0.0
 10
6.109221884
 20
6.779189587
 30
0.0
 10
6.1172099766
 20
6.7776080073
 30
0.0
 10
6.1253016573
 20
6.7767348077
 30
0.0
 10
6.1294411432
 20
6.7764511325
 30
0.0
  0
SPLINE
  5
324
100
AcDbEntity
  8
0
100
AcDbSpline
 62
7
  6
CONTINUOUS
 70
0
 71
3
 72
22
 73
18
 74
0
 42
0.0000001
 43
0.0000001
 44
0.0000000001
 40
0.0
 40
0.0
 40
0.0
 40
0.0
 40
0.0504875127
 40
0.1024072887
 40
0.1560491925
 40
0.2115885594
 40
0.2691088653
 40
0.3285916863
 40
0.3899658768
 40
0.4531067762
 40
0.5839232861
 40
0.6513439004
 40
0.7197999731
 40
0.7891061035
 40
0.8590856314
 40
0.9294971504
 40
1.0
 40
1.0
 40
1.0
 40
1.0
 10
6.218499146
 20
6.7355426753
 30
0.0
 10
6.2184991374
 20
6.7373723214
 30
0.0
 10
6.2182379153
 20
6.7410880297
 30
0.0
 10
6.2170916742
 20
6.7466409439
 30
0.0
 10
6.2152069008
 20
6.7521816453
 30
0.0
 10
6.212605155
 20
6.7576479764
 30
0.0
 10
6.2093135489
 20
6.7629779446
 30
0.0
 10
6.2053692169
 20
6.7681126627
 30
0.0
 10
6.2008068892
 20
6.7729897946
 30
0.0
 10
6.1938827022
 20
6.7791431615
 30
0.0
 10
6.1859692446
 20
6.7844533682
 30
0.0
 10
6.1773213674
 20
6.7887869677
 30
0.0
 10
6.1704056644
 20
6.791544964
 30
0.0
 10
6.1631947949
 20
6.7937385975
 30
0.0
 10
6.1557544633
 20
6.7953300127
 30
0.0
 10
6.148164182
 20
6.7962936714
 30
0.0
 10
6.1430549935
 20
6.7965117184
 30
0.0
 10
6.1405
 20
6.7965117184
 30
0.0
  0
SPLINE
  5
325
100
AcDbEntity
  8
0
100
AcDbSpline
 62
7
  6
CONTINUOUS
 70
0
 71
3
 72
15
 73
11
 74
0
 42
0.0000001
 43
0.0000001
 44
0.0000000001
 40
0.0
 40
0.0
 40
0.0
 40
0.0
 40
0.0386851697
 40
0.1477419859
 40
0.3095473822
 40
0.5000143621
 40
0.6904800684
 40
0.852272958
 40
0.961319093
 40
1.0
 40
1.0
 40
1.0
 40
1.0
 10
6.2185
 20
7.374
 30
0.0
 10
6.2165167087
 20
7.373586328
 30
0.0
 10
6.2089305869
 20
7.3720617972
 30
0.0
 10
6.192947776
 20
7.3693191703
 30
0.0
 10
6.168930005
 20
7.3665341887
 30
0.0
 10
6.1404978064
 20
7.3653664169
 30
0.0
 10
6.112066269
 20
7.3665344149
 30
0.0
 10
6.0880498078
 20
7.3693195488
 30
0.0
 10
6.0720684316
 20
7.3720620186
 30
0.0
 10
6.0644830744
 20
7.3735863816
 30
0.0
 10
6.0625
 20
7.374
 30
0.0
  0
SPLINE
  5
326
100
AcDbEntity
  8
0
100
AcDbSpline
 62
7
  6
CONTINUOUS
 70
0
 71
3
 72
22
 73
18
 74
0
 42
0.0000001
 43
0.0000001
 44
0.0000000001
 40
0.0
 40
0.0
 40
0.0
 40
0.0
 40
0.0504875092
 40
0.1024072824
 40
0.1560491837
 40
0.2115885485
 40
0.2691088524
 40
0.3285916719
 40
0.3899658614
 40
0.4531067606
 40
0.5839232719
 40
0.6513438876
 40
0.7197999623
 40
0.7891060951
 40
0.8590856258
 40
0.9294971477
 40
1.0
 40
1.0
 40
1.0
 40
1.0
 10
6.062500854
 20
7.2644573415
 30
0.0
 10
6.0625008618
 20
7.2626276952
 30
0.0
 10
6.0627620824
 20
7.2589119865
 30
0.0
 10
6.0639083217
 20
7.2533590713
 30
0.0
 10
6.0657930934
 20
7.2478183687
 30
0.0
 10
6.0683948381
 20
7.2423520362
 30
0.0
 10
6.0716864433
 20
7.2370220666
 30
0.0
 10
6.0756307748
 20
7.2318873471
 30
0.0
 10
6.0801931023
 20
7.2270102136
 30
0.0
 10
6.0871172894
 20
7.2208568448
 30
0.0
 10
6.0950307477
 20
7.2155466363
 30
0.0
 10
6.103678626
 20
7.2112130352
 30
0.0
 10
6.11059433
 20
7.2084550379
 30
0.0
 10
6.1178052008
 20
7.2062614035
 30
0.0
 10
6.1252455338
 20
7.2046699877
 30
0.0
 10
6.1328358165
 20
7.2037063286
 30
0.0
 10
6.137945006
 20
7.2034882816
 30
0.0
 10
6.1405
 20
7.2034882816
 30
0.0
  0
SPLINE
  5
327
100
AcDbEntity
  8
0
100
AcDbSpline
 62
7
  6
CONTINUOUS
 70
0
 71
3
 72
11
 73
7
 74
0
 42
0.0000001
 43
0.0000001
 44
0.0000000001
 40
0.0
 40
0.0
 40
0.0
 40
0.0
 40
0.2333053921
 40
0.4802367967
 40
0.7374671222
 40
1.0
 40
1.0
 40
1.0
 40
1.0
 10
6.1861766777
 20
7.2165415652
 30
0.0
 10
6.1827942912
 20
7.2178196474
 30
0.0
 10
6.1756639097
 20
7.2200162704
 30
0.0
 10
6.1644456502
 20
7.222278139
 30
0.0
 10
6.1526274274
 20
7.2236269386
 30
0.0
 10
6.1445687752
 20
7.2239251943
 30
0.0
 10
6.1405
 20
7.2239251943
 30
0.0
  0
SPLINE
  5
328
100
AcDbEntity
  8
0
100
AcDbSpline
 62
7
  6
CONTINUOUS
 70
0
 71
3
 72
9
 73
5
 74
0
 42
0.0000001
 43
0.0000001
 44
0.0000000001
 40
0.0
 40
0.0
 40
0.0
 40
0.0
 40
0.5103071624
 40
1.0
 40
1.0
 40
1.0
 40
1.0
 10
6.1294385595
 20
7.2235487093
 30
0.0
 10
6.1253138337
 20
7.2232659616
 30
0.0
 10
6.1172489123
 20
7.2223965233
 30
0.0
 10
6.1092865991
 20
7.2208240585
 30
0.0
 10
6.1054404682
 20
7.2198506726
 30
0.0
  0
SPLINE
  5
329
100
AcDbEntity
  8
0
100
AcDbSpline
 62
7
  6
CONTINUOUS
 70
0
 71
3
 72
9
 73
5
 74
0
 42
0.0000001
 43
0.0000001
 44
0.0000000001
 40
0.0
 40
0.0
 40
0.0
 40
0.0
 40
0.2560351768
 40
1.0
 40
1.0
 40
1.0
 40
1.0
 10
6.1054404682
 20
7.2198506726
 30
0.0
 10
6.1045203253
 20
7.2196178011
 30
0.0
 10
6.1009384462
 20
7.2186623724
 30
0.0
 10
6.0974058762
 20
7.217517314
 30
0.0
 10
6.0948259182
 20
7.2165425309
 30
0.0
  0
SPLINE
  5
32A
100
AcDbEntity
  8
0
100
AcDbSpline
 62
7
  6
CONTINUOUS
 70
0
 71
3
 72
11
 73
7
 74
0
 42
0.0000001
 43
0.0000001
 44
0.0000000001
 40
0.0
 40
0.0
 40
0.0
 40
0.0
 40
0.2625359354
 40
0.5197753847
 40
0.7667028096
 40
1.0
 40
1.0
 40
1.0
 40
1.0
 10
6.1405
 20
6.7760748057
 30
0.0
 10
6.1445685713
 20
6.7760748057
 30
0.0
 10
6.1526269122
 20
6.7763730722
 30
0.0
 10
6.1644445423
 20
6.7777216887
 30
0.0
 10
6.1756620876
 20
6.7799832843
 30
0.0
 10
6.1827918832
 20
6.7821795813
 30
0.0
 10
6.1861739826
 20
6.783457432
 30
0.0
  0
SPLINE
  5
32B
100
AcDbEntity
  8
0
100
AcDbSpline
 62
7
  6
CONTINUOUS
 70
0
 71
3
 72
15
 73
11
 74
0
 42
0.0000001
 43
0.0000001
 44
0.0000000001
 40
0.0
 40
0.0
 40
0.0
 40
0.0
 40
0.0386848725
 40
0.147740963
 40
0.309545425
 40
0.500011562
 40
0.6904767069
 40
0.8522711
 40
0.9613185767
 40
1.0
 40
1.0
 40
1.0
 40
1.0
 10
6.0625
 20
6.626
 30
0.0
 10
6.0644832762
 20
6.6264136682
 30
0.0
 10
6.0720693457
 20
6.6279381874
 30
0.0
 10
6.0880520542
 20
6.6306808036
 30
0.0
 10
6.1120696924
 20
6.6334657898
 30
0.0
 10
6.1405017677
 20
6.634633583
 30
0.0
 10
6.1689333106
 20
6.6334656071
 30
0.0
 10
6.1929498952
 20
6.6306804985
 30
0.0
 10
6.2089314471
 20
6.6279380085
 30
0.0
 10
6.2165168993
 20
6.6264136248
 30
0.0
 10
6.2185
 20
6.626
 30
0.0
  0
SPLINE
  5
32C
100
AcDbEntity
  8
0
100
AcDbSpline
 62
7
  6
CONTINUOUS
 70
0
 71
3
 72
23
 73
19
 74
0
 42
0.0000001
 43
0.0000001
 44
0.0000000001
 40
0.0
 40
0.0
 40
0.0
 40
0.0
 40
0.0526698915
 40
0.1047856536
 40
0.1569637143
 40
0.2098198598
 40
0.263935272
 40
0.3198125602
 40
0.3778354358
 40
0.4382630185
 40
0.5012286064
 40
0.5667352139
 40
0.6346545339
 40
0.7047761904
 40
0.7768000159
 40
0.8503677661
 40
0.9249831953
 40
1.0
 40
1.0
 40
1.0
 40
1.0
 10
6.0625008541
 20
6.7355427397
 30
0.0
 10
6.0625008427
 20
6.7337497858
 30
0.0
 10
6.0627468338
 20
6.7301770366
 30
0.0
 10
6.0638835933
 20
6.724937608
 30
0.0
 10
6.0657676561
 20
6.7199108351
 30
0.0
 10
6.068377047
 20
6.7151429064
 30
0.0
 10
6.071683331
 20
6.7106733999
 30
0.0
 10
6.0756442532
 20
6.7065281746
 30
0.0
 10
6.0802224961
 20
6.7027335535
 30
0.0
 10
6.0853702174
 20
6.6993037203
 30
0.0
 10
6.0910403132
 20
6.6962524797
 30
0.0
 10
6.0971810104
 20
6.6935911768
 30
0.0
 10
6.103735482
 20
6.6913251756
 30
0.0
 10
6.1106451865
 20
6.6894631858
 30
0.0
 10
6.1178476768
 20
6.6880089906
 30
0.0
 10
6.1252755441
 20
6.6869680833
 30
0.0
 10
6.1328515507
 20
6.6863427976
 30
0.0
 10
6.1379463272
 20
6.6862030605
 30
0.0
 10
6.1405
 20
6.6862030605
 30
0.0
  0
SPLINE
  5
32D
100
AcDbEntity
  8
0
100
AcDbSpline
 62
7
  6
CONTINUOUS
 70
0
 71
3
 72
23
 73
19
 74
0
 42
0.0000001
 43
0.0000001
 44
0.0000000001
 40
0.0
 40
0.0
 40
0.0
 40
0.0
 40
0.0750168036
 40
0.1496322475
 40
0.2232000205
 40
0.2952238568
 40
0.3653455231
 40
0.433264857
 40
0.4987714852
 40
0.5617371003
 40
0.6221647011
 40
0.6801875841
 40
0.7360648651
 40
0.790180261
 40
0.8430363798
 40
0.8952144115
 40
0.9473301425
 40
1.0
 40
1.0
 40
1.0
 40
1.0
 10
6.1405
 20
7.3137969395
 30
0.0
 10
6.1379463292
 20
7.3137969395
 30
0.0
 10
6.1328515563
 20
7.3136572025
 30
0.0
 10
6.1252755545
 20
7.3130319175
 30
0.0
 10
6.1178476913
 20
7.3119910119
 30
0.0
 10
6.110645205
 20
7.3105368185
 30
0.0
 10
6.1037355045
 20
7.3086748314
 30
0.0
 10
6.0971810361
 20
7.3064088329
 30
0.0
 10
6.0910403412
 20
7.3037475332
 30
0.0
 10
6.0853702461
 20
7.3006962972
 30
0.0
 10
6.0802225262
 20
7.2972664675
 30
0.0
 10
6.0756442829
 20
7.2934718534
 30
0.0
 10
6.0716833604
 20
7.2893266353
 30
0.0
 10
6.0683770761
 20
7.2848571369
 30
0.0
 10
6.0657676802
 20
7.2800892188
 30
0.0
 10
6.0638836122
 20
7.2750624555
 30
0.0
 10
6.0627468446
 20
7.2698230363
 30
0.0
 10
6.0625008463
 20
7.2662502928
 30
0.0
 10
6.062500854
 20
7.2644573415
 30
0.0
  0
SPLINE
  5
32E
100
AcDbEntity
  8
0
100
AcDbSpline
 62
7
  6
CONTINUOUS
 70
0
 71
3
 72
23
 73
19
 74
0
 42
0.0000001
 43
0.0000001
 44
0.0000000001
 40
0.0
 40
0.0
 40
0.0
 40
0.0
 40
0.0750168044
 40
0.1496322464
 40
0.223200015
 40
0.295223848
 40
0.3653455106
 40
0.4332648405
 40
0.4987714639
 40
0.5617370733
 40
0.622164671
 40
0.6801875532
 40
0.7360648364
 40
0.7901802361
 40
0.8430363605
 40
0.895214398
 40
0.9473301354
 40
1.0
 40
1.0
 40
1.0
 40
1.0
 10
6.1405
 20
6.6862030605
 30
0.0
 10
6.1430536712
 20
6.6862030605
 30
0.0
 10
6.1481484449
 20
6.6863427976
 30
0.0
 10
6.1557244478
 20
6.6869680827
 30
0.0
 10
6.1631523118
 20
6.6880089886
 30
0.0
 10
6.1703547989
 20
6.6894631824
 30
0.0
 10
6.1772645001
 20
6.69132517
 30
0.0
 10
6.1838189691
 20
6.693591169
 30
0.0
 10
6.1899596644
 20
6.6962524693
 30
0.0
 10
6.1956297596
 20
6.6993037063
 30
0.0
 10
6.2007774799
 20
6.7027335368
 30
0.0
 10
6.2053557232
 20
6.7065281523
 30
0.0
 10
6.2093166456
 20
6.7106733719
 30
0.0
 10
6.2126229299
 20
6.715142872
 30
0.0
 10
6.2152323248
 20
6.7199107924
 30
0.0
 10
6.2171163918
 20
6.7249375576
 30
0.0
 10
6.2182531576
 20
6.7301769787
 30
0.0
 10
6.2184991544
 20
6.7337497235
 30
0.0
 10
6.218499146
 20
6.7355426753
 30
0.0
  0
SPLINE
  5
32F
100
AcDbEntity
  8
0
100
AcDbSpline
 62
7
  6
CONTINUOUS
 70
0
 71
3
 72
23
 73
19
 74
0
 42
0.0000001
 43
0.0000001
 44
0.0000000001
 40
0.0
 40
0.0
 40
0.0
 40
0.0
 40
0.0526698844
 40
0.10478564
 40
0.1569636949
 40
0.2098198354
 40
0.2639352448
 40
0.3198125314
 40
0.3778354067
 40
0.4382629909
 40
0.5012285837
 40
0.5667351966
 40
0.6346545214
 40
0.7047761818
 40
0.7768000106
 40
0.850367765
 40
0.9249831961
 40
1.0
 40
1.0
 40
1.0
 40
1.0
 10
6.2184991459
 20
7.2644572771
 30
0.0
 10
6.2184991565
 20
7.2662502305
 30
0.0
 10
6.2182531639
 20
7.2698229785
 30
0.0
 10
6.2171164028
 20
7.2750624052
 30
0.0
 10
6.2152323389
 20
7.2800891761
 30
0.0
 10
6.2126229469
 20
7.2848571026
 30
0.0
 10
6.2093166628
 20
7.2893266074
 30
0.0
 10
6.2053557406
 20
7.2934718312
 30
0.0
 10
6.2007774978
 20
7.2972664508
 30
0.0
 10
6.1956297769
 20
7.3006962832
 30
0.0
 10
6.1899596812
 20
7.3037475228
 30
0.0
 10
6.1838189845
 20
7.3064088251
 30
0.0
 10
6.1772645134
 20
7.3086748259
 30
0.0
 10
6.1703548096
 20
7.3105368151
 30
0.0
 10
6.16315232
 20
7.31199101
 30
0.0
 10
6.1557244536
 20
7.3130319169
 30
0.0
 10
6.1481484481
 20
7.3136572024
 30
0.0
 10
6.1430536724
 20
7.3137969395
 30
0.0
 10
6.1405
 20
7.3137969395
 30
0.0
  0
SPLINE
  5
330
100
AcDbEntity
  8
127-511_FEATURES
100
AcDbSpline
 62
7
  6
CONTINUOUS
 70
0
 71
3
 72
19
 73
15
 74
0
 42
0.0000001
 43
0.0000001
 44
0.0000000001
 40
0.0
 40
0.0
 40
0.0
 40
0.0
 40
0.0388723102
 40
0.1481212389
 40
0.3097768739
 40
0.4030225396
 40
0.4512749308
 40
0.5000003517
 40
0.5487257933
 40
0.5969782183
 40
0.690224108
 40
0.8518797299
 40
0.9611280393
 40
1.0
 40
1.0
 40
1.0
 40
1.0
 10
5.203
 20
7.458
 30
0.0
 10
5.2002137995
 20
7.4573338079
 30
0.0
 10
5.1895761396
 20
7.4548818317
 30
0.0
 10
5.1671701806
 20
7.450461766
 30
0.0
 10
5.140541323
 20
7.4468993917
 30
0.0
 10
5.1182489893
 20
7.4453126056
 30
0.0
 10
5.1042380919
 20
7.4448037278
 30
0.0
 10
5.0934999207
 20
7.4446752973
 30
0.0
 10
5.0827617471
 20
7.4448037338
 30
0.0
 10
5.0687508292
 20
7.4453126131
 30
0.0
 10
5.0464584782
 20
7.446899412
 30
0.0
 10
5.0198296518
 20
7.4504617929
 30
0.0
 10
4.9974237663
 20
7.4548818563
 30
0.0
 10
4.9867861757
 20
7.457333815
 30
0.0
 10
4.984
 20
7.458
 30
0.0
  0
SPLINE
  5
331
100
AcDbEntity
  8
127-511_FEATURES
100
AcDbSpline
 62
7
  6
CONTINUOUS
 70
0
 71
3
 72
19
 73
15
 74
0
 42
0.0000001
 43
0.0000001
 44
0.0000000001
 40
0.0
 40
0.0
 40
0.0
 40
0.0
 40
0.0388723102
 40
0.1481212389
 40
0.3097768739
 40
0.4030225396
 40
0.4512749308
 40
0.5000003517
 40
0.5487257933
 40
0.5969782183
 40
0.690224108
 40
0.8518797299
 40
0.9611280393
 40
1.0
 40
1.0
 40
1.0
 40
1.0
 10
4.984
 20
6.542
 30
0.0
 10
4.9867862005
 20
6.5426661921
 30
0.0
 10
4.9974238604
 20
6.5451181683
 30
0.0
 10
5.0198298194
 20
6.549538234
 30
0.0
 10
5.046458677
 20
6.5531006083
 30
0.0
 10
5.0687510107
 20
6.5546873944
 30
0.0
 10
5.0827619081
 20
6.5551962722
 30
0.0
 10
5.0935000793
 20
6.5553247027
 30
0.0
 10
5.1042382529
 20
6.5551962662
 30
0.0
 10
5.1182491708
 20
6.5546873869
 30
0.0
 10
5.1405415218
 20
6.553100588
 30
0.0
 10
5.1671703482
 20
6.5495382071
 30
0.0
 10
5.1895762337
 20
6.5451181437
 30
0.0
 10
5.2002138243
 20
6.542666185
 30
0.0
 10
5.203
 20
6.542
 30
0.0
  0
SPLINE
  5
332
100
AcDbEntity
  8
0
100
AcDbSpline
 62
7
  6
CONTINUOUS
 70
0
 71
3
 72
19
 73
15
 74
0
 42
0.0000001
 43
0.0000001
 44
0.0000000001
 40
0.0
 40
0.0
 40
0.0
 40
0.0
 40
0.1255916165
 40
0.2507124508
 40
0.3131278661
 40
0.3754661753
 40
0.437747264
 40
0.5000000224
 40
0.5622527831
 40
0.6245338701
 40
0.686872176
 40
0.7492875883
 40
0.8744083921
 40
1.0
 40
1.0
 40
1.0
 40
1.0
 10
3.3566672956
 20
6.465427963
 30
0.0
 10
3.350325803
 20
6.4860444906
 30
0.0
 10
3.3387718909
 20
6.5275531181
 30
0.0
 10
3.3277642994
 20
6.5802433331
 30
0.0
 10
3.3214127189
 20
6.6226957148
 30
0.0
 10
3.3179527718
 20
6.6546406783
 30
0.0
 10
3.3158462731
 20
6.6866758688
 30
0.0
 10
3.3151456184
 20
6.7187582622
 30
0.0
 10
3.3158462797
 20
6.7508406548
 30
0.0
 10
3.3179527662
 20
6.7828758457
 30
0.0
 10
3.3214127297
 20
6.8148208061
 30
0.0
 10
3.3277642928
 20
6.8572731839
 30
0.0
 10
3.3387718978
 20
6.9099633892
 30
0.0
 10
3.3503258035
 20
6.951472011
 30
0.0
 10
3.3566672956
 20
6.9720885372
 30
0.0
  0
SPLINE
  5
333
100
AcDbEntity
  8
0
100
AcDbSpline
 62
7
  6
CONTINUOUS
 70
0
 71
3
 72
19
 73
15
 74
0
 42
0.0000001
 43
0.0000001
 44
0.0000000001
 40
0.0
 40
0.0
 40
0.0
 40
0.0
 40
0.1255916165
 40
0.2507124508
 40
0.3131278661
 40
0.3754661753
 40
0.437747264
 40
0.5000000224
 40
0.5622527831
 40
0.6245338701
 40
0.686872176
 40
0.7492875883
 40
0.8744083921
 40
1.0
 40
1.0
 40
1.0
 40
1.0
 10
3.8277346282
 20
6.465427963
 30
0.0
 10
3.8340761208
 20
6.4860444906
 30
0.0
 10
3.8456300329
 20
6.5275531181
 30
0.0
 10
3.8566376244
 20
6.5802433331
 30
0.0
 10
3.8629892049
 20
6.6226957148
 30
0.0
 10
3.866449152
 20
6.6546406783
 30
0.0
 10
3.8685556507
 20
6.6866758688
 30
0.0
 10
3.8692563054
 20
6.7187582622
 30
0.0
 10
3.868555644
 20
6.7508406548
 30
0.0
 10
3.8664491576
 20
6.7828758457
 30
0.0
 10
3.8629891941
 20
6.8148208061
 30
0.0
 10
3.856637631
 20
6.8572731839
 30
0.0
 10
3.845630026
 20
6.9099633892
 30
0.0
 10
3.8340761203
 20
6.951472011
 30
0.0
 10
3.8277346282
 20
6.9720885372
 30
0.0
  0
SPLINE
  5
334
100
AcDbEntity
  8
0
100
AcDbSpline
 62
7
  6
CONTINUOUS
 70
0
 71
3
 72
19
 73
15
 74
0
 42
0.0000001
 43
0.0000001
 44
0.0000000001
 40
0.0
 40
0.0
 40
0.0
 40
0.0
 40
0.1255916165
 40
0.2507124508
 40
0.3131278661
 40
0.3754661753
 40
0.437747264
 40
0.5000000224
 40
0.5622527831
 40
0.6245338701
 40
0.686872176
 40
0.7492875883
 40
0.8744083921
 40
1.0
 40
1.0
 40
1.0
 40
1.0
 10
3.3566672956
 20
7.0279114628
 30
0.0
 10
3.350325803
 20
7.0485279904
 30
0.0
 10
3.3387718909
 20
7.0900366179
 30
0.0
 10
3.3277642994
 20
7.1427268328
 30
0.0
 10
3.3214127189
 20
7.1851792146
 30
0.0
 10
3.3179527718
 20
7.2171241781
 30
0.0
 10
3.3158462731
 20
7.2491593685
 30
0.0
 10
3.3151456184
 20
7.2812417619
 30
0.0
 10
3.3158462797
 20
7.3133241545
 30
0.0
 10
3.3179527662
 20
7.3453593455
 30
0.0
 10
3.3214127297
 20
7.3773043058
 30
0.0
 10
3.3277642928
 20
7.4197566836
 30
0.0
 10
3.3387718978
 20
7.4724468889
 30
0.0
 10
3.3503258035
 20
7.5139555108
 30
0.0
 10
3.3566672956
 20
7.534572037
 30
0.0
  0
SPLINE
  5
335
100
AcDbEntity
  8
0
100
AcDbSpline
 62
7
  6
CONTINUOUS
 70
0
 71
3
 72
19
 73
15
 74
0
 42
0.0000001
 43
0.0000001
 44
0.0000000001
 40
0.0
 40
0.0
 40
0.0
 40
0.0
 40
0.1255916165
 40
0.2507124508
 40
0.3131278661
 40
0.3754661753
 40
0.437747264
 40
0.5000000224
 40
0.5622527831
 40
0.6245338701
 40
0.686872176
 40
0.7492875883
 40
0.8744083921
 40
1.0
 40
1.0
 40
1.0
 40
1.0
 10
3.8277346282
 20
7.0279114628
 30
0.0
 10
3.8340761208
 20
7.0485279904
 30
0.0
 10
3.8456300329
 20
7.0900366179
 30
0.0
 10
3.8566376244
 20
7.1427268328
 30
0.0
 10
3.8629892049
 20
7.1851792146
 30
0.0
 10
3.866449152
 20
7.2171241781
 30
0.0
 10
3.8685556507
 20
7.2491593685
 30
0.0
 10
3.8692563054
 20
7.2812417619
 30
0.0
 10
3.868555644
 20
7.3133241545
 30
0.0
 10
3.8664491576
 20
7.3453593455
 30
0.0
 10
3.8629891941
 20
7.3773043058
 30
0.0
 10
3.856637631
 20
7.4197566836
 30
0.0
 10
3.845630026
 20
7.4724468889
 30
0.0
 10
3.8340761203
 20
7.5139555108
 30
0.0
 10
3.8277346282
 20
7.534572037
 30
0.0
  0
ELLIPSE
  5
336
100
AcDbEntity
  8
0
100
AcDbEllipse
 62
7
  6
CONTINUOUS
 10
6.5175
 20
6.5835
 30
0.0
 11
-0.0
 21
0.035
 31
0.0
 40
1.0
 41
-4.7123889804
 42
-1.5707963268
  0
ELLIPSE
  5
337
100
AcDbEntity
  8
0
100
AcDbEllipse
 62
7
  6
CONTINUOUS
 10
6.5175
 20
7.4165
 30
0.0
 11
0.035
 21
-0.0
 31
0.0
 40
1.0
 41
0.0
 42
3.1415926536
  0
ELLIPSE
  5
338
100
AcDbEntity
  8
0
100
AcDbEllipse
 62
7
  6
CONTINUOUS
 10
5.3945
 20
6.507
 30
0.0
 11
0.035
 21
-0.0
 31
0.0
 40
1.0
 41
-2.617993878
 42
0.0
  0
ELLIPSE
  5
339
100
AcDbEntity
  8
0
100
AcDbEllipse
 62
7
  6
CONTINUOUS
 10
5.3945
 20
6.507
 30
0.0
 11
-0.0
 21
0.035
 31
0.0
 40
1.0
 41
-4.7123889804
 42
-4.1887902048
  0
ELLIPSE
  5
33A
100
AcDbEntity
  8
0
100
AcDbEllipse
 62
7
  6
CONTINUOUS
 10
5.3945
 20
7.493
 30
0.0
 11
0.035
 21
0.0
 31
0.0
 40
1.0
 41
6.2831853072
 42
9.4247779608
  0
ELLIPSE
  5
33B
100
AcDbEntity
  8
0
100
AcDbEllipse
 62
7
  6
CONTINUOUS
 10
4.7725
 20
6.468
 30
0.0
 11
-0.0
 21
0.035
 31
0.0
 40
1.0
 41
-4.7123889804
 42
-1.5707963268
  0
ELLIPSE
  5
33C
100
AcDbEntity
  8
0
100
AcDbEllipse
 62
7
  6
CONTINUOUS
 10
4.7725
 20
7.532
 30
0.0
 11
0.035
 21
-0.0
 31
0.0
 40
1.0
 41
0.0
 42
3.1415926536
  0
ELLIPSE
  5
33D
100
AcDbEntity
  8
0
100
AcDbEllipse
 62
7
  6
CONTINUOUS
 10
4.1785
 20
6.468
 30
0.0
 11
0.0
 21
0.035
 31
0.0
 40
1.0
 41
-4.7123889804
 42
-1.5707963268
  0
ELLIPSE
  5
33E
100
AcDbEntity
  8
0
100
AcDbEllipse
 62
7
  6
CONTINUOUS
 10
4.1785
 20
7.532
 30
0.0
 11
0.035
 21
-0.0
 31
0.0
 40
1.0
 41
0.0
 42
3.1415926536
  0
ENDSEC
  0
SECTION
  2
OBJECTS
  0
DICTIONARY
  5
C
100
AcDbDictionary
280
0
281
1
  3
ACAD_GROUP
350
D
  3
ACAD_MLINESTYLE
350
17
  3
ACAD_LAYOUT
350
1A
  3
ACAD_PLOTSETTINGS
350
19
  3
ACAD_PLOTSTYLENAME
350
E
  0
DICTIONARY
  5
D
102
{ACAD_REACTORS
330
C
102
}
100
AcDbDictionary
280
0
281
1
  0
ACDBDICTIONARYWDFLT
  5
E
102
{ACAD_REACTORS
330
C
102
}
100
AcDbDictionary
281
1
  3
Normal
350
F
100
AcDbDictionaryWithDefault
340
F
  0
DICTIONARY
  5
17
102
{ACAD_REACTORS
330
C
102
}
100
AcDbDictionary
280
0
281
1
  3
Standard
350
18
  0
DICTIONARY
  5
19
102
{ACAD_REACTORS
330
C
102
}
100
AcDbDictionary
281
1
  0
DICTIONARY
  5
1A
102
{ACAD_REACTORS
330
C
102
}
100
AcDbDictionary
281
1
  3
Model
350
33F
  3
Layout1
350
340
  0
ACDBPLACEHOLDER
  5
F
102
{ACAD_REACTORS
330
E
102
}
  0
MLINESTYLE
  5
18
102
{ACAD_REACTORS
330
17
102
}
100
AcDbMlineStyle
  2
STANDARD
 70
0
  3

 62
256
 51
90.0
 52
90.0
 71
2
 49
0.5
 62
256
  6
BYLAYER
 49
-0.5
 62
256
  6
BYLAYER
  0
LAYOUT
  5
33F
102
{ACAD_REACTORS
330
1A
102
}
100
AcDbPlotSettings
  1

  2
none_device
  4
ANSI_B_(17.00_x_11.00_Inches)
  6

 40
0.0
 41
0.0
 42
0.0
 43
0.0
 44
431.8
 45
279.4
 46
0.0
 47
0.0
 48
0.0
 49
0.0
140
0.0
141
0.0
142
1.0
143
1.0
 70
1024
 72
0
 73
0
 74
0
  7

 75
0
147
1.0
148
0.0
149
0.0
100
AcDbLayout
  1
Model
 70
0
 71
0
 10
0.0
 20
0.0
 11
17.0
 21
11.0
 12
0.0
 22
0.0
 32
0.0
 14
0.0
 24
0.0
 34
0.0
 15
0.0
 25
0.0
 35
0.0
146
0.0
 13
0.0
 23
0.0
 33
0.0
 16
1.0
 26
0.0
 36
0.0
 17
0.0
 27
1.0
 37
0.0
 76
0
330
263
345
0
346
0
  0
LAYOUT
  5
340
102
{ACAD_REACTORS
330
1A
102
}
100
AcDbPlotSettings
  1

  2
none_device
  4
ANSI_B_(17.00_x_11.00_Inches)
  6

 40
0.0
 41
0.0
 42
0.0
 43
0.0
 44
431.8
 45
279.4
 46
0.0
 47
0.0
 48
0.0
 49
0.0
140
0.0
141
0.0
142
1.0
143
1.0
 70
0
 72
0
 73
0
 74
0
  7

 75
0
147
1.0
148
0.0
149
0.0
100
AcDbLayout
  1
Layout1
 70
0
 71
1
 10
0.0
 20
0.0
 11
17.0
 21
11.0
 12
0.0
 22
0.0
 32
0.0
 14
0.0
 24
0.0
 34
0.0
 15
0.0
 25
0.0
 35
0.0
146
0.0
 13
0.0
 23
0.0
 33
0.0
 16
1.0
 26
0.0
 36
0.0
 17
0.0
 27
1.0
 37
0.0
 76
0
330
264
345
0
346
0
  0
ENDSEC
  0
EOF
