999
DXF file: FVCAXAN.dxf
999
Pro/ENGINEER 2016010 by Parametric Technology Corporation
  0
SECTION
  2
HEADER
  9
$ACADVER
  1
AC1021
  9
$DWGCODEPAGE
  3
ANSI_1252
  9
$EXTMAX
 10
17.0
 20
11.0
 30
0.0
  9
$EXTMIN
 10
0.0
 20
0.0
 30
0.0
  9
$LIMMIN
 10
0.0
 20
0.0
  9
$LIMMAX
 10
17.0
 20
11.0
  9
$VIEWCTR
 10
8.5
 20
5.5
  9
$VIEWSIZE
 40
11.0
  9
$CLAYER
  8
0
  9
$LTSCALE
 40
0.935
  9
$CELTYPE
  6
BYLAYER
  9
$DIMSCALE
 40
1.0
  9
$DIMASZ
 40
0.1875
  9
$DIMEXO
 40
0.0625
  9
$DIMDLI
 40
0.646
  9
$DIMEXE
 40
0.125
  9
$DIMCEN
 40
0.153
  9
$DIMLFAC
 40
1.0
  9
$DIMBLK
  1
_FILLED
  9
$DIMALT
 70
0
  9
$DIMALTF
 40
25.4
  9
$DIMTXT
 40
0.125
  9
$DIMTOL
 70
0
  9
$DIMLIM
 70
0
  9
$DIMTFAC
 40
1.0
  9
$DIMGAP
 40
0.09
  9
$DIMDSEP
 70
46
  9
$AUNITS
 70
0
  9
$PDMODE
 70
3
  9
$PDSIZE
 40
0.3125
  9
$HANDSEED
  5
32D
  9
$TILEMODE
 70
1
  9
$MEASUREMENT
 70
0
  9
$INSUNITS
 70
1
  0
ENDSEC
  0
SECTION
  2
CLASSES
  0
CLASS
  1
ACDBDICTIONARYWDFLT
  2
AcDbDictionaryWithDefault
  3
AutoCAD 2000
 90
0
 91
1
280
0
281
0
  0
CLASS
  1
ACDBPLACEHOLDER
  2
AcDbPlaceHolder
  3
AutoCAD 2000
 90
0
 91
1
280
0
281
0
  0
CLASS
  1
LAYOUT
  2
AcDbLayout
  3
AutoCAD 2000
 90
0
 91
0
280
0
281
0
  0
ENDSEC
  0
SECTION
  2
TABLES
  0
TABLE
  2
VPORT
  5
8
100
AcDbSymbolTable
 70
2
  0
VPORT
  5
1F4
100
AcDbSymbolTableRecord
100
AcDbViewportTableRecord
  2
*ACTIVE
 70
0
 10
0.0
 20
0.0
 11
1.0
 21
1.0
 12
8.5
 22
5.5
 13
0.0
 23
0.0
 14
1.0
 24
1.0
 15
0.0
 25
0.0
 16
0.0
 26
0.0
 36
1.0
 17
0.0
 27
0.0
 37
0.0
 40
11.0
 41
1.5454545455
 42
50.0
 43
0.0
 44
0.0
 50
0.0
 51
0.0
 71
0
 72
100
 73
1
 74
1
 75
0
 76
0
 77
0
 78
0
  0
ENDTAB
  0
TABLE
  2
LTYPE
  5
5
100
AcDbSymbolTable
 70
6
  0
LTYPE
  5
14
100
AcDbSymbolTableRecord
100
AcDbLinetypeTableRecord
  2
BYBLOCK
 70
0
  3

 72
65
 73
0
 40
0.0
  0
LTYPE
  5
15
100
AcDbSymbolTableRecord
100
AcDbLinetypeTableRecord
  2
BYLAYER
 70
0
  3

 72
65
 73
0
 40
0.0
  0
LTYPE
  5
16
100
AcDbSymbolTableRecord
100
AcDbLinetypeTableRecord
  2
CONTINUOUS
 70
64
  3
Solid line
 72
65
 73
0
 40
0.0
  0
LTYPE
  5
1F5
100
AcDbSymbolTableRecord
100
AcDbLinetypeTableRecord
  2
CENTER
 70
64
  3
____ _ ____ _ ____ _ ____ _ ____ _ ____ _ ____
 72
65
 73
4
 40
0.6
 49
0.375
 74
0
 49
-0.075
 74
0
 49
0.075
 74
0
 49
-0.075
 74
0
  0
LTYPE
  5
1F6
100
AcDbSymbolTableRecord
100
AcDbLinetypeTableRecord
  2
HIDDEN
 70
64
  3
- - - - - - - - - - - - - - - - - - - -
 72
65
 73
2
 40
0.2
 49
0.1
 74
0
 49
-0.1
 74
0
  0
LTYPE
  5
1F7
100
AcDbSymbolTableRecord
100
AcDbLinetypeTableRecord
  2
PHANTOM
 70
64
  3
_____ _ _ _____ _ _ _____ _ _ _____
 72
65
 73
6
 40
0.8
 49
0.45
 74
0
 49
-0.05
 74
0
 49
0.1
 74
0
 49
-0.05
 74
0
 49
0.1
 74
0
 49
-0.05
 74
0
  0
LTYPE
  5
1F8
100
AcDbSymbolTableRecord
100
AcDbLinetypeTableRecord
  2
DOT
 70
64
  3
. . . . . . . . . . . . . . . . . . . .
 72
65
 73
2
 40
0.2
 49
0.1
 74
0
 49
-0.1
 74
0
  0
LTYPE
  5
1F9
100
AcDbSymbolTableRecord
100
AcDbLinetypeTableRecord
  2
DASHED
 70
64
  3
- - - - - - - - - - - - - - - - - - - -
 72
65
 73
2
 40
0.2
 49
0.1
 74
0
 49
-0.1
 74
0
  0
ENDTAB
  0
TABLE
  2
LAYER
  5
2
100
AcDbSymbolTable
 70
36
  0
LAYER
  5
10
100
AcDbSymbolTableRecord
100
AcDbLayerTableRecord
  2
0
 70
0
 62
7
  6
CONTINUOUS
370
-3
390
F
  0
LAYER
  5
1FA
100
AcDbSymbolTableRecord
100
AcDbLayerTableRecord
  2
DEFAULT_1
 70
0
 62
7
  6
CENTER
370
-3
390
F
  0
LAYER
  5
1FB
100
AcDbSymbolTableRecord
100
AcDbLayerTableRecord
  2
DEFAULT_2
 70
0
 62
8
  6
HIDDEN
370
-3
390
F
  0
LAYER
  5
1FC
100
AcDbSymbolTableRecord
100
AcDbLayerTableRecord
  2
DEFAULT_3
 70
0
 62
7
  6
PHANTOM
370
-3
390
F
  0
LAYER
  5
1FD
100
AcDbSymbolTableRecord
100
AcDbLayerTableRecord
  2
01_ALL_DTM_PLN
 70
0
 62
7
  6
CONTINUOUS
370
-3
390
F
  0
LAYER
  5
1FE
100
AcDbSymbolTableRecord
100
AcDbLayerTableRecord
  2
01__ASM_ALL_DTM_PLN
 70
0
 62
7
  6
CONTINUOUS
370
-3
390
F
  0
LAYER
  5
1FF
100
AcDbSymbolTableRecord
100
AcDbLayerTableRecord
  2
01__ASM_DEF_DTM_PLN
 70
0
 62
7
  6
CONTINUOUS
370
-3
390
F
  0
LAYER
  5
200
100
AcDbSymbolTableRecord
100
AcDbLayerTableRecord
  2
01___PRT_ALL_DTM_PLN
 70
0
 62
7
  6
CONTINUOUS
370
-3
390
F
  0
LAYER
  5
201
100
AcDbSymbolTableRecord
100
AcDbLayerTableRecord
  2
01___PRT_DEF_DTM_PLN
 70
0
 62
7
  6
CONTINUOUS
370
-3
390
F
  0
LAYER
  5
202
100
AcDbSymbolTableRecord
100
AcDbLayerTableRecord
  2
02_ALL_AXES
 70
0
 62
7
  6
CONTINUOUS
370
-3
390
F
  0
LAYER
  5
203
100
AcDbSymbolTableRecord
100
AcDbLayerTableRecord
  2
02__ASM_ALL_AXES
 70
0
 62
7
  6
CONTINUOUS
370
-3
390
F
  0
LAYER
  5
204
100
AcDbSymbolTableRecord
100
AcDbLayerTableRecord
  2
02___PRT_ALL_AXES
 70
0
 62
7
  6
CONTINUOUS
370
-3
390
F
  0
LAYER
  5
205
100
AcDbSymbolTableRecord
100
AcDbLayerTableRecord
  2
03_ALL_CURVES
 70
0
 62
7
  6
CONTINUOUS
370
-3
390
F
  0
LAYER
  5
206
100
AcDbSymbolTableRecord
100
AcDbLayerTableRecord
  2
03__ASM_ALL_CURVES
 70
0
 62
7
  6
CONTINUOUS
370
-3
390
F
  0
LAYER
  5
207
100
AcDbSymbolTableRecord
100
AcDbLayerTableRecord
  2
03___PRT_ALL_CURVES
 70
0
 62
7
  6
CONTINUOUS
370
-3
390
F
  0
LAYER
  5
208
100
AcDbSymbolTableRecord
100
AcDbLayerTableRecord
  2
04_ALL_DTM_PNT
 70
0
 62
7
  6
CONTINUOUS
370
-3
390
F
  0
LAYER
  5
209
100
AcDbSymbolTableRecord
100
AcDbLayerTableRecord
  2
04__ASM_ALL_DTM_PNT
 70
0
 62
7
  6
CONTINUOUS
370
-3
390
F
  0
LAYER
  5
20A
100
AcDbSymbolTableRecord
100
AcDbLayerTableRecord
  2
04___PRT_ALL_DTM_PNT
 70
0
 62
7
  6
CONTINUOUS
370
-3
390
F
  0
LAYER
  5
20B
100
AcDbSymbolTableRecord
100
AcDbLayerTableRecord
  2
05_ALL_DTM_CSYS
 70
0
 62
7
  6
CONTINUOUS
370
-3
390
F
  0
LAYER
  5
20C
100
AcDbSymbolTableRecord
100
AcDbLayerTableRecord
  2
05__ASM_ALL_DTM_CSYS
 70
0
 62
7
  6
CONTINUOUS
370
-3
390
F
  0
LAYER
  5
20D
100
AcDbSymbolTableRecord
100
AcDbLayerTableRecord
  2
05__ASM_DEF_DTM_CSYS
 70
0
 62
7
  6
CONTINUOUS
370
-3
390
F
  0
LAYER
  5
20E
100
AcDbSymbolTableRecord
100
AcDbLayerTableRecord
  2
05___PRT_ALL_DTM_CSYS
 70
0
 62
7
  6
CONTINUOUS
370
-3
390
F
  0
LAYER
  5
20F
100
AcDbSymbolTableRecord
100
AcDbLayerTableRecord
  2
05___PRT_DEF_DTM_CSYS
 70
0
 62
7
  6
CONTINUOUS
370
-3
390
F
  0
LAYER
  5
210
100
AcDbSymbolTableRecord
100
AcDbLayerTableRecord
  2
06_ALL_SURFS
 70
0
 62
7
  6
CONTINUOUS
370
-3
390
F
  0
LAYER
  5
211
100
AcDbSymbolTableRecord
100
AcDbLayerTableRecord
  2
06__ASM_ALL_SURFS
 70
0
 62
7
  6
CONTINUOUS
370
-3
390
F
  0
LAYER
  5
212
100
AcDbSymbolTableRecord
100
AcDbLayerTableRecord
  2
06___PRT_ALL_SURFS
 70
0
 62
7
  6
CONTINUOUS
370
-3
390
F
  0
LAYER
  5
213
100
AcDbSymbolTableRecord
100
AcDbLayerTableRecord
  2
07__ASM_ALL_SKELETONS
 70
0
 62
7
  6
CONTINUOUS
370
-3
390
F
  0
LAYER
  5
214
100
AcDbSymbolTableRecord
100
AcDbLayerTableRecord
  2
126-500_HEX_FEATURES
 70
0
 62
7
  6
CONTINUOUS
370
-3
390
F
  0
LAYER
  5
215
100
AcDbSymbolTableRecord
100
AcDbLayerTableRecord
  2
126-500_REF_GEOMETRY
 70
0
 62
7
  6
CONTINUOUS
370
-3
390
F
  0
LAYER
  5
216
100
AcDbSymbolTableRecord
100
AcDbLayerTableRecord
  2
126-501_HEX_FEATURES
 70
0
 62
7
  6
CONTINUOUS
370
-3
390
F
  0
LAYER
  5
217
100
AcDbSymbolTableRecord
100
AcDbLayerTableRecord
  2
126-501_REF_GEOMETRY
 70
0
 62
7
  6
CONTINUOUS
370
-3
390
F
  0
LAYER
  5
218
100
AcDbSymbolTableRecord
100
AcDbLayerTableRecord
  2
126-502_HEX_FEATURES
 70
0
 62
7
  6
CONTINUOUS
370
-3
390
F
  0
LAYER
  5
219
100
AcDbSymbolTableRecord
100
AcDbLayerTableRecord
  2
126-502_REF_GEOMETRY
 70
0
 62
7
  6
CONTINUOUS
370
-3
390
F
  0
LAYER
  5
21A
100
AcDbSymbolTableRecord
100
AcDbLayerTableRecord
  2
126-503_HEX_FEATURES
 70
0
 62
7
  6
CONTINUOUS
370
-3
390
F
  0
LAYER
  5
21B
100
AcDbSymbolTableRecord
100
AcDbLayerTableRecord
  2
126-503_REF_GEOMETRY
 70
0
 62
7
  6
CONTINUOUS
370
-3
390
F
  0
LAYER
  5
21C
100
AcDbSymbolTableRecord
100
AcDbLayerTableRecord
  2
126-504_HEX_FEATURES
 70
0
 62
7
  6
CONTINUOUS
370
-3
390
F
  0
LAYER
  5
21D
100
AcDbSymbolTableRecord
100
AcDbLayerTableRecord
  2
126-504_REF_GEOMETRY
 70
0
 62
7
  6
CONTINUOUS
370
-3
390
F
  0
LAYER
  5
21E
100
AcDbSymbolTableRecord
100
AcDbLayerTableRecord
  2
ALL_DATUM_FEAT
 70
0
 62
7
  6
CONTINUOUS
370
-3
390
F
  0
LAYER
  5
21F
100
AcDbSymbolTableRecord
100
AcDbLayerTableRecord
  2
AXIS
 70
0
 62
7
  6
CONTINUOUS
370
-3
390
F
  0
LAYER
  5
220
100
AcDbSymbolTableRecord
100
AcDbLayerTableRecord
  2
COPY_GEO_FET
 70
0
 62
7
  6
CONTINUOUS
370
-3
390
F
  0
LAYER
  5
221
100
AcDbSymbolTableRecord
100
AcDbLayerTableRecord
  2
COSMETIC
 70
0
 62
7
  6
CONTINUOUS
370
-3
390
F
  0
LAYER
  5
222
100
AcDbSymbolTableRecord
100
AcDbLayerTableRecord
  2
CSYS
 70
0
 62
7
  6
CONTINUOUS
370
-3
390
F
  0
LAYER
  5
223
100
AcDbSymbolTableRecord
100
AcDbLayerTableRecord
  2
CURVES
 70
0
 62
7
  6
CONTINUOUS
370
-3
390
F
  0
LAYER
  5
224
100
AcDbSymbolTableRecord
100
AcDbLayerTableRecord
  2
CUT_REF_SURF
 70
0
 62
7
  6
CONTINUOUS
370
-3
390
F
  0
LAYER
  5
225
100
AcDbSymbolTableRecord
100
AcDbLayerTableRecord
  2
DATUM
 70
0
 62
7
  6
CONTINUOUS
370
-3
390
F
  0
LAYER
  5
226
100
AcDbSymbolTableRecord
100
AcDbLayerTableRecord
  2
DATUMCURVES
 70
0
 62
7
  6
CONTINUOUS
370
-3
390
F
  0
LAYER
  5
227
100
AcDbSymbolTableRecord
100
AcDbLayerTableRecord
  2
DATUM_PLANES
 70
0
 62
7
  6
CONTINUOUS
370
-3
390
F
  0
LAYER
  5
228
100
AcDbSymbolTableRecord
100
AcDbLayerTableRecord
  2
DIMENSIONS
 70
0
 62
7
  6
CONTINUOUS
370
-3
390
F
  0
LAYER
  5
229
100
AcDbSymbolTableRecord
100
AcDbLayerTableRecord
  2
DIMS
 70
0
 62
7
  6
CONTINUOUS
370
-3
390
F
  0
LAYER
  5
22A
100
AcDbSymbolTableRecord
100
AcDbLayerTableRecord
  2
DRAWINGNOTES
 70
0
 62
7
  6
CONTINUOUS
370
-3
390
F
  0
LAYER
  5
22B
100
AcDbSymbolTableRecord
100
AcDbLayerTableRecord
  2
DTM
 70
0
 62
7
  6
CONTINUOUS
370
-3
390
F
  0
LAYER
  5
22C
100
AcDbSymbolTableRecord
100
AcDbLayerTableRecord
  2
DTM230
 70
0
 62
7
  6
CONTINUOUS
370
-3
390
F
  0
LAYER
  5
22D
100
AcDbSymbolTableRecord
100
AcDbLayerTableRecord
  2
DTM_500001
 70
0
 62
7
  6
CONTINUOUS
370
-3
390
F
  0
LAYER
  5
22E
100
AcDbSymbolTableRecord
100
AcDbLayerTableRecord
  2
DTM_500002
 70
0
 62
7
  6
CONTINUOUS
370
-3
390
F
  0
LAYER
  5
22F
100
AcDbSymbolTableRecord
100
AcDbLayerTableRecord
  2
DTM_515002
 70
0
 62
7
  6
CONTINUOUS
370
-3
390
F
  0
LAYER
  5
230
100
AcDbSymbolTableRecord
100
AcDbLayerTableRecord
  2
DTM_SPRING_RH
 70
0
 62
7
  6
CONTINUOUS
370
-3
390
F
  0
LAYER
  5
231
100
AcDbSymbolTableRecord
100
AcDbLayerTableRecord
  2
DTM_SP_RH_CONSTR
 70
0
 62
7
  6
CONTINUOUS
370
-3
390
F
  0
LAYER
  5
232
100
AcDbSymbolTableRecord
100
AcDbLayerTableRecord
  2
GEOMETRICTOLERANCES
 70
0
 62
7
  6
CONTINUOUS
370
-3
390
F
  0
LAYER
  5
233
100
AcDbSymbolTableRecord
100
AcDbLayerTableRecord
  2
HIDDEN
 70
0
 62
7
  6
CONTINUOUS
370
-3
390
F
  0
LAYER
  5
234
100
AcDbSymbolTableRecord
100
AcDbLayerTableRecord
  2
HIDDEN_DRW
 70
0
 62
7
  6
CONTINUOUS
370
-3
390
F
  0
LAYER
  5
235
100
AcDbSymbolTableRecord
100
AcDbLayerTableRecord
  2
PARAMETERDIMENSIONS
 70
0
 62
7
  6
CONTINUOUS
370
-3
390
F
  0
LAYER
  5
236
100
AcDbSymbolTableRecord
100
AcDbLayerTableRecord
  2
PLANE
 70
0
 62
7
  6
CONTINUOUS
370
-3
390
F
  0
LAYER
  5
237
100
AcDbSymbolTableRecord
100
AcDbLayerTableRecord
  2
STD_SAE-6_PORT
 70
0
 62
7
  6
CONTINUOUS
370
-3
390
F
  0
LAYER
  5
238
100
AcDbSymbolTableRecord
100
AcDbLayerTableRecord
  2
T-8A_CAVITY
 70
0
 62
7
  6
CONTINUOUS
370
-3
390
F
  0
LAYER
  5
239
100
AcDbSymbolTableRecord
100
AcDbLayerTableRecord
  2
TEXT
 70
0
 62
7
  6
CONTINUOUS
370
-3
390
F
  0
LAYER
  5
23A
100
AcDbSymbolTableRecord
100
AcDbLayerTableRecord
  2
THREAD
 70
0
 62
7
  6
CONTINUOUS
370
-3
390
F
  0
ENDTAB
  0
TABLE
  2
STYLE
  5
3
100
AcDbSymbolTable
 70
1
  0
STYLE
  5
11
100
AcDbSymbolTableRecord
100
AcDbTextStyleTableRecord
  2
STANDARD
 70
0
 40
0.0
 41
0.8
 50
0.0
 71
0
 42
0.2
  3
txt
  4

  0
STYLE
  5
23B
100
AcDbSymbolTableRecord
100
AcDbTextStyleTableRecord
  2
TEXTSTYLE_1
 70
0
 40
0.0
 41
0.8
 50
0.0
 71
0
 42
0.2
  3
gdt
  4

  0
ENDTAB
  0
TABLE
  2
VIEW
  5
6
100
AcDbSymbolTable
 70
0
  0
ENDTAB
  0
TABLE
  2
UCS
  5
7
100
AcDbSymbolTable
 70
0
  0
ENDTAB
  0
TABLE
  2
APPID
  5
9
100
AcDbSymbolTable
 70
1
  0
APPID
  5
23C
100
AcDbSymbolTableRecord
100
AcDbRegAppTableRecord
  2
ACAD
 70
0
  0
ENDTAB
  0
TABLE
  2
BLOCK_RECORD
  5
1
100
AcDbSymbolTable
 70
0
  0
BLOCK_RECORD
  5
23D
100
AcDbSymbolTableRecord
100
AcDbBlockTableRecord
  2
*Model_Space
  0
BLOCK_RECORD
  5
23E
100
AcDbSymbolTableRecord
100
AcDbBlockTableRecord
  2
*Paper_Space
  0
BLOCK_RECORD
  5
23F
100
AcDbSymbolTableRecord
100
AcDbBlockTableRecord
  2
_FILLED
  0
BLOCK_RECORD
  5
240
100
AcDbSymbolTableRecord
100
AcDbBlockTableRecord
  2
*D0
  0
ENDTAB
  0
TABLE
  2
DIMSTYLE
  5
A
100
AcDbSymbolTable
 70
1
100
AcDbDimStyleTable
 71
0
  0
DIMSTYLE
105
241
100
AcDbSymbolTableRecord
100
AcDbDimStyleTableRecord
  2
STANDARD
 70
0
  3

  4

 40
1.0
 41
0.1875
 42
0.0625
 43
0.38
 44
0.125
 45
0.0
 46
0.0
 47
0.001
 48
0.001
140
0.125
141
0.09
142
0.0
143
25.4
144
1.0
145
0.0
146
1.0
147
0.09
 71
0.0
 72
0.0
 73
1
 74
1
 75
0
 76
0
 77
0
 78
4
170
0
171
2
172
0
173
0
174
0
175
0
176
0
177
0
178
0
270
2
271
3
272
3
273
2
274
2
275
0
280
0
281
0
282
0
283
1
284
4
285
0
286
0
287
3
288
0
340
11
278
46
341
23F
342
23F
343
23F
344
23F
  0
DIMSTYLE
105
242
100
AcDbSymbolTableRecord
100
AcDbDimStyleTableRecord
  2
DIMSTYLE_1
 70
0
  3

  4

 40
1.0
 41
0.1875
 42
0.0625
 43
0.38
 44
0.125
 45
0.0
 46
0.0
 47
0.0
 48
0.0
140
0.125
141
0.09
142
0.0
143
25.4
144
1.0
145
0.0
146
1.0
147
0.0625
 71
0.0
 72
0.0
 73
1
 74
1
 75
0
 76
0
 77
0
 78
4
170
0
171
2
172
0
173
0
174
0
175
0
176
0
177
0
178
0
270
2
271
2
272
2
273
2
274
2
275
0
280
0
281
0
282
0
283
1
284
4
285
0
286
0
287
3
288
0
340
11
278
46
341
23F
342
23F
343
23F
344
23F
  0
ENDTAB
  0
ENDSEC
  0
SECTION
  2
BLOCKS
  0
BLOCK
  5
20
100
AcDbEntity
  8
0
100
AcDbBlockBegin
  2
*Model_Space
 70
0
 10
0.0
 20
0.0
 30
0.0
  3
*Model_Space
  1

  0
ENDBLK
  5
21
100
AcDbEntity
  8
0
100
AcDbBlockEnd
  0
BLOCK
  5
1C
100
AcDbEntity
  8
0
100
AcDbBlockBegin
  2
*Paper_Space
 70
0
 10
0.0
 20
0.0
 30
0.0
  3
*Paper_Space
  1

  0
ENDBLK
  5
1D
100
AcDbEntity
  8
0
100
AcDbBlockEnd
  0
BLOCK
  5
243
100
AcDbEntity
  8
0
100
AcDbBlockBegin
  2
_FILLED
 70
64
 10
0.0
 20
0.0
  3
_FILLED
  1

  0
SOLID
  5
244
100
AcDbEntity
  8
0
  6
BYBLOCK
 62
0
100
AcDbTrace
 10
0.0
 20
0.0
 11
-1.0
 21
0.1666666667
 12
-1.0
 22
-0.1666666667
 13
-1.0
 23
-0.1666666667
  0
ENDBLK
  5
245
100
AcDbEntity
  8
0
  6
BYBLOCK
 62
0
100
AcDbBlockEnd
  0
BLOCK
  5
246
100
AcDbEntity
  8
0
100
AcDbBlockBegin
 62
6
  6
CONTINUOUS
  2
*D0
 70
65
 10
0.0
 20
0.0
  3
*D0
  1

  0
MTEXT
  5
247
100
AcDbEntity
  8
0
100
AcDbMText
 62
6
  6
CONTINUOUS
  7
STANDARD
 71
1
 72
1
 10
5.45275
 20
7.865095493
 30
0.0
 11
1.0
 21
0.0
 31
0.0
 44
0.9
  1
1.78 in (45,2 mm)
 40
0.125
 41
1.7
  0
LINE
  5
248
100
AcDbEntity
  8
0
100
AcDbLine
 62
6
  6
CONTINUOUS
 10
5.20275
 20
7.490095493
 11
5.20275
 21
7.927595493
  0
LINE
  5
249
100
AcDbEntity
  8
0
100
AcDbLine
 62
6
  6
CONTINUOUS
 10
3.4217499819
 20
7.062595493
 11
3.4217499819
 21
7.927595493
  0
LINE
  5
24A
100
AcDbEntity
  8
0
100
AcDbLine
 62
6
  6
CONTINUOUS
 10
5.20275
 20
7.802595493
 11
4.3122499909
 21
7.802595493
  0
LINE
  5
24B
100
AcDbEntity
  8
0
100
AcDbLine
 62
6
  6
CONTINUOUS
 10
4.3122499909
 20
7.802595493
 11
5.39025
 21
7.802595493
  0
LINE
  5
24C
100
AcDbEntity
  8
0
100
AcDbLine
 62
6
  6
CONTINUOUS
 10
3.4217499819
 20
7.802595493
 11
4.3122499909
 21
7.802595493
  0
INSERT
  5
24D
100
AcDbEntity
  8
0
100
AcDbBlockReference
 62
6
  6
CONTINUOUS
  2
_FILLED
 10
5.20275
 20
7.802595493
 41
0.1875
 42
0.1875
 43
0.1875
  0
INSERT
  5
24E
100
AcDbEntity
  8
0
100
AcDbBlockReference
 62
6
  6
CONTINUOUS
  2
_FILLED
 10
3.4217499819
 20
7.802595493
 41
0.1875
 42
0.1875
 43
0.1875
 50
180.0
  0
ENDBLK
  5
24F
100
AcDbEntity
  8
0
  6
BYBLOCK
 62
0
100
AcDbBlockEnd
  0
ENDSEC
  0
SECTION
  2
ENTITIES
  0
DIMENSION
  5
250
100
AcDbEntity
  8
0
100
AcDbDimension
 62
6
  6
CONTINUOUS
  2
*D0
 10
3.4217499819
 20
7.802595493
 11
6.30275
 21
7.802595493
 70
160
 71
1
 42
1.7810000181
  1
<> in (45,2 mm)
  3
DIMSTYLE_1
100
AcDbAlignedDimension
 13
5.20275
 23
7.427595493
 14
3.4217499819
 24
7.000095493
 50
180.0
100
AcDbRotatedDimension
  0
MTEXT
  5
251
100
AcDbEntity
  8
0
100
AcDbMText
 62
2
  6
CONTINUOUS
  7
STANDARD
 71
1
 72
1
 10
6.83775
 20
7.062595493
 30
0.0
 11
1.0
 21
0.0
 31
0.0
 44
0.6
  1
Port 1\PControlled Flow Inlet
 40
0.125
 41
2.1
  0
MTEXT
  5
252
100
AcDbEntity
  8
0
100
AcDbMText
 62
2
  6
CONTINUOUS
  7
STANDARD
 71
1
 72
1
 10
5.92175
 20
6.437595493
 30
0.0
 11
1.0
 21
0.0
 31
0.0
 44
0.6
  1
Port 2\PBypass\PFlow
 40
0.125
 41
0.6
  0
MTEXT
  5
253
100
AcDbEntity
  8
0
100
AcDbMText
 62
2
  6
CONTINUOUS
  7
STANDARD
 71
1
 72
1
 10
4.82775
 20
6.437595493
 30
0.0
 11
1.0
 21
0.0
 31
0.0
 44
0.6
  1
Port 3\PPriority\PFlow
 40
0.125
 41
0.8
  0
MTEXT
  5
254
100
AcDbEntity
  8
0
100
AcDbMText
 62
2
  6
CONTINUOUS
  7
STANDARD
 71
1
 72
1
 10
4.14275
 20
6.437595493
 30
0.0
 11
1.0
 21
0.0
 31
0.0
 44
0.6
  1
Port 4\PVent
 40
0.125
 41
0.6
  0
MTEXT
  5
255
100
AcDbEntity
  8
0
100
AcDbMText
 62
2
  6
CONTINUOUS
  7
STANDARD
 71
1
 72
1
 10
5.45275
 20
7.6151909859
 30
0.0
 11
1.0
 21
0.0
 31
0.0
 44
0.6
  1
 LOCATING SHOULDER
 40
0.125
 41
1.8
  0
LINE
  5
256
100
AcDbEntity
  8
0
100
AcDbLine
 62
7
  6
CONTINUOUS
 10
3.42175
 20
6.5700075158
 11
3.42175
 21
7.4299924842
  0
LINE
  5
257
100
AcDbEntity
  8
0
100
AcDbLine
 62
7
  6
CONTINUOUS
 10
3.4558136659
 20
6.562483966
 11
3.4558136659
 21
6.5920977523
  0
LINE
  5
258
100
AcDbEntity
  8
0
100
AcDbLine
 62
7
  6
CONTINUOUS
 10
3.4558136659
 20
6.9703862137
 11
3.4558136659
 21
7.0296137863
  0
LINE
  5
259
100
AcDbEntity
  8
0
100
AcDbLine
 62
7
  6
CONTINUOUS
 10
3.4558136659
 20
7.4079022477
 11
3.4558136659
 21
7.437516034
  0
LINE
  5
25A
100
AcDbEntity
  8
0
100
AcDbLine
 62
7
  6
CONTINUOUS
 10
3.426716776
 20
7.4386027084
 11
3.42175
 21
7.43
  0
LINE
  5
25B
100
AcDbEntity
  8
0
100
AcDbLine
 62
7
  6
CONTINUOUS
 10
3.426716776
 20
6.5613972916
 11
3.42175
 21
6.57
  0
LINE
  5
25C
100
AcDbEntity
  8
0
100
AcDbLine
 62
7
  6
CONTINUOUS
 10
3.84525
 20
7.437516034
 11
3.84525
 21
7.4079022477
  0
LINE
  5
25D
100
AcDbEntity
  8
0
100
AcDbLine
 62
7
  6
CONTINUOUS
 10
3.84525
 20
6.562483966
 11
3.84525
 21
6.5920977523
  0
LINE
  5
25E
100
AcDbEntity
  8
0
100
AcDbLine
 62
7
  6
CONTINUOUS
 10
3.84525
 20
6.9703862137
 11
3.84525
 21
7.0296137863
  0
LINE
  5
25F
100
AcDbEntity
  8
0
100
AcDbLine
 62
7
  6
CONTINUOUS
 10
3.89075
 20
6.5565
 11
3.89075
 21
7.4435
  0
LINE
  5
260
100
AcDbEntity
  8
0
100
AcDbLine
 62
7
  6
CONTINUOUS
 10
4.05575
 20
7.4435
 11
4.047227962
 21
7.4341525475
  0
LINE
  5
261
100
AcDbEntity
  8
0
100
AcDbLine
 62
7
  6
CONTINUOUS
 10
4.05575
 20
6.5565
 11
4.047227962
 21
6.5658474525
  0
LINE
  5
262
100
AcDbEntity
  8
0
100
AcDbLine
 62
7
  6
CONTINUOUS
 10
4.03575
 20
6.5565
 11
4.03575
 21
7.4435
  0
LINE
  5
263
100
AcDbEntity
  8
0
100
AcDbLine
 62
7
  6
CONTINUOUS
 10
4.044272038
 20
7.4341525475
 11
4.044272038
 21
6.5658474525
  0
LINE
  5
264
100
AcDbEntity
  8
0
100
AcDbLine
 62
7
  6
CONTINUOUS
 10
4.047227962
 20
7.4341525475
 11
4.047227962
 21
6.5658474525
  0
LINE
  5
265
100
AcDbEntity
  8
0
100
AcDbLine
 62
7
  6
CONTINUOUS
 10
4.05575
 20
6.5565
 11
4.05575
 21
7.4435
  0
LINE
  5
266
100
AcDbEntity
  8
0
100
AcDbLine
 62
7
  6
CONTINUOUS
 10
4.10875
 20
6.5565077518
 11
4.10875
 21
7.4434922482
  0
LINE
  5
267
100
AcDbEntity
  8
0
100
AcDbLine
 62
7
  6
CONTINUOUS
 10
4.15875
 20
7.4425
 11
4.15875
 21
6.5575
  0
LINE
  5
268
100
AcDbEntity
  8
0
100
AcDbLine
 62
7
  6
CONTINUOUS
 10
4.22875
 20
7.4235
 11
4.22875
 21
6.5765
  0
LINE
  5
269
100
AcDbEntity
  8
0
100
AcDbLine
 62
7
  6
CONTINUOUS
 10
4.23675
 20
6.6115
 11
4.23675
 21
7.3885
  0
LINE
  5
26A
100
AcDbEntity
  8
0
100
AcDbLine
 62
7
  6
CONTINUOUS
 10
4.24975
 20
6.5565
 11
4.24975
 21
7.4435
  0
LINE
  5
26B
100
AcDbEntity
  8
0
100
AcDbLine
 62
7
  6
CONTINUOUS
 10
4.29675
 20
6.5565
 11
4.29675
 21
7.4435
  0
LINE
  5
26C
100
AcDbEntity
  8
0
100
AcDbLine
 62
7
  6
CONTINUOUS
 10
4.3155064435
 20
6.6265
 11
4.3155064435
 21
7.3735
  0
LINE
  5
26D
100
AcDbEntity
  8
0
100
AcDbLine
 62
7
  6
CONTINUOUS
 10
4.3155064435
 20
6.6265
 11
4.29675
 21
6.5565
  0
LINE
  5
26E
100
AcDbEntity
  8
0
100
AcDbLine
 62
7
  6
CONTINUOUS
 10
4.55875
 20
7.4285
 11
4.5440127944
 21
7.3735
  0
LINE
  5
26F
100
AcDbEntity
  8
0
100
AcDbLine
 62
7
  6
CONTINUOUS
 10
4.3155064435
 20
7.3735
 11
4.29675
 21
7.4435
  0
LINE
  5
270
100
AcDbEntity
  8
0
100
AcDbLine
 62
7
  6
CONTINUOUS
 10
4.55875
 20
6.5715
 11
4.5440127944
 21
6.6265
  0
LINE
  5
271
100
AcDbEntity
  8
126-502_HEX_FEATURES
100
AcDbLine
 62
7
  6
CONTINUOUS
 10
4.5440127944
 20
6.6265
 11
4.5440127944
 21
7.3735
  0
LINE
  5
272
100
AcDbEntity
  8
0
100
AcDbLine
 62
7
  6
CONTINUOUS
 10
4.55875
 20
6.5715
 11
4.55875
 21
7.4285
  0
LINE
  5
273
100
AcDbEntity
  8
0
100
AcDbLine
 62
7
  6
CONTINUOUS
 10
4.29675
 20
6.5565
 11
4.24975
 21
6.5565
  0
LINE
  5
274
100
AcDbEntity
  8
0
100
AcDbLine
 62
7
  6
CONTINUOUS
 10
4.10875
 20
6.5565
 11
4.05575
 21
6.5565
  0
LINE
  5
275
100
AcDbEntity
  8
0
100
AcDbLine
 62
7
  6
CONTINUOUS
 10
4.03575
 20
6.5565
 11
3.89075
 21
6.5565
  0
LINE
  5
276
100
AcDbEntity
  8
0
100
AcDbLine
 62
7
  6
CONTINUOUS
 10
4.10875
 20
6.5575
 11
4.15875
 21
6.5575
  0
LINE
  5
277
100
AcDbEntity
  8
0
100
AcDbLine
 62
7
  6
CONTINUOUS
 10
3.4260959498
 20
6.562483966
 11
3.89075
 21
6.562483966
  0
LINE
  5
278
100
AcDbEntity
  8
0
100
AcDbLine
 62
7
  6
CONTINUOUS
 10
4.85875
 20
6.5715
 11
4.80775
 21
6.5715
  0
LINE
  5
279
100
AcDbEntity
  8
0
100
AcDbLine
 62
7
  6
CONTINUOUS
 10
4.60875
 20
6.5715
 11
4.55875
 21
6.5715
  0
LINE
  5
27A
100
AcDbEntity
  8
0
100
AcDbLine
 62
7
  6
CONTINUOUS
 10
5.19975
 20
6.5725
 11
5.14775
 21
6.5725
  0
LINE
  5
27B
100
AcDbEntity
  8
0
100
AcDbLine
 62
7
  6
CONTINUOUS
 10
4.60875
 20
6.5725
 11
4.65875
 21
6.5725
  0
LINE
  5
27C
100
AcDbEntity
  8
0
100
AcDbLine
 62
7
  6
CONTINUOUS
 10
4.72875
 20
6.5725
 11
4.77875
 21
6.5725
  0
LINE
  5
27D
100
AcDbEntity
  8
0
100
AcDbLine
 62
7
  6
CONTINUOUS
 10
4.60875
 20
6.5715074896
 11
4.60875
 21
7.4284925104
  0
LINE
  5
27E
100
AcDbEntity
  8
0
100
AcDbLine
 62
7
  6
CONTINUOUS
 10
4.65875
 20
7.4275
 11
4.65875
 21
6.5725
  0
LINE
  5
27F
100
AcDbEntity
  8
0
100
AcDbLine
 62
7
  6
CONTINUOUS
 10
4.044272038
 20
6.5658474525
 11
4.03575
 21
6.5565
  0
LINE
  5
280
100
AcDbEntity
  8
0
100
AcDbLine
 62
7
  6
CONTINUOUS
 10
3.84525
 20
6.5920977523
 11
3.4558136659
 21
6.5920977523
  0
LINE
  5
281
100
AcDbEntity
  8
THREAD
100
AcDbLine
 62
7
  6
CONTINUOUS
 10
5.24975
 20
6.595
 11
5.2274724319
 21
6.595
  0
LINE
  5
282
100
AcDbEntity
  8
0
100
AcDbLine
 62
7
  6
CONTINUOUS
 10
5.31975
 20
6.5955
 11
5.36975
 21
6.5955
  0
LINE
  5
283
100
AcDbEntity
  8
0
100
AcDbLine
 62
7
  6
CONTINUOUS
 10
4.23675
 20
6.6115
 11
4.22875
 21
6.6115
  0
LINE
  5
284
100
AcDbEntity
  8
THREAD
100
AcDbLine
 62
7
  6
CONTINUOUS
 10
5.65825
 20
6.6125
 11
5.41211196
 21
6.6125
  0
LINE
  5
285
100
AcDbEntity
  8
0
100
AcDbLine
 62
7
  6
CONTINUOUS
 10
4.79475
 20
6.6265
 11
4.77875
 21
6.6265
  0
LINE
  5
286
100
AcDbEntity
  8
0
100
AcDbLine
 62
7
  6
CONTINUOUS
 10
4.5440127944
 20
6.6265
 11
4.3155064435
 21
6.6265
  0
LINE
  5
287
100
AcDbEntity
  8
0
100
AcDbLine
 62
7
  6
CONTINUOUS
 10
5.1312711247
 20
6.634
 11
5.10925
 21
6.634
  0
LINE
  5
288
100
AcDbEntity
  8
0
100
AcDbLine
 62
7
  6
CONTINUOUS
 10
4.98425
 20
6.634
 11
4.8754968245
 21
6.634
  0
LINE
  5
289
100
AcDbEntity
  8
THREAD
100
AcDbLine
 62
7
  6
CONTINUOUS
 10
5.3832444465
 20
6.6495
 11
5.36975
 21
6.6495
  0
LINE
  5
28A
100
AcDbEntity
  8
THREAD
100
AcDbLine
 62
7
  6
CONTINUOUS
 10
5.88075
 20
6.657
 11
5.70275
 21
6.657
  0
LINE
  5
28B
100
AcDbEntity
  8
0
100
AcDbLine
 62
7
  6
CONTINUOUS
 10
6.29725
 20
6.6575
 11
6.37025
 21
6.6575
  0
LINE
  5
28C
100
AcDbEntity
  8
0
100
AcDbLine
 62
7
  6
CONTINUOUS
 10
6.51125
 20
6.6575
 11
6.56325
 21
6.6575
  0
LINE
  5
28D
100
AcDbEntity
  8
0
100
AcDbLine
 62
7
  6
CONTINUOUS
 10
6.37025
 20
6.6585
 11
6.42025
 21
6.6585
  0
LINE
  5
28E
100
AcDbEntity
  8
0
100
AcDbLine
 62
7
  6
CONTINUOUS
 10
4.044272038
 20
7.4341525475
 11
4.03575
 21
7.4435
  0
LINE
  5
28F
100
AcDbEntity
  8
0
100
AcDbLine
 62
7
  6
CONTINUOUS
 10
4.72875
 20
7.4275
 11
4.72875
 21
6.5725
  0
LINE
  5
290
100
AcDbEntity
  8
0
100
AcDbLine
 62
7
  6
CONTINUOUS
 10
4.77875
 20
7.4275
 11
4.77875
 21
6.5725
  0
LINE
  5
291
100
AcDbEntity
  8
0
100
AcDbLine
 62
7
  6
CONTINUOUS
 10
4.79475
 20
6.6265
 11
4.79475
 21
7.3735
  0
LINE
  5
292
100
AcDbEntity
  8
0
100
AcDbLine
 62
7
  6
CONTINUOUS
 10
6.51125
 20
6.712
 11
6.49025
 21
6.712
  0
LINE
  5
293
100
AcDbEntity
  8
0
100
AcDbLine
 62
7
  6
CONTINUOUS
 10
6.29725
 20
6.7195
 11
6.08575
 21
6.7195
  0
LINE
  5
294
100
AcDbEntity
  8
0
100
AcDbLine
 62
7
  6
CONTINUOUS
 10
5.97675
 20
6.7195
 11
5.89075
 21
6.7195
  0
LINE
  5
295
100
AcDbEntity
  8
0
100
AcDbLine
 62
7
  6
CONTINUOUS
 10
4.80775
 20
6.5715
 11
4.80775
 21
7.4285
  0
LINE
  5
296
100
AcDbEntity
  8
0
100
AcDbLine
 62
7
  6
CONTINUOUS
 10
4.85875
 20
6.5715
 11
4.85875
 21
7.4285
  0
LINE
  5
297
100
AcDbEntity
  8
0
100
AcDbLine
 62
7
  6
CONTINUOUS
 10
4.8754968245
 20
6.634
 11
4.8754968245
 21
7.366
  0
LINE
  5
298
100
AcDbEntity
  8
0
100
AcDbLine
 62
7
  6
CONTINUOUS
 10
4.8754968245
 20
6.634
 11
4.85875
 21
6.5715
  0
LINE
  5
299
100
AcDbEntity
  8
0
100
AcDbLine
 62
7
  6
CONTINUOUS
 10
3.84525
 20
6.9703862137
 11
3.4558136659
 21
6.9703862137
  0
LINE
  5
29A
100
AcDbEntity
  8
0
100
AcDbLine
 62
7
  6
CONTINUOUS
 10
4.8754968245
 20
7.366
 11
4.85875
 21
7.4285
  0
LINE
  5
29B
100
AcDbEntity
  8
0
100
AcDbLine
 62
7
  6
CONTINUOUS
 10
5.14775
 20
7.4275
 11
5.1312711247
 21
7.366
  0
LINE
  5
29C
100
AcDbEntity
  8
0
100
AcDbLine
 62
7
  6
CONTINUOUS
 10
3.84525
 20
7.0296137863
 11
3.4558136659
 21
7.0296137863
  0
LINE
  5
29D
100
AcDbEntity
  8
0
100
AcDbLine
 62
7
  6
CONTINUOUS
 10
5.14775
 20
6.5725
 11
5.1312711247
 21
6.634
  0
LINE
  5
29E
100
AcDbEntity
  8
0
100
AcDbLine
 62
7
  6
CONTINUOUS
 10
5.1312711247
 20
6.634
 11
5.1312711247
 21
7.366
  0
LINE
  5
29F
100
AcDbEntity
  8
0
100
AcDbLine
 62
7
  6
CONTINUOUS
 10
5.14775
 20
6.5725
 11
5.14775
 21
7.4275
  0
LINE
  5
2A0
100
AcDbEntity
  8
0
100
AcDbLine
 62
7
  6
CONTINUOUS
 10
5.19975
 20
7.4275
 11
5.19975
 21
6.5725
  0
LINE
  5
2A1
100
AcDbEntity
  8
0
100
AcDbLine
 62
7
  6
CONTINUOUS
 10
5.20275
 20
7.4244992444
 11
5.20275
 21
6.5755007556
  0
LINE
  5
2A2
100
AcDbEntity
  8
0
100
AcDbLine
 62
7
  6
CONTINUOUS
 10
5.20525
 20
6.5829433757
 11
5.20525
 21
7.4170566243
  0
LINE
  5
2A3
100
AcDbEntity
  8
0
100
AcDbLine
 62
7
  6
CONTINUOUS
 10
5.2249724322
 20
6.5943301272
 11
5.2249724322
 21
7.4056698728
  0
LINE
  5
2A4
100
AcDbEntity
  8
0
100
AcDbLine
 62
7
  6
CONTINUOUS
 10
5.2274724319
 20
6.595
 11
5.2274724319
 21
7.405
  0
LINE
  5
2A5
100
AcDbEntity
  8
THREAD
100
AcDbLine
 62
7
  6
CONTINUOUS
 10
5.41211196
 20
7.3875
 11
5.3945027729
 21
7.3569999933
  0
LINE
  5
2A6
100
AcDbEntity
  8
THREAD
100
AcDbLine
 62
7
  6
CONTINUOUS
 10
5.41211196
 20
6.6125
 11
5.3945027729
 21
6.6430000067
  0
LINE
  5
2A7
100
AcDbEntity
  8
0
100
AcDbLine
 62
7
  6
CONTINUOUS
 10
5.24975
 20
7.4085
 11
5.24975
 21
6.5915
  0
LINE
  5
2A8
100
AcDbEntity
  8
0
100
AcDbLine
 62
7
  6
CONTINUOUS
 10
5.31975
 20
7.4085
 11
5.31975
 21
6.5915
  0
LINE
  5
2A9
100
AcDbEntity
  8
0
100
AcDbLine
 62
7
  6
CONTINUOUS
 10
6.29725
 20
7.2805
 11
6.08575
 21
7.2805
  0
LINE
  5
2AA
100
AcDbEntity
  8
0
100
AcDbLine
 62
7
  6
CONTINUOUS
 10
5.97675
 20
7.2805
 11
5.89075
 21
7.2805
  0
LINE
  5
2AB
100
AcDbEntity
  8
0
100
AcDbLine
 62
7
  6
CONTINUOUS
 10
6.51125
 20
7.288
 11
6.49025
 21
7.288
  0
LINE
  5
2AC
100
AcDbEntity
  8
0
100
AcDbLine
 62
7
  6
CONTINUOUS
 10
5.83125
 20
7.3229149841
 11
5.79725
 21
7.3229149841
  0
LINE
  5
2AD
100
AcDbEntity
  8
0
100
AcDbLine
 62
7
  6
CONTINUOUS
 10
6.37025
 20
7.3415
 11
6.42025
 21
7.3415
  0
LINE
  5
2AE
100
AcDbEntity
  8
0
100
AcDbLine
 62
7
  6
CONTINUOUS
 10
6.29725
 20
7.3425
 11
6.37025
 21
7.3425
  0
LINE
  5
2AF
100
AcDbEntity
  8
0
100
AcDbLine
 62
7
  6
CONTINUOUS
 10
6.51125
 20
7.3425
 11
6.56325
 21
7.3425
  0
LINE
  5
2B0
100
AcDbEntity
  8
THREAD
100
AcDbLine
 62
7
  6
CONTINUOUS
 10
5.88075
 20
7.343
 11
5.83125
 21
7.343
  0
LINE
  5
2B1
100
AcDbEntity
  8
THREAD
100
AcDbLine
 62
7
  6
CONTINUOUS
 10
5.79725
 20
7.343
 11
5.70275
 21
7.343
  0
LINE
  5
2B2
100
AcDbEntity
  8
0
100
AcDbLine
 62
7
  6
CONTINUOUS
 10
5.36975
 20
7.4045
 11
5.36975
 21
6.5955
  0
LINE
  5
2B3
100
AcDbEntity
  8
0
100
AcDbLine
 62
7
  6
CONTINUOUS
 10
5.3832444465
 20
6.6495
 11
5.3832444465
 21
7.3505
  0
LINE
  5
2B4
100
AcDbEntity
  8
0
100
AcDbLine
 62
7
  6
CONTINUOUS
 10
5.3945027729
 20
6.6430000067
 11
5.3945027729
 21
7.3569999933
  0
LINE
  5
2B5
100
AcDbEntity
  8
THREAD
100
AcDbLine
 62
7
  6
CONTINUOUS
 10
5.41211196
 20
6.6125
 11
5.41211196
 21
7.3875
  0
LINE
  5
2B6
100
AcDbEntity
  8
THREAD
100
AcDbLine
 62
7
  6
CONTINUOUS
 10
5.3832444465
 20
7.3505
 11
5.36975
 21
7.3505
  0
LINE
  5
2B7
100
AcDbEntity
  8
0
100
AcDbLine
 62
7
  6
CONTINUOUS
 10
5.1312711247
 20
7.366
 11
5.10925
 21
7.366
  0
LINE
  5
2B8
100
AcDbEntity
  8
0
100
AcDbLine
 62
7
  6
CONTINUOUS
 10
4.98425
 20
7.366
 11
4.8754968245
 21
7.366
  0
LINE
  5
2B9
100
AcDbEntity
  8
0
100
AcDbLine
 62
7
  6
CONTINUOUS
 10
4.79475
 20
7.3735
 11
4.77875
 21
7.3735
  0
LINE
  5
2BA
100
AcDbEntity
  8
0
100
AcDbLine
 62
7
  6
CONTINUOUS
 10
4.5440127944
 20
7.3735
 11
4.3155064435
 21
7.3735
  0
LINE
  5
2BB
100
AcDbEntity
  8
THREAD
100
AcDbLine
 62
7
  6
CONTINUOUS
 10
5.65825
 20
7.3875
 11
5.41211196
 21
7.3875
  0
LINE
  5
2BC
100
AcDbEntity
  8
0
100
AcDbLine
 62
7
  6
CONTINUOUS
 10
4.23675
 20
7.3885
 11
4.22875
 21
7.3885
  0
LINE
  5
2BD
100
AcDbEntity
  8
0
100
AcDbLine
 62
7
  6
CONTINUOUS
 10
5.31975
 20
7.4045
 11
5.36975
 21
7.4045
  0
LINE
  5
2BE
100
AcDbEntity
  8
THREAD
100
AcDbLine
 62
7
  6
CONTINUOUS
 10
5.24975
 20
7.405
 11
5.2274724319
 21
7.405
  0
LINE
  5
2BF
100
AcDbEntity
  8
0
100
AcDbLine
 62
7
  6
CONTINUOUS
 10
3.84525
 20
7.4079022477
 11
3.4558136659
 21
7.4079022477
  0
LINE
  5
2C0
100
AcDbEntity
  8
0
100
AcDbLine
 62
7
  6
CONTINUOUS
 10
5.19975
 20
7.4275
 11
5.14775
 21
7.4275
  0
LINE
  5
2C1
100
AcDbEntity
  8
0
100
AcDbLine
 62
7
  6
CONTINUOUS
 10
4.60875
 20
7.4275
 11
4.65875
 21
7.4275
  0
LINE
  5
2C2
100
AcDbEntity
  8
0
100
AcDbLine
 62
7
  6
CONTINUOUS
 10
4.72875
 20
7.4275
 11
4.77875
 21
7.4275
  0
LINE
  5
2C3
100
AcDbEntity
  8
0
100
AcDbLine
 62
7
  6
CONTINUOUS
 10
4.85875
 20
7.4285
 11
4.80775
 21
7.4285
  0
LINE
  5
2C4
100
AcDbEntity
  8
0
100
AcDbLine
 62
7
  6
CONTINUOUS
 10
4.60875
 20
7.4285
 11
4.55875
 21
7.4285
  0
LINE
  5
2C5
100
AcDbEntity
  8
0
100
AcDbLine
 62
7
  6
CONTINUOUS
 10
3.4260959498
 20
7.437516034
 11
3.89075
 21
7.437516034
  0
LINE
  5
2C6
100
AcDbEntity
  8
0
100
AcDbLine
 62
7
  6
CONTINUOUS
 10
4.10875
 20
7.4425
 11
4.15875
 21
7.4425
  0
LINE
  5
2C7
100
AcDbEntity
  8
0
100
AcDbLine
 62
7
  6
CONTINUOUS
 10
4.29675
 20
7.4435
 11
4.24975
 21
7.4435
  0
LINE
  5
2C8
100
AcDbEntity
  8
0
100
AcDbLine
 62
7
  6
CONTINUOUS
 10
4.10875
 20
7.4435
 11
4.05575
 21
7.4435
  0
LINE
  5
2C9
100
AcDbEntity
  8
0
100
AcDbLine
 62
7
  6
CONTINUOUS
 10
4.03575
 20
7.4435
 11
3.89075
 21
7.4435
  0
LINE
  5
2CA
100
AcDbEntity
  8
THREAD
100
AcDbLine
 62
7
  6
CONTINUOUS
 10
5.2249724322
 20
6.5943301272
 11
5.20525
 21
6.5829433757
  0
LINE
  5
2CB
100
AcDbEntity
  8
THREAD
100
AcDbLine
 62
7
  6
CONTINUOUS
 10
5.2249724322
 20
7.4056698728
 11
5.20525
 21
7.4170566243
  0
LINE
  5
2CC
100
AcDbEntity
  8
THREAD
100
AcDbLine
 62
7
  6
CONTINUOUS
 10
5.65825
 20
6.6125
 11
5.65825
 21
7.3875
  0
LINE
  5
2CD
100
AcDbEntity
  8
THREAD
100
AcDbLine
 62
7
  6
CONTINUOUS
 10
5.70275
 20
6.657
 11
5.70275
 21
7.343
  0
LINE
  5
2CE
100
AcDbEntity
  8
THREAD
100
AcDbLine
 62
7
  6
CONTINUOUS
 10
5.70275
 20
6.657
 11
5.65825
 21
6.6125
  0
LINE
  5
2CF
100
AcDbEntity
  8
THREAD
100
AcDbLine
 62
7
  6
CONTINUOUS
 10
5.70275
 20
7.343
 11
5.65825
 21
7.3875
  0
LINE
  5
2D0
100
AcDbEntity
  8
0
100
AcDbLine
 62
7
  6
CONTINUOUS
 10
5.79725
 20
7.3229149841
 11
5.79725
 21
7.343
  0
LINE
  5
2D1
100
AcDbEntity
  8
0
100
AcDbLine
 62
7
  6
CONTINUOUS
 10
5.83125
 20
7.3229149841
 11
5.83125
 21
7.343
  0
LINE
  5
2D2
100
AcDbEntity
  8
0
100
AcDbLine
 62
7
  6
CONTINUOUS
 10
5.88075
 20
6.657
 11
5.88075
 21
7.343
  0
LINE
  5
2D3
100
AcDbEntity
  8
0
100
AcDbLine
 62
7
  6
CONTINUOUS
 10
5.89075
 20
6.667
 11
5.89075
 21
7.333
  0
LINE
  5
2D4
100
AcDbEntity
  8
0
100
AcDbLine
 62
7
  6
CONTINUOUS
 10
5.89075
 20
6.667
 11
5.88075
 21
6.657
  0
LINE
  5
2D5
100
AcDbEntity
  8
0
100
AcDbLine
 62
7
  6
CONTINUOUS
 10
5.89075
 20
7.333
 11
5.88075
 21
7.343
  0
LINE
  5
2D6
100
AcDbEntity
  8
0
100
AcDbLine
 62
7
  6
CONTINUOUS
 10
5.98525
 20
7.0287281888
 11
5.98525
 21
6.9712704644
  0
LINE
  5
2D7
100
AcDbEntity
  8
0
100
AcDbLine
 62
7
  6
CONTINUOUS
 10
5.99225
 20
6.9623064408
 11
5.99225
 21
7.0376930404
  0
LINE
  5
2D8
100
AcDbEntity
  8
0
100
AcDbLine
 62
7
  6
CONTINUOUS
 10
6.03025
 20
6.8344566963
 11
6.03025
 21
6.8439737053
  0
LINE
  5
2D9
100
AcDbEntity
  8
0
100
AcDbLine
 62
7
  6
CONTINUOUS
 10
6.03025
 20
6.9457992012
 11
6.03025
 21
7.0542011762
  0
LINE
  5
2DA
100
AcDbEntity
  8
0
100
AcDbLine
 62
7
  6
CONTINUOUS
 10
6.03025
 20
7.1560262947
 11
6.03025
 21
7.1655433037
  0
LINE
  5
2DB
100
AcDbEntity
  8
0
100
AcDbLine
 62
7
  6
CONTINUOUS
 10
6.03725
 20
7.1652274258
 11
6.03725
 21
7.156637806
  0
LINE
  5
2DC
100
AcDbEntity
  8
0
100
AcDbLine
 62
7
  6
CONTINUOUS
 10
6.03725
 20
7.054138322
 11
6.03725
 21
6.9458637785
  0
LINE
  5
2DD
100
AcDbEntity
  8
0
100
AcDbLine
 62
7
  6
CONTINUOUS
 10
6.03725
 20
6.8433621902
 11
6.03725
 21
6.8347703536
  0
LINE
  5
2DE
100
AcDbEntity
  8
0
100
AcDbLine
 62
7
  6
CONTINUOUS
 10
6.04725
 20
7.1641889449
 11
6.04725
 21
7.1583076194
  0
LINE
  5
2DF
100
AcDbEntity
  8
0
100
AcDbLine
 62
7
  6
CONTINUOUS
 10
6.04725
 20
7.0520044996
 11
6.04725
 21
6.9479939463
  0
LINE
  5
2E0
100
AcDbEntity
  8
0
100
AcDbLine
 62
7
  6
CONTINUOUS
 10
6.04725
 20
6.8416923838
 11
6.04725
 21
6.8358128191
  0
LINE
  5
2E1
100
AcDbEntity
  8
0
100
AcDbLine
 62
7
  6
CONTINUOUS
 10
6.05425
 20
6.8370722508
 11
6.05425
 21
6.8394821674
  0
LINE
  5
2E2
100
AcDbEntity
  8
0
100
AcDbLine
 62
7
  6
CONTINUOUS
 10
6.05425
 20
6.950909006
 11
6.05425
 21
7.0490905981
  0
LINE
  5
2E3
100
AcDbEntity
  8
0
100
AcDbLine
 62
7
  6
CONTINUOUS
 10
6.05425
 20
7.1605178235
 11
6.05425
 21
7.1629302465
  0
LINE
  5
2E4
100
AcDbEntity
  8
0
100
AcDbLine
 62
7
  6
CONTINUOUS
 10
6.29725
 20
7.3425
 11
6.29725
 21
6.6575
  0
LINE
  5
2E5
100
AcDbEntity
  8
0
100
AcDbLine
 62
7
  6
CONTINUOUS
 10
6.37025
 20
7.3425
 11
6.37025
 21
6.6575
  0
LINE
  5
2E6
100
AcDbEntity
  8
0
100
AcDbLine
 62
7
  6
CONTINUOUS
 10
6.42025
 20
7.3415
 11
6.42025
 21
6.6585
  0
LINE
  5
2E7
100
AcDbEntity
  8
0
100
AcDbLine
 62
7
  6
CONTINUOUS
 10
6.56325
 20
6.6575
 11
6.57825
 21
6.6725
  0
LINE
  5
2E8
100
AcDbEntity
  8
0
100
AcDbLine
 62
7
  6
CONTINUOUS
 10
6.56325
 20
7.3425
 11
6.57825
 21
7.3275
  0
LINE
  5
2E9
100
AcDbEntity
  8
0
100
AcDbLine
 62
7
  6
CONTINUOUS
 10
6.49025
 20
7.3225
 11
6.49025
 21
6.6775
  0
LINE
  5
2EA
100
AcDbEntity
  8
0
100
AcDbLine
 62
7
  6
CONTINUOUS
 10
6.51125
 20
7.3425
 11
6.51125
 21
6.6575
  0
LINE
  5
2EB
100
AcDbEntity
  8
0
100
AcDbLine
 62
7
  6
CONTINUOUS
 10
6.56325
 20
7.3425
 11
6.56325
 21
6.6575
  0
LINE
  5
2EC
100
AcDbEntity
  8
0
100
AcDbLine
 62
7
  6
CONTINUOUS
 10
6.57825
 20
7.3275
 11
6.57825
 21
6.6725
  0
ARC
  5
2ED
100
AcDbEntity
  8
0
100
AcDbCircle
 62
7
  6
CONTINUOUS
 10
6.0312500761
 20
6.9447835678
 40
0.1103268714
100
AcDbArc
 50
269.4796757345
 51
269.9999604734
  0
ARC
  5
2EE
100
AcDbEntity
  8
0
100
AcDbCircle
 62
7
  6
CONTINUOUS
 10
6.0312500815
 20
7.0552511287
 40
0.110292175
100
AcDbArc
 50
90.0000423359
 51
90.5205503329
  0
ARC
  5
2EF
100
AcDbEntity
  8
0
100
AcDbCircle
 62
7
  6
CONTINUOUS
 10
6.0364038202
 20
6.9116413766
 40
0.0767261516
100
AcDbArc
 50
283.478467815
 51
286.2029171666
  0
ARC
  5
2F0
100
AcDbEntity
  8
0
100
AcDbCircle
 62
7
  6
CONTINUOUS
 10
6.036739715
 20
7.0896264014
 40
0.0754150093
100
AcDbArc
 50
73.7723843283
 51
76.5465718749
  0
CIRCLE
  5
2F1
100
AcDbEntity
  8
126-502_HEX_FEATURES
100
AcDbCircle
 62
7
  6
CONTINUOUS
 10
5.04675
 20
7.0
 40
0.0625
  0
CIRCLE
  5
2F2
100
AcDbEntity
  8
0
100
AcDbCircle
 62
7
  6
CONTINUOUS
 10
6.03125
 20
7.0
 40
0.0545
  0
ARC
  5
2F3
100
AcDbEntity
  8
0
100
AcDbCircle
 62
7
  6
CONTINUOUS
 10
4.23675
 20
6.5985
 40
0.013
100
AcDbArc
 50
0.0000132744
 51
90.0
  0
ARC
  5
2F4
100
AcDbEntity
  8
0
100
AcDbCircle
 62
7
  6
CONTINUOUS
 10
4.79475
 20
6.6135
 40
0.013
100
AcDbArc
 50
0.0000141871
 51
90.0
  0
ARC
  5
2F5
100
AcDbEntity
  8
0
100
AcDbCircle
 62
7
  6
CONTINUOUS
 10
5.3832444465
 20
6.6365
 40
0.013
100
AcDbArc
 50
30.0000341704
 51
90.0
  0
ARC
  5
2F6
100
AcDbEntity
  8
0
100
AcDbCircle
 62
7
  6
CONTINUOUS
 10
4.23675
 20
7.4015
 40
0.013
100
AcDbArc
 50
270.0
 51
359.9999867256
  0
ARC
  5
2F7
100
AcDbEntity
  8
0
100
AcDbCircle
 62
7
  6
CONTINUOUS
 10
4.79475
 20
7.3865
 40
0.013
100
AcDbArc
 50
270.0
 51
359.9999858129
  0
ARC
  5
2F8
100
AcDbEntity
  8
0
100
AcDbCircle
 62
7
  6
CONTINUOUS
 10
5.3832444465
 20
7.3635
 40
0.013
100
AcDbArc
 50
270.0
 51
329.9999658296
  0
ARC
  5
2F9
100
AcDbEntity
  8
0
100
AcDbCircle
 62
7
  6
CONTINUOUS
 10
5.20775
 20
6.5786132487
 40
0.005
100
AcDbArc
 50
119.999999817
 51
179.9999996348
  0
ARC
  5
2FA
100
AcDbEntity
  8
0
100
AcDbCircle
 62
7
  6
CONTINUOUS
 10
5.2274724319
 20
6.59
 40
0.005
100
AcDbArc
 50
90.0
 51
119.9999957861
  0
ARC
  5
2FB
100
AcDbEntity
  8
0
100
AcDbCircle
 62
7
  6
CONTINUOUS
 10
5.20775
 20
7.4213867513
 40
0.005
100
AcDbArc
 50
180.0000003652
 51
240.000000183
  0
ARC
  5
2FC
100
AcDbEntity
  8
0
100
AcDbCircle
 62
7
  6
CONTINUOUS
 10
5.2274724319
 20
7.41
 40
0.005
100
AcDbArc
 50
240.0000042139
 51
270.0
  0
ARC
  5
2FD
100
AcDbEntity
  8
0
100
AcDbCircle
 62
7
  6
CONTINUOUS
 10
5.19975
 20
6.5755
 40
0.003
100
AcDbArc
 50
270.0
 51
0.0000088809
  0
ARC
  5
2FE
100
AcDbEntity
  8
0
100
AcDbCircle
 62
7
  6
CONTINUOUS
 10
5.19975
 20
7.4245
 40
0.003
100
AcDbArc
 50
359.9999911191
 51
90.0
  0
ARC
  5
2FF
100
AcDbEntity
  8
0
100
AcDbCircle
 62
7
  6
CONTINUOUS
 10
4.04575
 20
6.5645
 40
0.002
100
AcDbArc
 50
42.3553148142
 51
137.6446851858
  0
ARC
  5
300
100
AcDbEntity
  8
0
100
AcDbCircle
 62
7
  6
CONTINUOUS
 10
4.04575
 20
7.4355
 40
0.002
100
AcDbArc
 50
222.3553148142
 51
317.6446851858
  0
SPLINE
  5
301
100
AcDbEntity
  8
0
100
AcDbSpline
 62
7
  6
CONTINUOUS
 70
0
 71
3
 72
15
 73
11
 74
0
 42
0.0000001
 43
0.0000001
 44
0.0000000001
 40
0.0
 40
0.0
 40
0.0
 40
0.0
 40
0.0386057766
 40
0.1475802997
 40
0.3094460119
 40
0.5000352718
 40
0.6906132998
 40
0.8524521932
 40
0.9614035431
 40
1.0
 40
1.0
 40
1.0
 40
1.0
 10
6.08575
 20
7.2805
 30
0.0
 10
6.0843645693
 20
7.2802307846
 30
0.0
 10
6.079061197
 20
7.2792380897
 30
0.0
 10
6.0678868802
 20
7.2774538371
 30
0.0
 10
6.0511038451
 20
7.2756458255
 30
0.0
 10
6.0312465363
 20
7.2748890791
 30
0.0
 10
6.01139022
 20
7.275646179
 30
0.0
 10
5.9946094581
 20
7.2774543665
 30
0.0
 10
5.9834373067
 20
7.279238405
 30
0.0
 10
5.9781350985
 20
7.2802308615
 30
0.0
 10
5.97675
 20
7.2805
 30
0.0
  0
SPLINE
  5
302
100
AcDbEntity
  8
0
100
AcDbSpline
 62
7
  6
CONTINUOUS
 70
0
 71
3
 72
22
 73
18
 74
0
 42
0.0000001
 43
0.0000001
 44
0.0000000001
 40
0.0
 40
0.0
 40
0.0
 40
0.0
 40
0.050548108
 40
0.1024665157
 40
0.1560569544
 40
0.2115100745
 40
0.2689254916
 40
0.3283002749
 40
0.3895773243
 40
0.4526426201
 40
0.5833994749
 40
0.6508418166
 40
0.7193524909
 40
0.7887427238
 40
0.8588299712
 40
0.9293650201
 40
1.0
 40
1.0
 40
1.0
 40
1.0
 10
5.9767505838
 20
7.1983431645
 30
0.0
 10
5.9767505829
 20
7.1970661066
 30
0.0
 10
5.9769326231
 20
7.1944741941
 30
0.0
 10
5.9777327853
 20
7.1906029471
 30
0.0
 10
5.9790490097
 20
7.186744651
 30
0.0
 10
5.9808664494
 20
7.1829422335
 30
0.0
 10
5.9831663323
 20
7.1792384377
 30
0.0
 10
5.9859227951
 20
7.1756737305
 30
0.0
 10
5.9891116414
 20
7.1722910477
 30
0.0
 10
5.9939529127
 20
7.1680259518
 30
0.0
 10
5.9994849246
 20
7.1643518383
 30
0.0
 10
6.0055274255
 20
7.1613573951
 30
0.0
 10
6.0103600851
 20
7.1594526555
 30
0.0
 10
6.0153981431
 20
7.1579387368
 30
0.0
 10
6.0205956364
 20
7.1568410375
 30
0.0
 10
6.0258972021
 20
7.1561765649
 30
0.0
 10
6.0294654631
 20
7.1560262947
 30
0.0
 10
6.03125
 20
7.1560262947
 30
0.0
  0
SPLINE
  5
303
100
AcDbEntity
  8
0
100
AcDbSpline
 62
7
  6
CONTINUOUS
 70
0
 71
3
 72
11
 73
7
 74
0
 42
0.0000001
 43
0.0000001
 44
0.0000000001
 40
0.0
 40
0.0
 40
0.0
 40
0.0
 40
0.2415709972
 40
0.4902214711
 40
0.7439881109
 40
1.0
 40
1.0
 40
1.0
 40
1.0
 10
6.0542853874
 20
7.1629719739
 30
0.0
 10
6.0524666175
 20
7.1634082404
 30
0.0
 10
6.048743964
 20
7.1641648249
 30
0.0
 10
6.0430356607
 20
7.1649606791
 30
0.0
 10
6.0371799426
 20
7.1654372273
 30
0.0
 10
6.0332321701
 20
7.1655433037
 30
0.0
 10
6.03125
 20
7.1655433037
 30
0.0
  0
SPLINE
  5
304
100
AcDbEntity
  8
0
100
AcDbSpline
 62
7
  6
CONTINUOUS
 70
0
 71
3
 72
11
 73
7
 74
0
 42
0.0000001
 43
0.0000001
 44
0.0000000001
 40
0.0
 40
0.0
 40
0.0
 40
0.0
 40
0.258358148
 40
0.5131353128
 40
0.7610947047
 40
1.0
 40
1.0
 40
1.0
 40
1.0
 10
6.0302480559
 20
7.1655387518
 30
0.0
 10
6.0280199239
 20
7.1655185095
 30
0.0
 10
6.0235945644
 20
7.1653449434
 30
0.0
 10
6.0170595905
 20
7.1646825839
 30
0.0
 10
6.0107479171
 20
7.1636160632
 30
0.0
 10
6.006665073
 20
7.1626134442
 30
0.0
 10
6.0046868226
 20
7.1620372616
 30
0.0
  0
SPLINE
  5
305
100
AcDbEntity
  8
0
100
AcDbSpline
 62
7
  6
CONTINUOUS
 70
0
 71
3
 72
11
 73
7
 74
0
 42
0.0000001
 43
0.0000001
 44
0.0000000001
 40
0.0
 40
0.0
 40
0.0
 40
0.0
 40
0.2388991318
 40
0.4868486135
 40
0.7416057131
 40
1.0
 40
1.0
 40
1.0
 40
1.0
 10
6.0046738534
 20
6.8379664683
 30
0.0
 10
6.0066529981
 20
6.837389673
 30
0.0
 10
6.010737726
 20
6.8363860159
 30
0.0
 10
6.0170523031
 20
6.8353183384
 30
0.0
 10
6.0235907263
 20
6.8346551718
 30
0.0
 10
6.0280185555
 20
6.8344814928
 30
0.0
 10
6.0302481706
 20
6.8344612457
 30
0.0
  0
SPLINE
  5
306
100
AcDbEntity
  8
0
100
AcDbSpline
 62
7
  6
CONTINUOUS
 70
0
 71
3
 72
22
 73
18
 74
0
 42
0.0000001
 43
0.0000001
 44
0.0000000001
 40
0.0
 40
0.0
 40
0.0
 40
0.0
 40
0.0505481129
 40
0.1024665241
 40
0.1560569662
 40
0.2115100894
 40
0.2689255097
 40
0.3283002955
 40
0.3895773463
 40
0.4526426423
 40
0.5833994949
 40
0.6508418346
 40
0.7193525063
 40
0.7887427358
 40
0.8588299791
 40
0.9293650239
 40
1.0
 40
1.0
 40
1.0
 40
1.0
 10
6.0857494162
 20
6.8016568523
 30
0.0
 10
6.0857494162
 20
6.8029339101
 30
0.0
 10
6.0855673745
 20
6.8055258221
 30
0.0
 10
6.0847672106
 20
6.8093970681
 30
0.0
 10
6.0834509845
 20
6.813255363
 30
0.0
 10
6.0816335436
 20
6.8170577791
 30
0.0
 10
6.0793336598
 20
6.8207615735
 30
0.0
 10
6.0765771965
 20
6.8243262793
 30
0.0
 10
6.0733883501
 20
6.8277089606
 30
0.0
 10
6.0685470788
 20
6.8319740544
 30
0.0
 10
6.0630150677
 20
6.8356481661
 30
0.0
 10
6.0569725679
 20
6.8386426078
 30
0.0
 10
6.0521399094
 20
6.8405473464
 30
0.0
 10
6.0471018525
 20
6.8420612643
 30
0.0
 10
6.0419043607
 20
6.843158963
 30
0.0
 10
6.0366027964
 20
6.8438234352
 30
0.0
 10
6.0330345364
 20
6.8439737053
 30
0.0
 10
6.03125
 20
6.8439737053
 30
0.0
  0
SPLINE
  5
307
100
AcDbEntity
  8
0
100
AcDbSpline
 62
7
  6
CONTINUOUS
 70
0
 71
3
 72
15
 73
11
 74
0
 42
0.0000001
 43
0.0000001
 44
0.0000000001
 40
0.0
 40
0.0
 40
0.0
 40
0.0
 40
0.03860506
 40
0.147577829
 40
0.3094412622
 40
0.5000284569
 40
0.69060669
 40
0.8524485204
 40
0.9614025078
 40
1.0
 40
1.0
 40
1.0
 40
1.0
 10
5.97675
 20
6.7195
 30
0.0
 10
5.9781354052
 20
6.7197692093
 30
0.0
 10
5.983438689
 20
6.7207618857
 30
0.0
 10
5.9946128322
 20
6.7225461222
 30
0.0
 10
6.011395642
 20
6.7243541417
 30
0.0
 10
6.0312527981
 20
6.7251109128
 30
0.0
 10
6.0511091548
 20
6.7243538561
 30
0.0
 10
6.0678901324
 20
6.7225456941
 30
0.0
 10
6.0790625247
 20
6.7207616298
 30
0.0
 10
6.0843648645
 20
6.7197691468
 30
0.0
 10
6.08575
 20
6.7195
 30
0.0
  0
SPLINE
  5
308
100
AcDbEntity
  8
0
100
AcDbSpline
 62
7
  6
CONTINUOUS
 70
0
 71
3
 72
11
 73
7
 74
0
 42
0.0000001
 43
0.0000001
 44
0.0000000001
 40
0.0
 40
0.0
 40
0.0
 40
0.0
 40
0.2560100474
 40
0.5097704836
 40
0.7584222543
 40
1.0
 40
1.0
 40
1.0
 40
1.0
 10
6.03125
 20
6.8344566963
 30
0.0
 10
6.0332323101
 20
6.8344566963
 30
0.0
 10
6.037180328
 20
6.8345627752
 30
0.0
 10
6.0430364474
 20
6.8350393947
 30
0.0
 10
6.0487451995
 20
6.8358353832
 30
0.0
 10
6.0524681931
 20
6.8365920957
 30
0.0
 10
6.0542871457
 20
6.8370284487
 30
0.0
  0
SPLINE
  5
309
100
AcDbEntity
  8
0
100
AcDbSpline
 62
7
  6
CONTINUOUS
 70
0
 71
3
 72
22
 73
18
 74
0
 42
0.0000001
 43
0.0000001
 44
0.0000000001
 40
0.0
 40
0.0
 40
0.0
 40
0.0
 40
0.0706349669
 40
0.1411700012
 40
0.2112572344
 40
0.280647456
 40
0.3491581216
 40
0.4166004568
 40
0.547357306
 40
0.610422604
 40
0.671699659
 40
0.7310744515
 40
0.7884898794
 40
0.84394301
 40
0.8975334596
 40
0.949451878
 40
1.0
 40
1.0
 40
1.0
 40
1.0
 10
6.03125
 20
7.1560262947
 30
0.0
 10
6.0330345352
 20
7.1560262947
 30
0.0
 10
6.0366027928
 20
7.1561765646
 30
0.0
 10
6.0419043536
 20
7.1568410359
 30
0.0
 10
6.0471018421
 20
7.1579387332
 30
0.0
 10
6.052139896
 20
7.159452649
 30
0.0
 10
6.056972552
 20
7.1613573852
 30
0.0
 10
6.0630150491
 20
7.1643518232
 30
0.0
 10
6.0685470586
 20
7.1680259307
 30
0.0
 10
6.0733883296
 20
7.1722910197
 30
0.0
 10
6.0765771766
 20
7.1756736976
 30
0.0
 10
6.0793336412
 20
7.1792383999
 30
0.0
 10
6.081633527
 20
7.1829421909
 30
0.0
 10
6.0834509707
 20
7.1867446037
 30
0.0
 10
6.0847672006
 20
7.1906028956
 30
0.0
 10
6.085567369
 20
7.1944741392
 30
0.0
 10
6.0857494143
 20
7.1970660499
 30
0.0
 10
6.0857494161
 20
7.1983431072
 30
0.0
  0
SPLINE
  5
30A
100
AcDbEntity
  8
0
100
AcDbSpline
 62
7
  6
CONTINUOUS
 70
0
 71
3
 72
22
 73
18
 74
0
 42
0.0000001
 43
0.0000001
 44
0.0000000001
 40
0.0
 40
0.0
 40
0.0
 40
0.0
 40
0.0706350352
 40
0.1411700923
 40
0.2112573153
 40
0.2806475447
 40
0.3491582324
 40
0.416600596
 40
0.5473574523
 40
0.6104227509
 40
0.6716997901
 40
0.7310745712
 40
0.7884899738
 40
0.8439430728
 40
0.8975335151
 40
0.9494518845
 40
1.0
 40
1.0
 40
1.0
 40
1.0
 10
6.03125
 20
6.8439737053
 30
0.0
 10
6.0294654603
 20
6.8439737053
 30
0.0
 10
6.0258971947
 20
6.8438234353
 30
0.0
 10
6.0205956236
 20
6.8431589621
 30
0.0
 10
6.0153981275
 20
6.8420612584
 30
0.0
 10
6.0103600656
 20
6.8405473387
 30
0.0
 10
6.0055274025
 20
6.838642594
 30
0.0
 10
5.9994848965
 20
6.8356481467
 30
0.0
 10
5.9939528832
 20
6.8319740243
 30
0.0
 10
5.9891116096
 20
6.8277089233
 30
0.0
 10
5.9859227653
 20
6.8243262337
 30
0.0
 10
5.983166304
 20
6.8207615217
 30
0.0
 10
5.9808664222
 20
6.8170577218
 30
0.0
 10
5.9790489916
 20
6.8132552973
 30
0.0
 10
5.9777327666
 20
6.8093969992
 30
0.0
 10
5.9769326175
 20
6.8055257467
 30
0.0
 10
5.9767505811
 20
6.802933833
 30
0.0
 10
5.9767505833
 20
6.8016567738
 30
0.0
  0
SPLINE
  5
30B
100
AcDbEntity
  8
0
100
AcDbSpline
 62
7
  6
CONTINUOUS
 70
0
 71
3
 72
23
 73
19
 74
0
 42
0.0000001
 43
0.0000001
 44
0.0000000001
 40
0.0
 40
0.0
 40
0.0
 40
0.0
 40
0.0748351395
 40
0.149282558
 40
0.2227105582
 40
0.2946327869
 40
0.3646970232
 40
0.4326066557
 40
0.4981495107
 40
0.5611925047
 40
0.6217307924
 40
0.6798856687
 40
0.7359009611
 40
0.7901437424
 40
0.8430966697
 40
0.8953224972
 40
0.9474217652
 40
1.0
 40
1.0
 40
1.0
 40
1.0
 10
6.03125
 20
7.2331009339
 30
0.0
 10
6.0294663253
 20
7.2331009339
 30
0.0
 10
6.0259074247
 20
7.2330014422
 30
0.0
 10
6.020615149
 20
7.2325564546
 30
0.0
 10
6.015425797
 20
7.2318159261
 30
0.0
 10
6.0103932287
 20
7.2307819487
 30
0.0
 10
6.0055645631
 20
7.2294590511
 30
0.0
 10
6.0009836542
 20
7.2278505894
 30
0.0
 10
5.996691638
 20
7.2259637092
 30
0.0
 10
5.9927285774
 20
7.2238031913
 30
0.0
 10
5.9891309116
 20
7.2213781873
 30
0.0
 10
5.9859317076
 20
7.218699615
 30
0.0
 10
5.9831644246
 20
7.2157785859
 30
0.0
 10
5.9808549783
 20
7.2126345684
 30
0.0
 10
5.9790325646
 20
7.2092865077
 30
0.0
 10
5.9777167625
 20
7.2057625659
 30
0.0
 10
5.9769227476
 20
7.2020952613
 30
0.0
 10
5.9767505847
 20
7.1995963521
 30
0.0
 10
5.9767505838
 20
7.1983431645
 30
0.0
  0
SPLINE
  5
30C
100
AcDbEntity
  8
0
100
AcDbSpline
 62
7
  6
CONTINUOUS
 70
0
 71
3
 72
23
 73
19
 74
0
 42
0.0000001
 43
0.0000001
 44
0.0000000001
 40
0.0
 40
0.0
 40
0.0
 40
0.0
 40
0.0748351415
 40
0.1492825576
 40
0.2227105475
 40
0.294632765
 40
0.364696995
 40
0.4326066309
 40
0.498149491
 40
0.5611924824
 40
0.6217307624
 40
0.6798856321
 40
0.7359009241
 40
0.790143709
 40
0.8430966432
 40
0.8953224786
 40
0.9474217554
 40
1.0
 40
1.0
 40
1.0
 40
1.0
 10
6.03125
 20
6.7668990661
 30
0.0
 10
6.0330336752
 20
6.7668990661
 30
0.0
 10
6.0365925765
 20
6.7669985578
 30
0.0
 10
6.0418848533
 20
6.7674435457
 30
0.0
 10
6.0470742059
 20
6.7681840744
 30
0.0
 10
6.0521067747
 20
6.7692180519
 30
0.0
 10
6.056935441
 20
6.7705409502
 30
0.0
 10
6.0615163509
 20
6.7721494127
 30
0.0
 10
6.0658083681
 20
6.7740362937
 30
0.0
 10
6.0697714292
 20
6.7761968126
 30
0.0
 10
6.0733690952
 20
6.7786218174
 30
0.0
 10
6.0765682989
 20
6.7813003912
 30
0.0
 10
6.0793355817
 20
6.7842214217
 30
0.0
 10
6.0816450278
 20
6.7873654408
 30
0.0
 10
6.0834674405
 20
6.7907135035
 30
0.0
 10
6.0847832414
 20
6.7942374473
 30
0.0
 10
6.0855772547
 20
6.7979047538
 30
0.0
 10
6.0857494161
 20
6.8004036642
 30
0.0
 10
6.0857494162
 20
6.8016568523
 30
0.0
  0
SPLINE
  5
30D
100
AcDbEntity
  8
0
100
AcDbSpline
 62
7
  6
CONTINUOUS
 70
0
 71
3
 72
23
 73
19
 74
0
 42
0.0000001
 43
0.0000001
 44
0.0000000001
 40
0.0
 40
0.0
 40
0.0
 40
0.0
 40
0.0525781139
 40
0.1046772578
 40
0.1569030017
 40
0.2098558121
 40
0.2640985072
 40
0.320113693
 40
0.3782684434
 40
0.4388066176
 40
0.501849608
 40
0.5673924472
 40
0.6353020291
 40
0.705366202
 40
0.7772884998
 40
0.8507169377
 40
0.9251647509
 40
1.0
 40
1.0
 40
1.0
 40
1.0
 10
5.9767505833
 20
6.8016567738
 30
0.0
 10
5.9767505855
 20
6.8004035902
 30
0.0
 10
5.9769227514
 20
6.7979046887
 30
0.0
 10
5.9777167789
 20
6.7942373988
 30
0.0
 10
5.9790325701
 20
6.7907134646
 30
0.0
 10
5.9808549925
 20
6.7873654199
 30
0.0
 10
5.9831644285
 20
6.7842214091
 30
0.0
 10
5.9859317026
 20
6.7813003861
 30
0.0
 10
5.9891309005
 20
6.7786218255
 30
0.0
 10
5.9927285524
 20
6.7761968178
 30
0.0
 10
5.9966916106
 20
6.7740363097
 30
0.0
 10
6.0009836187
 20
6.7721494262
 30
0.0
 10
6.0055645189
 20
6.770540961
 30
0.0
 10
6.0103931784
 20
6.7692180617
 30
0.0
 10
6.015425752
 20
6.7681840791
 30
0.0
 10
6.0206151215
 20
6.7674435526
 30
0.0
 10
6.0259074147
 20
6.7669985603
 30
0.0
 10
6.0294663242
 20
6.7668990661
 30
0.0
 10
6.03125
 20
6.7668990661
 30
0.0
  0
SPLINE
  5
30E
100
AcDbEntity
  8
0
100
AcDbSpline
 62
7
  6
CONTINUOUS
 70
0
 71
3
 72
23
 73
19
 74
0
 42
0.0000001
 43
0.0000001
 44
0.0000000001
 40
0.0
 40
0.0
 40
0.0
 40
0.0
 40
0.0525782648
 40
0.1046775609
 40
0.1569034154
 40
0.2098563661
 40
0.2640991598
 40
0.3201144494
 40
0.3782693001
 40
0.4388075554
 40
0.5018505312
 40
0.5673933919
 40
0.6353030317
 40
0.7053672577
 40
0.7772894652
 40
0.8507174429
 40
0.9251648548
 40
1.0
 40
1.0
 40
1.0
 40
1.0
 10
6.0857494161
 20
7.1983431072
 30
0.0
 10
6.085749418
 20
7.1995962965
 30
0.0
 10
6.0855772601
 20
7.2020952095
 30
0.0
 10
6.0847832509
 20
7.2057625206
 30
0.0
 10
6.0834674528
 20
7.209286469
 30
0.0
 10
6.0816450426
 20
7.2126345368
 30
0.0
 10
6.079335597
 20
7.2157785598
 30
0.0
 10
6.0765683148
 20
7.2186995936
 30
0.0
 10
6.0733691122
 20
7.2213781706
 30
0.0
 10
6.0697714462
 20
7.2238031773
 30
0.0
 10
6.0658083844
 20
7.2259636983
 30
0.0
 10
6.0615163655
 20
7.2278505814
 30
0.0
 10
6.0569354534
 20
7.2294590459
 30
0.0
 10
6.0521067849
 20
7.2307819458
 30
0.0
 10
6.0470742139
 20
7.2318159243
 30
0.0
 10
6.0418848591
 20
7.2325564538
 30
0.0
 10
6.0365925796
 20
7.2330014421
 30
0.0
 10
6.0330336763
 20
7.2331009339
 30
0.0
 10
6.03125
 20
7.2331009339
 30
0.0
  0
SPLINE
  5
30F
100
AcDbEntity
  8
126-502_HEX_FEATURES
100
AcDbSpline
 62
7
  6
CONTINUOUS
 70
0
 71
3
 72
23
 73
19
 74
0
 42
0.0000001
 43
0.0000001
 44
0.0000000001
 40
0.0
 40
0.0
 40
0.0
 40
0.0
 40
0.0708249365
 40
0.1415538216
 40
0.211823396
 40
0.281350649
 40
0.3499436179
 40
0.4174103781
 40
0.4835572364
 40
0.548185243
 40
0.6111156909
 40
0.672221842
 40
0.7314074695
 40
0.7886355351
 40
0.8439438977
 40
0.8974389206
 40
0.949349324
 40
1.0
 40
1.0
 40
1.0
 40
1.0
 10
5.04675
 20
6.7891944189
 30
0.0
 10
5.0487946955
 20
6.7891944189
 30
0.0
 10
5.0528831994
 20
6.7890257504
 30
0.0
 10
5.0589592326
 20
6.7882799623
 30
0.0
 10
5.0649181781
 20
6.7870488397
 30
0.0
 10
5.0706957383
 20
6.7853471501
 30
0.0
 10
5.0762383119
 20
6.7832051819
 30
0.0
 10
5.08149399
 20
6.7806483355
 30
0.0
 10
5.0864152232
 20
6.777712972
 30
0.0
 10
5.0909574635
 20
6.7744383898
 30
0.0
 10
5.095075702
 20
6.7708620341
 30
0.0
 10
5.0987337437
 20
6.7670301105
 30
0.0
 10
5.1018968319
 20
6.7629865796
 30
0.0
 10
5.1045325756
 20
6.7587765078
 30
0.0
 10
5.1066174752
 20
6.7544488506
 30
0.0
 10
5.1081254662
 20
6.7500484643
 30
0.0
 10
5.1090401058
 20
6.7456248158
 30
0.0
 10
5.1092500156
 20
6.7426603722
 30
0.0
 10
5.1092499994
 20
6.7411981018
 30
0.0
  0
SPLINE
  5
310
100
AcDbEntity
  8
126-502_HEX_FEATURES
100
AcDbSpline
 62
7
  6
CONTINUOUS
 70
0
 71
3
 72
15
 73
11
 74
0
 42
0.0000001
 43
0.0000001
 44
0.0000000001
 40
0.0
 40
0.0
 40
0.0
 40
0.0
 40
0.0384840032
 40
0.1473127867
 40
0.3092500997
 40
0.5000005191
 40
0.6907507387
 40
0.8526874629
 40
0.9615159327
 40
1.0
 40
1.0
 40
1.0
 40
1.0
 10
5.10925
 20
7.366
 30
0.0
 10
5.1076618769
 20
7.3657286441
 30
0.0
 10
5.1015761748
 20
7.3647275154
 30
0.0
 10
5.0887516407
 20
7.3629314867
 30
0.0
 10
5.0695055783
 20
7.3611167576
 30
0.0
 10
5.0467499431
 20
7.3603576639
 30
0.0
 10
5.0239943327
 20
7.3611167623
 30
0.0
 10
5.0047483168
 20
7.3629314927
 30
0.0
 10
4.9919238177
 20
7.3647275177
 30
0.0
 10
4.9858381258
 20
7.3657286439
 30
0.0
 10
4.98425
 20
7.366
 30
0.0
  0
SPLINE
  5
311
100
AcDbEntity
  8
126-502_HEX_FEATURES
100
AcDbSpline
 62
7
  6
CONTINUOUS
 70
0
 71
3
 72
14
 73
10
 74
0
 42
0.0000001
 43
0.0000001
 44
0.0000000001
 40
0.0
 40
0.0
 40
0.0
 40
0.0
 40
0.2266717893
 40
0.3471632436
 40
0.4719399869
 40
0.6004447024
 40
0.7319997049
 40
0.8656101346
 40
1.0
 40
1.0
 40
1.0
 40
1.0
 10
5.0923113733
 20
7.2269904546
 30
0.0
 10
5.0892840294
 20
7.2289200069
 30
0.0
 10
5.0843274759
 20
7.2313900345
 30
0.0
 10
5.0772891718
 20
7.2339138552
 30
0.0
 10
5.0715800953
 20
7.2355008497
 30
0.0
 10
5.0656083535
 20
7.236739464
 30
0.0
 10
5.0594328448
 20
7.2376254727
 30
0.0
 10
5.0531239346
 20
7.2381576799
 30
0.0
 10
5.0488784406
 20
7.2382766305
 30
0.0
 10
5.04675
 20
7.2382766305
 30
0.0
  0
SPLINE
  5
312
100
AcDbEntity
  8
126-502_HEX_FEATURES
100
AcDbSpline
 62
7
  6
CONTINUOUS
 70
0
 71
3
 72
23
 73
19
 74
0
 42
0.0000001
 43
0.0000001
 44
0.0000000001
 40
0.0
 40
0.0
 40
0.0
 40
0.0
 40
0.0506507653
 40
0.1025613452
 40
0.156056456
 40
0.211364892
 40
0.2685929952
 40
0.3277785131
 40
0.3888843812
 40
0.4518141832
 40
0.5164410778
 40
0.5825868988
 40
0.6500534788
 40
0.718647363
 40
0.7881758221
 40
0.8584460941
 40
0.9291750801
 40
1.0
 40
1.0
 40
1.0
 40
1.0
 10
5.1092499997
 20
7.2588016934
 30
0.0
 10
5.1092500115
 20
7.2573394238
 30
0.0
 10
5.1090400801
 20
7.25437498
 30
0.0
 10
5.1081254024
 20
7.2499513409
 30
0.0
 10
5.1066174043
 20
7.2455509586
 30
0.0
 10
5.1045324818
 20
7.2412233177
 30
0.0
 10
5.1018967223
 20
7.2370132703
 30
0.0
 10
5.0987336364
 20
7.2329697659
 30
0.0
 10
5.0950756063
 20
7.2291378899
 30
0.0
 10
5.0909574209
 20
7.2255615842
 30
0.0
 10
5.0864152731
 20
7.2222870352
 30
0.0
 10
5.0814941174
 20
7.2193516971
 30
0.0
 10
5.0762384438
 20
7.2167948917
 30
0.0
 10
5.0706958318
 20
7.2146529097
 30
0.0
 10
5.0649182153
 20
7.2129511734
 30
0.0
 10
5.0589592292
 20
7.2117200284
 30
0.0
 10
5.052883187
 20
7.2109742433
 30
0.0
 10
5.0487946902
 20
7.2108055811
 30
0.0
 10
5.04675
 20
7.2108055811
 30
0.0
  0
SPLINE
  5
313
100
AcDbEntity
  8
126-502_HEX_FEATURES
100
AcDbSpline
 62
7
  6
CONTINUOUS
 70
0
 71
3
 72
14
 73
10
 74
0
 42
0.0000001
 43
0.0000001
 44
0.0000000001
 40
0.0
 40
0.0
 40
0.0
 40
0.0
 40
0.226674999
 40
0.3471672061
 40
0.4719441009
 40
0.6004483945
 40
0.7320024733
 40
0.8656115985
 40
1.0
 40
1.0
 40
1.0
 40
1.0
 10
5.001191565
 20
6.773007673
 30
0.0
 10
5.0042188626
 20
6.7710784422
 30
0.0
 10
5.0091752259
 20
6.7686088266
 30
0.0
 10
5.016213165
 20
6.7660854173
 30
0.0
 10
5.0219218713
 20
6.7644986869
 30
0.0
 10
5.02789318
 20
6.763260279
 30
0.0
 10
5.0340682056
 20
6.7623744184
 30
0.0
 10
5.040376599
 20
6.7618423001
 30
0.0
 10
5.0446217384
 20
6.7617233695
 30
0.0
 10
5.04675
 20
6.7617233695
 30
0.0
  0
SPLINE
  5
314
100
AcDbEntity
  8
126-502_HEX_FEATURES
100
AcDbSpline
 62
7
  6
CONTINUOUS
 70
0
 71
3
 72
23
 73
19
 74
0
 42
0.0000001
 43
0.0000001
 44
0.0000000001
 40
0.0
 40
0.0
 40
0.0
 40
0.0
 40
0.0506509315
 40
0.1025617883
 40
0.1560571098
 40
0.2113658209
 40
0.2685942498
 40
0.3277800233
 40
0.3888861154
 40
0.4518158721
 40
0.5164423648
 40
0.5825876601
 40
0.6500536686
 40
0.7186470148
 40
0.7881751769
 40
0.8584455724
 40
0.9291748677
 40
1.0
 40
1.0
 40
1.0
 40
1.0
 10
4.9842500001
 20
6.741198533
 30
0.0
 10
4.9842499928
 20
6.7426608036
 30
0.0
 10
4.9844599485
 20
6.7456252519
 30
0.0
 10
4.9853746719
 20
6.7500488877
 30
0.0
 10
4.9868826827
 20
6.7544492758
 30
0.0
 10
4.9889676447
 20
6.758776911
 30
0.0
 10
4.9916034397
 20
6.7629869491
 30
0.0
 10
4.9947665444
 20
6.7670304517
 30
0.0
 10
4.9984246057
 20
6.7708622964
 30
0.0
 10
5.0025427823
 20
6.7744385792
 30
0.0
 10
5.0070849021
 20
6.7777130951
 30
0.0
 10
5.0120060247
 20
6.7806483749
 30
0.0
 10
5.0172616449
 20
6.7832051453
 30
0.0
 10
5.0228042038
 20
6.785347109
 30
0.0
 10
5.0285817871
 20
6.787048831
 30
0.0
 10
5.034540764
 20
6.7882799611
 30
0.0
 10
5.0406168078
 20
6.7890257518
 30
0.0
 10
5.044705309
 20
6.7891944189
 30
0.0
 10
5.04675
 20
6.7891944189
 30
0.0
  0
SPLINE
  5
315
100
AcDbEntity
  8
126-502_HEX_FEATURES
100
AcDbSpline
 62
7
  6
CONTINUOUS
 70
0
 71
3
 72
14
 73
10
 74
0
 42
0.0000001
 43
0.0000001
 44
0.0000000001
 40
0.0
 40
0.0
 40
0.0
 40
0.0
 40
0.1343918256
 40
0.2680044896
 40
0.3995612923
 40
0.5280664327
 40
0.6528425475
 40
0.7733326972
 40
1.0
 40
1.0
 40
1.0
 40
1.0
 10
5.04675
 20
7.2382766305
 30
0.0
 10
5.0446213568
 20
7.2382766305
 30
0.0
 10
5.0403754539
 20
7.2381576545
 30
0.0
 10
5.0340659446
 20
7.2376253419
 30
0.0
 10
5.0278898791
 20
7.2367391695
 30
0.0
 10
5.0219176567
 20
7.2355003219
 30
0.0
 10
5.0162081895
 20
7.2339130331
 30
0.0
 10
5.0091695132
 20
7.2313887647
 30
0.0
 10
5.0042127728
 20
7.2289182899
 30
0.0
 10
5.0011853902
 20
7.2269883922
 30
0.0
  0
SPLINE
  5
316
100
AcDbEntity
  8
126-502_HEX_FEATURES
100
AcDbSpline
 62
7
  6
CONTINUOUS
 70
0
 71
3
 72
14
 73
10
 74
0
 42
0.0000001
 43
0.0000001
 44
0.0000000001
 40
0.0
 40
0.0
 40
0.0
 40
0.0
 40
0.13439005
 40
0.2680011488
 40
0.3995568568
 40
0.5280614922
 40
0.6528377868
 40
0.7733288411
 40
1.0
 40
1.0
 40
1.0
 40
1.0
 10
5.04675
 20
6.7617233695
 30
0.0
 10
5.0488784278
 20
6.7617233695
 30
0.0
 10
5.0531239039
 20
6.7618423216
 30
0.0
 10
5.0594327918
 20
6.7623745273
 30
0.0
 10
5.0656082767
 20
6.7632605213
 30
0.0
 10
5.0715799785
 20
6.7644991207
 30
0.0
 10
5.0772890005
 20
6.7660860919
 30
0.0
 10
5.0843272377
 20
6.7686098659
 30
0.0
 10
5.0892837494
 20
6.7710798449
 30
0.0
 10
5.0923110765
 20
6.7730093556
 30
0.0
  0
SPLINE
  5
317
100
AcDbEntity
  8
126-502_HEX_FEATURES
100
AcDbSpline
 62
7
  6
CONTINUOUS
 70
0
 71
3
 72
23
 73
19
 74
0
 42
0.0000001
 43
0.0000001
 44
0.0000000001
 40
0.0
 40
0.0
 40
0.0
 40
0.0
 40
0.0708246588
 40
0.1415531491
 40
0.2118226171
 40
0.2813503445
 40
0.3499440538
 40
0.4174114711
 40
0.4835588418
 40
0.5481872236
 40
0.6111176992
 40
0.6722236033
 40
0.7314089529
 40
0.7886366464
 40
0.8439446876
 40
0.8974394617
 40
0.9493495296
 40
1.0
 40
1.0
 40
1.0
 40
1.0
 10
5.04675
 20
7.2108055811
 30
0.0
 10
5.0447053063
 20
7.2108055811
 30
0.0
 10
5.0406168095
 20
7.2109742426
 30
0.0
 10
5.0345407788
 20
7.2117200228
 30
0.0
 10
5.0285818193
 20
7.2129511663
 30
0.0
 10
5.0228042136
 20
7.2146528777
 30
0.0
 10
5.0172615716
 20
7.2167948685
 30
0.0
 10
5.0120058296
 20
7.2193517522
 30
0.0
 10
5.007084564
 20
7.2222871827
 30
0.0
 10
5.0025422986
 20
7.2255618028
 30
0.0
 10
4.9984240524
 20
7.2291381834
 30
0.0
 10
4.9947660464
 20
7.2329701433
 30
0.0
 10
4.9916029786
 20
7.2370136763
 30
0.0
 10
4.9889672758
 20
7.2412237597
 30
0.0
 10
4.9868824233
 20
7.2455514241
 30
0.0
 10
4.9853744467
 20
7.2499518029
 30
0.0
 10
4.9844598608
 20
7.2543754545
 30
0.0
 10
4.9842499797
 20
7.257339892
 30
0.0
 10
4.984250001
 20
7.2588021609
 30
0.0
  0
SPLINE
  5
318
100
AcDbEntity
  8
126-502_HEX_FEATURES
100
AcDbSpline
 62
7
  6
CONTINUOUS
 70
0
 71
3
 72
15
 73
11
 74
0
 42
0.0000001
 43
0.0000001
 44
0.0000000001
 40
0.0
 40
0.0
 40
0.0
 40
0.0
 40
0.0384828145
 40
0.1473085431
 40
0.309241727
 40
0.4999884953
 40
0.6907370095
 40
0.8526767225
 40
0.9615176523
 40
1.0
 40
1.0
 40
1.0
 40
1.0
 10
4.98425
 20
6.634
 30
0.0
 10
4.9858380741
 20
6.6342713471
 30
0.0
 10
4.9919236012
 20
6.6352724455
 30
0.0
 10
5.004747787
 20
6.6370684312
 30
0.0
 10
5.0239933908
 20
6.6388831898
 30
0.0
 10
5.0467486272
 20
6.6396423189
 30
0.0
 10
5.0695041419
 20
6.638883338
 30
0.0
 10
5.0887507379
 20
6.6370686301
 30
0.0
 10
5.1015758152
 20
6.6352725782
 30
0.0
 10
5.1076619468
 20
6.634271354
 30
0.0
 10
5.10925
 20
6.634
 30
0.0
  0
SPLINE
  5
319
100
AcDbEntity
  8
126-502_HEX_FEATURES
100
AcDbSpline
 62
7
  6
CONTINUOUS
 70
0
 71
3
 72
21
 73
17
 74
0
 42
0.0000001
 43
0.0000001
 44
0.0000000001
 40
0.0
 40
0.0
 40
0.0
 40
0.0
 40
0.0745307766
 40
0.1487171001
 40
0.2936532555
 40
0.4314439977
 40
0.4970482915
 40
0.5602302121
 40
0.6209574318
 40
0.6793354878
 40
0.7355842509
 40
0.7900459048
 40
0.8431650797
 40
0.8954793299
 40
0.9475677164
 40
1.0
 40
1.0
 40
1.0
 40
1.0
 10
5.04675
 20
6.7008060713
 30
0.0
 10
5.04470616
 20
6.7008060713
 30
0.0
 10
5.0406268049
 20
6.7009237065
 30
0.0
 10
5.0326006895
 20
6.7016191617
 30
0.0
 10
5.0229365339
 20
6.703322057
 30
0.0
 10
5.01379231
 20
6.7062052216
 30
0.0
 10
5.007119348
 20
6.7092082657
 30
0.0
 10
5.0025717374
 20
6.7117383324
 30
0.0
 10
4.9984449616
 20
6.7145735896
 30
0.0
 10
4.9947760225
 20
6.7176965333
 30
0.0
 10
4.9916017448
 20
6.7210916478
 30
0.0
 10
4.9889568555
 20
6.7247384878
 30
0.0
 10
4.9868660984
 20
6.7286081133
 30
0.0
 10
4.9853588282
 20
6.7326720582
 30
0.0
 10
4.9844502176
 20
6.7368901482
 30
0.0
 10
4.9842500073
 20
6.7397606948
 30
0.0
 10
4.9842500001
 20
6.741198533
 30
0.0
  0
SPLINE
  5
31A
100
AcDbEntity
  8
126-502_HEX_FEATURES
100
AcDbSpline
 62
7
  6
CONTINUOUS
 70
0
 71
3
 72
21
 73
17
 74
0
 42
0.0000001
 43
0.0000001
 44
0.0000000001
 40
0.0
 40
0.0
 40
0.0
 40
0.0
 40
0.0524322191
 40
0.1045205211
 40
0.1568349177
 40
0.2099540953
 40
0.2644157783
 40
0.3206645849
 40
0.3790426658
 40
0.4397698328
 40
0.502951661
 40
0.5685559401
 40
0.7063465032
 40
0.8512825024
 40
0.9254689655
 40
1.0
 40
1.0
 40
1.0
 40
1.0
 10
4.984250001
 20
7.2588021609
 30
0.0
 10
4.984250022
 20
7.2602399853
 30
0.0
 10
4.9844502937
 20
7.2631105031
 30
0.0
 10
4.9853590343
 20
7.2673285246
 30
0.0
 10
4.9868663188
 20
7.2713924254
 30
0.0
 10
4.9889571431
 20
7.2752619822
 30
0.0
 10
4.9916020888
 20
7.2789087334
 30
0.0
 10
4.9947763564
 20
7.2823038069
 30
0.0
 10
4.9984453129
 20
7.2854266701
 30
0.0
 10
5.0025720708
 20
7.2882618704
 30
0.0
 10
5.0071196506
 20
7.2907918943
 30
0.0
 10
5.0137925701
 20
7.2937948638
 30
0.0
 10
5.0229367116
 20
7.296677983
 30
0.0
 10
5.0326007834
 20
7.29838085
 30
0.0
 10
5.0406268383
 20
7.2990762951
 30
0.0
 10
5.0447061701
 20
7.2991939287
 30
0.0
 10
5.04675
 20
7.2991939287
 30
0.0
  0
SPLINE
  5
31B
100
AcDbEntity
  8
126-502_HEX_FEATURES
100
AcDbSpline
 62
7
  6
CONTINUOUS
 70
0
 71
3
 72
21
 73
17
 74
0
 42
0.0000001
 43
0.0000001
 44
0.0000000001
 40
0.0
 40
0.0
 40
0.0
 40
0.0
 40
0.0745308267
 40
0.1487171164
 40
0.2936531181
 40
0.4314438765
 40
0.4970482123
 40
0.5602301488
 40
0.6209573966
 40
0.6793355012
 40
0.7355843037
 40
0.7900459744
 40
0.8431651444
 40
0.8954794229
 40
0.9475677591
 40
1.0
 40
1.0
 40
1.0
 40
1.0
 10
5.04675
 20
7.2991939287
 30
0.0
 10
5.0487938358
 20
7.2991939287
 30
0.0
 10
5.0528731802
 20
7.2990762947
 30
0.0
 10
5.06089927
 20
7.2983808444
 30
0.0
 10
5.0705633953
 20
7.2966779581
 30
0.0
 10
5.0797075934
 20
7.2937948104
 30
0.0
 10
5.0863805464
 20
7.2907917902
 30
0.0
 10
5.0909281505
 20
7.2882617361
 30
0.0
 10
5.0950549232
 20
7.285426495
 30
0.0
 10
5.0987238702
 20
7.2823035754
 30
0.0
 10
5.1018981465
 20
7.2789084733
 30
0.0
 10
5.1045430535
 20
7.2752616608
 30
0.0
 10
5.1066338313
 20
7.2713920577
 30
0.0
 10
5.1081411064
 20
7.2673281286
 30
0.0
 10
5.1090497582
 20
7.2631100625
 30
0.0
 10
5.1092499881
 20
7.2602395265
 30
0.0
 10
5.1092499997
 20
7.2588016934
 30
0.0
  0
SPLINE
  5
31C
100
AcDbEntity
  8
0
100
AcDbSpline
 62
7
  6
CONTINUOUS
 70
0
 71
3
 72
19
 73
15
 74
0
 42
0.0000001
 43
0.0000001
 44
0.0000000001
 40
0.0
 40
0.0
 40
0.0
 40
0.0
 40
0.1255570989
 40
0.2506679576
 40
0.3130877084
 40
0.3754357534
 40
0.4377309837
 40
0.5000000179
 40
0.5622690537
 40
0.6245642827
 40
0.6869123252
 40
0.7493320735
 40
0.8744429083
 40
1.0
 40
1.0
 40
1.0
 40
1.0
 10
3.4558136659
 20
7.0296137863
 30
0.0
 10
3.4512242637
 20
7.0450270202
 30
0.0
 10
3.4428815149
 20
7.0760520362
 30
0.0
 10
3.4349673624
 20
7.1154008268
 30
0.0
 10
3.4304111242
 20
7.1470876627
 30
0.0
 10
3.4279323816
 20
7.1709256404
 30
0.0
 10
3.4264249663
 20
7.1948256555
 30
0.0
 10
3.4259235152
 20
7.2187580241
 30
0.0
 10
3.42642497
 20
7.2426903924
 30
0.0
 10
3.4279323784
 20
7.2665904077
 30
0.0
 10
3.4304111304
 20
7.2904283836
 30
0.0
 10
3.4349673586
 20
7.3221152171
 30
0.0
 10
3.4428815188
 20
7.3614640021
 30
0.0
 10
3.451224264
 20
7.3924890146
 30
0.0
 10
3.4558136659
 20
7.4079022477
 30
0.0
  0
SPLINE
  5
31D
100
AcDbEntity
  8
0
100
AcDbSpline
 62
7
  6
CONTINUOUS
 70
0
 71
3
 72
11
 73
7
 74
0
 42
0.0000001
 43
0.0000001
 44
0.0000000001
 40
0.0
 40
0.0
 40
0.0
 40
0.0
 40
0.2478478395
 40
0.4970714566
 40
0.7477901551
 40
1.0
 40
1.0
 40
1.0
 40
1.0
 10
3.89075
 20
7.2816386778
 30
0.0
 10
3.8886835903
 20
7.2925695349
 30
0.0
 10
3.8835174142
 20
7.3143093505
 30
0.0
 10
3.8730670598
 20
7.3462381996
 30
0.0
 10
3.8602677442
 20
7.3775045244
 30
0.0
 10
3.850438787
 20
7.3978412079
 30
0.0
 10
3.84525
 20
7.4079022477
 30
0.0
  0
SPLINE
  5
31E
100
AcDbEntity
  8
0
100
AcDbSpline
 62
7
  6
CONTINUOUS
 70
0
 71
3
 72
11
 73
7
 74
0
 42
0.0000001
 43
0.0000001
 44
0.0000000001
 40
0.0
 40
0.0
 40
0.0
 40
0.0
 40
0.252210411
 40
0.5029296225
 40
0.7521526081
 40
1.0
 40
1.0
 40
1.0
 40
1.0
 10
3.84525
 20
7.0296137863
 30
0.0
 10
3.8504387987
 20
7.0396748487
 30
0.0
 10
3.8602677948
 20
7.0600115686
 30
0.0
 10
3.8730670639
 20
7.0912779333
 30
0.0
 10
3.8835174671
 20
7.12320674
 30
0.0
 10
3.888683594
 20
7.1449465188
 30
0.0
 10
3.89075
 20
7.1558773562
 30
0.0
  0
SPLINE
  5
31F
100
AcDbEntity
  8
126-502_HEX_FEATURES
100
AcDbSpline
 62
7
  6
CONTINUOUS
 70
0
 71
3
 72
21
 73
17
 74
0
 42
0.0000001
 43
0.0000001
 44
0.0000000001
 40
0.0
 40
0.0
 40
0.0
 40
0.0
 40
0.0524322699
 40
0.1045206294
 40
0.1568349896
 40
0.2099541711
 40
0.2644158342
 40
0.3206645959
 40
0.3790426224
 40
0.4397697583
 40
0.5029515682
 40
0.568555797
 40
0.7063463441
 40
0.8512825271
 40
0.9254690276
 40
1.0
 40
1.0
 40
1.0
 40
1.0
 10
5.1092499994
 20
6.7411981018
 30
0.0
 10
5.1092499835
 20
6.7397602715
 30
0.0
 10
5.1090497345
 20
6.7368897413
 30
0.0
 10
5.1081410421
 20
6.7326716922
 30
0.0
 10
5.1066337629
 20
6.7286077733
 30
0.0
 10
5.1045429626
 20
6.7247381907
 30
0.0
 10
5.1018980379
 20
6.7210914073
 30
0.0
 10
5.0987237683
 20
6.7176963197
 30
0.0
 10
5.095054821
 20
6.7145734282
 30
0.0
 10
5.0909280594
 20
6.7117382091
 30
0.0
 10
5.086380472
 20
6.7092081707
 30
0.0
 10
5.0797075422
 20
6.7062051733
 30
0.0
 10
5.0705633706
 20
6.7033220346
 30
0.0
 10
5.0608992633
 20
6.7016191571
 30
0.0
 10
5.0528731788
 20
6.7009237063
 30
0.0
 10
5.0487938347
 20
6.7008060713
 30
0.0
 10
5.04675
 20
6.7008060713
 30
0.0
  0
SPLINE
  5
320
100
AcDbEntity
  8
0
100
AcDbSpline
 62
7
  6
CONTINUOUS
 70
0
 71
3
 72
19
 73
15
 74
0
 42
0.0000001
 43
0.0000001
 44
0.0000000001
 40
0.0
 40
0.0
 40
0.0
 40
0.0
 40
0.1255570989
 40
0.2506679576
 40
0.3130877084
 40
0.3754357534
 40
0.4377309837
 40
0.5000000179
 40
0.5622690537
 40
0.6245642827
 40
0.6869123252
 40
0.7493320735
 40
0.8744429083
 40
1.0
 40
1.0
 40
1.0
 40
1.0
 10
3.4558136659
 20
6.5920977523
 30
0.0
 10
3.4512242637
 20
6.6075109862
 30
0.0
 10
3.4428815149
 20
6.6385360022
 30
0.0
 10
3.4349673624
 20
6.6778847928
 30
0.0
 10
3.4304111242
 20
6.7095716287
 30
0.0
 10
3.4279323816
 20
6.7334096064
 30
0.0
 10
3.4264249663
 20
6.7573096215
 30
0.0
 10
3.4259235152
 20
6.7812419901
 30
0.0
 10
3.42642497
 20
6.8051743584
 30
0.0
 10
3.4279323784
 20
6.8290743737
 30
0.0
 10
3.4304111304
 20
6.8529123496
 30
0.0
 10
3.4349673586
 20
6.8845991831
 30
0.0
 10
3.4428815188
 20
6.9239479681
 30
0.0
 10
3.451224264
 20
6.9549729807
 30
0.0
 10
3.4558136659
 20
6.9703862137
 30
0.0
  0
SPLINE
  5
321
100
AcDbEntity
  8
0
100
AcDbSpline
 62
7
  6
CONTINUOUS
 70
0
 71
3
 72
11
 73
7
 74
0
 42
0.0000001
 43
0.0000001
 44
0.0000000001
 40
0.0
 40
0.0
 40
0.0
 40
0.0
 40
0.2478478395
 40
0.4970714566
 40
0.7477901551
 40
1.0
 40
1.0
 40
1.0
 40
1.0
 10
3.89075
 20
6.8441226438
 30
0.0
 10
3.8886835903
 20
6.8550535009
 30
0.0
 10
3.8835174142
 20
6.8767933165
 30
0.0
 10
3.8730670598
 20
6.9087221656
 30
0.0
 10
3.8602677442
 20
6.9399884904
 30
0.0
 10
3.850438787
 20
6.960325174
 30
0.0
 10
3.84525
 20
6.9703862137
 30
0.0
  0
SPLINE
  5
322
100
AcDbEntity
  8
0
100
AcDbSpline
 62
7
  6
CONTINUOUS
 70
0
 71
3
 72
11
 73
7
 74
0
 42
0.0000001
 43
0.0000001
 44
0.0000000001
 40
0.0
 40
0.0
 40
0.0
 40
0.0
 40
0.252210411
 40
0.5029296225
 40
0.7521526081
 40
1.0
 40
1.0
 40
1.0
 40
1.0
 10
3.84525
 20
6.5920977523
 30
0.0
 10
3.8504387987
 20
6.6021588147
 30
0.0
 10
3.8602677948
 20
6.6224955346
 30
0.0
 10
3.8730670639
 20
6.6537618994
 30
0.0
 10
3.8835174671
 20
6.685690706
 30
0.0
 10
3.888683594
 20
6.7074304848
 30
0.0
 10
3.89075
 20
6.7183613222
 30
0.0
  0
ELLIPSE
  5
323
100
AcDbEntity
  8
0
100
AcDbEllipse
 62
7
  6
CONTINUOUS
 10
6.45525
 20
6.6775
 30
0.0
 11
-0.0
 21
0.035
 31
0.0
 40
1.0
 41
-4.7123889804
 42
-1.5707963268
  0
ELLIPSE
  5
324
100
AcDbEntity
  8
0
100
AcDbEllipse
 62
7
  6
CONTINUOUS
 10
6.45525
 20
7.3225
 30
0.0
 11
0.035
 21
-0.0
 31
0.0
 40
1.0
 41
0.0
 42
3.1415926536
  0
ELLIPSE
  5
325
100
AcDbEntity
  8
0
100
AcDbEllipse
 62
7
  6
CONTINUOUS
 10
4.69375
 20
6.5915
 30
0.0
 11
-0.0
 21
0.035
 31
0.0
 40
1.0
 41
-4.7123889804
 42
-1.5707963268
  0
ELLIPSE
  5
326
100
AcDbEntity
  8
0
100
AcDbEllipse
 62
7
  6
CONTINUOUS
 10
4.69375
 20
7.4085
 30
0.0
 11
0.035
 21
-0.0
 31
0.0
 40
1.0
 41
0.0
 42
3.1415926536
  0
ELLIPSE
  5
327
100
AcDbEntity
  8
0
100
AcDbEllipse
 62
7
  6
CONTINUOUS
 10
5.28475
 20
6.5915
 30
0.0
 11
-0.0
 21
0.035
 31
0.0
 40
1.0
 41
-4.7123889804
 42
-1.5707963268
  0
ELLIPSE
  5
328
100
AcDbEntity
  8
0
100
AcDbEllipse
 62
7
  6
CONTINUOUS
 10
5.28475
 20
7.4085
 30
0.0
 11
0.035
 21
0.0
 31
0.0
 40
1.0
 41
0.0
 42
3.1415926536
  0
ELLIPSE
  5
329
100
AcDbEntity
  8
0
100
AcDbEllipse
 62
7
  6
CONTINUOUS
 10
4.19375
 20
6.5765
 30
0.0
 11
0.0
 21
0.035
 31
0.0
 40
1.0
 41
-4.7123889804
 42
-1.5707963268
  0
ELLIPSE
  5
32A
100
AcDbEntity
  8
0
100
AcDbEllipse
 62
7
  6
CONTINUOUS
 10
4.19375
 20
7.4235
 30
0.0
 11
0.035
 21
-0.0
 31
0.0
 40
1.0
 41
0.0
 42
3.1415926536
  0
ENDSEC
  0
SECTION
  2
OBJECTS
  0
DICTIONARY
  5
C
100
AcDbDictionary
280
0
281
1
  3
ACAD_GROUP
350
D
  3
ACAD_MLINESTYLE
350
17
  3
ACAD_LAYOUT
350
1A
  3
ACAD_PLOTSETTINGS
350
19
  3
ACAD_PLOTSTYLENAME
350
E
  0
DICTIONARY
  5
D
102
{ACAD_REACTORS
330
C
102
}
100
AcDbDictionary
280
0
281
1
  0
ACDBDICTIONARYWDFLT
  5
E
102
{ACAD_REACTORS
330
C
102
}
100
AcDbDictionary
281
1
  3
Normal
350
F
100
AcDbDictionaryWithDefault
340
F
  0
DICTIONARY
  5
17
102
{ACAD_REACTORS
330
C
102
}
100
AcDbDictionary
280
0
281
1
  3
Standard
350
18
  0
DICTIONARY
  5
19
102
{ACAD_REACTORS
330
C
102
}
100
AcDbDictionary
281
1
  0
DICTIONARY
  5
1A
102
{ACAD_REACTORS
330
C
102
}
100
AcDbDictionary
281
1
  3
Model
350
32B
  3
Layout1
350
32C
  0
ACDBPLACEHOLDER
  5
F
102
{ACAD_REACTORS
330
E
102
}
  0
MLINESTYLE
  5
18
102
{ACAD_REACTORS
330
17
102
}
100
AcDbMlineStyle
  2
STANDARD
 70
0
  3

 62
256
 51
90.0
 52
90.0
 71
2
 49
0.5
 62
256
  6
BYLAYER
 49
-0.5
 62
256
  6
BYLAYER
  0
LAYOUT
  5
32B
102
{ACAD_REACTORS
330
1A
102
}
100
AcDbPlotSettings
  1

  2
none_device
  4
ANSI_B_(17.00_x_11.00_Inches)
  6

 40
0.0
 41
0.0
 42
0.0
 43
0.0
 44
431.8
 45
279.4
 46
0.0
 47
0.0
 48
0.0
 49
0.0
140
0.0
141
0.0
142
1.0
143
1.0
 70
1024
 72
0
 73
0
 74
0
  7

 75
0
147
1.0
148
0.0
149
0.0
100
AcDbLayout
  1
Model
 70
0
 71
0
 10
0.0
 20
0.0
 11
17.0
 21
11.0
 12
0.0
 22
0.0
 32
0.0
 14
0.0
 24
0.0
 34
0.0
 15
0.0
 25
0.0
 35
0.0
146
0.0
 13
0.0
 23
0.0
 33
0.0
 16
1.0
 26
0.0
 36
0.0
 17
0.0
 27
1.0
 37
0.0
 76
0
330
23D
345
0
346
0
  0
LAYOUT
  5
32C
102
{ACAD_REACTORS
330
1A
102
}
100
AcDbPlotSettings
  1

  2
none_device
  4
ANSI_B_(17.00_x_11.00_Inches)
  6

 40
0.0
 41
0.0
 42
0.0
 43
0.0
 44
431.8
 45
279.4
 46
0.0
 47
0.0
 48
0.0
 49
0.0
140
0.0
141
0.0
142
1.0
143
1.0
 70
0
 72
0
 73
0
 74
0
  7

 75
0
147
1.0
148
0.0
149
0.0
100
AcDbLayout
  1
Layout1
 70
0
 71
1
 10
0.0
 20
0.0
 11
17.0
 21
11.0
 12
0.0
 22
0.0
 32
0.0
 14
0.0
 24
0.0
 34
0.0
 15
0.0
 25
0.0
 35
0.0
146
0.0
 13
0.0
 23
0.0
 33
0.0
 16
1.0
 26
0.0
 36
0.0
 17
0.0
 27
1.0
 37
0.0
 76
0
330
23E
345
0
346
0
  0
ENDSEC
  0
EOF
