999
DXF file: FSBDXAN.dxf
999
Pro/ENGINEER 2016010 by Parametric Technology Corporation
  0
SECTION
  2
HEADER
  9
$ACADVER
  1
AC1021
  9
$DWGCODEPAGE
  3
ANSI_1252
  9
$EXTMAX
 10
17.0
 20
11.0
 30
0.0
  9
$EXTMIN
 10
0.0
 20
0.0
 30
0.0
  9
$LIMMIN
 10
0.0
 20
0.0
  9
$LIMMAX
 10
17.0
 20
11.0
  9
$VIEWCTR
 10
8.5
 20
5.5
  9
$VIEWSIZE
 40
11.0
  9
$CLAYER
  8
0
  9
$LTSCALE
 40
0.935
  9
$CELTYPE
  6
BYLAYER
  9
$DIMSCALE
 40
1.0
  9
$DIMASZ
 40
0.1875
  9
$DIMEXO
 40
0.0625
  9
$DIMDLI
 40
0.646
  9
$DIMEXE
 40
0.125
  9
$DIMCEN
 40
0.153
  9
$DIMLFAC
 40
1.0
  9
$DIMBLK
  1
_FILLED
  9
$DIMALT
 70
0
  9
$DIMALTF
 40
25.4
  9
$DIMTXT
 40
0.125
  9
$DIMTOL
 70
0
  9
$DIMLIM
 70
0
  9
$DIMTFAC
 40
1.0
  9
$DIMGAP
 40
0.09
  9
$DIMDSEP
 70
46
  9
$AUNITS
 70
0
  9
$PDMODE
 70
3
  9
$PDSIZE
 40
0.3125
  9
$HANDSEED
  5
33B
  9
$TILEMODE
 70
1
  9
$MEASUREMENT
 70
0
  9
$INSUNITS
 70
1
  0
ENDSEC
  0
SECTION
  2
CLASSES
  0
CLASS
  1
ACDBDICTIONARYWDFLT
  2
AcDbDictionaryWithDefault
  3
AutoCAD 2000
 90
0
 91
1
280
0
281
0
  0
CLASS
  1
ACDBPLACEHOLDER
  2
AcDbPlaceHolder
  3
AutoCAD 2000
 90
0
 91
1
280
0
281
0
  0
CLASS
  1
LAYOUT
  2
AcDbLayout
  3
AutoCAD 2000
 90
0
 91
0
280
0
281
0
  0
ENDSEC
  0
SECTION
  2
TABLES
  0
TABLE
  2
VPORT
  5
8
100
AcDbSymbolTable
 70
2
  0
VPORT
  5
1F4
100
AcDbSymbolTableRecord
100
AcDbViewportTableRecord
  2
*ACTIVE
 70
0
 10
0.0
 20
0.0
 11
1.0
 21
1.0
 12
8.5
 22
5.5
 13
0.0
 23
0.0
 14
1.0
 24
1.0
 15
0.0
 25
0.0
 16
0.0
 26
0.0
 36
1.0
 17
0.0
 27
0.0
 37
0.0
 40
11.0
 41
1.5454545455
 42
50.0
 43
0.0
 44
0.0
 50
0.0
 51
0.0
 71
0
 72
100
 73
1
 74
1
 75
0
 76
0
 77
0
 78
0
  0
ENDTAB
  0
TABLE
  2
LTYPE
  5
5
100
AcDbSymbolTable
 70
6
  0
LTYPE
  5
14
100
AcDbSymbolTableRecord
100
AcDbLinetypeTableRecord
  2
BYBLOCK
 70
0
  3

 72
65
 73
0
 40
0.0
  0
LTYPE
  5
15
100
AcDbSymbolTableRecord
100
AcDbLinetypeTableRecord
  2
BYLAYER
 70
0
  3

 72
65
 73
0
 40
0.0
  0
LTYPE
  5
16
100
AcDbSymbolTableRecord
100
AcDbLinetypeTableRecord
  2
CONTINUOUS
 70
64
  3
Solid line
 72
65
 73
0
 40
0.0
  0
LTYPE
  5
1F5
100
AcDbSymbolTableRecord
100
AcDbLinetypeTableRecord
  2
CENTER
 70
64
  3
____ _ ____ _ ____ _ ____ _ ____ _ ____ _ ____
 72
65
 73
4
 40
0.6
 49
0.375
 74
0
 49
-0.075
 74
0
 49
0.075
 74
0
 49
-0.075
 74
0
  0
LTYPE
  5
1F6
100
AcDbSymbolTableRecord
100
AcDbLinetypeTableRecord
  2
HIDDEN
 70
64
  3
- - - - - - - - - - - - - - - - - - - -
 72
65
 73
2
 40
0.2
 49
0.1
 74
0
 49
-0.1
 74
0
  0
LTYPE
  5
1F7
100
AcDbSymbolTableRecord
100
AcDbLinetypeTableRecord
  2
PHANTOM
 70
64
  3
_____ _ _ _____ _ _ _____ _ _ _____
 72
65
 73
6
 40
0.8
 49
0.45
 74
0
 49
-0.05
 74
0
 49
0.1
 74
0
 49
-0.05
 74
0
 49
0.1
 74
0
 49
-0.05
 74
0
  0
LTYPE
  5
1F8
100
AcDbSymbolTableRecord
100
AcDbLinetypeTableRecord
  2
DOT
 70
64
  3
. . . . . . . . . . . . . . . . . . . .
 72
65
 73
2
 40
0.2
 49
0.1
 74
0
 49
-0.1
 74
0
  0
LTYPE
  5
1F9
100
AcDbSymbolTableRecord
100
AcDbLinetypeTableRecord
  2
DASHED
 70
64
  3
- - - - - - - - - - - - - - - - - - - -
 72
65
 73
2
 40
0.2
 49
0.1
 74
0
 49
-0.1
 74
0
  0
ENDTAB
  0
TABLE
  2
LAYER
  5
2
100
AcDbSymbolTable
 70
36
  0
LAYER
  5
10
100
AcDbSymbolTableRecord
100
AcDbLayerTableRecord
  2
0
 70
0
 62
7
  6
CONTINUOUS
370
-3
390
F
  0
LAYER
  5
1FA
100
AcDbSymbolTableRecord
100
AcDbLayerTableRecord
  2
DEFAULT_1
 70
0
 62
7
  6
CENTER
370
-3
390
F
  0
LAYER
  5
1FB
100
AcDbSymbolTableRecord
100
AcDbLayerTableRecord
  2
DEFAULT_2
 70
0
 62
8
  6
HIDDEN
370
-3
390
F
  0
LAYER
  5
1FC
100
AcDbSymbolTableRecord
100
AcDbLayerTableRecord
  2
DEFAULT_3
 70
0
 62
7
  6
PHANTOM
370
-3
390
F
  0
LAYER
  5
1FD
100
AcDbSymbolTableRecord
100
AcDbLayerTableRecord
  2
01_ALL_DTM_PLN
 70
0
 62
7
  6
CONTINUOUS
370
-3
390
F
  0
LAYER
  5
1FE
100
AcDbSymbolTableRecord
100
AcDbLayerTableRecord
  2
01__ASM_ALL_DTM_PLN
 70
0
 62
7
  6
CONTINUOUS
370
-3
390
F
  0
LAYER
  5
1FF
100
AcDbSymbolTableRecord
100
AcDbLayerTableRecord
  2
01__ASM_DEF_DTM_PLN
 70
0
 62
7
  6
CONTINUOUS
370
-3
390
F
  0
LAYER
  5
200
100
AcDbSymbolTableRecord
100
AcDbLayerTableRecord
  2
01___PRT_ALL_DTM_PLN
 70
0
 62
7
  6
CONTINUOUS
370
-3
390
F
  0
LAYER
  5
201
100
AcDbSymbolTableRecord
100
AcDbLayerTableRecord
  2
01___PRT_DEF_DTM_PLN
 70
0
 62
7
  6
CONTINUOUS
370
-3
390
F
  0
LAYER
  5
202
100
AcDbSymbolTableRecord
100
AcDbLayerTableRecord
  2
02_ALL_AXES
 70
0
 62
7
  6
CONTINUOUS
370
-3
390
F
  0
LAYER
  5
203
100
AcDbSymbolTableRecord
100
AcDbLayerTableRecord
  2
02__ASM_ALL_AXES
 70
0
 62
7
  6
CONTINUOUS
370
-3
390
F
  0
LAYER
  5
204
100
AcDbSymbolTableRecord
100
AcDbLayerTableRecord
  2
02___PRT_ALL_AXES
 70
0
 62
7
  6
CONTINUOUS
370
-3
390
F
  0
LAYER
  5
205
100
AcDbSymbolTableRecord
100
AcDbLayerTableRecord
  2
03_ALL_CURVES
 70
0
 62
7
  6
CONTINUOUS
370
-3
390
F
  0
LAYER
  5
206
100
AcDbSymbolTableRecord
100
AcDbLayerTableRecord
  2
03__ASM_ALL_CURVES
 70
0
 62
7
  6
CONTINUOUS
370
-3
390
F
  0
LAYER
  5
207
100
AcDbSymbolTableRecord
100
AcDbLayerTableRecord
  2
03___PRT_ALL_CURVES
 70
0
 62
7
  6
CONTINUOUS
370
-3
390
F
  0
LAYER
  5
208
100
AcDbSymbolTableRecord
100
AcDbLayerTableRecord
  2
04_ALL_DTM_PNT
 70
0
 62
7
  6
CONTINUOUS
370
-3
390
F
  0
LAYER
  5
209
100
AcDbSymbolTableRecord
100
AcDbLayerTableRecord
  2
04__ASM_ALL_DTM_PNT
 70
0
 62
7
  6
CONTINUOUS
370
-3
390
F
  0
LAYER
  5
20A
100
AcDbSymbolTableRecord
100
AcDbLayerTableRecord
  2
04___PRT_ALL_DTM_PNT
 70
0
 62
7
  6
CONTINUOUS
370
-3
390
F
  0
LAYER
  5
20B
100
AcDbSymbolTableRecord
100
AcDbLayerTableRecord
  2
05_ALL_DTM_CSYS
 70
0
 62
7
  6
CONTINUOUS
370
-3
390
F
  0
LAYER
  5
20C
100
AcDbSymbolTableRecord
100
AcDbLayerTableRecord
  2
05__ASM_ALL_DTM_CSYS
 70
0
 62
7
  6
CONTINUOUS
370
-3
390
F
  0
LAYER
  5
20D
100
AcDbSymbolTableRecord
100
AcDbLayerTableRecord
  2
05__ASM_DEF_DTM_CSYS
 70
0
 62
7
  6
CONTINUOUS
370
-3
390
F
  0
LAYER
  5
20E
100
AcDbSymbolTableRecord
100
AcDbLayerTableRecord
  2
05___PRT_ALL_DTM_CSYS
 70
0
 62
7
  6
CONTINUOUS
370
-3
390
F
  0
LAYER
  5
20F
100
AcDbSymbolTableRecord
100
AcDbLayerTableRecord
  2
05___PRT_DEF_DTM_CSYS
 70
0
 62
7
  6
CONTINUOUS
370
-3
390
F
  0
LAYER
  5
210
100
AcDbSymbolTableRecord
100
AcDbLayerTableRecord
  2
06_ALL_SURFS
 70
0
 62
7
  6
CONTINUOUS
370
-3
390
F
  0
LAYER
  5
211
100
AcDbSymbolTableRecord
100
AcDbLayerTableRecord
  2
06__ASM_ALL_SURFS
 70
0
 62
7
  6
CONTINUOUS
370
-3
390
F
  0
LAYER
  5
212
100
AcDbSymbolTableRecord
100
AcDbLayerTableRecord
  2
06___PRT_ALL_SURFS
 70
0
 62
7
  6
CONTINUOUS
370
-3
390
F
  0
LAYER
  5
213
100
AcDbSymbolTableRecord
100
AcDbLayerTableRecord
  2
07__ASM_ALL_SKELETONS
 70
0
 62
7
  6
CONTINUOUS
370
-3
390
F
  0
LAYER
  5
214
100
AcDbSymbolTableRecord
100
AcDbLayerTableRecord
  2
126-002_HEX_FEATURES
 70
0
 62
7
  6
CONTINUOUS
370
-3
390
F
  0
LAYER
  5
215
100
AcDbSymbolTableRecord
100
AcDbLayerTableRecord
  2
126-002_REF_GEOMETRY
 70
0
 62
7
  6
CONTINUOUS
370
-3
390
F
  0
LAYER
  5
216
100
AcDbSymbolTableRecord
100
AcDbLayerTableRecord
  2
126-100_HEX_FEATURES
 70
0
 62
7
  6
CONTINUOUS
370
-3
390
F
  0
LAYER
  5
217
100
AcDbSymbolTableRecord
100
AcDbLayerTableRecord
  2
126-100_REF_GEOMETRY
 70
0
 62
7
  6
CONTINUOUS
370
-3
390
F
  0
LAYER
  5
218
100
AcDbSymbolTableRecord
100
AcDbLayerTableRecord
  2
126-101_HEX_FEATURES
 70
0
 62
7
  6
CONTINUOUS
370
-3
390
F
  0
LAYER
  5
219
100
AcDbSymbolTableRecord
100
AcDbLayerTableRecord
  2
126-101_REF_GEOMETRY
 70
0
 62
7
  6
CONTINUOUS
370
-3
390
F
  0
LAYER
  5
21A
100
AcDbSymbolTableRecord
100
AcDbLayerTableRecord
  2
126-102_HEX_FEATURES
 70
0
 62
7
  6
CONTINUOUS
370
-3
390
F
  0
LAYER
  5
21B
100
AcDbSymbolTableRecord
100
AcDbLayerTableRecord
  2
126-102_REF_GEOMETRY
 70
0
 62
7
  6
CONTINUOUS
370
-3
390
F
  0
LAYER
  5
21C
100
AcDbSymbolTableRecord
100
AcDbLayerTableRecord
  2
126-103_HEX_FEATURES
 70
0
 62
7
  6
CONTINUOUS
370
-3
390
F
  0
LAYER
  5
21D
100
AcDbSymbolTableRecord
100
AcDbLayerTableRecord
  2
126-103_REF_GEOMETRY
 70
0
 62
7
  6
CONTINUOUS
370
-3
390
F
  0
LAYER
  5
21E
100
AcDbSymbolTableRecord
100
AcDbLayerTableRecord
  2
126-104_HEX_FEATURES
 70
0
 62
7
  6
CONTINUOUS
370
-3
390
F
  0
LAYER
  5
21F
100
AcDbSymbolTableRecord
100
AcDbLayerTableRecord
  2
126-104_REF_GEOMETRY
 70
0
 62
7
  6
CONTINUOUS
370
-3
390
F
  0
LAYER
  5
220
100
AcDbSymbolTableRecord
100
AcDbLayerTableRecord
  2
250-19_BSPP_PORT_PER_S-186
 70
0
 62
7
  6
CONTINUOUS
370
-3
390
F
  0
LAYER
  5
221
100
AcDbSymbolTableRecord
100
AcDbLayerTableRecord
  2
COPY_GEO_FET
 70
0
 62
7
  6
CONTINUOUS
370
-3
390
F
  0
LAYER
  5
222
100
AcDbSymbolTableRecord
100
AcDbLayerTableRecord
  2
COSMESTIC
 70
0
 62
7
  6
CONTINUOUS
370
-3
390
F
  0
LAYER
  5
223
100
AcDbSymbolTableRecord
100
AcDbLayerTableRecord
  2
COSMETIC
 70
0
 62
7
  6
CONTINUOUS
370
-3
390
F
  0
LAYER
  5
224
100
AcDbSymbolTableRecord
100
AcDbLayerTableRecord
  2
CURVES
 70
0
 62
7
  6
CONTINUOUS
370
-3
390
F
  0
LAYER
  5
225
100
AcDbSymbolTableRecord
100
AcDbLayerTableRecord
  2
CUT_REF_SURF
 70
0
 62
7
  6
CONTINUOUS
370
-3
390
F
  0
LAYER
  5
226
100
AcDbSymbolTableRecord
100
AcDbLayerTableRecord
  2
DATUM
 70
0
 62
7
  6
CONTINUOUS
370
-3
390
F
  0
LAYER
  5
227
100
AcDbSymbolTableRecord
100
AcDbLayerTableRecord
  2
DATUMCURVES
 70
0
 62
7
  6
CONTINUOUS
370
-3
390
F
  0
LAYER
  5
228
100
AcDbSymbolTableRecord
100
AcDbLayerTableRecord
  2
DIMENSIONS
 70
0
 62
7
  6
CONTINUOUS
370
-3
390
F
  0
LAYER
  5
229
100
AcDbSymbolTableRecord
100
AcDbLayerTableRecord
  2
DTM
 70
0
 62
7
  6
CONTINUOUS
370
-3
390
F
  0
LAYER
  5
22A
100
AcDbSymbolTableRecord
100
AcDbLayerTableRecord
  2
DTM230
 70
0
 62
7
  6
CONTINUOUS
370
-3
390
F
  0
LAYER
  5
22B
100
AcDbSymbolTableRecord
100
AcDbLayerTableRecord
  2
DTM_500001
 70
0
 62
7
  6
CONTINUOUS
370
-3
390
F
  0
LAYER
  5
22C
100
AcDbSymbolTableRecord
100
AcDbLayerTableRecord
  2
DTM_500002
 70
0
 62
7
  6
CONTINUOUS
370
-3
390
F
  0
LAYER
  5
22D
100
AcDbSymbolTableRecord
100
AcDbLayerTableRecord
  2
DTM_515002
 70
0
 62
7
  6
CONTINUOUS
370
-3
390
F
  0
LAYER
  5
22E
100
AcDbSymbolTableRecord
100
AcDbLayerTableRecord
  2
GEOMETRICTOLERANCES
 70
0
 62
7
  6
CONTINUOUS
370
-3
390
F
  0
LAYER
  5
22F
100
AcDbSymbolTableRecord
100
AcDbLayerTableRecord
  2
HIDDEN
 70
0
 62
7
  6
CONTINUOUS
370
-3
390
F
  0
LAYER
  5
230
100
AcDbSymbolTableRecord
100
AcDbLayerTableRecord
  2
HIDDEN_DRW
 70
0
 62
7
  6
CONTINUOUS
370
-3
390
F
  0
LAYER
  5
231
100
AcDbSymbolTableRecord
100
AcDbLayerTableRecord
  2
PARAMETERDIMENSIONS
 70
0
 62
7
  6
CONTINUOUS
370
-3
390
F
  0
LAYER
  5
232
100
AcDbSymbolTableRecord
100
AcDbLayerTableRecord
  2
PLANE
 70
0
 62
7
  6
CONTINUOUS
370
-3
390
F
  0
LAYER
  5
233
100
AcDbSymbolTableRecord
100
AcDbLayerTableRecord
  2
STD_SAE-4_PORT
 70
0
 62
7
  6
CONTINUOUS
370
-3
390
F
  0
LAYER
  5
234
100
AcDbSymbolTableRecord
100
AcDbLayerTableRecord
  2
STD_SAE-6_PORT
 70
0
 62
7
  6
CONTINUOUS
370
-3
390
F
  0
LAYER
  5
235
100
AcDbSymbolTableRecord
100
AcDbLayerTableRecord
  2
T-8A_CAVITY
 70
0
 62
7
  6
CONTINUOUS
370
-3
390
F
  0
LAYER
  5
236
100
AcDbSymbolTableRecord
100
AcDbLayerTableRecord
  2
T-8A_CAVITY_REF_GEOMETRY
 70
0
 62
7
  6
CONTINUOUS
370
-3
390
F
  0
LAYER
  5
237
100
AcDbSymbolTableRecord
100
AcDbLayerTableRecord
  2
TEXT
 70
0
 62
7
  6
CONTINUOUS
370
-3
390
F
  0
LAYER
  5
238
100
AcDbSymbolTableRecord
100
AcDbLayerTableRecord
  2
THREAD
 70
0
 62
7
  6
CONTINUOUS
370
-3
390
F
  0
LAYER
  5
239
100
AcDbSymbolTableRecord
100
AcDbLayerTableRecord
  2
XSEC_DATUMS
 70
0
 62
7
  6
CONTINUOUS
370
-3
390
F
  0
ENDTAB
  0
TABLE
  2
STYLE
  5
3
100
AcDbSymbolTable
 70
1
  0
STYLE
  5
11
100
AcDbSymbolTableRecord
100
AcDbTextStyleTableRecord
  2
STANDARD
 70
0
 40
0.0
 41
0.8
 50
0.0
 71
0
 42
0.2
  3
txt
  4

  0
STYLE
  5
23A
100
AcDbSymbolTableRecord
100
AcDbTextStyleTableRecord
  2
TEXTSTYLE_1
 70
0
 40
0.0
 41
0.8
 50
0.0
 71
0
 42
0.2
  3
gdt
  4

  0
ENDTAB
  0
TABLE
  2
VIEW
  5
6
100
AcDbSymbolTable
 70
0
  0
ENDTAB
  0
TABLE
  2
UCS
  5
7
100
AcDbSymbolTable
 70
0
  0
ENDTAB
  0
TABLE
  2
APPID
  5
9
100
AcDbSymbolTable
 70
1
  0
APPID
  5
23B
100
AcDbSymbolTableRecord
100
AcDbRegAppTableRecord
  2
ACAD
 70
0
  0
ENDTAB
  0
TABLE
  2
BLOCK_RECORD
  5
1
100
AcDbSymbolTable
 70
0
  0
BLOCK_RECORD
  5
23C
100
AcDbSymbolTableRecord
100
AcDbBlockTableRecord
  2
*Model_Space
  0
BLOCK_RECORD
  5
23D
100
AcDbSymbolTableRecord
100
AcDbBlockTableRecord
  2
*Paper_Space
  0
BLOCK_RECORD
  5
23E
100
AcDbSymbolTableRecord
100
AcDbBlockTableRecord
  2
_FILLED
  0
BLOCK_RECORD
  5
23F
100
AcDbSymbolTableRecord
100
AcDbBlockTableRecord
  2
*D0
  0
ENDTAB
  0
TABLE
  2
DIMSTYLE
  5
A
100
AcDbSymbolTable
 70
1
100
AcDbDimStyleTable
 71
0
  0
DIMSTYLE
105
240
100
AcDbSymbolTableRecord
100
AcDbDimStyleTableRecord
  2
STANDARD
 70
0
  3

  4

 40
1.0
 41
0.1875
 42
0.0625
 43
0.38
 44
0.125
 45
0.0
 46
0.0
 47
0.001
 48
0.001
140
0.125
141
0.09
142
0.0
143
25.4
144
1.0
145
0.0
146
1.0
147
0.09
 71
0.0
 72
0.0
 73
1
 74
1
 75
0
 76
0
 77
0
 78
4
170
0
171
2
172
0
173
0
174
0
175
0
176
0
177
0
178
0
270
2
271
3
272
3
273
2
274
2
275
0
280
0
281
0
282
0
283
1
284
4
285
0
286
0
287
3
288
0
340
11
278
46
341
23E
342
23E
343
23E
344
23E
  0
DIMSTYLE
105
241
100
AcDbSymbolTableRecord
100
AcDbDimStyleTableRecord
  2
DIMSTYLE_1
 70
0
  3

  4

 40
1.0
 41
0.1875
 42
0.0625
 43
0.38
 44
0.125
 45
0.0
 46
0.0
 47
0.0
 48
0.0
140
0.125
141
0.09
142
0.0
143
25.4
144
1.0
145
0.0
146
1.0
147
0.0625
 71
0.0
 72
0.0
 73
1
 74
1
 75
0
 76
0
 77
0
 78
4
170
0
171
2
172
0
173
0
174
0
175
0
176
0
177
0
178
0
270
2
271
2
272
2
273
2
274
2
275
0
280
0
281
0
282
0
283
1
284
4
285
0
286
0
287
3
288
0
340
11
278
46
341
23E
342
23E
343
23E
344
23E
  0
ENDTAB
  0
ENDSEC
  0
SECTION
  2
BLOCKS
  0
BLOCK
  5
20
100
AcDbEntity
  8
0
100
AcDbBlockBegin
  2
*Model_Space
 70
0
 10
0.0
 20
0.0
 30
0.0
  3
*Model_Space
  1

  0
ENDBLK
  5
21
100
AcDbEntity
  8
0
100
AcDbBlockEnd
  0
BLOCK
  5
1C
100
AcDbEntity
  8
0
100
AcDbBlockBegin
  2
*Paper_Space
 70
0
 10
0.0
 20
0.0
 30
0.0
  3
*Paper_Space
  1

  0
ENDBLK
  5
1D
100
AcDbEntity
  8
0
100
AcDbBlockEnd
  0
BLOCK
  5
242
100
AcDbEntity
  8
0
100
AcDbBlockBegin
  2
_FILLED
 70
64
 10
0.0
 20
0.0
  3
_FILLED
  1

  0
SOLID
  5
243
100
AcDbEntity
  8
0
  6
BYBLOCK
 62
0
100
AcDbTrace
 10
0.0
 20
0.0
 11
-1.0
 21
0.1666666667
 12
-1.0
 22
-0.1666666667
 13
-1.0
 23
-0.1666666667
  0
ENDBLK
  5
244
100
AcDbEntity
  8
0
  6
BYBLOCK
 62
0
100
AcDbBlockEnd
  0
BLOCK
  5
245
100
AcDbEntity
  8
0
100
AcDbBlockBegin
 62
6
  6
CONTINUOUS
  2
*D0
 70
65
 10
0.0
 20
0.0
  3
*D0
  1

  0
MTEXT
  5
246
100
AcDbEntity
  8
0
100
AcDbMText
 62
6
  6
CONTINUOUS
  7
STANDARD
 71
1
 72
1
 10
3.9535
 20
7.865
 30
0.0
 11
1.0
 21
0.0
 31
0.0
 44
0.9
  1
.75 in (19,0 mm)
 40
0.125
 41
1.6
  0
LINE
  5
247
100
AcDbEntity
  8
0
100
AcDbLine
 62
6
  6
CONTINUOUS
 10
3.7035
 20
7.49
 11
3.7035
 21
7.9275
  0
LINE
  5
248
100
AcDbEntity
  8
0
100
AcDbLine
 62
6
  6
CONTINUOUS
 10
2.9535
 20
7.0625
 11
2.9535
 21
7.9275
  0
LINE
  5
249
100
AcDbEntity
  8
0
100
AcDbLine
 62
6
  6
CONTINUOUS
 10
3.7035
 20
7.8025
 11
3.3285
 21
7.8025
  0
LINE
  5
24A
100
AcDbEntity
  8
0
100
AcDbLine
 62
6
  6
CONTINUOUS
 10
3.3285
 20
7.8025
 11
3.891
 21
7.8025
  0
LINE
  5
24B
100
AcDbEntity
  8
0
100
AcDbLine
 62
6
  6
CONTINUOUS
 10
2.9535
 20
7.8025
 11
3.3285
 21
7.8025
  0
INSERT
  5
24C
100
AcDbEntity
  8
0
100
AcDbBlockReference
 62
6
  6
CONTINUOUS
  2
_FILLED
 10
3.7035
 20
7.8025
 41
0.1875
 42
0.1875
 43
0.1875
  0
INSERT
  5
24D
100
AcDbEntity
  8
0
100
AcDbBlockReference
 62
6
  6
CONTINUOUS
  2
_FILLED
 10
2.9535
 20
7.8025
 41
0.1875
 42
0.1875
 43
0.1875
 50
180.0
  0
ENDBLK
  5
24E
100
AcDbEntity
  8
0
  6
BYBLOCK
 62
0
100
AcDbBlockEnd
  0
ENDSEC
  0
SECTION
  2
ENTITIES
  0
DIMENSION
  5
24F
100
AcDbEntity
  8
0
100
AcDbDimension
 62
6
  6
CONTINUOUS
  2
*D0
 10
2.9535
 20
7.8025
 11
4.7535
 21
7.8025
 70
160
 71
1
 42
0.75
  1
<> in (19,0 mm)
  3
DIMSTYLE_1
100
AcDbAlignedDimension
 13
3.7035
 23
7.4275
 14
2.9535
 24
7.0
 50
180.0
100
AcDbRotatedDimension
  0
MTEXT
  5
250
100
AcDbEntity
  8
0
100
AcDbMText
 62
2
  6
CONTINUOUS
  7
STANDARD
 71
1
 72
1
 10
7.4535
 20
7.0625
 30
0.0
 11
1.0
 21
0.0
 31
0.0
 44
0.6
  1
Port 1\PNot Used
 40
0.125
 41
0.8
  0
MTEXT
  5
251
100
AcDbEntity
  8
0
100
AcDbMText
 62
2
  6
CONTINUOUS
  7
STANDARD
 71
1
 72
1
 10
6.2415
 20
6.5005
 30
0.0
 11
1.0
 21
0.0
 31
0.0
 44
0.6
  1
Port 2\POutlet
 40
0.125
 41
0.6
  0
MTEXT
  5
252
100
AcDbEntity
  8
0
100
AcDbMText
 62
2
  6
CONTINUOUS
  7
STANDARD
 71
1
 72
1
 10
5.3545
 20
6.5005
 30
0.0
 11
1.0
 21
0.0
 31
0.0
 44
0.6
  1
Port 3\PInlet
 40
0.125
 41
0.6
  0
MTEXT
  5
253
100
AcDbEntity
  8
0
100
AcDbMText
 62
2
  6
CONTINUOUS
  7
STANDARD
 71
1
 72
1
 10
4.4035
 20
6.5005
 30
0.0
 11
1.0
 21
0.0
 31
0.0
 44
0.6
  1
Port 4\POutlet
 40
0.125
 41
0.6
  0
MTEXT
  5
254
100
AcDbEntity
  8
0
100
AcDbMText
 62
2
  6
CONTINUOUS
  7
STANDARD
 71
1
 72
1
 10
3.9535
 20
7.615
 30
0.0
 11
1.0
 21
0.0
 31
0.0
 44
0.6
  1
 LOCATING SHOULDER
 40
0.125
 41
1.8
  0
LINE
  5
255
100
AcDbEntity
  8
THREAD
100
AcDbLine
 62
7
  6
CONTINUOUS
 10
2.9535
 20
6.5700050384
 11
2.9535
 21
7.4299949616
  0
LINE
  5
256
100
AcDbEntity
  8
THREAD
100
AcDbLine
 62
7
  6
CONTINUOUS
 10
2.9875636659
 20
6.562483966
 11
2.9875636659
 21
6.5920977523
  0
LINE
  5
257
100
AcDbEntity
  8
THREAD
100
AcDbLine
 62
7
  6
CONTINUOUS
 10
2.9875636659
 20
6.9703862137
 11
2.9875636659
 21
7.0296137863
  0
LINE
  5
258
100
AcDbEntity
  8
THREAD
100
AcDbLine
 62
7
  6
CONTINUOUS
 10
2.9875636659
 20
7.4079022477
 11
2.9875636659
 21
7.437516034
  0
LINE
  5
259
100
AcDbEntity
  8
THREAD
100
AcDbLine
 62
7
  6
CONTINUOUS
 10
2.957839952
 20
7.4375170173
 11
2.9535
 21
7.43
  0
LINE
  5
25A
100
AcDbEntity
  8
THREAD
100
AcDbLine
 62
7
  6
CONTINUOUS
 10
2.957839952
 20
6.5624829827
 11
2.9535
 21
6.57
  0
LINE
  5
25B
100
AcDbEntity
  8
THREAD
100
AcDbLine
 62
7
  6
CONTINUOUS
 10
3.423
 20
7.437516034
 11
3.423
 21
7.4079022477
  0
LINE
  5
25C
100
AcDbEntity
  8
THREAD
100
AcDbLine
 62
7
  6
CONTINUOUS
 10
3.423
 20
6.562483966
 11
3.423
 21
6.5920977523
  0
LINE
  5
25D
100
AcDbEntity
  8
THREAD
100
AcDbLine
 62
7
  6
CONTINUOUS
 10
3.423
 20
6.9703862137
 11
3.423
 21
7.0296137863
  0
LINE
  5
25E
100
AcDbEntity
  8
THREAD
100
AcDbLine
 62
7
  6
CONTINUOUS
 10
3.4845
 20
6.5725
 11
3.4845
 21
7.4275
  0
LINE
  5
25F
100
AcDbEntity
  8
0
100
AcDbLine
 62
7
  6
CONTINUOUS
 10
3.6305
 20
6.5725
 11
3.6305
 21
7.4275
  0
LINE
  5
260
100
AcDbEntity
  8
0
100
AcDbLine
 62
7
  6
CONTINUOUS
 10
3.639022038
 20
7.4181525475
 11
3.639022038
 21
6.5818474525
  0
LINE
  5
261
100
AcDbEntity
  8
0
100
AcDbLine
 62
7
  6
CONTINUOUS
 10
3.641977962
 20
7.4181525475
 11
3.641977962
 21
6.5818474525
  0
LINE
  5
262
100
AcDbEntity
  8
0
100
AcDbLine
 62
7
  6
CONTINUOUS
 10
3.6505
 20
6.5725
 11
3.6505
 21
7.4275
  0
LINE
  5
263
100
AcDbEntity
  8
0
100
AcDbLine
 62
7
  6
CONTINUOUS
 10
3.7005
 20
7.4275
 11
3.7005
 21
6.5725
  0
LINE
  5
264
100
AcDbEntity
  8
0
100
AcDbLine
 62
7
  6
CONTINUOUS
 10
3.7035
 20
7.4244999999
 11
3.7035
 21
6.5755000001
  0
LINE
  5
265
100
AcDbEntity
  8
0
100
AcDbLine
 62
7
  6
CONTINUOUS
 10
3.706
 20
6.5829433757
 11
3.706
 21
7.4170566243
  0
LINE
  5
266
100
AcDbEntity
  8
0
100
AcDbLine
 62
7
  6
CONTINUOUS
 10
3.7257224319
 20
6.594330127
 11
3.7257224319
 21
7.405669873
  0
LINE
  5
267
100
AcDbEntity
  8
0
100
AcDbLine
 62
7
  6
CONTINUOUS
 10
3.7282224319
 20
6.595
 11
3.7282224319
 21
7.405
  0
LINE
  5
268
100
AcDbEntity
  8
0
100
AcDbLine
 62
7
  6
CONTINUOUS
 10
3.7505
 20
6.5950070788
 11
3.7505
 21
7.4049929212
  0
LINE
  5
269
100
AcDbEntity
  8
0
100
AcDbLine
 62
7
  6
CONTINUOUS
 10
3.6505
 20
7.4275
 11
3.641977962
 21
7.4181525475
  0
LINE
  5
26A
100
AcDbEntity
  8
0
100
AcDbLine
 62
7
  6
CONTINUOUS
 10
3.6505
 20
6.5725
 11
3.641977962
 21
6.5818474525
  0
LINE
  5
26B
100
AcDbEntity
  8
0
100
AcDbLine
 62
7
  6
CONTINUOUS
 10
3.8205
 20
7.4045
 11
3.8205
 21
6.5955
  0
LINE
  5
26C
100
AcDbEntity
  8
0
100
AcDbLine
 62
7
  6
CONTINUOUS
 10
3.8705
 20
7.4045
 11
3.8705
 21
6.5955
  0
LINE
  5
26D
100
AcDbEntity
  8
0
100
AcDbLine
 62
7
  6
CONTINUOUS
 10
3.8829944465
 20
6.6495000001
 11
3.8829944465
 21
7.3504999999
  0
LINE
  5
26E
100
AcDbEntity
  8
0
100
AcDbLine
 62
7
  6
CONTINUOUS
 10
3.8942527767
 20
6.6430000001
 11
3.8942527767
 21
7.3569999999
  0
LINE
  5
26F
100
AcDbEntity
  8
0
100
AcDbLine
 62
7
  6
CONTINUOUS
 10
3.91186196
 20
7.3875
 11
3.8942527766
 21
7.3569999998
  0
LINE
  5
270
100
AcDbEntity
  8
0
100
AcDbLine
 62
7
  6
CONTINUOUS
 10
3.91186196
 20
6.6125
 11
3.8942527766
 21
6.6430000002
  0
LINE
  5
271
100
AcDbEntity
  8
0
100
AcDbLine
 62
7
  6
CONTINUOUS
 10
3.91186196
 20
6.6125
 11
3.91186196
 21
7.3875
  0
LINE
  5
272
100
AcDbEntity
  8
0
100
AcDbLine
 62
7
  6
CONTINUOUS
 10
4.159
 20
6.6125
 11
4.159
 21
7.3875
  0
LINE
  5
273
100
AcDbEntity
  8
0
100
AcDbLine
 62
7
  6
CONTINUOUS
 10
4.2035
 20
7.343
 11
4.2035
 21
7.0309762273
  0
LINE
  5
274
100
AcDbEntity
  8
0
100
AcDbLine
 62
7
  6
CONTINUOUS
 10
4.2035
 20
6.657
 11
4.2035
 21
6.9690237727
  0
LINE
  5
275
100
AcDbEntity
  8
0
100
AcDbLine
 62
7
  6
CONTINUOUS
 10
4.2925
 20
7.3229149841
 11
4.2925
 21
7.3429969788
  0
LINE
  5
276
100
AcDbEntity
  8
0
100
AcDbLine
 62
7
  6
CONTINUOUS
 10
3.639022038
 20
6.5818474525
 11
3.6305
 21
6.5725
  0
LINE
  5
277
100
AcDbEntity
  8
THREAD
100
AcDbLine
 62
7
  6
CONTINUOUS
 10
3.4845
 20
6.5725
 11
3.4744821994
 21
6.5624821994
  0
LINE
  5
278
100
AcDbEntity
  8
THREAD
100
AcDbLine
 62
7
  6
CONTINUOUS
 10
3.4845
 20
7.4275
 11
3.4744821994
 21
7.4375178006
  0
LINE
  5
279
100
AcDbEntity
  8
0
100
AcDbLine
 62
7
  6
CONTINUOUS
 10
3.639022038
 20
7.4181525475
 11
3.6305
 21
7.4275
  0
LINE
  5
27A
100
AcDbEntity
  8
0
100
AcDbLine
 62
7
  6
CONTINUOUS
 10
4.3265
 20
7.3229149841
 11
4.3265
 21
7.3429969788
  0
LINE
  5
27B
100
AcDbEntity
  8
0
100
AcDbLine
 62
7
  6
CONTINUOUS
 10
4.3815
 20
6.657
 11
4.3815
 21
7.343
  0
LINE
  5
27C
100
AcDbEntity
  8
0
100
AcDbLine
 62
7
  6
CONTINUOUS
 10
4.3915
 20
6.667
 11
4.3915
 21
7.333
  0
LINE
  5
27D
100
AcDbEntity
  8
0
100
AcDbLine
 62
7
  6
CONTINUOUS
 10
4.4495
 20
7.0339785949
 11
4.4495
 21
6.9660375975
  0
LINE
  5
27E
100
AcDbEntity
  8
0
100
AcDbLine
 62
7
  6
CONTINUOUS
 10
4.4565
 20
6.9586991261
 11
4.4565
 21
7.0412932298
  0
LINE
  5
27F
100
AcDbEntity
  8
0
100
AcDbLine
 62
7
  6
CONTINUOUS
 10
4.4665
 20
6.951808653
 11
4.4665
 21
7.0481733182
  0
LINE
  5
280
100
AcDbEntity
  8
0
100
AcDbLine
 62
7
  6
CONTINUOUS
 10
4.4735
 20
7.0510337407
 11
4.4735
 21
6.9489778474
  0
LINE
  5
281
100
AcDbEntity
  8
0
100
AcDbLine
 62
7
  6
CONTINUOUS
 10
4.5195
 20
7.0465442212
 11
4.5195
 21
6.9534266009
  0
LINE
  5
282
100
AcDbEntity
  8
0
100
AcDbLine
 62
7
  6
CONTINUOUS
 10
4.5265
 20
6.9587087309
 11
4.5265
 21
7.0413032271
  0
LINE
  5
283
100
AcDbEntity
  8
0
100
AcDbLine
 62
7
  6
CONTINUOUS
 10
4.5365
 20
6.9698778077
 11
4.5365
 21
7.030121635
  0
LINE
  5
284
100
AcDbEntity
  8
0
100
AcDbLine
 62
7
  6
CONTINUOUS
 10
4.5435
 20
7.0155924203
 11
4.5435
 21
6.9843964197
  0
LINE
  5
285
100
AcDbEntity
  8
0
100
AcDbLine
 62
7
  6
CONTINUOUS
 10
4.5965
 20
6.72
 11
4.5965
 21
7.28
  0
LINE
  5
286
100
AcDbEntity
  8
0
100
AcDbLine
 62
7
  6
CONTINUOUS
 10
4.6065
 20
7.27
 11
4.6165
 21
7.28
  0
LINE
  5
287
100
AcDbEntity
  8
0
100
AcDbLine
 62
7
  6
CONTINUOUS
 10
4.6375
 20
7.27
 11
4.6475
 21
7.28
  0
LINE
  5
288
100
AcDbEntity
  8
THREAD
100
AcDbLine
 62
7
  6
CONTINUOUS
 10
2.9578393843
 20
6.562483966
 11
3.4744839658
 21
6.562483966
  0
LINE
  5
289
100
AcDbEntity
  8
THREAD
100
AcDbLine
 62
7
  6
CONTINUOUS
 10
3.7005
 20
6.5725
 11
3.6505
 21
6.5725
  0
LINE
  5
28A
100
AcDbEntity
  8
THREAD
100
AcDbLine
 62
7
  6
CONTINUOUS
 10
3.6305
 20
6.5725
 11
3.4845
 21
6.5725
  0
LINE
  5
28B
100
AcDbEntity
  8
THREAD
100
AcDbLine
 62
7
  6
CONTINUOUS
 10
3.423
 20
6.5920977523
 11
2.9875636659
 21
6.5920977523
  0
LINE
  5
28C
100
AcDbEntity
  8
0
100
AcDbLine
 62
7
  6
CONTINUOUS
 10
3.7505
 20
6.595
 11
3.7282224319
 21
6.595
  0
LINE
  5
28D
100
AcDbEntity
  8
0
100
AcDbLine
 62
7
  6
CONTINUOUS
 10
3.8205
 20
6.5955
 11
3.8705
 21
6.5955
  0
LINE
  5
28E
100
AcDbEntity
  8
0
100
AcDbLine
 62
7
  6
CONTINUOUS
 10
4.6065
 20
6.73
 11
4.6165
 21
6.72
  0
LINE
  5
28F
100
AcDbEntity
  8
0
100
AcDbLine
 62
7
  6
CONTINUOUS
 10
4.6375
 20
6.73
 11
4.6475
 21
6.72
  0
LINE
  5
290
100
AcDbEntity
  8
0
100
AcDbLine
 62
7
  6
CONTINUOUS
 10
4.6065
 20
6.73
 11
4.6065
 21
7.27
  0
LINE
  5
291
100
AcDbEntity
  8
0
100
AcDbLine
 62
7
  6
CONTINUOUS
 10
4.6165
 20
6.72
 11
4.6165
 21
7.28
  0
LINE
  5
292
100
AcDbEntity
  8
0
100
AcDbLine
 62
7
  6
CONTINUOUS
 10
4.6275
 20
6.72
 11
4.6275
 21
7.28
  0
LINE
  5
293
100
AcDbEntity
  8
0
100
AcDbLine
 62
7
  6
CONTINUOUS
 10
4.6375
 20
6.73
 11
4.6375
 21
7.27
  0
LINE
  5
294
100
AcDbEntity
  8
0
100
AcDbLine
 62
7
  6
CONTINUOUS
 10
4.6475
 20
6.72
 11
4.6475
 21
7.28
  0
LINE
  5
295
100
AcDbEntity
  8
0
100
AcDbLine
 62
7
  6
CONTINUOUS
 10
4.2035
 20
6.657
 11
4.159
 21
6.6125
  0
LINE
  5
296
100
AcDbEntity
  8
0
100
AcDbLine
 62
7
  6
CONTINUOUS
 10
3.7257224319
 20
6.594330127
 11
3.706
 21
6.5829433757
  0
LINE
  5
297
100
AcDbEntity
  8
0
100
AcDbLine
 62
7
  6
CONTINUOUS
 10
4.159
 20
6.6125
 11
3.91186196
 21
6.6125
  0
LINE
  5
298
100
AcDbEntity
  8
0
100
AcDbLine
 62
7
  6
CONTINUOUS
 10
3.8829944465
 20
6.6495
 11
3.8705
 21
6.6495
  0
LINE
  5
299
100
AcDbEntity
  8
0
100
AcDbLine
 62
7
  6
CONTINUOUS
 10
4.894
 20
6.653
 11
4.9565
 21
6.653
  0
LINE
  5
29A
100
AcDbEntity
  8
0
100
AcDbLine
 62
7
  6
CONTINUOUS
 10
5.154
 20
6.653
 11
5.219
 21
6.653
  0
LINE
  5
29B
100
AcDbEntity
  8
0
100
AcDbLine
 62
7
  6
CONTINUOUS
 10
4.9565
 20
6.654
 11
5.0065
 21
6.654
  0
LINE
  5
29C
100
AcDbEntity
  8
0
100
AcDbLine
 62
7
  6
CONTINUOUS
 10
5.0765
 20
6.654
 11
5.1265
 21
6.654
  0
LINE
  5
29D
100
AcDbEntity
  8
0
100
AcDbLine
 62
7
  6
CONTINUOUS
 10
4.3815
 20
6.657
 11
4.2035
 21
6.657
  0
LINE
  5
29E
100
AcDbEntity
  8
0
100
AcDbLine
 62
7
  6
CONTINUOUS
 10
6.119
 20
6.671
 11
6.054
 21
6.671
  0
LINE
  5
29F
100
AcDbEntity
  8
0
100
AcDbLine
 62
7
  6
CONTINUOUS
 10
5.8565
 20
6.671
 11
5.794
 21
6.671
  0
LINE
  5
2A0
100
AcDbEntity
  8
0
100
AcDbLine
 62
7
  6
CONTINUOUS
 10
5.8565
 20
6.6725
 11
5.9065
 21
6.6725
  0
LINE
  5
2A1
100
AcDbEntity
  8
0
100
AcDbLine
 62
7
  6
CONTINUOUS
 10
5.9765
 20
6.6725
 11
6.0265
 21
6.6725
  0
LINE
  5
2A2
100
AcDbEntity
  8
0
100
AcDbLine
 62
7
  6
CONTINUOUS
 10
6.7665
 20
6.6725
 11
6.8165
 21
6.6725
  0
LINE
  5
2A3
100
AcDbEntity
  8
0
100
AcDbLine
 62
7
  6
CONTINUOUS
 10
6.8865
 20
6.6725
 11
6.9365
 21
6.6725
  0
LINE
  5
2A4
100
AcDbEntity
  8
0
100
AcDbLine
 62
7
  6
CONTINUOUS
 10
7.034
 20
6.689
 11
6.964
 21
6.689
  0
LINE
  5
2A5
100
AcDbEntity
  8
0
100
AcDbLine
 62
7
  6
CONTINUOUS
 10
6.7665
 20
6.689
 11
6.6985341434
 21
6.689
  0
LINE
  5
2A6
100
AcDbEntity
  8
0
100
AcDbLine
 62
7
  6
CONTINUOUS
 10
5.154
 20
6.7075
 11
5.1265
 21
6.7075
  0
LINE
  5
2A7
100
AcDbEntity
  8
0
100
AcDbLine
 62
7
  6
CONTINUOUS
 10
6.6555
 20
6.71875
 11
6.165
 21
6.71875
  0
LINE
  5
2A8
100
AcDbEntity
  8
0
100
AcDbLine
 62
7
  6
CONTINUOUS
 10
5.748
 20
6.71875
 11
5.265
 21
6.71875
  0
LINE
  5
2A9
100
AcDbEntity
  8
0
100
AcDbLine
 62
7
  6
CONTINUOUS
 10
4.848
 20
6.72
 11
4.6475
 21
6.72
  0
LINE
  5
2AA
100
AcDbEntity
  8
0
100
AcDbLine
 62
7
  6
CONTINUOUS
 10
4.6275
 20
6.72
 11
4.6165
 21
6.72
  0
LINE
  5
2AB
100
AcDbEntity
  8
0
100
AcDbLine
 62
7
  6
CONTINUOUS
 10
4.5965
 20
6.72
 11
4.3915
 21
6.72
  0
LINE
  5
2AC
100
AcDbEntity
  8
0
100
AcDbLine
 62
7
  6
CONTINUOUS
 10
6.054
 20
6.726
 11
6.0265
 21
6.726
  0
LINE
  5
2AD
100
AcDbEntity
  8
0
100
AcDbLine
 62
7
  6
CONTINUOUS
 10
3.7257224319
 20
7.405669873
 11
3.706
 21
7.4170566243
  0
LINE
  5
2AE
100
AcDbEntity
  8
0
100
AcDbLine
 62
7
  6
CONTINUOUS
 10
4.2035
 20
7.343
 11
4.159
 21
7.3875
  0
LINE
  5
2AF
100
AcDbEntity
  8
0
100
AcDbLine
 62
7
  6
CONTINUOUS
 10
4.848
 20
6.72
 11
4.848
 21
7.28
  0
LINE
  5
2B0
100
AcDbEntity
  8
0
100
AcDbLine
 62
7
  6
CONTINUOUS
 10
4.3915
 20
6.667
 11
4.3815
 21
6.657
  0
LINE
  5
2B1
100
AcDbEntity
  8
0
100
AcDbLine
 62
7
  6
CONTINUOUS
 10
6.964
 20
6.7435
 11
6.9365
 21
6.7435
  0
LINE
  5
2B2
100
AcDbEntity
  8
0
100
AcDbLine
 62
7
  6
CONTINUOUS
 10
4.3915
 20
7.333
 11
4.3815
 21
7.343
  0
LINE
  5
2B3
100
AcDbEntity
  8
0
100
AcDbLine
 62
7
  6
CONTINUOUS
 10
4.894
 20
7.347
 11
4.894
 21
6.653
  0
LINE
  5
2B4
100
AcDbEntity
  8
0
100
AcDbLine
 62
7
  6
CONTINUOUS
 10
4.9565
 20
7.347
 11
4.9565
 21
6.653
  0
LINE
  5
2B5
100
AcDbEntity
  8
0
100
AcDbLine
 62
7
  6
CONTINUOUS
 10
5.0065
 20
7.346
 11
5.0065
 21
6.654
  0
LINE
  5
2B6
100
AcDbEntity
  8
0
100
AcDbLine
 62
7
  6
CONTINUOUS
 10
4.5965
 20
6.72
 11
4.6065
 21
6.73
  0
LINE
  5
2B7
100
AcDbEntity
  8
0
100
AcDbLine
 62
7
  6
CONTINUOUS
 10
4.6275
 20
6.72
 11
4.6375
 21
6.73
  0
LINE
  5
2B8
100
AcDbEntity
  8
126-101_HEX_FEATURES
100
AcDbLine
 62
7
  6
CONTINUOUS
 10
4.2035
 20
6.9690237727
 11
4.2026135247
 21
6.9690000006
  0
LINE
  5
2B9
100
AcDbEntity
  8
THREAD
100
AcDbLine
 62
7
  6
CONTINUOUS
 10
3.423
 20
6.9703862137
 11
2.9875636659
 21
6.9703862137
  0
LINE
  5
2BA
100
AcDbEntity
  8
126-101_HEX_FEATURES
100
AcDbLine
 62
7
  6
CONTINUOUS
 10
4.2026127596
 20
7.0309999996
 11
4.2035
 21
7.0309762273
  0
LINE
  5
2BB
100
AcDbEntity
  8
0
100
AcDbLine
 62
7
  6
CONTINUOUS
 10
4.5965
 20
7.28
 11
4.6065
 21
7.27
  0
LINE
  5
2BC
100
AcDbEntity
  8
0
100
AcDbLine
 62
7
  6
CONTINUOUS
 10
4.6275
 20
7.28
 11
4.6375
 21
7.27
  0
LINE
  5
2BD
100
AcDbEntity
  8
0
100
AcDbLine
 62
7
  6
CONTINUOUS
 10
5.0765
 20
7.346
 11
5.0765
 21
6.654
  0
LINE
  5
2BE
100
AcDbEntity
  8
0
100
AcDbLine
 62
7
  6
CONTINUOUS
 10
5.1265
 20
7.346
 11
5.1265
 21
6.654
  0
LINE
  5
2BF
100
AcDbEntity
  8
0
100
AcDbLine
 62
7
  6
CONTINUOUS
 10
5.154
 20
7.347
 11
5.154
 21
6.653
  0
LINE
  5
2C0
100
AcDbEntity
  8
THREAD
100
AcDbLine
 62
7
  6
CONTINUOUS
 10
3.423
 20
7.0296137863
 11
2.9875636659
 21
7.0296137863
  0
LINE
  5
2C1
100
AcDbEntity
  8
0
100
AcDbLine
 62
7
  6
CONTINUOUS
 10
5.219
 20
7.347
 11
5.219
 21
6.653
  0
LINE
  5
2C2
100
AcDbEntity
  8
0
100
AcDbLine
 62
7
  6
CONTINUOUS
 10
5.265
 20
6.71875
 11
5.265
 21
7.28125
  0
LINE
  5
2C3
100
AcDbEntity
  8
0
100
AcDbLine
 62
7
  6
CONTINUOUS
 10
6.964
 20
7.2565
 11
6.9365
 21
7.2565
  0
LINE
  5
2C4
100
AcDbEntity
  8
0
100
AcDbLine
 62
7
  6
CONTINUOUS
 10
6.054
 20
7.274
 11
6.0265
 21
7.274
  0
LINE
  5
2C5
100
AcDbEntity
  8
0
100
AcDbLine
 62
7
  6
CONTINUOUS
 10
4.848
 20
7.28
 11
4.6475
 21
7.28
  0
LINE
  5
2C6
100
AcDbEntity
  8
0
100
AcDbLine
 62
7
  6
CONTINUOUS
 10
4.6275
 20
7.28
 11
4.6165
 21
7.28
  0
LINE
  5
2C7
100
AcDbEntity
  8
0
100
AcDbLine
 62
7
  6
CONTINUOUS
 10
4.5965
 20
7.28
 11
4.3915
 21
7.28
  0
LINE
  5
2C8
100
AcDbEntity
  8
0
100
AcDbLine
 62
7
  6
CONTINUOUS
 10
6.6555
 20
7.28125
 11
6.165
 21
7.28125
  0
LINE
  5
2C9
100
AcDbEntity
  8
0
100
AcDbLine
 62
7
  6
CONTINUOUS
 10
5.748
 20
7.28125
 11
5.265
 21
7.28125
  0
LINE
  5
2CA
100
AcDbEntity
  8
0
100
AcDbLine
 62
7
  6
CONTINUOUS
 10
5.154
 20
7.2925
 11
5.1265
 21
7.2925
  0
LINE
  5
2CB
100
AcDbEntity
  8
0
100
AcDbLine
 62
7
  6
CONTINUOUS
 10
7.034
 20
7.311
 11
6.964
 21
7.311
  0
LINE
  5
2CC
100
AcDbEntity
  8
0
100
AcDbLine
 62
7
  6
CONTINUOUS
 10
6.7665
 20
7.311
 11
6.6985341434
 21
7.311
  0
LINE
  5
2CD
100
AcDbEntity
  8
0
100
AcDbLine
 62
7
  6
CONTINUOUS
 10
4.3265
 20
7.3229149841
 11
4.2925
 21
7.3229149841
  0
LINE
  5
2CE
100
AcDbEntity
  8
0
100
AcDbLine
 62
7
  6
CONTINUOUS
 10
5.8565
 20
7.3275
 11
5.9065
 21
7.3275
  0
LINE
  5
2CF
100
AcDbEntity
  8
0
100
AcDbLine
 62
7
  6
CONTINUOUS
 10
5.9765
 20
7.3275
 11
6.0265
 21
7.3275
  0
LINE
  5
2D0
100
AcDbEntity
  8
0
100
AcDbLine
 62
7
  6
CONTINUOUS
 10
6.7665
 20
7.3275
 11
6.8165
 21
7.3275
  0
LINE
  5
2D1
100
AcDbEntity
  8
0
100
AcDbLine
 62
7
  6
CONTINUOUS
 10
6.8865
 20
7.3275
 11
6.9365
 21
7.3275
  0
LINE
  5
2D2
100
AcDbEntity
  8
0
100
AcDbLine
 62
7
  6
CONTINUOUS
 10
6.119
 20
7.329
 11
6.054
 21
7.329
  0
LINE
  5
2D3
100
AcDbEntity
  8
0
100
AcDbLine
 62
7
  6
CONTINUOUS
 10
5.8565
 20
7.329
 11
5.794
 21
7.329
  0
LINE
  5
2D4
100
AcDbEntity
  8
0
100
AcDbLine
 62
7
  6
CONTINUOUS
 10
4.3815
 20
7.343
 11
4.3265
 21
7.343
  0
LINE
  5
2D5
100
AcDbEntity
  8
0
100
AcDbLine
 62
7
  6
CONTINUOUS
 10
4.2925
 20
7.343
 11
4.2035
 21
7.343
  0
LINE
  5
2D6
100
AcDbEntity
  8
0
100
AcDbLine
 62
7
  6
CONTINUOUS
 10
4.9565
 20
7.346
 11
5.0065
 21
7.346
  0
LINE
  5
2D7
100
AcDbEntity
  8
0
100
AcDbLine
 62
7
  6
CONTINUOUS
 10
5.0765
 20
7.346
 11
5.1265
 21
7.346
  0
LINE
  5
2D8
100
AcDbEntity
  8
0
100
AcDbLine
 62
7
  6
CONTINUOUS
 10
4.894
 20
7.347
 11
4.9565
 21
7.347
  0
LINE
  5
2D9
100
AcDbEntity
  8
0
100
AcDbLine
 62
7
  6
CONTINUOUS
 10
5.154
 20
7.347
 11
5.219
 21
7.347
  0
LINE
  5
2DA
100
AcDbEntity
  8
0
100
AcDbLine
 62
7
  6
CONTINUOUS
 10
3.8829944465
 20
7.3505
 11
3.8705
 21
7.3505
  0
LINE
  5
2DB
100
AcDbEntity
  8
0
100
AcDbLine
 62
7
  6
CONTINUOUS
 10
4.159
 20
7.3875
 11
3.91186196
 21
7.3875
  0
LINE
  5
2DC
100
AcDbEntity
  8
0
100
AcDbLine
 62
7
  6
CONTINUOUS
 10
3.8205
 20
7.4045
 11
3.8705
 21
7.4045
  0
LINE
  5
2DD
100
AcDbEntity
  8
0
100
AcDbLine
 62
7
  6
CONTINUOUS
 10
3.7505
 20
7.405
 11
3.7282224319
 21
7.405
  0
LINE
  5
2DE
100
AcDbEntity
  8
THREAD
100
AcDbLine
 62
7
  6
CONTINUOUS
 10
3.423
 20
7.4079022477
 11
2.9875636659
 21
7.4079022477
  0
LINE
  5
2DF
100
AcDbEntity
  8
THREAD
100
AcDbLine
 62
7
  6
CONTINUOUS
 10
3.7005
 20
7.4275
 11
3.6505
 21
7.4275
  0
LINE
  5
2E0
100
AcDbEntity
  8
THREAD
100
AcDbLine
 62
7
  6
CONTINUOUS
 10
3.6305
 20
7.4275
 11
3.4845
 21
7.4275
  0
LINE
  5
2E1
100
AcDbEntity
  8
THREAD
100
AcDbLine
 62
7
  6
CONTINUOUS
 10
2.9578393843
 20
7.437516034
 11
3.4744839658
 21
7.437516034
  0
LINE
  5
2E2
100
AcDbEntity
  8
0
100
AcDbLine
 62
7
  6
CONTINUOUS
 10
5.748
 20
6.71875
 11
5.748
 21
7.28125
  0
LINE
  5
2E3
100
AcDbEntity
  8
0
100
AcDbLine
 62
7
  6
CONTINUOUS
 10
5.794
 20
6.671
 11
5.794
 21
7.329
  0
LINE
  5
2E4
100
AcDbEntity
  8
0
100
AcDbLine
 62
7
  6
CONTINUOUS
 10
5.8565
 20
6.671
 11
5.8565
 21
7.329
  0
LINE
  5
2E5
100
AcDbEntity
  8
0
100
AcDbLine
 62
7
  6
CONTINUOUS
 10
5.9065
 20
7.3275
 11
5.9065
 21
6.6725
  0
LINE
  5
2E6
100
AcDbEntity
  8
0
100
AcDbLine
 62
7
  6
CONTINUOUS
 10
5.9765
 20
7.3275
 11
5.9765
 21
6.6725
  0
LINE
  5
2E7
100
AcDbEntity
  8
0
100
AcDbLine
 62
7
  6
CONTINUOUS
 10
6.0265
 20
7.3275
 11
6.0265
 21
6.6725
  0
LINE
  5
2E8
100
AcDbEntity
  8
0
100
AcDbLine
 62
7
  6
CONTINUOUS
 10
6.054
 20
6.671
 11
6.054
 21
7.329
  0
LINE
  5
2E9
100
AcDbEntity
  8
0
100
AcDbLine
 62
7
  6
CONTINUOUS
 10
6.119
 20
6.671
 11
6.119
 21
7.329
  0
LINE
  5
2EA
100
AcDbEntity
  8
0
100
AcDbLine
 62
7
  6
CONTINUOUS
 10
6.165
 20
6.71875
 11
6.165
 21
7.28125
  0
LINE
  5
2EB
100
AcDbEntity
  8
0
100
AcDbLine
 62
7
  6
CONTINUOUS
 10
6.4845
 20
7.0275553975
 11
6.4845
 21
6.9724434519
  0
LINE
  5
2EC
100
AcDbEntity
  8
0
100
AcDbLine
 62
7
  6
CONTINUOUS
 10
6.4915
 20
6.9634752654
 11
6.4915
 21
7.0365478893
  0
LINE
  5
2ED
100
AcDbEntity
  8
0
100
AcDbLine
 62
7
  6
CONTINUOUS
 10
6.5015
 20
6.9549521426
 11
6.5015
 21
7.0450633801
  0
LINE
  5
2EE
100
AcDbEntity
  8
0
100
AcDbLine
 62
7
  6
CONTINUOUS
 10
6.5085
 20
7.0489905805
 11
6.5085
 21
6.9509998317
  0
LINE
  5
2EF
100
AcDbEntity
  8
0
100
AcDbLine
 62
7
  6
CONTINUOUS
 10
6.5545
 20
7.0490017219
 11
6.5545
 21
6.9510106664
  0
LINE
  5
2F0
100
AcDbEntity
  8
0
100
AcDbLine
 62
7
  6
CONTINUOUS
 10
6.5615
 20
6.9549357748
 11
6.5615
 21
7.0450467704
  0
LINE
  5
2F1
100
AcDbEntity
  8
0
100
AcDbLine
 62
7
  6
CONTINUOUS
 10
6.5715
 20
6.9634491069
 11
6.5715
 21
7.0365211944
  0
LINE
  5
2F2
100
AcDbEntity
  8
0
100
AcDbLine
 62
7
  6
CONTINUOUS
 10
6.5785
 20
7.0275618691
 11
6.5785
 21
6.9724492636
  0
LINE
  5
2F3
100
AcDbEntity
  8
0
100
AcDbLine
 62
7
  6
CONTINUOUS
 10
6.6555
 20
6.71875
 11
6.6555
 21
7.28125
  0
LINE
  5
2F4
100
AcDbEntity
  8
0
100
AcDbLine
 62
7
  6
CONTINUOUS
 10
7.0465
 20
6.7015
 11
7.034
 21
6.689
  0
LINE
  5
2F5
100
AcDbEntity
  8
0
100
AcDbLine
 62
7
  6
CONTINUOUS
 10
7.0465
 20
7.2985
 11
7.034
 21
7.311
  0
LINE
  5
2F6
100
AcDbEntity
  8
0
100
AcDbLine
 62
7
  6
CONTINUOUS
 10
6.6985341434
 20
6.689
 11
6.6985341434
 21
7.311
  0
LINE
  5
2F7
100
AcDbEntity
  8
0
100
AcDbLine
 62
7
  6
CONTINUOUS
 10
6.7665
 20
7.3275
 11
6.7665
 21
6.6725
  0
LINE
  5
2F8
100
AcDbEntity
  8
0
100
AcDbLine
 62
7
  6
CONTINUOUS
 10
6.8165
 20
7.3275
 11
6.8165
 21
6.6725
  0
LINE
  5
2F9
100
AcDbEntity
  8
0
100
AcDbLine
 62
7
  6
CONTINUOUS
 10
6.8865
 20
7.3275
 11
6.8865
 21
6.6725
  0
LINE
  5
2FA
100
AcDbEntity
  8
0
100
AcDbLine
 62
7
  6
CONTINUOUS
 10
6.9365
 20
7.3275
 11
6.9365
 21
6.6725
  0
LINE
  5
2FB
100
AcDbEntity
  8
0
100
AcDbLine
 62
7
  6
CONTINUOUS
 10
6.964
 20
6.689
 11
6.964
 21
7.311
  0
LINE
  5
2FC
100
AcDbEntity
  8
0
100
AcDbLine
 62
7
  6
CONTINUOUS
 10
7.034
 20
6.689
 11
7.034
 21
7.311
  0
LINE
  5
2FD
100
AcDbEntity
  8
0
100
AcDbLine
 62
7
  6
CONTINUOUS
 10
7.0465
 20
6.7015
 11
7.0465
 21
7.2985
  0
ARC
  5
2FE
100
AcDbEntity
  8
0
100
AcDbCircle
 62
7
  6
CONTINUOUS
 10
4.848
 20
6.674
 40
0.046
100
AcDbArc
 50
0.0
 51
90.0
  0
ARC
  5
2FF
100
AcDbEntity
  8
0
100
AcDbCircle
 62
7
  6
CONTINUOUS
 10
3.8829944465
 20
6.6365
 40
0.013
100
AcDbArc
 50
30.0000011947
 51
90.0
  0
ARC
  5
300
100
AcDbEntity
  8
0
100
AcDbCircle
 62
7
  6
CONTINUOUS
 10
3.7085
 20
6.5786132487
 40
0.005
100
AcDbArc
 50
119.9999999027
 51
179.9999998052
  0
ARC
  5
301
100
AcDbEntity
  8
0
100
AcDbCircle
 62
7
  6
CONTINUOUS
 10
3.7282224319
 20
6.59
 40
0.005
100
AcDbArc
 50
90.0
 51
119.9999999834
  0
ARC
  5
302
100
AcDbEntity
  8
0
100
AcDbCircle
 62
7
  6
CONTINUOUS
 10
3.7005
 20
6.5755
 40
0.003
100
AcDbArc
 50
270.0
 51
0.0000047502
  0
ARC
  5
303
100
AcDbEntity
  8
0
100
AcDbCircle
 62
7
  6
CONTINUOUS
 10
3.6405
 20
6.5805
 40
0.002
100
AcDbArc
 50
42.3553148142
 51
137.6446851858
  0
CIRCLE
  5
304
100
AcDbEntity
  8
0
100
AcDbCircle
 62
7
  6
CONTINUOUS
 10
4.4915
 20
7.0
 40
0.0545
  0
ARC
  5
305
100
AcDbEntity
  8
0
100
AcDbCircle
 62
7
  6
CONTINUOUS
 10
4.848
 20
7.326
 40
0.046
100
AcDbArc
 50
270.0
 51
360.0
  0
ARC
  5
306
100
AcDbEntity
  8
0
100
AcDbCircle
 62
7
  6
CONTINUOUS
 10
3.8829944465
 20
7.3635
 40
0.013
100
AcDbArc
 50
270.0
 51
329.9999988053
  0
ARC
  5
307
100
AcDbEntity
  8
0
100
AcDbCircle
 62
7
  6
CONTINUOUS
 10
3.7085
 20
7.4213867513
 40
0.005
100
AcDbArc
 50
180.0000001948
 51
240.0000000973
  0
ARC
  5
308
100
AcDbEntity
  8
0
100
AcDbCircle
 62
7
  6
CONTINUOUS
 10
3.7282224319
 20
7.41
 40
0.005
100
AcDbArc
 50
240.0000000167
 51
270.0
  0
ARC
  5
309
100
AcDbEntity
  8
0
100
AcDbCircle
 62
7
  6
CONTINUOUS
 10
3.7005
 20
7.4245
 40
0.003
100
AcDbArc
 50
359.9999952498
 51
90.0
  0
ARC
  5
30A
100
AcDbEntity
  8
0
100
AcDbCircle
 62
7
  6
CONTINUOUS
 10
3.6405
 20
7.4195
 40
0.002
100
AcDbArc
 50
222.3553148142
 51
317.6446851858
  0
ARC
  5
30B
100
AcDbEntity
  8
0
100
AcDbCircle
 62
7
  6
CONTINUOUS
 10
6.6555
 20
6.67275
 40
0.046
100
AcDbArc
 50
20.6868946839
 51
90.0
  0
ARC
  5
30C
100
AcDbEntity
  8
0
100
AcDbCircle
 62
7
  6
CONTINUOUS
 10
6.165
 20
6.67275
 40
0.046
100
AcDbArc
 50
90.0
 51
180.0
  0
ARC
  5
30D
100
AcDbEntity
  8
0
100
AcDbCircle
 62
7
  6
CONTINUOUS
 10
5.748
 20
6.67275
 40
0.046
100
AcDbArc
 50
0.0
 51
90.0
  0
ARC
  5
30E
100
AcDbEntity
  8
0
100
AcDbCircle
 62
7
  6
CONTINUOUS
 10
5.265
 20
6.67275
 40
0.046
100
AcDbArc
 50
90.0
 51
180.0
  0
CIRCLE
  5
30F
100
AcDbEntity
  8
0
100
AcDbCircle
 62
7
  6
CONTINUOUS
 10
5.5125
 20
7.0
 40
0.07
  0
CIRCLE
  5
310
100
AcDbEntity
  8
0
100
AcDbCircle
 62
7
  6
CONTINUOUS
 10
6.5315
 20
7.0
 40
0.0545
  0
ARC
  5
311
100
AcDbEntity
  8
0
100
AcDbCircle
 62
7
  6
CONTINUOUS
 10
6.6555
 20
7.32725
 40
0.046
100
AcDbArc
 50
270.0
 51
339.3131053161
  0
ARC
  5
312
100
AcDbEntity
  8
0
100
AcDbCircle
 62
7
  6
CONTINUOUS
 10
6.165
 20
7.32725
 40
0.046
100
AcDbArc
 50
180.0
 51
270.0
  0
ARC
  5
313
100
AcDbEntity
  8
0
100
AcDbCircle
 62
7
  6
CONTINUOUS
 10
5.748
 20
7.32725
 40
0.046
100
AcDbArc
 50
270.0
 51
360.0
  0
ARC
  5
314
100
AcDbEntity
  8
0
100
AcDbCircle
 62
7
  6
CONTINUOUS
 10
5.265
 20
7.32725
 40
0.046
100
AcDbArc
 50
180.0
 51
270.0
  0
SPLINE
  5
315
100
AcDbEntity
  8
0
100
AcDbSpline
 62
7
  6
CONTINUOUS
 70
0
 71
3
 72
25
 73
21
 74
0
 42
0.0000001
 43
0.0000001
 44
0.0000000001
 40
0.0
 40
0.0
 40
0.0
 40
0.0
 40
0.0255717581
 40
0.0515908124
 40
0.0782145897
 40
0.1055814177
 40
0.1629099078
 40
0.2242184081
 40
0.357313449
 40
0.4280478872
 40
0.4999986467
 40
0.5719472182
 40
0.6426808826
 40
0.7757784106
 40
0.8370853241
 40
0.8944153549
 40
0.921783407
 40
0.9484082533
 40
0.9744280047
 40
1.0
 40
1.0
 40
1.0
 40
1.0
 10
4.2555
 20
7.2425376259
 30
0.0
 10
4.2555
 20
7.2420740344
 30
0.0
 10
4.2554336413
 20
7.2411375482
 30
0.0
 10
4.2551422435
 20
7.2397458572
 30
0.0
 10
4.2546617016
 20
7.2383728784
 30
0.0
 10
4.2537592788
 20
7.2365628125
 30
0.0
 10
4.2521608457
 20
7.234422328
 30
0.0
 10
4.2487197526
 20
7.2313881344
 30
0.0
 10
4.2442847627
 20
7.2292696442
 30
0.0
 10
4.2393959588
 20
7.2281735127
 30
0.0
 10
4.2355001173
 20
7.2278867082
 30
0.0
 10
4.2316042689
 20
7.2281733986
 30
0.0
 10
4.2267155129
 20
7.2292696658
 30
0.0
 10
4.2222804116
 20
7.231387929
 30
0.0
 10
4.218839316
 20
7.2344221934
 30
0.0
 10
4.2172408168
 20
7.2365626512
 30
0.0
 10
4.2163383502
 20
7.2383727751
 30
0.0
 10
4.215857788
 20
7.239745804
 30
0.0
 10
4.2155663666
 20
7.2411375268
 30
0.0
 10
4.2155
 20
7.2420740301
 30
0.0
 10
4.2155
 20
7.2425376259
 30
0.0
  0
SPLINE
  5
316
100
AcDbEntity
  8
126-101_HEX_FEATURES
100
AcDbSpline
 62
7
  6
CONTINUOUS
 70
0
 71
3
 72
18
 73
14
 74
0
 42
0.0000001
 43
0.0000001
 44
0.0000000001
 40
0.0
 40
0.0
 40
0.0
 40
0.0
 40
0.051904153
 40
0.1040062452
 40
0.1567208545
 40
0.2105013454
 40
0.265768285
 40
0.3228511042
 40
0.443160313
 40
0.5723607859
 40
0.7096876503
 40
0.853214282
 40
1.0
 40
1.0
 40
1.0
 40
1.0
 10
4.2026160761
 20
6.969000121
 30
0.0
 10
4.201891748
 20
6.9690001188
 30
0.0
 10
4.2004384878
 20
6.9690960318
 30
0.0
 10
4.1982884454
 20
6.9695291112
 30
0.0
 10
4.1961896285
 20
6.9702514841
 30
0.0
 10
4.1941614443
 20
6.9712560629
 30
0.0
 10
4.1922218648
 20
6.9725364167
 30
0.0
 10
4.1897332518
 20
6.974631409
 30
0.0
 10
4.1869409177
 20
6.977916911
 30
0.0
 10
4.1842673674
 20
6.982637091
 30
0.0
 10
4.1822905075
 20
6.988032095
 30
0.0
 10
4.1810782443
 20
6.993894744
 30
0.0
 10
4.180806425
 20
6.9979515894
 30
0.0
 10
4.180806425
 20
7.0
 30
0.0
  0
SPLINE
  5
317
100
AcDbEntity
  8
0
100
AcDbSpline
 62
7
  6
CONTINUOUS
 70
0
 71
3
 72
25
 73
21
 74
0
 42
0.0000001
 43
0.0000001
 44
0.0000000001
 40
0.0
 40
0.0
 40
0.0
 40
0.0
 40
0.0255717581
 40
0.0515908124
 40
0.0782145897
 40
0.1055814177
 40
0.1629099078
 40
0.2242184081
 40
0.357313449
 40
0.4280478872
 40
0.4999986467
 40
0.5719472182
 40
0.6426808826
 40
0.7757784106
 40
0.8370853241
 40
0.8944153549
 40
0.921783407
 40
0.9484082533
 40
0.9744280047
 40
1.0
 40
1.0
 40
1.0
 40
1.0
 10
4.2155
 20
6.7574623741
 30
0.0
 10
4.2155
 20
6.7579259656
 30
0.0
 10
4.2155663587
 20
6.7588624518
 30
0.0
 10
4.2158577565
 20
6.7602541428
 30
0.0
 10
4.2163382984
 20
6.7616271216
 30
0.0
 10
4.2172407212
 20
6.7634371875
 30
0.0
 10
4.2188391543
 20
6.765577672
 30
0.0
 10
4.2222802474
 20
6.7686118656
 30
0.0
 10
4.2267152373
 20
6.7707303558
 30
0.0
 10
4.2316040412
 20
6.7718264873
 30
0.0
 10
4.2354998827
 20
6.7721132918
 30
0.0
 10
4.2393957311
 20
6.7718266014
 30
0.0
 10
4.2442844871
 20
6.7707303342
 30
0.0
 10
4.2487195884
 20
6.768612071
 30
0.0
 10
4.252160684
 20
6.7655778066
 30
0.0
 10
4.2537591832
 20
6.7634373488
 30
0.0
 10
4.2546616498
 20
6.7616272249
 30
0.0
 10
4.255142212
 20
6.760254196
 30
0.0
 10
4.2554336334
 20
6.7588624732
 30
0.0
 10
4.2555
 20
6.7579259699
 30
0.0
 10
4.2555
 20
6.7574623741
 30
0.0
  0
SPLINE
  5
318
100
AcDbEntity
  8
126-101_HEX_FEATURES
100
AcDbSpline
 62
7
  6
CONTINUOUS
 70
0
 71
3
 72
18
 73
14
 74
0
 42
0.0000001
 43
0.0000001
 44
0.0000000001
 40
0.0
 40
0.0
 40
0.0
 40
0.0
 40
0.146784017
 40
0.2903063264
 40
0.4276316628
 40
0.5568299863
 40
0.6771376892
 40
0.7342217852
 40
0.7894899713
 40
0.8432725723
 40
0.8959899875
 40
0.9480946757
 40
1.0
 40
1.0
 40
1.0
 40
1.0
 10
4.180806425
 20
7.0
 30
0.0
 10
4.180806425
 20
7.0020483503
 30
0.0
 10
4.1810782244
 20
7.0061050381
 30
0.0
 10
4.1822903915
 20
7.01196749
 30
0.0
 10
4.184267117
 20
7.0173623077
 30
0.0
 10
4.1869404336
 20
7.0220824296
 30
0.0
 10
4.1897326366
 20
7.025367885
 30
0.0
 10
4.1922210746
 20
7.0274630159
 30
0.0
 10
4.194160626
 20
7.0287434563
 30
0.0
 10
4.1961887909
 20
7.0297481738
 30
0.0
 10
4.1982876372
 20
7.0304706692
 30
0.0
 10
4.2004377139
 20
7.0309038403
 30
0.0
 10
4.2018909944
 20
7.0309998412
 30
0.0
 10
4.2026153259
 20
7.0309998761
 30
0.0
  0
SPLINE
  5
319
100
AcDbEntity
  8
THREAD
100
AcDbSpline
 62
7
  6
CONTINUOUS
 70
0
 71
3
 72
15
 73
11
 74
0
 42
0.0000001
 43
0.0000001
 44
0.0000000001
 40
0.0
 40
0.0
 40
0.0
 40
0.0
 40
0.1255722257
 40
0.2506945728
 40
0.3754512036
 40
0.5000000116
 40
0.6245488177
 40
0.7493054452
 40
0.8744277787
 40
1.0
 40
1.0
 40
1.0
 40
1.0
 10
2.9875636659
 20
6.5920977523
 30
0.0
 10
2.9829741757
 20
6.6075112819
 30
0.0
 10
2.9746317584
 20
6.6385375548
 30
0.0
 10
2.965141119
 20
6.6857146096
 30
0.0
 10
2.9591929945
 20
6.7333481633
 30
0.0
 10
2.9571631432
 20
6.7812419872
 30
0.0
 10
2.9591929952
 20
6.8291358106
 30
0.0
 10
2.9651411201
 20
6.8767693618
 30
0.0
 10
2.9746317593
 20
6.923946414
 30
0.0
 10
2.9829741758
 20
6.9549726847
 30
0.0
 10
2.9875636659
 20
6.9703862137
 30
0.0
  0
SPLINE
  5
31A
100
AcDbEntity
  8
THREAD
100
AcDbSpline
 62
7
  6
CONTINUOUS
 70
0
 71
3
 72
21
 73
17
 74
0
 42
0.0000001
 43
0.0000001
 44
0.0000000001
 40
0.0
 40
0.0
 40
0.0
 40
0.0
 40
0.1264560126
 40
0.1892875349
 40
0.2518383053
 40
0.3141389815
 40
0.3762244014
 40
0.4381542655
 40
0.5000000641
 40
0.5618458488
 40
0.6237757087
 40
0.6858611075
 40
0.7481617721
 40
0.8107125085
 40
0.8735439971
 40
1.0
 40
1.0
 40
1.0
 40
1.0
 10
3.423
 20
6.5920977523
 30
0.0
 10
3.4306471373
 20
6.6069255248
 30
0.0
 10
3.4412575359
 20
6.6295796895
 30
0.0
 10
3.4530954699
 20
6.6606378847
 30
0.0
 10
3.4606354262
 20
6.6842385146
 30
0.0
 10
3.4666966695
 20
6.7081620015
 30
0.0
 10
3.4711517738
 20
6.7323556969
 30
0.0
 10
3.47386939
 20
6.7567472195
 30
0.0
 10
3.4747910459
 20
6.7812420067
 30
0.0
 10
3.4738693877
 20
6.8057367933
 30
0.0
 10
3.4711517688
 20
6.8301283104
 30
0.0
 10
3.4666966631
 20
6.8543220006
 30
0.0
 10
3.460635417
 20
6.8782454777
 30
0.0
 10
3.4530954668
 20
6.9018460985
 30
0.0
 10
3.4412575302
 20
6.9329042818
 30
0.0
 10
3.4306471367
 20
6.9555584424
 30
0.0
 10
3.423
 20
6.9703862137
 30
0.0
  0
SPLINE
  5
31B
100
AcDbEntity
  8
0
100
AcDbSpline
 62
7
  6
CONTINUOUS
 70
0
 71
3
 72
29
 73
25
 74
0
 42
0.0000001
 43
0.0000001
 44
0.0000000001
 40
0.0
 40
0.0
 40
0.0
 40
0.0
 40
0.0258441352
 40
0.0518631985
 40
0.0782576183
 40
0.1052204635
 40
0.1615014435
 40
0.2218980005
 40
0.2866477099
 40
0.3205645723
 40
0.3553479255
 40
0.4269004017
 40
0.4999986445
 40
0.5730946911
 40
0.6446463267
 40
0.6794311439
 40
0.7133494282
 40
0.7780988975
 40
0.8384938987
 40
0.8947763458
 40
0.9217404439
 40
0.9481359437
 40
0.9741556591
 40
1.0
 40
1.0
 40
1.0
 40
1.0
 10
4.2155
 20
7.2425376259
 30
0.0
 10
4.2155
 20
7.2429985413
 30
0.0
 10
4.2155652871
 20
7.243924771
 30
0.0
 10
4.2158560375
 20
7.2452940602
 30
0.0
 10
4.2163364564
 20
7.2466304135
 30
0.0
 10
4.2172384904
 20
7.2483708082
 30
0.0
 10
4.2188426137
 20
7.2504017366
 30
0.0
 10
4.2213654659
 20
7.2524600774
 30
0.0
 10
4.2238672739
 20
7.2538288444
 30
0.0
 10
4.2260779423
 20
7.2547153087
 30
0.0
 10
4.2284650595
 20
7.2554696615
 30
0.0
 10
4.2316139593
 20
7.2560992173
 30
0.0
 10
4.2354998845
 20
7.2563519194
 30
0.0
 10
4.2393858079
 20
7.2560993111
 30
0.0
 10
4.242534667
 20
7.2554696937
 30
0.0
 10
4.2449218257
 20
7.2547153556
 30
0.0
 10
4.2471325558
 20
7.253828922
 30
0.0
 10
4.249634403
 20
7.2524602278
 30
0.0
 10
4.252157222
 20
7.2504018598
 30
0.0
 10
4.2537614161
 20
7.2483709636
 30
0.0
 10
4.2546634915
 20
7.2466305114
 30
0.0
 10
4.2551439306
 20
7.2452941093
 30
0.0
 10
4.2554347052
 20
7.2439247901
 30
0.0
 10
4.2555
 20
7.2429985449
 30
0.0
 10
4.2555
 20
7.2425376259
 30
0.0
  0
SPLINE
  5
31C
100
AcDbEntity
  8
126-101_HEX_FEATURES
100
AcDbSpline
 62
7
  6
CONTINUOUS
 70
0
 71
3
 72
23
 73
19
 74
0
 42
0.0000001
 43
0.0000001
 44
0.0000000001
 40
0.0
 40
0.0
 40
0.0
 40
0.0
 40
0.0312934047
 40
0.0627010808
 40
0.0940372697
 40
0.1253517348
 40
0.1566564582
 40
0.1879252354
 40
0.2192011564
 40
0.250458566
 40
0.3129321367
 40
0.375395502
 40
0.437861693
 40
0.5003266042
 40
0.6252232873
 40
0.7501394439
 40
0.875067104
 40
1.0
 40
1.0
 40
1.0
 40
1.0
 10
4.2655
 20
7.0
 30
0.0
 10
4.2655
 20
6.9992213099
 30
0.0
 10
4.2653667904
 20
6.9976587072
 30
0.0
 10
4.2648118073
 20
6.9953770257
 30
0.0
 10
4.2639309038
 20
6.9932003014
 30
0.0
 10
4.2627787946
 20
6.9911597065
 30
0.0
 10
4.2614143367
 20
6.9892585133
 30
0.0
 10
4.2598801168
 20
6.987493999
 30
0.0
 10
4.2582096817
 20
6.9858606314
 30
0.0
 10
4.2558413772
 20
6.9838409594
 30
0.0
 10
4.2526619879
 20
6.9815911159
 30
0.0
 10
4.2486183906
 20
6.9792585215
 30
0.0
 10
4.2444102305
 20
6.9772406587
 30
0.0
 10
4.2386415261
 20
6.9749150589
 30
0.0
 10
4.2312050673
 20
6.9726119733
 30
0.0
 10
4.222076393
 20
6.9706598999
 30
0.0
 10
4.2128222806
 20
6.9694371716
 30
0.0
 10
4.2066081777
 20
6.9690844833
 30
0.0
 10
4.2035
 20
6.9690237727
 30
0.0
  0
SPLINE
  5
31D
100
AcDbEntity
  8
0
100
AcDbSpline
 62
7
  6
CONTINUOUS
 70
0
 71
3
 72
29
 73
25
 74
0
 42
0.0000001
 43
0.0000001
 44
0.0000000001
 40
0.0
 40
0.0
 40
0.0
 40
0.0
 40
0.0258441352
 40
0.0518631985
 40
0.0782576183
 40
0.1052204635
 40
0.1615014435
 40
0.2218980005
 40
0.2866477099
 40
0.3205645723
 40
0.3553479255
 40
0.4269004017
 40
0.4999986445
 40
0.5730946911
 40
0.6446463267
 40
0.6794311439
 40
0.7133494282
 40
0.7780988975
 40
0.8384938987
 40
0.8947763458
 40
0.9217404439
 40
0.9481359437
 40
0.9741556591
 40
1.0
 40
1.0
 40
1.0
 40
1.0
 10
4.2555
 20
6.7574623741
 30
0.0
 10
4.2555
 20
6.7570014587
 30
0.0
 10
4.2554347129
 20
6.756075229
 30
0.0
 10
4.2551439625
 20
6.7547059398
 30
0.0
 10
4.2546635436
 20
6.7533695865
 30
0.0
 10
4.2537615096
 20
6.7516291918
 30
0.0
 10
4.2521573863
 20
6.7495982634
 30
0.0
 10
4.2496345341
 20
6.7475399226
 30
0.0
 10
4.2471327261
 20
6.7461711556
 30
0.0
 10
4.2449220577
 20
6.7452846913
 30
0.0
 10
4.2425349405
 20
6.7445303385
 30
0.0
 10
4.2393860407
 20
6.7439007827
 30
0.0
 10
4.2355001155
 20
6.7436480806
 30
0.0
 10
4.2316141921
 20
6.7439006889
 30
0.0
 10
4.228465333
 20
6.7445303063
 30
0.0
 10
4.2260781743
 20
6.7452846444
 30
0.0
 10
4.2238674442
 20
6.746171078
 30
0.0
 10
4.221365597
 20
6.7475397722
 30
0.0
 10
4.218842778
 20
6.7495981402
 30
0.0
 10
4.2172385839
 20
6.7516290364
 30
0.0
 10
4.2163365085
 20
6.7533694886
 30
0.0
 10
4.2158560694
 20
6.7547058907
 30
0.0
 10
4.2155652948
 20
6.7560752099
 30
0.0
 10
4.2155
 20
6.7570014551
 30
0.0
 10
4.2155
 20
6.7574623741
 30
0.0
  0
SPLINE
  5
31E
100
AcDbEntity
  8
126-101_HEX_FEATURES
100
AcDbSpline
 62
7
  6
CONTINUOUS
 70
0
 71
3
 72
24
 73
20
 74
0
 42
0.0000001
 43
0.0000001
 44
0.0000000001
 40
0.0
 40
0.0
 40
0.0
 40
0.0
 40
0.1249279148
 40
0.2498445
 40
0.3747467186
 40
0.4372081297
 40
0.4996668246
 40
0.5621253698
 40
0.6245889491
 40
0.6870545509
 40
0.7495319674
 40
0.7807935363
 40
0.8120729362
 40
0.8433427954
 40
0.8746464608
 40
0.9059594939
 40
0.9372966921
 40
0.9687060572
 40
1.0
 40
1.0
 40
1.0
 40
1.0
 10
4.2035
 20
7.0309762273
 30
0.0
 10
4.2066081742
 20
7.0309155167
 30
0.0
 10
4.2128222528
 20
7.0305628439
 30
0.0
 10
4.2220753857
 20
7.0293402277
 30
0.0
 10
4.2296846797
 20
7.0277134885
 30
0.0
 10
4.2356644407
 20
7.0260062316
 30
0.0
 10
4.240081172
 20
7.0245046274
 30
0.0
 10
4.2444082398
 20
7.0227600163
 30
0.0
 10
4.2486165103
 20
7.0207425111
 30
0.0
 10
4.2526604694
 20
7.0184099634
 30
0.0
 10
4.2558402518
 20
7.0161599755
 30
0.0
 10
4.2582089068
 20
7.0141400886
 30
0.0
 10
4.2598796263
 20
7.0125065706
 30
0.0
 10
4.2614139715
 20
7.0107419284
 30
0.0
 10
4.2627785281
 20
7.0088407423
 30
0.0
 10
4.2639307525
 20
7.0068001441
 30
0.0
 10
4.2648116307
 20
7.0046232759
 30
0.0
 10
4.2653667202
 20
7.0023414515
 30
0.0
 10
4.2655
 20
7.0007787337
 30
0.0
 10
4.2655
 20
7.0
 30
0.0
  0
SPLINE
  5
31F
100
AcDbEntity
  8
THREAD
100
AcDbSpline
 62
7
  6
CONTINUOUS
 70
0
 71
3
 72
15
 73
11
 74
0
 42
0.0000001
 43
0.0000001
 44
0.0000000001
 40
0.0
 40
0.0
 40
0.0
 40
0.0
 40
0.1255722257
 40
0.2506945728
 40
0.3754512036
 40
0.5000000116
 40
0.6245488177
 40
0.7493054452
 40
0.8744277787
 40
1.0
 40
1.0
 40
1.0
 40
1.0
 10
2.9875636659
 20
7.0296137863
 30
0.0
 10
2.9829741757
 20
7.0450273158
 30
0.0
 10
2.9746317584
 20
7.0760535888
 30
0.0
 10
2.965141119
 20
7.1232306436
 30
0.0
 10
2.9591929945
 20
7.1708641973
 30
0.0
 10
2.9571631432
 20
7.2187580212
 30
0.0
 10
2.9591929952
 20
7.2666518446
 30
0.0
 10
2.9651411201
 20
7.3142853958
 30
0.0
 10
2.9746317593
 20
7.361462448
 30
0.0
 10
2.9829741758
 20
7.3924887187
 30
0.0
 10
2.9875636659
 20
7.4079022477
 30
0.0
  0
SPLINE
  5
320
100
AcDbEntity
  8
THREAD
100
AcDbSpline
 62
7
  6
CONTINUOUS
 70
0
 71
3
 72
21
 73
17
 74
0
 42
0.0000001
 43
0.0000001
 44
0.0000000001
 40
0.0
 40
0.0
 40
0.0
 40
0.0
 40
0.1264560126
 40
0.1892875349
 40
0.2518383053
 40
0.3141389815
 40
0.3762244014
 40
0.4381542655
 40
0.5000000641
 40
0.5618458488
 40
0.6237757087
 40
0.6858611075
 40
0.7481617721
 40
0.8107125085
 40
0.8735439971
 40
1.0
 40
1.0
 40
1.0
 40
1.0
 10
3.423
 20
7.0296137863
 30
0.0
 10
3.4306471373
 20
7.0444415588
 30
0.0
 10
3.4412575359
 20
7.0670957235
 30
0.0
 10
3.4530954699
 20
7.0981539187
 30
0.0
 10
3.4606354262
 20
7.1217545486
 30
0.0
 10
3.4666966695
 20
7.1456780355
 30
0.0
 10
3.4711517738
 20
7.1698717309
 30
0.0
 10
3.47386939
 20
7.1942632535
 30
0.0
 10
3.4747910459
 20
7.2187580407
 30
0.0
 10
3.4738693877
 20
7.2432528272
 30
0.0
 10
3.4711517688
 20
7.2676443444
 30
0.0
 10
3.4666966631
 20
7.2918380346
 30
0.0
 10
3.460635417
 20
7.3157615116
 30
0.0
 10
3.4530954668
 20
7.3393621325
 30
0.0
 10
3.4412575302
 20
7.3704203158
 30
0.0
 10
3.4306471367
 20
7.3930744763
 30
0.0
 10
3.423
 20
7.4079022477
 30
0.0
  0
SPLINE
  5
321
100
AcDbEntity
  8
0
100
AcDbSpline
 62
7
  6
CONTINUOUS
 70
0
 71
3
 72
36
 73
32
 74
0
 42
0.0000001
 43
0.0000001
 44
0.0000000001
 40
0.0
 40
0.0
 40
0.0
 40
0.0
 40
0.0199971376
 40
0.0411764034
 40
0.0638711418
 40
0.0883015519
 40
0.1145746157
 40
0.1427216941
 40
0.1726916957
 40
0.2043805544
 40
0.237659681
 40
0.2723665303
 40
0.3453136103
 40
0.3832093956
 40
0.4217688526
 40
0.4999653052
 40
0.5391994151
 40
0.5782130679
 40
0.6167784043
 40
0.6546796007
 40
0.7276333705
 40
0.7623410009
 40
0.7956201638
 40
0.827308954
 40
0.8572789028
 40
0.8854259896
 40
0.9116990241
 40
0.9361293514
 40
0.9588239266
 40
0.9800029669
 40
1.0
 40
1.0
 40
1.0
 40
1.0
 10
4.437
 20
6.7575128869
 30
0.0
 10
4.437
 20
6.7584232978
 30
0.0
 10
4.4371917899
 20
6.7603015793
 30
0.0
 10
4.4380024603
 20
6.7631075235
 30
0.0
 10
4.4393296564
 20
6.7659325125
 30
0.0
 10
4.4411566129
 20
6.7687411348
 30
0.0
 10
4.4434602756
 20
6.7715038792
 30
0.0
 10
4.4462193495
 20
6.7741864641
 30
0.0
 10
4.4494066383
 20
6.7767557655
 30
0.0
 10
4.4529929308
 20
6.7791768231
 30
0.0
 10
4.4569468469
 20
6.7814130919
 30
0.0
 10
4.4627542216
 20
6.7841520322
 30
0.0
 10
4.4690426208
 20
6.7863207857
 30
0.0
 10
4.4756648947
 20
6.7878899067
 30
0.0
 10
4.4826141444
 20
6.789048704
 30
0.0
 10
4.4897251019
 20
6.7895192644
 30
0.0
 10
4.4968475202
 20
6.7892816638
 30
0.0
 10
4.5021436171
 20
6.7887557391
 30
0.0
 10
4.5073336339
 20
6.7878901673
 30
0.0
 10
4.5139564218
 20
6.7863210173
 30
0.0
 10
4.5202455514
 20
6.7841521721
 30
0.0
 10
4.5260532124
 20
6.7814130772
 30
0.0
 10
4.5300071499
 20
6.7791767706
 30
0.0
 10
4.5335934342
 20
6.7767557096
 30
0.0
 10
4.5367807129
 20
6.7741864037
 30
0.0
 10
4.539539782
 20
6.7715038185
 30
0.0
 10
4.541843431
 20
6.7687410682
 30
0.0
 10
4.5436703703
 20
6.765932451
 30
0.0
 10
4.5449975692
 20
6.763107487
 30
0.0
 10
4.5458082218
 20
6.7603015597
 30
0.0
 10
4.546
 20
6.758423293
 30
0.0
 10
4.546
 20
6.7575128869
 30
0.0
  0
SPLINE
  5
322
100
AcDbEntity
  8
0
100
AcDbSpline
 62
7
  6
CONTINUOUS
 70
0
 71
3
 72
36
 73
32
 74
0
 42
0.0000001
 43
0.0000001
 44
0.0000000001
 40
0.0
 40
0.0
 40
0.0
 40
0.0
 40
0.0199971502
 40
0.0411764484
 40
0.0638712314
 40
0.0883016998
 40
0.1145748198
 40
0.1427219451
 40
0.1726920116
 40
0.2043809274
 40
0.2376601087
 40
0.2723670285
 40
0.3453142694
 40
0.3832100527
 40
0.4217693188
 40
0.4999651986
 40
0.5391991079
 40
0.5782126236
 40
0.6167778733
 40
0.6546790565
 40
0.7276328769
 40
0.7623405682
 40
0.7956197917
 40
0.8273086434
 40
0.8572786585
 40
0.8854257925
 40
0.9116988815
 40
0.9361292646
 40
0.9588238827
 40
0.9800029544
 40
1.0
 40
1.0
 40
1.0
 40
1.0
 10
4.546
 20
7.2424871131
 30
0.0
 10
4.546
 20
7.2415767016
 30
0.0
 10
4.5458082088
 20
7.2396984181
 30
0.0
 10
4.5449975357
 20
7.2368924706
 30
0.0
 10
4.5436703378
 20
7.2340674756
 30
0.0
 10
4.5418433752
 20
7.2312588485
 30
0.0
 10
4.5395397058
 20
7.2284961002
 30
0.0
 10
4.5367806244
 20
7.2258135118
 30
0.0
 10
4.5335933256
 20
7.2232442106
 30
0.0
 10
4.5300070261
 20
7.2208231493
 30
0.0
 10
4.5260531009
 20
7.2185868796
 30
0.0
 10
4.520245711
 20
7.215847941
 30
0.0
 10
4.513957298
 20
7.2136791948
 30
0.0
 10
4.507335024
 20
7.2121100826
 30
0.0
 10
4.500385811
 20
7.2109512758
 30
0.0
 10
4.4932748955
 20
7.2104807401
 30
0.0
 10
4.4861525193
 20
7.2107183346
 30
0.0
 10
4.4808564403
 20
7.2112442473
 30
0.0
 10
4.4756664351
 20
7.2121098225
 30
0.0
 10
4.4690436472
 20
7.2136789618
 30
0.0
 10
4.462754512
 20
7.2158478048
 30
0.0
 10
4.4569468403
 20
7.2185868953
 30
0.0
 10
4.452992893
 20
7.2208232017
 30
0.0
 10
4.4494066011
 20
7.2232442666
 30
0.0
 10
4.4462193124
 20
7.2258135728
 30
0.0
 10
4.4434602361
 20
7.2284961616
 30
0.0
 10
4.4411565806
 20
7.2312589157
 30
0.0
 10
4.4393296352
 20
7.2340675374
 30
0.0
 10
4.4380024347
 20
7.2368925072
 30
0.0
 10
4.4371917794
 20
7.2396984377
 30
0.0
 10
4.437
 20
7.2415767064
 30
0.0
 10
4.437
 20
7.2424871131
 30
0.0
  0
SPLINE
  5
323
100
AcDbEntity
  8
0
100
AcDbSpline
 62
7
  6
CONTINUOUS
 70
0
 71
3
 72
37
 73
33
 74
0
 42
0.0000001
 43
0.0000001
 44
0.0000000001
 40
0.0
 40
0.0
 40
0.0
 40
0.0
 40
0.0199119163
 40
0.0411592155
 40
0.0640378128
 40
0.0887237088
 40
0.1152789656
 40
0.1436951529
 40
0.1738898688
 40
0.2057373762
 40
0.2390939521
 40
0.2737916024
 40
0.3464711487
 40
0.3841303497
 40
0.4224050251
 40
0.4610945975
 40
0.4999887413
 40
0.5388849087
 40
0.5775786023
 40
0.6158576667
 40
0.6535219371
 40
0.7262086441
 40
0.7609068758
 40
0.7942632035
 40
0.8261105246
 40
0.8563051981
 40
0.8847213892
 40
0.9112765897
 40
0.9359623981
 40
0.958840909
 40
0.9800881214
 40
1.0
 40
1.0
 40
1.0
 40
1.0
 10
5.4425
 20
6.7564303552
 30
0.0
 10
5.4425
 20
6.7576068383
 30
0.0
 10
5.4427500353
 20
6.7600430506
 30
0.0
 10
5.4437948613
 20
6.7636960025
 30
0.0
 10
5.4455022833
 20
6.7674013103
 30
0.0
 10
5.4478501106
 20
6.7711109117
 30
0.0
 10
5.4508083619
 20
6.7747829799
 30
0.0
 10
5.4543488704
 20
6.7783693695
 30
0.0
 10
5.4584368376
 20
6.7818226707
 30
0.0
 10
5.4630352844
 20
6.7850927965
 30
0.0
 10
5.4681047125
 20
6.7881281433
 30
0.0
 10
5.4755431502
 20
6.7918579435
 30
0.0
 10
5.4836154197
 20
6.7948383167
 30
0.0
 10
5.4921302425
 20
6.7970039771
 30
0.0
 10
5.4988025243
 20
6.7982003387
 30
0.0
 10
5.5056145244
 20
6.7989297644
 30
0.0
 10
5.5124981129
 20
6.7991778584
 30
0.0
 10
5.519381914
 20
6.798929557
 30
0.0
 10
5.5261946205
 20
6.7982008985
 30
0.0
 10
5.5328677134
 20
6.7970044129
 30
0.0
 10
5.5413834777
 20
6.7948385096
 30
0.0
 10
5.5494565688
 20
6.7918581569
 30
0.0
 10
5.5568953972
 20
6.7881281343
 30
0.0
 10
5.5619648033
 20
6.7850927354
 30
0.0
 10
5.5665632139
 20
6.7818226087
 30
0.0
 10
5.5706511703
 20
6.7783693161
 30
0.0
 10
5.5741916816
 20
6.7747829369
 30
0.0
 10
5.5771499234
 20
6.771110871
 30
0.0
 10
5.5794977336
 20
6.7674012754
 30
0.0
 10
5.5812051512
 20
6.7636959827
 30
0.0
 10
5.5822499692
 20
6.7600430412
 30
0.0
 10
5.5825
 20
6.7576068361
 30
0.0
 10
5.5825
 20
6.7564303552
 30
0.0
  0
SPLINE
  5
324
100
AcDbEntity
  8
0
100
AcDbSpline
 62
7
  6
CONTINUOUS
 70
0
 71
3
 72
37
 73
33
 74
0
 42
0.0000001
 43
0.0000001
 44
0.0000000001
 40
0.0
 40
0.0
 40
0.0
 40
0.0
 40
0.0199119388
 40
0.0411592938
 40
0.0640379686
 40
0.0887239691
 40
0.1152793294
 40
0.1436956064
 40
0.173890439
 40
0.2057380518
 40
0.2390947286
 40
0.2737924658
 40
0.3464720034
 40
0.3841310671
 40
0.4224054124
 40
0.461094576
 40
0.4999883508
 40
0.5388842614
 40
0.5775777685
 40
0.6158567011
 40
0.6535209702
 40
0.7262077855
 40
0.7609061182
 40
0.7942625507
 40
0.8261099775
 40
0.8563047649
 40
0.8847210418
 40
0.9112763395
 40
0.935962246
 40
0.9588408311
 40
0.9800880988
 40
1.0
 40
1.0
 40
1.0
 40
1.0
 10
5.5825
 20
7.2435696448
 30
0.0
 10
5.5825
 20
7.2423931604
 30
0.0
 10
5.582249962
 20
7.2399569434
 30
0.0
 10
5.5812051301
 20
7.236303984
 30
0.0
 10
5.5794977039
 20
7.2325986625
 30
0.0
 10
5.5771498625
 20
7.2288890498
 30
0.0
 10
5.5741915959
 20
7.2252169716
 30
0.0
 10
5.5706510698
 20
7.2216305731
 30
0.0
 10
5.5665630803
 20
7.21817727
 30
0.0
 10
5.5619646162
 20
7.2149071358
 30
0.0
 10
5.5568951669
 20
7.2118717901
 30
0.0
 10
5.5494567121
 20
7.208142001
 30
0.0
 10
5.5413844404
 20
7.205161643
 30
0.0
 10
5.5328696412
 20
7.2029960066
 30
0.0
 10
5.5261974142
 20
7.2017996343
 30
0.0
 10
5.519385478
 20
7.2010702208
 30
0.0
 10
5.5125019502
 20
7.2008221476
 30
0.0
 10
5.5056181978
 20
7.2010704397
 30
0.0
 10
5.4988055213
 20
7.2017990637
 30
0.0
 10
5.4921324494
 20
7.2029955603
 30
0.0
 10
5.4836166819
 20
7.2051614422
 30
0.0
 10
5.4755435735
 20
7.208141785
 30
0.0
 10
5.4681047211
 20
7.2118718008
 30
0.0
 10
5.463035293
 20
7.2149071991
 30
0.0
 10
5.4584368649
 20
7.2181773342
 30
0.0
 10
5.4543488869
 20
7.221630629
 30
0.0
 10
5.4508083588
 20
7.2252170166
 30
0.0
 10
5.4478501024
 20
7.2288890919
 30
0.0
 10
5.4455022788
 20
7.2325986982
 30
0.0
 10
5.4437948573
 20
7.236304004
 30
0.0
 10
5.4427500335
 20
7.2399569529
 30
0.0
 10
5.4425
 20
7.2423931626
 30
0.0
 10
5.4425
 20
7.2435696448
 30
0.0
  0
SPLINE
  5
325
100
AcDbEntity
  8
0
100
AcDbSpline
 62
7
  6
CONTINUOUS
 70
0
 71
3
 72
36
 73
32
 74
0
 42
0.0000001
 43
0.0000001
 44
0.0000000001
 40
0.0
 40
0.0
 40
0.0
 40
0.0
 40
0.019998501
 40
0.0411766739
 40
0.0638684594
 40
0.0882947684
 40
0.1145632996
 40
0.1427060472
 40
0.1726724393
 40
0.2043587483
 40
0.23763663
 40
0.2723436376
 40
0.3452950636
 40
0.3831946305
 40
0.4217585457
 40
0.4999652797
 40
0.5392046912
 40
0.5782233934
 40
0.6167932626
 40
0.6546982304
 40
0.7276562608
 40
0.762364042
 40
0.7956419644
 40
0.8273282084
 40
0.8572945491
 40
0.8854373058
 40
0.9117058073
 40
0.9361320326
 40
0.9588236549
 40
0.980001603
 40
1.0
 40
1.0
 40
1.0
 40
1.0
 10
6.477
 20
6.7564303552
 30
0.0
 10
6.477
 20
6.7573406808
 30
0.0
 10
6.4771917459
 20
6.7592186753
 30
0.0
 10
6.4780023771
 20
6.7620240229
 30
0.0
 10
6.4793295464
 20
6.764848069
 30
0.0
 10
6.4811564966
 20
6.7676554309
 30
0.0
 10
6.4834601738
 20
6.7704166462
 30
0.0
 10
6.4862192911
 20
6.7730974858
 30
0.0
 10
6.4894066515
 20
6.7756648859
 30
0.0
 10
6.4929930342
 20
6.7780839571
 30
0.0
 10
6.4969470532
 20
6.7803182119
 30
0.0
 10
6.5027546736
 20
6.783054539
 30
0.0
 10
6.5090431251
 20
6.7852209065
 30
0.0
 10
6.5156652807
 20
6.786788193
 30
0.0
 10
6.5226144493
 20
6.787945626
 30
0.0
 10
6.5297251513
 20
6.7884155675
 30
0.0
 10
6.5368473555
 20
6.7881782727
 30
0.0
 10
6.5421433238
 20
6.7876529978
 30
0.0
 10
6.5473332566
 20
6.7867884527
 30
0.0
 10
6.5539559265
 20
6.785221139
 30
0.0
 10
6.5602451017
 20
6.7830546762
 30
0.0
 10
6.566053005
 20
6.7803181969
 30
0.0
 10
6.5700070459
 20
6.7780839052
 30
0.0
 10
6.5735934209
 20
6.7756648305
 30
0.0
 10
6.5767807713
 20
6.7730974255
 30
0.0
 10
6.5795398837
 20
6.7704165856
 30
0.0
 10
6.5818435472
 20
6.7676553643
 30
0.0
 10
6.5836704803
 20
6.7648480077
 30
0.0
 10
6.5849976523
 20
6.7620239866
 30
0.0
 10
6.5858082658
 20
6.7592186558
 30
0.0
 10
6.586
 20
6.757340676
 30
0.0
 10
6.586
 20
6.7564303552
 30
0.0
  0
SPLINE
  5
326
100
AcDbEntity
  8
0
100
AcDbSpline
 62
7
  6
CONTINUOUS
 70
0
 71
3
 72
36
 73
32
 74
0
 42
0.0000001
 43
0.0000001
 44
0.0000000001
 40
0.0
 40
0.0
 40
0.0
 40
0.0
 40
0.0199985136
 40
0.0411767187
 40
0.0638685488
 40
0.0882949159
 40
0.1145635032
 40
0.1427062976
 40
0.1726727542
 40
0.20435912
 40
0.2376370562
 40
0.2723441355
 40
0.3452957345
 40
0.3831953055
 40
0.4217590302
 40
0.4999651834
 40
0.5392043908
 40
0.5782229537
 40
0.6167927347
 40
0.6546976881
 40
0.7276557678
 40
0.7623636098
 40
0.7956415926
 40
0.8273278982
 40
0.8572943053
 40
0.885437109
 40
0.911705665
 40
0.9361319461
 40
0.9588236111
 40
0.9800015906
 40
1.0
 40
1.0
 40
1.0
 40
1.0
 10
6.586
 20
7.2435696448
 30
0.0
 10
6.586
 20
7.2426593187
 30
0.0
 10
6.5858082529
 20
7.2407813221
 30
0.0
 10
6.5849976189
 20
7.2379759711
 30
0.0
 10
6.5836704479
 20
7.2351519191
 30
0.0
 10
6.5818434914
 20
7.2323445525
 30
0.0
 10
6.5795398077
 20
7.2295833332
 30
0.0
 10
6.5767806828
 20
7.2269024902
 30
0.0
 10
6.5735933126
 20
7.2243350903
 30
0.0
 10
6.5700069228
 20
7.2219160154
 30
0.0
 10
6.5660528948
 20
7.2196817596
 30
0.0
 10
6.5602452586
 20
7.2169454339
 30
0.0
 10
6.5539567923
 20
7.2147790738
 30
0.0
 10
6.5473346358
 20
7.213211796
 30
0.0
 10
6.5403855041
 20
7.2120543532
 30
0.0
 10
6.5332748445
 20
7.2115844371
 30
0.0
 10
6.526152683
 20
7.2118217258
 30
0.0
 10
6.520856733
 20
7.2123469888
 30
0.0
 10
6.515666812
 20
7.2132115372
 30
0.0
 10
6.5090441422
 20
7.2147788401
 30
0.0
 10
6.5027549615
 20
7.2169453008
 30
0.0
 10
6.4969470477
 20
7.2196817756
 30
0.0
 10
6.4929929971
 20
7.2219160672
 30
0.0
 10
6.4894066143
 20
7.2243351457
 30
0.0
 10
6.486219254
 20
7.2269025509
 30
0.0
 10
6.4834601343
 20
7.2295833946
 30
0.0
 10
6.4811564644
 20
7.2323446196
 30
0.0
 10
6.4793295252
 20
7.2351519808
 30
0.0
 10
6.4780023515
 20
7.2379760077
 30
0.0
 10
6.4771917353
 20
7.2407813416
 30
0.0
 10
6.477
 20
7.2426593234
 30
0.0
 10
6.477
 20
7.2435696448
 30
0.0
  0
SPLINE
  5
327
100
AcDbEntity
  8
0
100
AcDbSpline
 62
7
  6
CONTINUOUS
 70
0
 71
3
 72
15
 73
11
 74
0
 42
0.0000001
 43
0.0000001
 44
0.0000000001
 40
0.0
 40
0.0
 40
0.0
 40
0.0
 40
0.1137563748
 40
0.2368569447
 40
0.3666708427
 40
0.5000062808
 40
0.6333408915
 40
0.7631522545
 40
0.8862488333
 40
1.0
 40
1.0
 40
1.0
 40
1.0
 10
4.5250178794
 20
6.7815126643
 30
0.0
 10
4.5225389341
 20
6.7808623248
 30
0.0
 10
4.5173072364
 20
6.779771828
 30
0.0
 10
4.509113585
 20
6.778682716
 30
0.0
 10
4.5004310984
 20
6.7780402745
 30
0.0
 10
4.491497771
 20
6.7778289574
 30
0.0
 10
4.4825645057
 20
6.7780404858
 30
0.0
 10
4.4738822006
 20
6.7786831444
 30
0.0
 10
4.4656888455
 20
6.7797724854
 30
0.0
 10
4.460457394
 20
6.7808631572
 30
0.0
 10
4.4579785943
 20
6.7815135892
 30
0.0
  0
SPLINE
  5
328
100
AcDbEntity
  8
0
100
AcDbSpline
 62
7
  6
CONTINUOUS
 70
0
 71
3
 72
15
 73
11
 74
0
 42
0.0000001
 43
0.0000001
 44
0.0000000001
 40
0.0
 40
0.0
 40
0.0
 40
0.0
 40
0.11375648
 40
0.2368570563
 40
0.3666708872
 40
0.5000062218
 40
0.6333407373
 40
0.7631520574
 40
0.88624868
 40
1.0
 40
1.0
 40
1.0
 40
1.0
 10
4.4579822746
 20
7.2184873761
 30
0.0
 10
4.4604612107
 20
7.2191377074
 30
0.0
 10
4.4656928851
 20
7.2202281912
 30
0.0
 10
4.4738864956
 20
7.2213172912
 30
0.0
 10
4.4825689334
 20
7.2219597261
 30
0.0
 10
4.4915022082
 20
7.2221710418
 30
0.0
 10
4.5004354216
 20
7.2219595168
 30
0.0
 10
4.5091176797
 20
7.2213168668
 30
0.0
 10
4.5173109967
 20
7.2202275399
 30
0.0
 10
4.5225424272
 20
7.2191368828
 30
0.0
 10
4.525021219
 20
7.2184864598
 30
0.0
  0
SPLINE
  5
329
100
AcDbEntity
  8
0
100
AcDbSpline
 62
7
  6
CONTINUOUS
 70
0
 71
3
 72
15
 73
11
 74
0
 42
0.0000001
 43
0.0000001
 44
0.0000000001
 40
0.0
 40
0.0
 40
0.0
 40
0.0
 40
0.1148449794
 40
0.2381525512
 40
0.367504039
 40
0.5000062948
 40
0.6325077288
 40
0.7618566929
 40
0.8851602796
 40
1.0
 40
1.0
 40
1.0
 40
1.0
 10
6.5635339166
 20
6.7811393015
 30
0.0
 10
6.561132488
 20
6.7805600847
 30
0.0
 10
6.5560971607
 20
6.7795852642
 30
0.0
 10
6.5482490495
 20
6.7786055155
 30
0.0
 10
6.5399809183
 20
6.778026525
 30
0.0
 10
6.5314976521
 20
6.7778360096
 30
0.0
 10
6.5230144448
 20
6.7780267363
 30
0.0
 10
6.5147464863
 20
6.7786059436
 30
0.0
 10
6.5068986578
 20
6.7795859197
 30
0.0
 10
6.5018635649
 20
6.7805609126
 30
0.0
 10
6.4994622745
 20
6.7811402201
 30
0.0
  0
SPLINE
  5
32A
100
AcDbEntity
  8
0
100
AcDbSpline
 62
7
  6
CONTINUOUS
 70
0
 71
3
 72
15
 73
11
 74
0
 42
0.0000001
 43
0.0000001
 44
0.0000000001
 40
0.0
 40
0.0
 40
0.0
 40
0.0
 40
0.1148453476
 40
0.2381529677
 40
0.367504267
 40
0.5000062095
 40
0.6325073421
 40
0.7618561523
 40
0.8851598412
 40
1.0
 40
1.0
 40
1.0
 40
1.0
 10
6.4994666268
 20
7.2188608296
 30
0.0
 10
6.5018680237
 20
7.219440021
 30
0.0
 10
6.5069032729
 20
7.2204148002
 30
0.0
 10
6.5147512492
 20
7.2213945102
 30
0.0
 10
6.5230192214
 20
7.2219734787
 30
0.0
 10
6.5315023165
 20
7.2221639878
 30
0.0
 10
6.5399853535
 20
7.2219732702
 30
0.0
 10
6.5482531553
 20
7.2213940878
 30
0.0
 10
6.5561008527
 20
7.2204141535
 30
0.0
 10
6.5611358708
 20
7.2194392042
 30
0.0
 10
6.5635371312
 20
7.2188599233
 30
0.0
  0
SPLINE
  5
32B
100
AcDbEntity
  8
0
100
AcDbSpline
 62
7
  6
CONTINUOUS
 70
0
 71
3
 72
37
 73
33
 74
0
 42
0.0000001
 43
0.0000001
 44
0.0000000001
 40
0.0
 40
0.0
 40
0.0
 40
0.0
 40
0.0206611206
 40
0.0413182058
 40
0.0625871385
 40
0.0850435578
 40
0.1091574552
 40
0.1352501412
 40
0.1634984334
 40
0.1939596451
 40
0.2266050557
 40
0.2613172445
 40
0.2979263021
 40
0.3362083136
 40
0.3758805199
 40
0.416638471
 40
0.4999996984
 40
0.5833609689
 40
0.6241189642
 40
0.6637912789
 40
0.7020734378
 40
0.7386826466
 40
0.773395002
 40
0.8060405805
 40
0.8365019236
 40
0.864750315
 40
0.8908430988
 40
0.9149570426
 40
0.9374134036
 40
0.9586820847
 40
0.9793389496
 40
1.0
 40
1.0
 40
1.0
 40
1.0
 10
6.477
 20
7.2435696448
 30
0.0
 10
6.477
 20
7.2444504352
 30
0.0
 10
6.4771752946
 20
7.2462174403
 30
0.0
 10
6.4779800695
 20
7.2487798312
 30
0.0
 10
6.4793137442
 20
7.2511983035
 30
0.0
 10
6.4811553245
 20
7.2534459219
 30
0.0
 10
6.4834734793
 20
7.2555163309
 30
0.0
 10
6.4862449234
 20
7.2574026856
 30
0.0
 10
6.4894410379
 20
7.2591043967
 30
0.0
 10
6.4930325226
 20
7.260621667
 30
0.0
 10
6.4969881065
 20
7.2619520626
 30
0.0
 10
6.5012718512
 20
7.2630988549
 30
0.0
 10
6.5058455856
 20
7.2640635367
 30
0.0
 10
6.5106675877
 20
7.2648480547
 30
0.0
 10
6.5156930731
 20
7.2654553231
 30
0.0
 10
6.522652727
 20
7.2660353963
 30
0.0
 10
6.5314999649
 20
7.2663153839
 30
0.0
 10
6.5403472048
 20
7.2660353999
 30
0.0
 10
6.5473068673
 20
7.2654553291
 30
0.0
 10
6.5523323656
 20
7.2648480618
 30
0.0
 10
6.5571543852
 20
7.2640635429
 30
0.0
 10
6.561728139
 20
7.2630988567
 30
0.0
 10
6.5660119035
 20
7.2619520583
 30
0.0
 10
6.5699675064
 20
7.2606216573
 30
0.0
 10
6.5735590062
 20
7.2591043781
 30
0.0
 10
6.576755128
 20
7.2574026513
 30
0.0
 10
6.5795265801
 20
7.255516289
 30
0.0
 10
6.5818447217
 20
7.2534458582
 30
0.0
 10
6.5836862827
 20
7.251198242
 30
0.0
 10
6.5850199701
 20
7.2487798021
 30
0.0
 10
6.5858247184
 20
7.2462174246
 30
0.0
 10
6.586
 20
7.2444504322
 30
0.0
 10
6.586
 20
7.2435696448
 30
0.0
  0
SPLINE
  5
32C
100
AcDbEntity
  8
0
100
AcDbSpline
 62
7
  6
CONTINUOUS
 70
0
 71
3
 72
37
 73
33
 74
0
 42
0.0000001
 43
0.0000001
 44
0.0000000001
 40
0.0
 40
0.0
 40
0.0
 40
0.0
 40
0.0206627412
 40
0.0413185991
 40
0.0625841434
 40
0.085035928
 40
0.1091448453
 40
0.1352328415
 40
0.1634772135
 40
0.193935599
 40
0.2265794571
 40
0.2612914911
 40
0.2979018604
 40
0.3361866236
 40
0.3758628831
 40
0.4166260169
 40
0.4999997013
 40
0.5833734279
 40
0.624136605
 40
0.6638129723
 40
0.7020978826
 40
0.7387084031
 40
0.7734206038
 40
0.8060646303
 40
0.8365231476
 40
0.8647676188
 40
0.8908557131
 40
0.9149646766
 40
0.9374164024
 40
0.958681693
 40
0.9793373293
 40
1.0
 40
1.0
 40
1.0
 40
1.0
 10
4.546
 20
6.7575128869
 30
0.0
 10
4.546
 20
6.756632144
 30
0.0
 10
4.545824735
 20
6.7548653506
 30
0.0
 10
4.5450199455
 20
6.7523034539
 30
0.0
 10
4.5436862118
 20
6.7498858598
 30
0.0
 10
4.5418445539
 20
6.7476394986
 30
0.0
 10
4.5395263445
 20
6.7455706696
 30
0.0
 10
4.5367548856
 20
6.7436861466
 30
0.0
 10
4.5335587994
 20
6.7419864381
 30
0.0
 10
4.5299673792
 20
6.7404712548
 30
0.0
 10
4.5260118837
 20
6.7391429452
 30
0.0
 10
4.5217282306
 20
6.7379981606
 30
0.0
 10
4.5171545727
 20
6.7370353274
 30
0.0
 10
4.5123326164
 20
6.7362524262
 30
0.0
 10
4.5073071349
 20
6.7356464894
 30
0.0
 10
4.5003473756
 20
6.7350677345
 30
0.0
 10
4.4915000348
 20
6.7347884355
 30
0.0
 10
4.482652692
 20
6.735067731
 30
0.0
 10
4.4756929242
 20
6.7356464834
 30
0.0
 10
4.4706674297
 20
6.7362524192
 30
0.0
 10
4.465845456
 20
6.7370353213
 30
0.0
 10
4.4612717788
 20
6.7379981589
 30
0.0
 10
4.4569881059
 20
6.7391429497
 30
0.0
 10
4.4530325913
 20
6.7404712647
 30
0.0
 10
4.4494411559
 20
6.7419864569
 30
0.0
 10
4.4462450624
 20
6.7436861811
 30
0.0
 10
4.4434735956
 20
6.7455707117
 30
0.0
 10
4.4411553996
 20
6.7476395627
 30
0.0
 10
4.4393137611
 20
6.7498859217
 30
0.0
 10
4.4379800146
 20
6.7523034832
 30
0.0
 10
4.4371752519
 20
6.7548653663
 30
0.0
 10
4.437
 20
6.756632147
 30
0.0
 10
4.437
 20
6.7575128869
 30
0.0
  0
SPLINE
  5
32D
100
AcDbEntity
  8
0
100
AcDbSpline
 62
7
  6
CONTINUOUS
 70
0
 71
3
 72
37
 73
33
 74
0
 42
0.0000001
 43
0.0000001
 44
0.0000000001
 40
0.0
 40
0.0
 40
0.0
 40
0.0
 40
0.0206627412
 40
0.0413185991
 40
0.0625841434
 40
0.085035928
 40
0.1091448453
 40
0.1352328415
 40
0.1634772135
 40
0.193935599
 40
0.2265794571
 40
0.2612914911
 40
0.2979018604
 40
0.3361866236
 40
0.3758628831
 40
0.4166260169
 40
0.4999997013
 40
0.5833734279
 40
0.624136605
 40
0.6638129723
 40
0.7020978826
 40
0.7387084031
 40
0.7734206038
 40
0.8060646303
 40
0.8365231476
 40
0.8647676188
 40
0.8908557131
 40
0.9149646766
 40
0.9374164024
 40
0.958681693
 40
0.9793373293
 40
1.0
 40
1.0
 40
1.0
 40
1.0
 10
4.437
 20
7.2424871131
 30
0.0
 10
4.437
 20
7.243367856
 30
0.0
 10
4.437175265
 20
7.2451346494
 30
0.0
 10
4.4379800545
 20
7.2476965461
 30
0.0
 10
4.4393137882
 20
7.2501141402
 30
0.0
 10
4.4411554461
 20
7.2523605014
 30
0.0
 10
4.4434736555
 20
7.2544293304
 30
0.0
 10
4.4462451144
 20
7.2563138534
 30
0.0
 10
4.4494412006
 20
7.2580135619
 30
0.0
 10
4.4530326208
 20
7.2595287452
 30
0.0
 10
4.4569881163
 20
7.2608570548
 30
0.0
 10
4.4612717694
 20
7.2620018394
 30
0.0
 10
4.4658454273
 20
7.2629646726
 30
0.0
 10
4.4706673836
 20
7.2637475738
 30
0.0
 10
4.4756928651
 20
7.2643535106
 30
0.0
 10
4.4826526244
 20
7.2649322655
 30
0.0
 10
4.4914999652
 20
7.2652115645
 30
0.0
 10
4.500347308
 20
7.264932269
 30
0.0
 10
4.5073070758
 20
7.2643535166
 30
0.0
 10
4.5123325703
 20
7.2637475808
 30
0.0
 10
4.517154544
 20
7.2629646787
 30
0.0
 10
4.5217282212
 20
7.2620018411
 30
0.0
 10
4.5260118941
 20
7.2608570503
 30
0.0
 10
4.5299674087
 20
7.2595287353
 30
0.0
 10
4.5335588441
 20
7.2580135431
 30
0.0
 10
4.5367549376
 20
7.2563138189
 30
0.0
 10
4.5395264044
 20
7.2544292883
 30
0.0
 10
4.5418446004
 20
7.2523604373
 30
0.0
 10
4.5436862389
 20
7.2501140783
 30
0.0
 10
4.5450199854
 20
7.2476965168
 30
0.0
 10
4.5458247481
 20
7.2451346337
 30
0.0
 10
4.546
 20
7.243367853
 30
0.0
 10
4.546
 20
7.2424871131
 30
0.0
  0
SPLINE
  5
32E
100
AcDbEntity
  8
0
100
AcDbSpline
 62
7
  6
CONTINUOUS
 70
0
 71
3
 72
37
 73
33
 74
0
 42
0.0000001
 43
0.0000001
 44
0.0000000001
 40
0.0
 40
0.0
 40
0.0
 40
0.0
 40
0.0207656519
 40
0.0413434942
 40
0.0623941473
 40
0.0845534223
 40
0.1083495094
 40
0.1341438617
 40
0.1621430828
 40
0.192424364
 40
0.2249697132
 40
0.2596698881
 40
0.2963600944
 40
0.3348156901
 40
0.3747458363
 40
0.4158359412
 40
0.4999997946
 40
0.5841636144
 40
0.6252536914
 40
0.6651838794
 40
0.7036395634
 40
0.7403298764
 40
0.7750302051
 40
0.8075757195
 40
0.8378571374
 40
0.8658564614
 40
0.8916508869
 40
0.9154469976
 40
0.937606222
 40
0.9586566905
 40
0.9792343885
 40
1.0
 40
1.0
 40
1.0
 40
1.0
 10
5.5825
 20
6.7564303552
 30
0.0
 10
5.5825
 20
6.7553027373
 30
0.0
 10
5.58227721
 20
6.7530501225
 30
0.0
 10
5.5812420472
 20
6.7497989495
 30
0.0
 10
5.5795236284
 20
6.7467643905
 30
0.0
 10
5.5771513474
 20
6.7439807777
 30
0.0
 10
5.5741691376
 20
6.7414515888
 30
0.0
 10
5.5706083882
 20
6.7391797299
 30
0.0
 10
5.5665061331
 20
6.7371592408
 30
0.0
 10
5.5618993662
 20
6.735382761
 30
0.0
 10
5.5568271023
 20
6.7338464066
 30
0.0
 10
5.5513336354
 20
6.7325396036
 30
0.0
 10
5.5454662661
 20
6.7314537654
 30
0.0
 10
5.5392771101
 20
6.7305803376
 30
0.0
 10
5.5328226252
 20
6.7299110475
 30
0.0
 10
5.5238740326
 20
6.7292757768
 30
0.0
 10
5.5125000338
 20
6.7289735183
 30
0.0
 10
5.5011260366
 20
6.7292757752
 30
0.0
 10
5.4921774447
 20
6.7299110411
 30
0.0
 10
5.485722954
 20
6.7305803289
 30
0.0
 10
5.479533785
 20
6.7314537567
 30
0.0
 10
5.4736663968
 20
6.7325395973
 30
0.0
 10
5.468172907
 20
6.7338464044
 30
0.0
 10
5.4631006191
 20
6.7353827647
 30
0.0
 10
5.4584938325
 20
6.7371592555
 30
0.0
 10
5.4543915662
 20
6.7391797596
 30
0.0
 10
5.4508308071
 20
6.7414516243
 30
0.0
 10
5.4478486095
 20
6.743980833
 30
0.0
 10
5.445476348
 20
6.746764444
 30
0.0
 10
5.4437579179
 20
6.7497989733
 30
0.0
 10
5.442722779
 20
6.7530501351
 30
0.0
 10
5.4425
 20
6.7553027395
 30
0.0
 10
5.4425
 20
6.7564303552
 30
0.0
  0
SPLINE
  5
32F
100
AcDbEntity
  8
0
100
AcDbSpline
 62
7
  6
CONTINUOUS
 70
0
 71
3
 72
37
 73
33
 74
0
 42
0.0000001
 43
0.0000001
 44
0.0000000001
 40
0.0
 40
0.0
 40
0.0
 40
0.0
 40
0.0207656519
 40
0.0413434942
 40
0.0623941473
 40
0.0845534223
 40
0.1083495094
 40
0.1341438617
 40
0.1621430828
 40
0.192424364
 40
0.2249697132
 40
0.2596698881
 40
0.2963600944
 40
0.3348156901
 40
0.3747458363
 40
0.4158359412
 40
0.4999997946
 40
0.5841636144
 40
0.6252536914
 40
0.6651838794
 40
0.7036395634
 40
0.7403298764
 40
0.7750302051
 40
0.8075757195
 40
0.8378571374
 40
0.8658564614
 40
0.8916508869
 40
0.9154469976
 40
0.937606222
 40
0.9586566905
 40
0.9792343885
 40
1.0
 40
1.0
 40
1.0
 40
1.0
 10
5.4425
 20
7.2435696448
 30
0.0
 10
5.4425
 20
7.2446972627
 30
0.0
 10
5.44272279
 20
7.2469498775
 30
0.0
 10
5.4437579528
 20
7.2502010505
 30
0.0
 10
5.4454763716
 20
7.2532356095
 30
0.0
 10
5.4478486526
 20
7.2560192223
 30
0.0
 10
5.4508308624
 20
7.2585484112
 30
0.0
 10
5.4543916118
 20
7.2608202701
 30
0.0
 10
5.4584938669
 20
7.2628407592
 30
0.0
 10
5.4631006338
 20
7.264617239
 30
0.0
 10
5.4681728977
 20
7.2661535934
 30
0.0
 10
5.4736663646
 20
7.2674603964
 30
0.0
 10
5.4795337339
 20
7.2685462346
 30
0.0
 10
5.4857228899
 20
7.2694196624
 30
0.0
 10
5.4921773748
 20
7.2700889525
 30
0.0
 10
5.5011259674
 20
7.2707242232
 30
0.0
 10
5.5124999662
 20
7.2710264817
 30
0.0
 10
5.5238739634
 20
7.2707242248
 30
0.0
 10
5.5328225553
 20
7.2700889589
 30
0.0
 10
5.539277046
 20
7.2694196711
 30
0.0
 10
5.545466215
 20
7.2685462433
 30
0.0
 10
5.5513336032
 20
7.2674604027
 30
0.0
 10
5.556827093
 20
7.2661535956
 30
0.0
 10
5.5618993809
 20
7.2646172353
 30
0.0
 10
5.5665061675
 20
7.2628407445
 30
0.0
 10
5.5706084338
 20
7.2608202404
 30
0.0
 10
5.5741691929
 20
7.2585483757
 30
0.0
 10
5.5771513905
 20
7.256019167
 30
0.0
 10
5.579523652
 20
7.253235556
 30
0.0
 10
5.5812420821
 20
7.2502010267
 30
0.0
 10
5.582277221
 20
7.2469498649
 30
0.0
 10
5.5825
 20
7.2446972605
 30
0.0
 10
5.5825
 20
7.2435696448
 30
0.0
  0
SPLINE
  5
330
100
AcDbEntity
  8
0
100
AcDbSpline
 62
7
  6
CONTINUOUS
 70
0
 71
3
 72
37
 73
33
 74
0
 42
0.0000001
 43
0.0000001
 44
0.0000000001
 40
0.0
 40
0.0
 40
0.0
 40
0.0
 40
0.0206611206
 40
0.0413182058
 40
0.0625871385
 40
0.0850435578
 40
0.1091574552
 40
0.1352501412
 40
0.1634984334
 40
0.1939596451
 40
0.2266050557
 40
0.2613172445
 40
0.2979263021
 40
0.3362083136
 40
0.3758805199
 40
0.416638471
 40
0.4999996984
 40
0.5833609689
 40
0.6241189642
 40
0.6637912789
 40
0.7020734378
 40
0.7386826466
 40
0.773395002
 40
0.8060405805
 40
0.8365019236
 40
0.864750315
 40
0.8908430988
 40
0.9149570426
 40
0.9374134036
 40
0.9586820847
 40
0.9793389496
 40
1.0
 40
1.0
 40
1.0
 40
1.0
 10
6.586
 20
6.7564303552
 30
0.0
 10
6.586
 20
6.7555495648
 30
0.0
 10
6.5858247054
 20
6.7537825597
 30
0.0
 10
6.5850199305
 20
6.7512201688
 30
0.0
 10
6.5836862558
 20
6.7488016965
 30
0.0
 10
6.5818446755
 20
6.7465540781
 30
0.0
 10
6.5795265207
 20
6.7444836691
 30
0.0
 10
6.5767550766
 20
6.7425973144
 30
0.0
 10
6.5735589621
 20
6.7408956033
 30
0.0
 10
6.5699674774
 20
6.739378333
 30
0.0
 10
6.5660118935
 20
6.7380479374
 30
0.0
 10
6.5617281488
 20
6.7369011451
 30
0.0
 10
6.5571544144
 20
6.7359364633
 30
0.0
 10
6.5523324123
 20
6.7351519453
 30
0.0
 10
6.5473069269
 20
6.7345446769
 30
0.0
 10
6.540347273
 20
6.7339646037
 30
0.0
 10
6.5315000351
 20
6.7336846161
 30
0.0
 10
6.5226527952
 20
6.7339646001
 30
0.0
 10
6.5156931327
 20
6.7345446709
 30
0.0
 10
6.5106676344
 20
6.7351519382
 30
0.0
 10
6.5058456148
 20
6.7359364571
 30
0.0
 10
6.501271861
 20
6.7369011433
 30
0.0
 10
6.4969880965
 20
6.7380479417
 30
0.0
 10
6.4930324936
 20
6.7393783427
 30
0.0
 10
6.4894409938
 20
6.7408956219
 30
0.0
 10
6.486244872
 20
6.7425973487
 30
0.0
 10
6.4834734199
 20
6.744483711
 30
0.0
 10
6.4811552783
 20
6.7465541418
 30
0.0
 10
6.4793137173
 20
6.748801758
 30
0.0
 10
6.4779800299
 20
6.7512201979
 30
0.0
 10
6.4771752816
 20
6.7537825754
 30
0.0
 10
6.477
 20
6.7555495678
 30
0.0
 10
6.477
 20
6.7564303552
 30
0.0
  0
ELLIPSE
  5
331
100
AcDbEntity
  8
0
100
AcDbEllipse
 62
7
  6
CONTINUOUS
 10
5.9415
 20
6.6915
 30
0.0
 11
-0.0
 21
0.035
 31
0.0
 40
1.0
 41
-4.7123889804
 42
-1.5707963268
  0
ELLIPSE
  5
332
100
AcDbEntity
  8
0
100
AcDbEllipse
 62
7
  6
CONTINUOUS
 10
5.9415
 20
7.3085
 30
0.0
 11
0.035
 21
-0.0
 31
0.0
 40
1.0
 41
0.0
 42
3.1415926536
  0
ELLIPSE
  5
333
100
AcDbEntity
  8
0
100
AcDbEllipse
 62
7
  6
CONTINUOUS
 10
6.8515
 20
6.6915
 30
0.0
 11
-0.0
 21
0.035
 31
0.0
 40
1.0
 41
-4.7123889804
 42
-1.5707963268
  0
ELLIPSE
  5
334
100
AcDbEntity
  8
0
100
AcDbEllipse
 62
7
  6
CONTINUOUS
 10
6.8515
 20
7.3085
 30
0.0
 11
0.035
 21
-0.0
 31
0.0
 40
1.0
 41
0.0
 42
3.1415926536
  0
ELLIPSE
  5
335
100
AcDbEntity
  8
0
100
AcDbEllipse
 62
7
  6
CONTINUOUS
 10
5.0415
 20
6.673
 30
0.0
 11
0.0
 21
0.035
 31
0.0
 40
1.0
 41
-4.7123889804
 42
-1.5707963268
  0
ELLIPSE
  5
336
100
AcDbEntity
  8
0
100
AcDbEllipse
 62
7
  6
CONTINUOUS
 10
5.0415
 20
7.327
 30
0.0
 11
0.035
 21
-0.0
 31
0.0
 40
1.0
 41
0.0
 42
3.1415926536
  0
ELLIPSE
  5
337
100
AcDbEntity
  8
0
100
AcDbEllipse
 62
7
  6
CONTINUOUS
 10
3.7855
 20
6.6145
 30
0.0
 11
0.0
 21
0.035
 31
0.0
 40
1.0
 41
-4.7123889804
 42
-1.5707963268
  0
ELLIPSE
  5
338
100
AcDbEntity
  8
0
100
AcDbEllipse
 62
7
  6
CONTINUOUS
 10
3.7855
 20
7.3855
 30
0.0
 11
0.035
 21
0.0
 31
0.0
 40
1.0
 41
0.0
 42
3.1415926536
  0
ENDSEC
  0
SECTION
  2
OBJECTS
  0
DICTIONARY
  5
C
100
AcDbDictionary
280
0
281
1
  3
ACAD_GROUP
350
D
  3
ACAD_MLINESTYLE
350
17
  3
ACAD_LAYOUT
350
1A
  3
ACAD_PLOTSETTINGS
350
19
  3
ACAD_PLOTSTYLENAME
350
E
  0
DICTIONARY
  5
D
102
{ACAD_REACTORS
330
C
102
}
100
AcDbDictionary
280
0
281
1
  0
ACDBDICTIONARYWDFLT
  5
E
102
{ACAD_REACTORS
330
C
102
}
100
AcDbDictionary
281
1
  3
Normal
350
F
100
AcDbDictionaryWithDefault
340
F
  0
DICTIONARY
  5
17
102
{ACAD_REACTORS
330
C
102
}
100
AcDbDictionary
280
0
281
1
  3
Standard
350
18
  0
DICTIONARY
  5
19
102
{ACAD_REACTORS
330
C
102
}
100
AcDbDictionary
281
1
  0
DICTIONARY
  5
1A
102
{ACAD_REACTORS
330
C
102
}
100
AcDbDictionary
281
1
  3
Model
350
339
  3
Layout1
350
33A
  0
ACDBPLACEHOLDER
  5
F
102
{ACAD_REACTORS
330
E
102
}
  0
MLINESTYLE
  5
18
102
{ACAD_REACTORS
330
17
102
}
100
AcDbMlineStyle
  2
STANDARD
 70
0
  3

 62
256
 51
90.0
 52
90.0
 71
2
 49
0.5
 62
256
  6
BYLAYER
 49
-0.5
 62
256
  6
BYLAYER
  0
LAYOUT
  5
339
102
{ACAD_REACTORS
330
1A
102
}
100
AcDbPlotSettings
  1

  2
none_device
  4
ANSI_B_(17.00_x_11.00_Inches)
  6

 40
0.0
 41
0.0
 42
0.0
 43
0.0
 44
431.8
 45
279.4
 46
0.0
 47
0.0
 48
0.0
 49
0.0
140
0.0
141
0.0
142
1.0
143
1.0
 70
1024
 72
0
 73
0
 74
0
  7

 75
0
147
1.0
148
0.0
149
0.0
100
AcDbLayout
  1
Model
 70
0
 71
0
 10
0.0
 20
0.0
 11
17.0
 21
11.0
 12
0.0
 22
0.0
 32
0.0
 14
0.0
 24
0.0
 34
0.0
 15
0.0
 25
0.0
 35
0.0
146
0.0
 13
0.0
 23
0.0
 33
0.0
 16
1.0
 26
0.0
 36
0.0
 17
0.0
 27
1.0
 37
0.0
 76
0
330
23C
345
0
346
0
  0
LAYOUT
  5
33A
102
{ACAD_REACTORS
330
1A
102
}
100
AcDbPlotSettings
  1

  2
none_device
  4
ANSI_B_(17.00_x_11.00_Inches)
  6

 40
0.0
 41
0.0
 42
0.0
 43
0.0
 44
431.8
 45
279.4
 46
0.0
 47
0.0
 48
0.0
 49
0.0
140
0.0
141
0.0
142
1.0
143
1.0
 70
0
 72
0
 73
0
 74
0
  7

 75
0
147
1.0
148
0.0
149
0.0
100
AcDbLayout
  1
Layout1
 70
0
 71
1
 10
0.0
 20
0.0
 11
17.0
 21
11.0
 12
0.0
 22
0.0
 32
0.0
 14
0.0
 24
0.0
 34
0.0
 15
0.0
 25
0.0
 35
0.0
146
0.0
 13
0.0
 23
0.0
 33
0.0
 16
1.0
 26
0.0
 36
0.0
 17
0.0
 27
1.0
 37
0.0
 76
0
330
23D
345
0
346
0
  0
ENDSEC
  0
EOF
