999
DXF file: FDCBLAN.dxf
999
Pro/ENGINEER 2021072 by Parametric Technology Corporation
  0
SECTION
  2
HEADER
  9
$ACADVER
  1
AC1032
  9
$DWGCODEPAGE
  3
ANSI_1252
  9
$EXTMAX
 10
17.0
 20
11.0
 30
0.0
  9
$EXTMIN
 10
0.0
 20
0.0
 30
0.0
  9
$LIMMIN
 10
0.0
 20
0.0
  9
$LIMMAX
 10
17.0
 20
11.0
  9
$VIEWCTR
 10
8.5
 20
5.5
  9
$VIEWSIZE
 40
11.0
  9
$CLAYER
  8
0
  9
$LTSCALE
 40
0.935
  9
$CELTYPE
  6
BYLAYER
  9
$DIMSCALE
 40
1.0
  9
$DIMASZ
 40
0.1875
  9
$DIMEXO
 40
0.0625
  9
$DIMDLI
 40
0.646
  9
$DIMEXE
 40
0.125
  9
$DIMCEN
 40
0.153
  9
$DIMLFAC
 40
1.0
  9
$DIMBLK
  1
_FILLED
  9
$DIMALT
 70
0
  9
$DIMALTF
 40
25.4
  9
$DIMTXT
 40
0.125
  9
$DIMTOL
 70
0
  9
$DIMLIM
 70
0
  9
$DIMTFAC
 40
1.0
  9
$DIMGAP
 40
0.09
  9
$DIMDSEP
 70
46
  9
$AUNITS
 70
0
  9
$PDMODE
 70
3
  9
$PDSIZE
 40
0.3125
  9
$HANDSEED
  5
2F5
  9
$TILEMODE
 70
1
  9
$MEASUREMENT
 70
0
  9
$INSUNITS
 70
1
  0
ENDSEC
  0
SECTION
  2
CLASSES
  0
CLASS
  1
ACDBDICTIONARYWDFLT
  2
AcDbDictionaryWithDefault
  3
AutoCAD 2000
 90
0
 91
1
280
0
281
0
  0
CLASS
  1
ACDBPLACEHOLDER
  2
AcDbPlaceHolder
  3
AutoCAD 2000
 90
0
 91
1
280
0
281
0
  0
CLASS
  1
LAYOUT
  2
AcDbLayout
  3
AutoCAD 2000
 90
0
 91
0
280
0
281
0
  0
ENDSEC
  0
SECTION
  2
TABLES
  0
TABLE
  2
VPORT
  5
8
100
AcDbSymbolTable
 70
2
  0
VPORT
  5
1F4
100
AcDbSymbolTableRecord
100
AcDbViewportTableRecord
  2
*ACTIVE
 70
0
 10
0.0
 20
0.0
 11
1.0
 21
1.0
 12
8.5
 22
5.5
 13
0.0
 23
0.0
 14
1.0
 24
1.0
 15
0.0
 25
0.0
 16
0.0
 26
0.0
 36
1.0
 17
0.0
 27
0.0
 37
0.0
 40
11.0
 41
1.5454545455
 42
50.0
 43
0.0
 44
0.0
 50
0.0
 51
0.0
 71
0
 72
100
 73
1
 74
1
 75
0
 76
0
 77
0
 78
0
  0
ENDTAB
  0
TABLE
  2
LTYPE
  5
5
100
AcDbSymbolTable
 70
6
  0
LTYPE
  5
14
100
AcDbSymbolTableRecord
100
AcDbLinetypeTableRecord
  2
BYBLOCK
 70
0
  3

 72
65
 73
0
 40
0.0
  0
LTYPE
  5
15
100
AcDbSymbolTableRecord
100
AcDbLinetypeTableRecord
  2
BYLAYER
 70
0
  3

 72
65
 73
0
 40
0.0
  0
LTYPE
  5
16
100
AcDbSymbolTableRecord
100
AcDbLinetypeTableRecord
  2
CONTINUOUS
 70
64
  3
Solid line
 72
65
 73
0
 40
0.0
  0
LTYPE
  5
1F5
100
AcDbSymbolTableRecord
100
AcDbLinetypeTableRecord
  2
CENTER
 70
64
  3
____ _ ____ _ ____ _ ____ _ ____ _ ____ _ ____
 72
65
 73
4
 40
0.6
 49
0.375
 74
0
 49
-0.075
 74
0
 49
0.075
 74
0
 49
-0.075
 74
0
  0
LTYPE
  5
1F6
100
AcDbSymbolTableRecord
100
AcDbLinetypeTableRecord
  2
HIDDEN
 70
64
  3
- - - - - - - - - - - - - - - - - - - -
 72
65
 73
2
 40
0.2
 49
0.1
 74
0
 49
-0.1
 74
0
  0
LTYPE
  5
1F7
100
AcDbSymbolTableRecord
100
AcDbLinetypeTableRecord
  2
PHANTOM
 70
64
  3
_____ _ _ _____ _ _ _____ _ _ _____
 72
65
 73
6
 40
0.8
 49
0.45
 74
0
 49
-0.05
 74
0
 49
0.1
 74
0
 49
-0.05
 74
0
 49
0.1
 74
0
 49
-0.05
 74
0
  0
LTYPE
  5
1F8
100
AcDbSymbolTableRecord
100
AcDbLinetypeTableRecord
  2
DOT
 70
64
  3
. . . . . . . . . . . . . . . . . . . .
 72
65
 73
2
 40
0.2
 49
0.1
 74
0
 49
-0.1
 74
0
  0
LTYPE
  5
1F9
100
AcDbSymbolTableRecord
100
AcDbLinetypeTableRecord
  2
DASHED
 70
64
  3
- - - - - - - - - - - - - - - - - - - -
 72
65
 73
2
 40
0.2
 49
0.1
 74
0
 49
-0.1
 74
0
  0
ENDTAB
  0
TABLE
  2
LAYER
  5
2
100
AcDbSymbolTable
 70
36
  0
LAYER
  5
10
100
AcDbSymbolTableRecord
100
AcDbLayerTableRecord
  2
0
 70
0
 62
7
  6
CONTINUOUS
370
-3
390
F
  0
LAYER
  5
1FA
100
AcDbSymbolTableRecord
100
AcDbLayerTableRecord
  2
DEFAULT_1
 70
0
 62
7
  6
CENTER
370
-3
390
F
  0
LAYER
  5
1FB
100
AcDbSymbolTableRecord
100
AcDbLayerTableRecord
  2
DEFAULT_2
 70
0
 62
8
  6
HIDDEN
370
-3
390
F
  0
LAYER
  5
1FC
100
AcDbSymbolTableRecord
100
AcDbLayerTableRecord
  2
DEFAULT_3
 70
0
 62
7
  6
PHANTOM
370
-3
390
F
  0
LAYER
  5
1FD
100
AcDbSymbolTableRecord
100
AcDbLayerTableRecord
  2
01_ALL_DTM_PLN
 70
0
 62
7
  6
CONTINUOUS
370
-3
390
F
  0
LAYER
  5
1FE
100
AcDbSymbolTableRecord
100
AcDbLayerTableRecord
  2
01__ASM_ALL_DTM_PLN
 70
0
 62
7
  6
CONTINUOUS
370
-3
390
F
  0
LAYER
  5
1FF
100
AcDbSymbolTableRecord
100
AcDbLayerTableRecord
  2
01__ASM_DEF_DTM_PLN
 70
0
 62
7
  6
CONTINUOUS
370
-3
390
F
  0
LAYER
  5
200
100
AcDbSymbolTableRecord
100
AcDbLayerTableRecord
  2
01___PRT_ALL_DTM_PLN
 70
0
 62
7
  6
CONTINUOUS
370
-3
390
F
  0
LAYER
  5
201
100
AcDbSymbolTableRecord
100
AcDbLayerTableRecord
  2
01___PRT_DEF_DTM_PLN
 70
0
 62
7
  6
CONTINUOUS
370
-3
390
F
  0
LAYER
  5
202
100
AcDbSymbolTableRecord
100
AcDbLayerTableRecord
  2
02_ALL_AXES
 70
0
 62
7
  6
CONTINUOUS
370
-3
390
F
  0
LAYER
  5
203
100
AcDbSymbolTableRecord
100
AcDbLayerTableRecord
  2
02__ASM_ALL_AXES
 70
0
 62
7
  6
CONTINUOUS
370
-3
390
F
  0
LAYER
  5
204
100
AcDbSymbolTableRecord
100
AcDbLayerTableRecord
  2
02___PRT_ALL_AXES
 70
0
 62
7
  6
CONTINUOUS
370
-3
390
F
  0
LAYER
  5
205
100
AcDbSymbolTableRecord
100
AcDbLayerTableRecord
  2
03_ALL_CURVES
 70
0
 62
7
  6
CONTINUOUS
370
-3
390
F
  0
LAYER
  5
206
100
AcDbSymbolTableRecord
100
AcDbLayerTableRecord
  2
03__ASM_ALL_CURVES
 70
0
 62
7
  6
CONTINUOUS
370
-3
390
F
  0
LAYER
  5
207
100
AcDbSymbolTableRecord
100
AcDbLayerTableRecord
  2
03___PRT_ALL_CURVES
 70
0
 62
7
  6
CONTINUOUS
370
-3
390
F
  0
LAYER
  5
208
100
AcDbSymbolTableRecord
100
AcDbLayerTableRecord
  2
04_ALL_DTM_PNT
 70
0
 62
7
  6
CONTINUOUS
370
-3
390
F
  0
LAYER
  5
209
100
AcDbSymbolTableRecord
100
AcDbLayerTableRecord
  2
04__ASM_ALL_DTM_PNT
 70
0
 62
7
  6
CONTINUOUS
370
-3
390
F
  0
LAYER
  5
20A
100
AcDbSymbolTableRecord
100
AcDbLayerTableRecord
  2
04___PRT_ALL_DTM_PNT
 70
0
 62
7
  6
CONTINUOUS
370
-3
390
F
  0
LAYER
  5
20B
100
AcDbSymbolTableRecord
100
AcDbLayerTableRecord
  2
05_ALL_DTM_CSYS
 70
0
 62
7
  6
CONTINUOUS
370
-3
390
F
  0
LAYER
  5
20C
100
AcDbSymbolTableRecord
100
AcDbLayerTableRecord
  2
05__ASM_ALL_DTM_CSYS
 70
0
 62
7
  6
CONTINUOUS
370
-3
390
F
  0
LAYER
  5
20D
100
AcDbSymbolTableRecord
100
AcDbLayerTableRecord
  2
05__ASM_DEF_DTM_CSYS
 70
0
 62
7
  6
CONTINUOUS
370
-3
390
F
  0
LAYER
  5
20E
100
AcDbSymbolTableRecord
100
AcDbLayerTableRecord
  2
05___PRT_ALL_DTM_CSYS
 70
0
 62
7
  6
CONTINUOUS
370
-3
390
F
  0
LAYER
  5
20F
100
AcDbSymbolTableRecord
100
AcDbLayerTableRecord
  2
05___PRT_DEF_DTM_CSYS
 70
0
 62
7
  6
CONTINUOUS
370
-3
390
F
  0
LAYER
  5
210
100
AcDbSymbolTableRecord
100
AcDbLayerTableRecord
  2
06_ALL_SURFS
 70
0
 62
7
  6
CONTINUOUS
370
-3
390
F
  0
LAYER
  5
211
100
AcDbSymbolTableRecord
100
AcDbLayerTableRecord
  2
06__ASM_ALL_SURFS
 70
0
 62
7
  6
CONTINUOUS
370
-3
390
F
  0
LAYER
  5
212
100
AcDbSymbolTableRecord
100
AcDbLayerTableRecord
  2
06___PRT_ALL_SURFS
 70
0
 62
7
  6
CONTINUOUS
370
-3
390
F
  0
LAYER
  5
213
100
AcDbSymbolTableRecord
100
AcDbLayerTableRecord
  2
07__ASM_ALL_SKELETONS
 70
0
 62
7
  6
CONTINUOUS
370
-3
390
F
  0
LAYER
  5
214
100
AcDbSymbolTableRecord
100
AcDbLayerTableRecord
  2
125-146_FEATURES
 70
0
 62
7
  6
CONTINUOUS
370
-3
390
F
  0
LAYER
  5
215
100
AcDbSymbolTableRecord
100
AcDbLayerTableRecord
  2
125-146_REF_GEOMETRY
 70
0
 62
7
  6
CONTINUOUS
370
-3
390
F
  0
LAYER
  5
216
100
AcDbSymbolTableRecord
100
AcDbLayerTableRecord
  2
125-194_FEATURES
 70
0
 62
7
  6
CONTINUOUS
370
-3
390
F
  0
LAYER
  5
217
100
AcDbSymbolTableRecord
100
AcDbLayerTableRecord
  2
125-194_REF_GEOMETRY
 70
0
 62
7
  6
CONTINUOUS
370
-3
390
F
  0
LAYER
  5
218
100
AcDbSymbolTableRecord
100
AcDbLayerTableRecord
  2
125-195_FEATURES
 70
0
 62
7
  6
CONTINUOUS
370
-3
390
F
  0
LAYER
  5
219
100
AcDbSymbolTableRecord
100
AcDbLayerTableRecord
  2
125-195_REF_GEOMETRY
 70
0
 62
7
  6
CONTINUOUS
370
-3
390
F
  0
LAYER
  5
21A
100
AcDbSymbolTableRecord
100
AcDbLayerTableRecord
  2
125-198_FEATURES
 70
0
 62
7
  6
CONTINUOUS
370
-3
390
F
  0
LAYER
  5
21B
100
AcDbSymbolTableRecord
100
AcDbLayerTableRecord
  2
125-198_REF_GEOMETRY
 70
0
 62
7
  6
CONTINUOUS
370
-3
390
F
  0
LAYER
  5
21C
100
AcDbSymbolTableRecord
100
AcDbLayerTableRecord
  2
COPY_GEO_FET
 70
0
 62
7
  6
CONTINUOUS
370
-3
390
F
  0
LAYER
  5
21D
100
AcDbSymbolTableRecord
100
AcDbLayerTableRecord
  2
COSMETIC
 70
0
 62
7
  6
CONTINUOUS
370
-3
390
F
  0
LAYER
  5
21E
100
AcDbSymbolTableRecord
100
AcDbLayerTableRecord
  2
CURVES
 70
0
 62
7
  6
CONTINUOUS
370
-3
390
F
  0
LAYER
  5
21F
100
AcDbSymbolTableRecord
100
AcDbLayerTableRecord
  2
CUT_REF_SURF
 70
0
 62
7
  6
CONTINUOUS
370
-3
390
F
  0
LAYER
  5
220
100
AcDbSymbolTableRecord
100
AcDbLayerTableRecord
  2
DATUM
 70
0
 62
7
  6
CONTINUOUS
370
-3
390
F
  0
LAYER
  5
221
100
AcDbSymbolTableRecord
100
AcDbLayerTableRecord
  2
DATUMCURVES
 70
0
 62
7
  6
CONTINUOUS
370
-3
390
F
  0
LAYER
  5
222
100
AcDbSymbolTableRecord
100
AcDbLayerTableRecord
  2
DATUM_PLANES
 70
0
 62
7
  6
CONTINUOUS
370
-3
390
F
  0
LAYER
  5
223
100
AcDbSymbolTableRecord
100
AcDbLayerTableRecord
  2
DIMENSIONS
 70
0
 62
7
  6
CONTINUOUS
370
-3
390
F
  0
LAYER
  5
224
100
AcDbSymbolTableRecord
100
AcDbLayerTableRecord
  2
DMT
 70
0
 62
7
  6
CONTINUOUS
370
-3
390
F
  0
LAYER
  5
225
100
AcDbSymbolTableRecord
100
AcDbLayerTableRecord
  2
DP_SERRATIONS
 70
0
 62
7
  6
CONTINUOUS
370
-3
390
F
  0
LAYER
  5
226
100
AcDbSymbolTableRecord
100
AcDbLayerTableRecord
  2
DRAWINGNOTES
 70
0
 62
7
  6
CONTINUOUS
370
-3
390
F
  0
LAYER
  5
227
100
AcDbSymbolTableRecord
100
AcDbLayerTableRecord
  2
DTM
 70
0
 62
7
  6
CONTINUOUS
370
-3
390
F
  0
LAYER
  5
228
100
AcDbSymbolTableRecord
100
AcDbLayerTableRecord
  2
DTM230
 70
0
 62
7
  6
CONTINUOUS
370
-3
390
F
  0
LAYER
  5
229
100
AcDbSymbolTableRecord
100
AcDbLayerTableRecord
  2
DTM_500001
 70
0
 62
7
  6
CONTINUOUS
370
-3
390
F
  0
LAYER
  5
22A
100
AcDbSymbolTableRecord
100
AcDbLayerTableRecord
  2
DTM_500002
 70
0
 62
7
  6
CONTINUOUS
370
-3
390
F
  0
LAYER
  5
22B
100
AcDbSymbolTableRecord
100
AcDbLayerTableRecord
  2
DTM_515002
 70
0
 62
7
  6
CONTINUOUS
370
-3
390
F
  0
LAYER
  5
22C
100
AcDbSymbolTableRecord
100
AcDbLayerTableRecord
  2
DTM_530-102
 70
0
 62
7
  6
CONTINUOUS
370
-3
390
F
  0
LAYER
  5
22D
100
AcDbSymbolTableRecord
100
AcDbLayerTableRecord
  2
DTM_SPRING_RH
 70
0
 62
7
  6
CONTINUOUS
370
-3
390
F
  0
LAYER
  5
22E
100
AcDbSymbolTableRecord
100
AcDbLayerTableRecord
  2
DTM_SP_RH_CONSTR
 70
0
 62
7
  6
CONTINUOUS
370
-3
390
F
  0
LAYER
  5
22F
100
AcDbSymbolTableRecord
100
AcDbLayerTableRecord
  2
GEOMETRICTOLERANCES
 70
0
 62
7
  6
CONTINUOUS
370
-3
390
F
  0
LAYER
  5
230
100
AcDbSymbolTableRecord
100
AcDbLayerTableRecord
  2
HIDDEN
 70
0
 62
7
  6
CONTINUOUS
370
-3
390
F
  0
LAYER
  5
231
100
AcDbSymbolTableRecord
100
AcDbLayerTableRecord
  2
LAY0001
 70
0
 62
7
  6
CONTINUOUS
370
-3
390
F
  0
LAYER
  5
232
100
AcDbSymbolTableRecord
100
AcDbLayerTableRecord
  2
PARAMETERDIMENSIONS
 70
0
 62
7
  6
CONTINUOUS
370
-3
390
F
  0
LAYER
  5
233
100
AcDbSymbolTableRecord
100
AcDbLayerTableRecord
  2
PART
 70
0
 62
7
  6
CONTINUOUS
370
-3
390
F
  0
LAYER
  5
234
100
AcDbSymbolTableRecord
100
AcDbLayerTableRecord
  2
PLANE
 70
0
 62
7
  6
CONTINUOUS
370
-3
390
F
  0
LAYER
  5
235
100
AcDbSymbolTableRecord
100
AcDbLayerTableRecord
  2
PLANE_PATTERN
 70
0
 62
7
  6
CONTINUOUS
370
-3
390
F
  0
LAYER
  5
236
100
AcDbSymbolTableRecord
100
AcDbLayerTableRecord
  2
TEXT
 70
0
 62
7
  6
CONTINUOUS
370
-3
390
F
  0
LAYER
  5
237
100
AcDbSymbolTableRecord
100
AcDbLayerTableRecord
  2
THREAD
 70
0
 62
7
  6
CONTINUOUS
370
-3
390
F
  0
LAYER
  5
238
100
AcDbSymbolTableRecord
100
AcDbLayerTableRecord
  2
XSEC_DATUMS
 70
0
 62
7
  6
CONTINUOUS
370
-3
390
F
  0
ENDTAB
  0
TABLE
  2
STYLE
  5
3
100
AcDbSymbolTable
 70
1
  0
STYLE
  5
11
100
AcDbSymbolTableRecord
100
AcDbTextStyleTableRecord
  2
STANDARD
 70
0
 40
0.0
 41
0.8
 50
0.0
 71
0
 42
0.2
  3
txt
  4

  0
STYLE
  5
239
100
AcDbSymbolTableRecord
100
AcDbTextStyleTableRecord
  2
TEXTSTYLE_1
 70
0
 40
0.0
 41
0.8
 50
0.0
 71
0
 42
0.2
  3
gdt
  4

  0
ENDTAB
  0
TABLE
  2
VIEW
  5
6
100
AcDbSymbolTable
 70
0
  0
ENDTAB
  0
TABLE
  2
UCS
  5
7
100
AcDbSymbolTable
 70
0
  0
ENDTAB
  0
TABLE
  2
APPID
  5
9
100
AcDbSymbolTable
 70
1
  0
APPID
  5
23A
100
AcDbSymbolTableRecord
100
AcDbRegAppTableRecord
  2
ACAD
 70
0
  0
ENDTAB
  0
TABLE
  2
BLOCK_RECORD
  5
1
100
AcDbSymbolTable
 70
0
  0
BLOCK_RECORD
  5
23B
100
AcDbSymbolTableRecord
100
AcDbBlockTableRecord
  2
*Model_Space
  0
BLOCK_RECORD
  5
23C
100
AcDbSymbolTableRecord
100
AcDbBlockTableRecord
  2
*Paper_Space
  0
BLOCK_RECORD
  5
23D
100
AcDbSymbolTableRecord
100
AcDbBlockTableRecord
  2
_FILLED
  0
BLOCK_RECORD
  5
23E
100
AcDbSymbolTableRecord
100
AcDbBlockTableRecord
  2
*D0
  0
ENDTAB
  0
TABLE
  2
DIMSTYLE
  5
A
100
AcDbSymbolTable
 70
1
100
AcDbDimStyleTable
 71
0
  0
DIMSTYLE
105
23F
100
AcDbSymbolTableRecord
100
AcDbDimStyleTableRecord
  2
STANDARD
 70
0
  3

  4

 40
1.0
 41
0.1875
 42
0.0625
 43
0.38
 44
0.125
 45
0.0
 46
0.0
 47
0.001
 48
0.001
140
0.125
141
0.09
142
0.0
143
25.4
144
1.0
145
0.0
146
1.0
147
0.09
 71
0
 72
0
 73
1
 74
1
 75
0
 76
0
 77
0
 78
4
 79
1
170
0
171
2
172
0
173
0
174
0
175
0
176
0
177
0
178
0
270
2
179
3
271
3
272
3
273
2
274
2
275
0
280
0
281
0
282
0
283
1
284
4
285
0
286
0
287
3
288
0
340
11
278
46
341
23D
342
23D
343
23D
344
23D
  0
DIMSTYLE
105
240
100
AcDbSymbolTableRecord
100
AcDbDimStyleTableRecord
  2
DIMSTYLE_1
 70
0
  3

  4

 40
1.0
 41
0.1875
 42
0.0625
 43
0.38
 44
0.125
 45
0.0
 46
0.0
 47
0.0
 48
0.0
140
0.125
141
0.09
142
0.0
143
25.4
144
1.0
145
0.0
146
1.0
147
0.0625
 71
0
 72
0
 73
1
 74
1
 75
0
 76
0
 77
0
 78
4
 79
1
170
0
171
2
172
0
173
0
174
0
175
0
176
0
177
0
178
0
270
2
179
3
271
2
272
3
273
2
274
2
275
0
280
0
281
0
282
0
283
1
284
4
285
0
286
0
287
3
288
0
340
11
278
46
341
23D
342
23D
343
23D
344
23D
  0
ENDTAB
  0
ENDSEC
  0
SECTION
  2
BLOCKS
  0
BLOCK
  5
20
100
AcDbEntity
  8
0
100
AcDbBlockBegin
  2
*Model_Space
 70
0
 10
0.0
 20
0.0
 30
0.0
  3
*Model_Space
  1

  0
ENDBLK
  5
21
100
AcDbEntity
  8
0
100
AcDbBlockEnd
  0
BLOCK
  5
1C
100
AcDbEntity
  8
0
100
AcDbBlockBegin
  2
*Paper_Space
 70
0
 10
0.0
 20
0.0
 30
0.0
  3
*Paper_Space
  1

  0
ENDBLK
  5
1D
100
AcDbEntity
  8
0
100
AcDbBlockEnd
  0
BLOCK
  5
241
100
AcDbEntity
  8
0
100
AcDbBlockBegin
  2
_FILLED
 70
64
 10
0.0
 20
0.0
  3
_FILLED
  1

  0
SOLID
  5
242
100
AcDbEntity
  8
0
  6
BYBLOCK
 62
0
100
AcDbTrace
 10
0.0
 20
0.0
 11
-1.0
 21
0.1666666667
 12
-1.0
 22
-0.1666666667
 13
-1.0
 23
-0.1666666667
  0
ENDBLK
  5
243
100
AcDbEntity
  8
0
  6
BYBLOCK
 62
0
100
AcDbBlockEnd
  0
BLOCK
  5
244
100
AcDbEntity
  8
0
100
AcDbBlockBegin
 62
6
  6
CONTINUOUS
  2
*D0
 70
65
 10
0.0
 20
0.0
  3
*D0
  1

  0
MTEXT
  5
245
100
AcDbEntity
  8
0
100
AcDbMText
 62
6
  6
CONTINUOUS
  7
STANDARD
 71
1
 72
1
 10
5.3359999374
 20
9.1582582501
 30
0.0
 11
1.0
 21
0.0
 31
0.0
 73
2
 44
0.9
  1
2.35 in (59,7 mm)
 40
0.125
 41
1.7
  0
LINE
  5
246
100
AcDbEntity
  8
0
100
AcDbLine
 62
6
  6
CONTINUOUS
 10
5.0859999374
 20
8.4082582501
 11
5.0859999374
 21
9.2207582501
  0
LINE
  5
247
100
AcDbEntity
  8
0
100
AcDbLine
 62
6
  6
CONTINUOUS
 10
2.733
 20
7.8702582501
 11
2.733
 21
9.2207582501
  0
LINE
  5
248
100
AcDbEntity
  8
0
100
AcDbLine
 62
6
  6
CONTINUOUS
 10
5.0859999374
 20
9.0957582501
 11
3.9094999687
 21
9.0957582501
  0
LINE
  5
249
100
AcDbEntity
  8
0
100
AcDbLine
 62
6
  6
CONTINUOUS
 10
3.9094999687
 20
9.0957582501
 11
5.2734999374
 21
9.0957582501
  0
LINE
  5
24A
100
AcDbEntity
  8
0
100
AcDbLine
 62
6
  6
CONTINUOUS
 10
2.733
 20
9.0957582501
 11
3.9094999687
 21
9.0957582501
  0
INSERT
  5
24B
100
AcDbEntity
  8
0
100
AcDbBlockReference
 62
6
  6
CONTINUOUS
  2
_FILLED
 10
5.0859999374
 20
9.0957582501
 41
0.1875
 42
0.1875
 43
0.1875
  0
INSERT
  5
24C
100
AcDbEntity
  8
0
100
AcDbBlockReference
 62
6
  6
CONTINUOUS
  2
_FILLED
 10
2.733
 20
9.0957582501
 41
0.1875
 42
0.1875
 43
0.1875
 50
180.0
  0
ENDBLK
  5
24D
100
AcDbEntity
  8
0
  6
BYBLOCK
 62
0
100
AcDbBlockEnd
  0
ENDSEC
  0
SECTION
  2
ENTITIES
  0
DIMENSION
  5
24E
100
AcDbEntity
  8
0
100
AcDbDimension
 62
6
  6
CONTINUOUS
  2
*D0
 10
2.733
 20
9.0957582501
 11
6.1859999374
 21
9.0957582501
 70
160
 71
1
 72
2
 41
0.9
 42
2.3529999374
  1
<> in (59,7 mm)
  3
DIMSTYLE_1
100
AcDbAlignedDimension
 13
5.0859999374
 23
8.3457582501
 14
2.733
 24
7.8077582501
 50
180.0
100
AcDbRotatedDimension
  0
MTEXT
  5
24F
100
AcDbEntity
  8
0
100
AcDbMText
 62
2
  6
CONTINUOUS
  7
STANDARD
 71
1
 72
1
 10
6.9709999374
 20
7.8702582501
 30
0.0
 11
1.0
 21
0.0
 31
0.0
 73
2
 44
0.6
  1
Port 1
 40
0.125
 41
0.6
  0
MTEXT
  5
250
100
AcDbEntity
  8
0
100
AcDbMText
 62
2
  6
CONTINUOUS
  7
STANDARD
 71
1
 72
1
 10
5.9299999374
 20
7.1512582501
 30
0.0
 11
1.0
 21
0.0
 31
0.0
 73
2
 44
0.6
  1
Port 2
 40
0.125
 41
0.6
  0
MTEXT
  5
251
100
AcDbEntity
  8
0
100
AcDbMText
 62
2
  6
CONTINUOUS
  7
STANDARD
 71
1
 72
1
 10
5.3359999374
 20
8.9082582501
 30
0.0
 11
1.0
 21
0.0
 31
0.0
 73
2
 44
0.6
  1
 LOCATING SHOULDER
 40
0.125
 41
1.8
  0
LINE
  5
252
100
AcDbEntity
  8
0
100
AcDbLine
 62
7
  6
CONTINUOUS
 10
2.733
 20
7.9607582501
 11
2.764
 21
7.9917582501
  0
LINE
  5
253
100
AcDbEntity
  8
0
100
AcDbLine
 62
7
  6
CONTINUOUS
 10
2.733
 20
7.9607582501
 11
2.733
 21
7.6547582501
  0
LINE
  5
254
100
AcDbEntity
  8
0
100
AcDbLine
 62
7
  6
CONTINUOUS
 10
2.764
 20
7.9917582501
 11
2.764
 21
7.6237582501
  0
LINE
  5
255
100
AcDbEntity
  8
0
100
AcDbLine
 62
7
  6
CONTINUOUS
 10
3.2384707887
 20
8.1322291014
 11
3.1794999374
 21
8.0732582501
  0
LINE
  5
256
100
AcDbEntity
  8
0
100
AcDbLine
 62
7
  6
CONTINUOUS
 10
3.4019999374
 20
8.2427582501
 11
3.4639999374
 21
8.3047582501
  0
LINE
  5
257
100
AcDbEntity
  8
0
100
AcDbLine
 62
7
  6
CONTINUOUS
 10
3.0899999374
 20
7.5601041632
 11
3.0899999374
 21
8.0554123371
  0
LINE
  5
258
100
AcDbEntity
  8
0
100
AcDbLine
 62
7
  6
CONTINUOUS
 10
3.1519999374
 20
7.5367582501
 11
3.1519999374
 21
8.0787582501
  0
LINE
  5
259
100
AcDbEntity
  8
0
100
AcDbLine
 62
7
  6
CONTINUOUS
 10
3.1579999374
 20
7.5367582501
 11
3.1579999374
 21
8.0787582501
  0
LINE
  5
25A
100
AcDbEntity
  8
0
100
AcDbLine
 62
7
  6
CONTINUOUS
 10
3.1634999374
 20
8.0732582501
 11
3.1634999374
 21
7.5422582501
  0
LINE
  5
25B
100
AcDbEntity
  8
0
100
AcDbLine
 62
7
  6
CONTINUOUS
 10
3.1794999374
 20
8.0732582501
 11
3.1794999374
 21
7.5422582501
  0
LINE
  5
25C
100
AcDbEntity
  8
0
100
AcDbLine
 62
7
  6
CONTINUOUS
 10
3.3709999374
 20
8.0787582501
 11
3.3709999374
 21
7.5367582501
  0
LINE
  5
25D
100
AcDbEntity
  8
0
100
AcDbLine
 62
7
  6
CONTINUOUS
 10
3.4019999374
 20
8.2427582501
 11
3.4019999374
 21
7.3727582501
  0
LINE
  5
25E
100
AcDbEntity
  8
0
100
AcDbLine
 62
7
  6
CONTINUOUS
 10
3.3709999374
 20
7.5367582501
 11
3.340128527
 21
7.4832873988
  0
LINE
  5
25F
100
AcDbEntity
  8
0
100
AcDbLine
 62
7
  6
CONTINUOUS
 10
3.1634999374
 20
7.5422582501
 11
3.1579999374
 21
7.5367582501
  0
LINE
  5
260
100
AcDbEntity
  8
0
100
AcDbLine
 62
7
  6
CONTINUOUS
 10
3.9419999374
 20
8.2947582501
 11
3.9519999374
 21
8.3047582501
  0
LINE
  5
261
100
AcDbEntity
  8
0
100
AcDbLine
 62
7
  6
CONTINUOUS
 10
3.4639999374
 20
8.3047582501
 11
3.4639999374
 21
7.3107582501
  0
LINE
  5
262
100
AcDbEntity
  8
0
100
AcDbLine
 62
7
  6
CONTINUOUS
 10
3.9319999374
 20
8.3047582501
 11
3.9319999374
 21
7.3107582501
  0
LINE
  5
263
100
AcDbEntity
  8
0
100
AcDbLine
 62
7
  6
CONTINUOUS
 10
3.9419999374
 20
8.2947582501
 11
3.9419999374
 21
7.3207582501
  0
LINE
  5
264
100
AcDbEntity
  8
0
100
AcDbLine
 62
7
  6
CONTINUOUS
 10
3.9519999374
 20
8.3047582501
 11
3.9519999374
 21
7.3107582501
  0
LINE
  5
265
100
AcDbEntity
  8
0
100
AcDbLine
 62
7
  6
CONTINUOUS
 10
2.733
 20
7.6547582501
 11
2.764
 21
7.6237582501
  0
LINE
  5
266
100
AcDbEntity
  8
0
100
AcDbLine
 62
7
  6
CONTINUOUS
 10
3.9319999374
 20
7.3107582501
 11
3.9419999374
 21
7.3207582501
  0
LINE
  5
267
100
AcDbEntity
  8
0
100
AcDbLine
 62
7
  6
CONTINUOUS
 10
3.2384707887
 20
7.4832873988
 11
3.1794999374
 21
7.5422582501
  0
LINE
  5
268
100
AcDbEntity
  8
0
100
AcDbLine
 62
7
  6
CONTINUOUS
 10
3.4019999374
 20
7.3727582501
 11
3.4639999374
 21
7.3107582501
  0
LINE
  5
269
100
AcDbEntity
  8
0
100
AcDbLine
 62
7
  6
CONTINUOUS
 10
3.3709999374
 20
8.0787582501
 11
3.340128527
 21
8.1322291014
  0
LINE
  5
26A
100
AcDbEntity
  8
0
100
AcDbLine
 62
7
  6
CONTINUOUS
 10
4.2419999374
 20
7.2452747504
 11
4.2419999374
 21
8.3702417499
  0
LINE
  5
26B
100
AcDbEntity
  8
0
100
AcDbLine
 62
7
  6
CONTINUOUS
 10
4.2853012076
 20
7.8291655876
 11
4.2853012076
 21
7.7863509127
  0
LINE
  5
26C
100
AcDbEntity
  8
0
100
AcDbLine
 62
7
  6
CONTINUOUS
 10
4.2853012076
 20
7.2452747504
 11
4.2853012076
 21
7.2666820878
  0
LINE
  5
26D
100
AcDbEntity
  8
0
100
AcDbLine
 62
7
  6
CONTINUOUS
 10
4.2853012076
 20
8.3488344124
 11
4.2853012076
 21
8.3702417499
  0
LINE
  5
26E
100
AcDbEntity
  8
0
100
AcDbLine
 62
7
  6
CONTINUOUS
 10
3.1634999374
 20
8.0732582501
 11
3.1579999374
 21
8.0787582501
  0
LINE
  5
26F
100
AcDbEntity
  8
0
100
AcDbLine
 62
7
  6
CONTINUOUS
 10
3.9419999374
 20
7.3207582501
 11
3.9519999374
 21
7.3107582501
  0
LINE
  5
270
100
AcDbEntity
  8
THREAD
100
AcDbLine
 62
7
  6
CONTINUOUS
 10
5.2949392477
 20
8.3037582501
 11
5.2766083765
 21
8.2720082499
  0
LINE
  5
271
100
AcDbEntity
  8
0
100
AcDbLine
 62
7
  6
CONTINUOUS
 10
4.7364999374
 20
8.3702417499
 11
4.7364999374
 21
8.3488344124
  0
LINE
  5
272
100
AcDbEntity
  8
0
100
AcDbLine
 62
7
  6
CONTINUOUS
 10
4.7364999374
 20
7.2452747504
 11
4.7364999374
 21
7.2666820878
  0
LINE
  5
273
100
AcDbEntity
  8
0
100
AcDbLine
 62
7
  6
CONTINUOUS
 10
4.7364999374
 20
7.7863509127
 11
4.7364999374
 21
7.8291655876
  0
LINE
  5
274
100
AcDbEntity
  8
0
100
AcDbLine
 62
7
  6
CONTINUOUS
 10
4.8359999374
 20
7.2697582501
 11
4.8359999374
 21
8.3457582501
  0
LINE
  5
275
100
AcDbEntity
  8
0
100
AcDbLine
 62
7
  6
CONTINUOUS
 10
4.8359999374
 20
7.2697582501
 11
4.8106162382
 21
7.2443745509
  0
LINE
  5
276
100
AcDbEntity
  8
THREAD
100
AcDbLine
 62
7
  6
CONTINUOUS
 10
5.1073563439
 20
7.2925883771
 11
5.0884999375
 21
7.2817016258
  0
LINE
  5
277
100
AcDbEntity
  8
0
100
AcDbLine
 62
7
  6
CONTINUOUS
 10
5.0829999374
 20
8.3457582501
 11
5.0829999374
 21
7.2697582501
  0
LINE
  5
278
100
AcDbEntity
  8
0
100
AcDbLine
 62
7
  6
CONTINUOUS
 10
5.0859999374
 20
8.3427582241
 11
5.0859999374
 21
7.2727582761
  0
LINE
  5
279
100
AcDbEntity
  8
0
100
AcDbLine
 62
7
  6
CONTINUOUS
 10
5.0884999375
 20
7.2817016258
 11
5.0884999375
 21
8.3338148744
  0
LINE
  5
27A
100
AcDbEntity
  8
0
100
AcDbLine
 62
7
  6
CONTINUOUS
 10
5.1073563439
 20
7.2925883771
 11
5.1073563439
 21
8.3229281231
  0
LINE
  5
27B
100
AcDbEntity
  8
0
100
AcDbLine
 62
7
  6
CONTINUOUS
 10
5.1098563439
 20
7.2932582501
 11
5.1098563439
 21
8.3222582501
  0
LINE
  5
27C
100
AcDbEntity
  8
0
100
AcDbLine
 62
7
  6
CONTINUOUS
 10
5.1299999374
 20
8.3222582501
 11
5.1299999374
 21
7.2932582501
  0
LINE
  5
27D
100
AcDbEntity
  8
0
100
AcDbLine
 62
7
  6
CONTINUOUS
 10
5.1329999374
 20
8.3192582501
 11
5.1329999374
 21
7.2962582501
  0
LINE
  5
27E
100
AcDbEntity
  8
THREAD
100
AcDbLine
 62
7
  6
CONTINUOUS
 10
5.5829999374
 20
7.3547582501
 11
5.5399999374
 21
7.3117582501
  0
LINE
  5
27F
100
AcDbEntity
  8
0
100
AcDbLine
 62
7
  6
CONTINUOUS
 10
3.9319999374
 20
8.3047582501
 11
3.9419999374
 21
8.2947582501
  0
LINE
  5
280
100
AcDbEntity
  8
0
100
AcDbLine
 62
7
  6
CONTINUOUS
 10
5.2029999374
 20
8.3197582501
 11
5.2029999374
 21
7.2957582501
  0
LINE
  5
281
100
AcDbEntity
  8
0
100
AcDbLine
 62
7
  6
CONTINUOUS
 10
5.2529999374
 20
8.3197582501
 11
5.2529999374
 21
7.2957582501
  0
LINE
  5
282
100
AcDbEntity
  8
THREAD
100
AcDbLine
 62
7
  6
CONTINUOUS
 10
5.2657830591
 20
7.3497582501
 11
5.2657830591
 21
8.2657582501
  0
LINE
  5
283
100
AcDbEntity
  8
THREAD
100
AcDbLine
 62
7
  6
CONTINUOUS
 10
5.2766083765
 20
7.3435082503
 11
5.2766083765
 21
8.2720082499
  0
LINE
  5
284
100
AcDbEntity
  8
THREAD
100
AcDbLine
 62
7
  6
CONTINUOUS
 10
5.2949392477
 20
7.3117582501
 11
5.2949392477
 21
8.3037582501
  0
LINE
  5
285
100
AcDbEntity
  8
0
100
AcDbLine
 62
7
  6
CONTINUOUS
 10
5.1073563439
 20
7.2925883771
 11
5.1098563439
 21
7.2932582501
  0
LINE
  5
286
100
AcDbEntity
  8
0
100
AcDbLine
 62
7
  6
CONTINUOUS
 10
4.2419999374
 20
7.2452747504
 11
4.8115167972
 21
7.2452747504
  0
LINE
  5
287
100
AcDbEntity
  8
0
100
AcDbLine
 62
7
  6
CONTINUOUS
 10
4.7364999374
 20
7.2666820878
 11
4.2853012076
 21
7.2666820878
  0
LINE
  5
288
100
AcDbEntity
  8
0
100
AcDbLine
 62
7
  6
CONTINUOUS
 10
5.0829999374
 20
7.2697582501
 11
4.8359999374
 21
7.2697582501
  0
LINE
  5
289
100
AcDbEntity
  8
THREAD
100
AcDbLine
 62
7
  6
CONTINUOUS
 10
5.1299999374
 20
7.2932582501
 11
5.1098563439
 21
7.2932582501
  0
LINE
  5
28A
100
AcDbEntity
  8
0
100
AcDbLine
 62
7
  6
CONTINUOUS
 10
5.2029999374
 20
7.2957582501
 11
5.2529999374
 21
7.2957582501
  0
LINE
  5
28B
100
AcDbEntity
  8
0
100
AcDbLine
 62
7
  6
CONTINUOUS
 10
3.4639999374
 20
7.3107582501
 11
3.9319999374
 21
7.3107582501
  0
LINE
  5
28C
100
AcDbEntity
  8
0
100
AcDbLine
 62
7
  6
CONTINUOUS
 10
3.9519999374
 20
7.3107582501
 11
4.2419999374
 21
7.3107582501
  0
LINE
  5
28D
100
AcDbEntity
  8
THREAD
100
AcDbLine
 62
7
  6
CONTINUOUS
 10
5.5399999374
 20
7.3117582501
 11
5.2949392477
 21
7.3117582501
  0
LINE
  5
28E
100
AcDbEntity
  8
THREAD
100
AcDbLine
 62
7
  6
CONTINUOUS
 10
5.2657830591
 20
7.3497582501
 11
5.2529999374
 21
7.3497582501
  0
LINE
  5
28F
100
AcDbEntity
  8
125-194_FEATURES
100
AcDbLine
 62
7
  6
CONTINUOUS
 10
6.4469999374
 20
7.3712582501
 11
6.3639999374
 21
7.3712582501
  0
LINE
  5
290
100
AcDbEntity
  8
0
100
AcDbLine
 62
7
  6
CONTINUOUS
 10
6.6909999374
 20
7.3717582501
 11
6.6449999374
 21
7.3717582501
  0
LINE
  5
291
100
AcDbEntity
  8
0
100
AcDbLine
 62
7
  6
CONTINUOUS
 10
6.4469999374
 20
7.3717582501
 11
6.4969999374
 21
7.3717582501
  0
LINE
  5
292
100
AcDbEntity
  8
0
100
AcDbLine
 62
7
  6
CONTINUOUS
 10
6.5669999374
 20
7.3717582501
 11
6.6169999374
 21
7.3717582501
  0
LINE
  5
293
100
AcDbEntity
  8
THREAD
100
AcDbLine
 62
7
  6
CONTINUOUS
 10
5.5399999374
 20
7.3117582501
 11
5.5399999374
 21
8.3037582501
  0
LINE
  5
294
100
AcDbEntity
  8
125-194_FEATURES
100
AcDbLine
 62
7
  6
CONTINUOUS
 10
6.0199999374
 20
7.4177582501
 11
5.9959999374
 21
7.3937582501
  0
LINE
  5
295
100
AcDbEntity
  8
125-194_FEATURES
100
AcDbLine
 62
7
  6
CONTINUOUS
 10
5.9959999374
 20
7.3937582501
 11
5.8049999374
 21
7.3937582501
  0
LINE
  5
296
100
AcDbEntity
  8
125-194_FEATURES
100
AcDbLine
 62
7
  6
CONTINUOUS
 10
5.6169999374
 20
7.3937582501
 11
5.5829999374
 21
7.3937582501
  0
LINE
  5
297
100
AcDbEntity
  8
125-194_FEATURES
100
AcDbLine
 62
7
  6
CONTINUOUS
 10
6.3639999374
 20
7.4177582501
 11
6.0199999374
 21
7.4177582501
  0
LINE
  5
298
100
AcDbEntity
  8
0
100
AcDbLine
 62
7
  6
CONTINUOUS
 10
6.6449999374
 20
7.4257582501
 11
6.6169999374
 21
7.4257582501
  0
LINE
  5
299
100
AcDbEntity
  8
0
100
AcDbLine
 62
7
  6
CONTINUOUS
 10
3.340128527
 20
7.4832873988
 11
3.2384707887
 21
7.4832873988
  0
LINE
  5
29A
100
AcDbEntity
  8
0
100
AcDbLine
 62
7
  6
CONTINUOUS
 10
3.4019999374
 20
7.5367582501
 11
3.3709999374
 21
7.5367582501
  0
LINE
  5
29B
100
AcDbEntity
  8
0
100
AcDbLine
 62
7
  6
CONTINUOUS
 10
3.1579999374
 20
7.5367582501
 11
3.1519999374
 21
7.5367582501
  0
LINE
  5
29C
100
AcDbEntity
  8
0
100
AcDbLine
 62
7
  6
CONTINUOUS
 10
3.1794999374
 20
7.5422582501
 11
3.1634999374
 21
7.5422582501
  0
LINE
  5
29D
100
AcDbEntity
  8
THREAD
100
AcDbLine
 62
7
  6
CONTINUOUS
 10
5.2949392477
 20
7.3117582501
 11
5.2766083765
 21
7.3435082503
  0
LWPOLYLINE
  5
29E
100
AcDbEntity
  8
0
100
AcDbPolyline
 62
7
  6
CONTINUOUS
 90
6
 70
0
 10
5.6540591539
 20
7.7334637203
 10
5.6538852558
 20
7.7363285741
 10
5.6533147277
 20
7.7458598266
 10
5.65274476
 20
7.7554943335
 10
5.6521741877
 20
7.7652323319
 10
5.6516018395
 20
7.7750748831
  0
LWPOLYLINE
  5
29F
100
AcDbEntity
  8
0
100
AcDbPolyline
 62
7
  6
CONTINUOUS
 90
6
 70
0
 10
5.6487146304
 20
7.8251607833
 10
5.6481342816
 20
7.8351763849
 10
5.6475525907
 20
7.8451514584
 10
5.6469692608
 20
7.8550713016
 10
5.6463840432
 20
7.8649201306
 10
5.6457625043
 20
7.875241588
  0
LWPOLYLINE
  5
2A0
100
AcDbEntity
  8
0
100
AcDbPolyline
 62
7
  6
CONTINUOUS
 90
4
 70
0
 10
5.6516018395
 20
7.7750748831
 10
5.6504505095
 20
7.7950200553
 10
5.6498726031
 20
7.805065161
 10
5.6487146304
 20
7.8251607833
  0
LWPOLYLINE
  5
2A1
100
AcDbEntity
  8
0
100
AcDbPolyline
 62
7
  6
CONTINUOUS
 90
7
 70
0
 10
5.653242224
 20
7.8813815492
 10
5.6533887562
 20
7.8785055434
 10
5.6538645132
 20
7.8690277356
 10
5.6543409163
 20
7.8594148981
 10
5.6548176914
 20
7.8496908444
 10
5.6552946492
 20
7.8398784025
 10
5.6557718932
 20
7.8299945098
  0
LWPOLYLINE
  5
2A2
100
AcDbEntity
  8
0
100
AcDbPolyline
 62
7
  6
CONTINUOUS
 90
7
 70
0
 10
5.658164177
 20
7.7801402721
 10
5.658643685
 20
7.7702223598
 10
5.659123736
 20
7.7603636877
 10
5.659603665
 20
7.7505973093
 10
5.6600827214
 20
7.7409574313
 10
5.6605626972
 20
7.7314268902
 10
5.6607086582
 20
7.7285733535
  0
LWPOLYLINE
  5
2A3
100
AcDbEntity
  8
0
100
AcDbPolyline
 62
7
  6
CONTINUOUS
 90
4
 70
0
 10
5.6557718932
 20
7.8299945098
 10
5.6567276748
 20
7.8100798419
 10
5.6572062303
 20
7.8000873905
 10
5.658164177
 20
7.7801402721
  0
LINE
  5
2A4
100
AcDbEntity
  8
125-194_FEATURES
100
AcDbLine
 62
7
  6
CONTINUOUS
 10
5.5829999374
 20
7.3547661679
 11
5.5829999374
 21
8.2607503323
  0
LINE
  5
2A5
100
AcDbEntity
  8
0
100
AcDbLine
 62
7
  6
CONTINUOUS
 10
5.7289999374
 20
7.8999874986
 11
5.7289999374
 21
7.7155298172
  0
LINE
  5
2A6
100
AcDbEntity
  8
0
100
AcDbLine
 62
7
  6
CONTINUOUS
 10
2.764
 20
7.6237582501
 11
3.0899999374
 21
7.6237582501
  0
LINE
  5
2A7
100
AcDbEntity
  8
0
100
AcDbLine
 62
7
  6
CONTINUOUS
 10
3.340128527
 20
7.6455228245
 11
3.2384707887
 21
7.6455228245
  0
LWPOLYLINE
  5
2A8
100
AcDbEntity
  8
0
100
AcDbPolyline
 62
7
  6
CONTINUOUS
 90
8
 70
0
 10
5.7284756614
 20
7.7154782178
 10
5.7279866147
 20
7.7248559352
 10
5.7275079883
 20
7.7342035413
 10
5.7270335153
 20
7.7436155831
 10
5.7265593124
 20
7.7531490726
 10
5.726083314
 20
7.7628275872
 10
5.7256062693
 20
7.7726178132
 10
5.7251289872
 20
7.7824843924
  0
LWPOLYLINE
  5
2A9
100
AcDbEntity
  8
0
100
AcDbPolyline
 62
7
  6
CONTINUOUS
 90
8
 70
0
 10
5.7227374557
 20
7.8323216957
 10
5.7222582754
 20
7.8422505568
 10
5.7217786749
 20
7.8521237467
 10
5.7212984812
 20
7.8619252393
 10
5.7208177746
 20
7.8716337003
 10
5.720336744
 20
7.8812260585
 10
5.7198553922
 20
7.8906834209
 10
5.7193234401
 20
7.9009394248
  0
LWPOLYLINE
  5
2AA
100
AcDbEntity
  8
0
100
AcDbPolyline
 62
7
  6
CONTINUOUS
 90
4
 70
0
 10
5.7251289872
 20
7.7824843924
 10
5.7241734493
 20
7.8023756081
 10
5.723695043
 20
7.8123646732
 10
5.7227374557
 20
7.8323216957
  0
LINE
  5
2AB
100
AcDbEntity
  8
0
100
AcDbLine
 62
7
  6
CONTINUOUS
 10
5.7759999374
 20
7.8754367654
 11
5.7759999374
 21
7.7400800602
  0
LINE
  5
2AC
100
AcDbEntity
  8
0
100
AcDbLine
 62
7
  6
CONTINUOUS
 10
4.7364999374
 20
7.7863509127
 11
4.2853012076
 21
7.7863509127
  0
LINE
  5
2AD
100
AcDbEntity
  8
0
100
AcDbLine
 62
7
  6
CONTINUOUS
 10
4.7364999374
 20
7.8291655876
 11
4.2853012076
 21
7.8291655876
  0
LINE
  5
2AE
100
AcDbEntity
  8
0
100
AcDbLine
 62
7
  6
CONTINUOUS
 10
4.8359999374
 20
8.3457582501
 11
4.8106162382
 21
8.3711419493
  0
LINE
  5
2AF
100
AcDbEntity
  8
125-194_FEATURES
100
AcDbLine
 62
7
  6
CONTINUOUS
 10
5.9959999374
 20
7.3937582501
 11
5.9959999374
 21
8.2217582501
  0
LINE
  5
2B0
100
AcDbEntity
  8
125-194_FEATURES
100
AcDbLine
 62
7
  6
CONTINUOUS
 10
6.0199999374
 20
7.4177582501
 11
6.0199999374
 21
8.1977582501
  0
LINE
  5
2B1
100
AcDbEntity
  8
0
100
AcDbLine
 62
7
  6
CONTINUOUS
 10
6.7109999374
 20
7.3917582501
 11
6.6909999374
 21
7.3717582501
  0
LINE
  5
2B2
100
AcDbEntity
  8
0
100
AcDbLine
 62
7
  6
CONTINUOUS
 10
3.340128527
 20
7.9699936758
 11
3.2384707887
 21
7.9699936758
  0
LINE
  5
2B3
100
AcDbEntity
  8
0
100
AcDbLine
 62
7
  6
CONTINUOUS
 10
2.764
 20
7.9917582501
 11
3.0899999374
 21
7.9917582501
  0
LINE
  5
2B4
100
AcDbEntity
  8
0
100
AcDbLine
 62
7
  6
CONTINUOUS
 10
3.1794999374
 20
8.0732582501
 11
3.1634999374
 21
8.0732582501
  0
LINE
  5
2B5
100
AcDbEntity
  8
0
100
AcDbLine
 62
7
  6
CONTINUOUS
 10
3.4019999374
 20
8.0787582501
 11
3.3709999374
 21
8.0787582501
  0
LINE
  5
2B6
100
AcDbEntity
  8
0
100
AcDbLine
 62
7
  6
CONTINUOUS
 10
3.1579999374
 20
8.0787582501
 11
3.1519999374
 21
8.0787582501
  0
LINE
  5
2B7
100
AcDbEntity
  8
0
100
AcDbLine
 62
7
  6
CONTINUOUS
 10
3.340128527
 20
8.1322291014
 11
3.2384707887
 21
8.1322291014
  0
LINE
  5
2B8
100
AcDbEntity
  8
0
100
AcDbLine
 62
7
  6
CONTINUOUS
 10
6.6449999374
 20
8.1897582501
 11
6.6169999374
 21
8.1897582501
  0
LINE
  5
2B9
100
AcDbEntity
  8
125-194_FEATURES
100
AcDbLine
 62
7
  6
CONTINUOUS
 10
6.3639999374
 20
8.1977582501
 11
6.0199999374
 21
8.1977582501
  0
LINE
  5
2BA
100
AcDbEntity
  8
125-194_FEATURES
100
AcDbLine
 62
7
  6
CONTINUOUS
 10
5.9959999374
 20
8.2217582501
 11
5.8049999374
 21
8.2217582501
  0
LINE
  5
2BB
100
AcDbEntity
  8
125-194_FEATURES
100
AcDbLine
 62
7
  6
CONTINUOUS
 10
5.6169999374
 20
8.2217582501
 11
5.5829999374
 21
8.2217582501
  0
LINE
  5
2BC
100
AcDbEntity
  8
0
100
AcDbLine
 62
7
  6
CONTINUOUS
 10
6.6909999374
 20
8.2437582501
 11
6.6449999374
 21
8.2437582501
  0
LINE
  5
2BD
100
AcDbEntity
  8
0
100
AcDbLine
 62
7
  6
CONTINUOUS
 10
6.4469999374
 20
8.2437582501
 11
6.4969999374
 21
8.2437582501
  0
LINE
  5
2BE
100
AcDbEntity
  8
0
100
AcDbLine
 62
7
  6
CONTINUOUS
 10
6.5669999374
 20
8.2437582501
 11
6.6169999374
 21
8.2437582501
  0
LINE
  5
2BF
100
AcDbEntity
  8
125-194_FEATURES
100
AcDbLine
 62
7
  6
CONTINUOUS
 10
6.4469999374
 20
8.2442582501
 11
6.3639999374
 21
8.2442582501
  0
LINE
  5
2C0
100
AcDbEntity
  8
THREAD
100
AcDbLine
 62
7
  6
CONTINUOUS
 10
5.1073563439
 20
8.3229281231
 11
5.0884999375
 21
8.3338148744
  0
LINE
  5
2C1
100
AcDbEntity
  8
125-194_FEATURES
100
AcDbLine
 62
7
  6
CONTINUOUS
 10
6.3639999374
 20
7.3712582501
 11
6.3639999374
 21
8.2442582501
  0
LINE
  5
2C2
100
AcDbEntity
  8
THREAD
100
AcDbLine
 62
7
  6
CONTINUOUS
 10
5.2657830591
 20
8.2657582501
 11
5.2529999374
 21
8.2657582501
  0
LINE
  5
2C3
100
AcDbEntity
  8
THREAD
100
AcDbLine
 62
7
  6
CONTINUOUS
 10
5.5399999374
 20
8.3037582501
 11
5.2949392477
 21
8.3037582501
  0
LINE
  5
2C4
100
AcDbEntity
  8
0
100
AcDbLine
 62
7
  6
CONTINUOUS
 10
3.4639999374
 20
8.3047582501
 11
3.9319999374
 21
8.3047582501
  0
LINE
  5
2C5
100
AcDbEntity
  8
0
100
AcDbLine
 62
7
  6
CONTINUOUS
 10
3.9519999374
 20
8.3047582501
 11
4.2419999374
 21
8.3047582501
  0
LINE
  5
2C6
100
AcDbEntity
  8
0
100
AcDbLine
 62
7
  6
CONTINUOUS
 10
5.2029999374
 20
8.3197582501
 11
5.2529999374
 21
8.3197582501
  0
LINE
  5
2C7
100
AcDbEntity
  8
THREAD
100
AcDbLine
 62
7
  6
CONTINUOUS
 10
5.1299999374
 20
8.3222582501
 11
5.1098563439
 21
8.3222582501
  0
LINE
  5
2C8
100
AcDbEntity
  8
0
100
AcDbLine
 62
7
  6
CONTINUOUS
 10
5.0829999374
 20
8.3457582501
 11
4.8359999374
 21
8.3457582501
  0
LINE
  5
2C9
100
AcDbEntity
  8
0
100
AcDbLine
 62
7
  6
CONTINUOUS
 10
4.7364999374
 20
8.3488344124
 11
4.2853012076
 21
8.3488344124
  0
LINE
  5
2CA
100
AcDbEntity
  8
0
100
AcDbLine
 62
7
  6
CONTINUOUS
 10
4.2419999374
 20
8.3702417499
 11
4.8115167972
 21
8.3702417499
  0
LINE
  5
2CB
100
AcDbEntity
  8
0
100
AcDbLine
 62
7
  6
CONTINUOUS
 10
5.1073563439
 20
8.3229281231
 11
5.1098563439
 21
8.3222582501
  0
LINE
  5
2CC
100
AcDbEntity
  8
THREAD
100
AcDbLine
 62
7
  6
CONTINUOUS
 10
5.5829999374
 20
8.2607582501
 11
5.5399999374
 21
8.3037582501
  0
LINE
  5
2CD
100
AcDbEntity
  8
125-194_FEATURES
100
AcDbLine
 62
7
  6
CONTINUOUS
 10
6.4469999374
 20
7.3712658795
 11
6.4469999374
 21
8.2442506207
  0
LINE
  5
2CE
100
AcDbEntity
  8
0
100
AcDbLine
 62
7
  6
CONTINUOUS
 10
6.4969999374
 20
8.2437582501
 11
6.4969999374
 21
7.3717582501
  0
LINE
  5
2CF
100
AcDbEntity
  8
0
100
AcDbLine
 62
7
  6
CONTINUOUS
 10
6.5669999374
 20
8.2437582501
 11
6.5669999374
 21
7.3717582501
  0
LINE
  5
2D0
100
AcDbEntity
  8
125-194_FEATURES
100
AcDbLine
 62
7
  6
CONTINUOUS
 10
6.0199999374
 20
8.1977582501
 11
5.9959999374
 21
8.2217582501
  0
LINE
  5
2D1
100
AcDbEntity
  8
0
100
AcDbLine
 62
7
  6
CONTINUOUS
 10
6.6169999374
 20
8.2437582501
 11
6.6169999374
 21
7.3717582501
  0
LINE
  5
2D2
100
AcDbEntity
  8
0
100
AcDbLine
 62
7
  6
CONTINUOUS
 10
6.6449999374
 20
7.3717582501
 11
6.6449999374
 21
8.2437582501
  0
LINE
  5
2D3
100
AcDbEntity
  8
0
100
AcDbLine
 62
7
  6
CONTINUOUS
 10
6.6909999374
 20
7.3717582501
 11
6.6909999374
 21
8.2437582501
  0
LINE
  5
2D4
100
AcDbEntity
  8
0
100
AcDbLine
 62
7
  6
CONTINUOUS
 10
6.7109999374
 20
7.3917582501
 11
6.7109999374
 21
8.2237582501
  0
LINE
  5
2D5
100
AcDbEntity
  8
0
100
AcDbLine
 62
7
  6
CONTINUOUS
 10
6.7109999374
 20
8.2237582501
 11
6.6909999374
 21
8.2437582501
  0
ARC
  5
2D6
100
AcDbEntity
  8
0
100
AcDbCircle
 62
7
  6
CONTINUOUS
 10
3.1519999374
 20
7.6307582501
 40
0.094
100
AcDbArc
 50
228.732572619
 51
270.0
  0
ARC
  5
2D7
100
AcDbEntity
  8
0
100
AcDbCircle
 62
7
  6
CONTINUOUS
 10
3.1519999374
 20
7.9847582501
 40
0.094
100
AcDbArc
 50
90.0
 51
131.267427381
  0
CIRCLE
  5
2D8
100
AcDbEntity
  8
125-194_FEATURES
100
AcDbCircle
 62
7
  6
CONTINUOUS
 10
5.7109999374
 20
7.8077582501
 40
0.094
  0
ARC
  5
2D9
100
AcDbEntity
  8
THREAD
100
AcDbCircle
 62
7
  6
CONTINUOUS
 10
5.2657830591
 20
7.3372582501
 40
0.0125
100
AcDbArc
 50
30.0000009419
 51
90.0
  0
ARC
  5
2DA
100
AcDbEntity
  8
THREAD
100
AcDbCircle
 62
7
  6
CONTINUOUS
 10
5.2657830591
 20
8.2782582501
 40
0.0125
100
AcDbArc
 50
270.0
 51
329.9999990581
  0
ARC
  5
2DB
100
AcDbEntity
  8
0
100
AcDbCircle
 62
7
  6
CONTINUOUS
 10
5.0909999374
 20
8.3381450015
 40
0.005
100
AcDbArc
 50
180.000001892
 51
240.00000096
  0
ARC
  5
2DC
100
AcDbEntity
  8
0
100
AcDbCircle
 62
7
  6
CONTINUOUS
 10
5.0909999374
 20
7.2773714988
 40
0.005
100
AcDbArc
 50
119.99999904
 51
179.999998108
  0
ARC
  5
2DD
100
AcDbEntity
  8
0
100
AcDbCircle
 62
7
  6
CONTINUOUS
 10
5.1299999374
 20
7.2962582501
 40
0.003
100
AcDbArc
 50
270.0
 51
360.0
  0
ARC
  5
2DE
100
AcDbEntity
  8
0
100
AcDbCircle
 62
7
  6
CONTINUOUS
 10
5.0829999374
 20
8.3427582501
 40
0.003
100
AcDbArc
 50
359.9999183971
 51
90.0
  0
ARC
  5
2DF
100
AcDbEntity
  8
0
100
AcDbCircle
 62
7
  6
CONTINUOUS
 10
5.1299999374
 20
8.3192582501
 40
0.003
100
AcDbArc
 50
0.0
 51
90.0
  0
ARC
  5
2E0
100
AcDbEntity
  8
0
100
AcDbCircle
 62
7
  6
CONTINUOUS
 10
5.0829999374
 20
7.2727582501
 40
0.003
100
AcDbArc
 50
270.0
 51
0.0000816029
  0
SPLINE
  5
2E1
100
AcDbEntity
  8
0
100
AcDbSpline
 62
7
  6
CONTINUOUS
 70
0
 71
3
 72
29
 73
25
 74
0
 42
0.0000001
 43
0.0000001
 44
0.0000000001
 40
0.0
 40
0.0
 40
0.0
 40
0.0
 40
0.0699814326
 40
0.1378931693
 40
0.2035483063
 40
0.2668301071
 40
0.3277577624
 40
0.3574096745
 40
0.3865762134
 40
0.4153250756
 40
0.4437427141
 40
0.4719307121
 40
0.5000000301
 40
0.5280693453
 40
0.5562573422
 40
0.5846749808
 40
0.6134238382
 40
0.6425903726
 40
0.6722422822
 40
0.7331699209
 40
0.796451712
 40
0.8621068357
 40
0.9300185679
 40
1.0
 40
1.0
 40
1.0
 40
1.0
 10
3.2384707887
 20
7.9699936758
 30
0.0
 10
3.2353559641
 20
7.9731085003
 30
0.0
 10
3.2293485078
 20
7.9793787481
 30
0.0
 10
3.2209836379
 20
7.98909302
 30
0.0
 10
3.2135144252
 20
7.9989929526
 30
0.0
 10
3.2070857245
 20
8.0090846152
 30
0.0
 10
3.2026792567
 20
8.0177317355
 30
0.0
 10
3.1998523305
 20
8.024723435
 30
0.0
 10
3.1981052134
 20
8.0299552456
 30
0.0
 10
3.1967273995
 20
8.0352163385
 30
0.0
 10
3.1957349427
 20
8.0405012946
 30
0.0
 10
3.195134748
 20
8.0458021741
 30
0.0
 10
3.1949326751
 20
8.0511113941
 30
0.0
 10
3.1951347451
 20
8.0564206144
 30
0.0
 10
3.1957349475
 20
8.0617214928
 30
0.0
 10
3.1967274016
 20
8.0670064488
 30
0.0
 10
3.1981052137
 20
8.0722675418
 30
0.0
 10
3.1998523349
 20
8.0774993502
 30
0.0
 10
3.2026792596
 20
8.0844910486
 30
0.0
 10
3.207085727
 20
8.0931381672
 30
0.0
 10
3.2135144276
 20
8.1032298268
 30
0.0
 10
3.2209836387
 20
8.1131297584
 30
0.0
 10
3.2293485082
 20
8.1228440292
 30
0.0
 10
3.2353559642
 20
8.1291142769
 30
0.0
 10
3.2384707887
 20
8.1322291014
 30
0.0
  0
SPLINE
  5
2E2
100
AcDbEntity
  8
0
100
AcDbSpline
 62
7
  6
CONTINUOUS
 70
0
 71
3
 72
25
 73
21
 74
0
 42
0.0000001
 43
0.0000001
 44
0.0000000001
 40
0.0
 40
0.0
 40
0.0
 40
0.0
 40
0.0659343996
 40
0.1307786338
 40
0.1945190869
 40
0.2571884297
 40
0.3188803748
 40
0.3494111547
 40
0.3797624252
 40
0.4400381959
 40
0.5000000142
 40
0.5599618336
 40
0.6202376013
 40
0.6505888715
 40
0.68111965
 40
0.7428115909
 40
0.8054809287
 40
0.8692213713
 40
0.9340656013
 40
1.0
 40
1.0
 40
1.0
 40
1.0
 10
3.340128527
 20
7.4832873988
 30
0.0
 10
3.3420164964
 20
7.4865574577
 30
0.0
 10
3.3456348675
 20
7.493117818
 30
0.0
 10
3.3505662764
 20
7.5031113106
 30
0.0
 10
3.3548953931
 20
7.5131785063
 30
0.0
 10
3.3585565453
 20
7.5233168535
 30
0.0
 10
3.3610068028
 20
7.5318505182
 30
0.0
 10
3.3625670674
 20
7.5386960865
 30
0.0
 10
3.3638473412
 20
7.5455168866
 30
0.0
 10
3.3649341571
 20
7.5540825263
 30
0.0
 10
3.3653714334
 20
7.5644051142
 30
0.0
 10
3.3649341579
 20
7.5747277019
 30
0.0
 10
3.3638473401
 20
7.5832933413
 30
0.0
 10
3.3625670653
 20
7.5901141409
 30
0.0
 10
3.3610068038
 20
7.5969597096
 30
0.0
 10
3.3585565428
 20
7.6054933727
 30
0.0
 10
3.354895393
 20
7.6156317195
 30
0.0
 10
3.3505662757
 20
7.6256989138
 30
0.0
 10
3.3456348672
 20
7.6356924055
 30
0.0
 10
3.3420164964
 20
7.6422527656
 30
0.0
 10
3.340128527
 20
7.6455228245
 30
0.0
  0
SPLINE
  5
2E3
100
AcDbEntity
  8
0
100
AcDbSpline
 62
7
  6
CONTINUOUS
 70
0
 71
3
 72
29
 73
25
 74
0
 42
0.0000001
 43
0.0000001
 44
0.0000000001
 40
0.0
 40
0.0
 40
0.0
 40
0.0
 40
0.0699814326
 40
0.1378931693
 40
0.2035483063
 40
0.2668301071
 40
0.3277577624
 40
0.3574096745
 40
0.3865762134
 40
0.4153250756
 40
0.4437427141
 40
0.4719307121
 40
0.5000000301
 40
0.5280693453
 40
0.5562573422
 40
0.5846749808
 40
0.6134238382
 40
0.6425903726
 40
0.6722422822
 40
0.7331699209
 40
0.796451712
 40
0.8621068357
 40
0.9300185679
 40
1.0
 40
1.0
 40
1.0
 40
1.0
 10
3.2384707887
 20
7.4832873988
 30
0.0
 10
3.2353559641
 20
7.4864022234
 30
0.0
 10
3.2293485078
 20
7.4926724712
 30
0.0
 10
3.2209836379
 20
7.5023867431
 30
0.0
 10
3.2135144252
 20
7.5122866757
 30
0.0
 10
3.2070857245
 20
7.5223783383
 30
0.0
 10
3.2026792567
 20
7.5310254586
 30
0.0
 10
3.1998523305
 20
7.5380171581
 30
0.0
 10
3.1981052134
 20
7.5432489686
 30
0.0
 10
3.1967273995
 20
7.5485100616
 30
0.0
 10
3.1957349427
 20
7.5537950177
 30
0.0
 10
3.195134748
 20
7.5590958972
 30
0.0
 10
3.1949326751
 20
7.5644051172
 30
0.0
 10
3.1951347451
 20
7.5697143375
 30
0.0
 10
3.1957349475
 20
7.5750152159
 30
0.0
 10
3.1967274016
 20
7.5803001719
 30
0.0
 10
3.1981052137
 20
7.5855612648
 30
0.0
 10
3.1998523349
 20
7.5907930732
 30
0.0
 10
3.2026792596
 20
7.5977847716
 30
0.0
 10
3.207085727
 20
7.6064318903
 30
0.0
 10
3.2135144276
 20
7.6165235498
 30
0.0
 10
3.2209836387
 20
7.6264234815
 30
0.0
 10
3.2293485082
 20
7.6361377523
 30
0.0
 10
3.2353559642
 20
7.6424079999
 30
0.0
 10
3.2384707887
 20
7.6455228245
 30
0.0
  0
SPLINE
  5
2E4
100
AcDbEntity
  8
0
100
AcDbSpline
 62
7
  6
CONTINUOUS
 70
0
 71
3
 72
25
 73
21
 74
0
 42
0.0000001
 43
0.0000001
 44
0.0000000001
 40
0.0
 40
0.0
 40
0.0
 40
0.0
 40
0.1249859891
 40
0.1874862541
 40
0.2499858822
 40
0.2812379746
 40
0.3124899424
 40
0.3437420673
 40
0.3749949169
 40
0.4374972714
 40
0.5000000149
 40
0.5625027595
 40
0.6250051101
 40
0.6562579591
 40
0.6875100837
 40
0.7187620486
 40
0.750014138
 40
0.8125137618
 40
0.8750140159
 40
1.0
 40
1.0
 40
1.0
 40
1.0
 10
3.340128527
 20
7.6455228245
 30
0.0
 10
3.3439349642
 20
7.6587087096
 30
0.0
 10
3.3491657106
 20
7.6786345076
 30
0.0
 10
3.3549292736
 20
7.7054763623
 30
0.0
 10
3.3579737929
 20
7.7223656271
 30
0.0
 10
3.3600429162
 20
7.7359356738
 30
0.0
 10
3.3614050645
 20
7.7461408609
 30
0.0
 10
3.3625702099
 20
7.7563705574
 30
0.0
 10
3.3638520947
 20
7.7700379542
 30
0.0
 10
3.3649359444
 20
7.7871671769
 30
0.0
 10
3.3653709211
 20
7.8077582552
 30
0.0
 10
3.3649359452
 20
7.828349333
 30
0.0
 10
3.3638520937
 20
7.8454785553
 30
0.0
 10
3.3625702077
 20
7.8591459514
 30
0.0
 10
3.3614050648
 20
7.8693756478
 30
0.0
 10
3.3600429156
 20
7.8795808341
 30
0.0
 10
3.3579737909
 20
7.8931508794
 30
0.0
 10
3.3549292735
 20
7.9100401425
 30
0.0
 10
3.3491657095
 20
7.9368819947
 30
0.0
 10
3.343934964
 20
7.9568077912
 30
0.0
 10
3.340128527
 20
7.9699936758
 30
0.0
  0
SPLINE
  5
2E5
100
AcDbEntity
  8
0
100
AcDbSpline
 62
7
  6
CONTINUOUS
 70
0
 71
3
 72
29
 73
25
 74
0
 42
0.0000001
 43
0.0000001
 44
0.0000000001
 40
0.0
 40
0.0
 40
0.0
 40
0.0
 40
0.0624904563
 40
0.124986907
 40
0.1874824592
 40
0.2499774484
 40
0.3124737491
 40
0.343727532
 40
0.3749816508
 40
0.4062351141
 40
0.4374899104
 40
0.4687452438
 40
0.5000000338
 40
0.5312548209
 40
0.562510151
 40
0.5937649481
 40
0.6250184069
 40
0.6562725173
 40
0.6875262971
 40
0.7500225805
 40
0.8125175578
 40
0.8750130976
 40
0.937509544
 40
1.0
 40
1.0
 40
1.0
 40
1.0
 10
3.2384707887
 20
7.6455228245
 30
0.0
 10
3.2353128246
 20
7.6518387526
 30
0.0
 10
3.2292161094
 20
7.6645828814
 30
0.0
 10
3.2208491511
 20
7.6840530269
 30
0.0
 10
3.2133856037
 20
7.7038901708
 30
0.0
 10
3.2069741208
 20
7.7240938036
 30
0.0
 10
3.2026318256
 20
7.7412202714
 30
0.0
 10
3.1998364738
 20
7.7550687167
 30
0.0
 10
3.1980940247
 20
7.7655216997
 30
0.0
 10
3.196720612
 20
7.7760297392
 30
0.0
 10
3.1957318633
 20
7.7865812067
 30
0.0
 10
3.1951340817
 20
7.797162209
 30
0.0
 10
3.1949328666
 20
7.8077582612
 30
0.0
 10
3.1951340788
 20
7.8183543133
 30
0.0
 10
3.1957318681
 20
7.8289353145
 30
0.0
 10
3.1967206141
 20
7.8394867814
 30
0.0
 10
3.1980940249
 20
7.8499948199
 30
0.0
 10
3.1998364783
 20
7.8604478003
 30
0.0
 10
3.2026318285
 20
7.8742962425
 30
0.0
 10
3.2069741231
 20
7.8914227069
 30
0.0
 10
3.2133856063
 20
7.9116263345
 30
0.0
 10
3.2208491519
 20
7.9314634757
 30
0.0
 10
3.2292161098
 20
7.9509336193
 30
0.0
 10
3.2353128246
 20
7.9636777476
 30
0.0
 10
3.2384707887
 20
7.9699936758
 30
0.0
  0
SPLINE
  5
2E6
100
AcDbEntity
  8
0
100
AcDbSpline
 62
7
  6
CONTINUOUS
 70
0
 71
3
 72
25
 73
21
 74
0
 42
0.0000001
 43
0.0000001
 44
0.0000000001
 40
0.0
 40
0.0
 40
0.0
 40
0.0
 40
0.0659343996
 40
0.1307786338
 40
0.1945190869
 40
0.2571884297
 40
0.3188803748
 40
0.3494111547
 40
0.3797624252
 40
0.4400381959
 40
0.5000000142
 40
0.5599618336
 40
0.6202376013
 40
0.6505888715
 40
0.68111965
 40
0.7428115909
 40
0.8054809287
 40
0.8692213713
 40
0.9340656013
 40
1.0
 40
1.0
 40
1.0
 40
1.0
 10
3.340128527
 20
7.9699936758
 30
0.0
 10
3.3420164964
 20
7.9732637347
 30
0.0
 10
3.3456348675
 20
7.9798240949
 30
0.0
 10
3.3505662764
 20
7.9898175875
 30
0.0
 10
3.3548953931
 20
7.9998847832
 30
0.0
 10
3.3585565453
 20
8.0100231304
 30
0.0
 10
3.3610068028
 20
8.0185567952
 30
0.0
 10
3.3625670674
 20
8.0254023635
 30
0.0
 10
3.3638473412
 20
8.0322231635
 30
0.0
 10
3.3649341571
 20
8.0407888033
 30
0.0
 10
3.3653714334
 20
8.0511113911
 30
0.0
 10
3.3649341579
 20
8.0614339788
 30
0.0
 10
3.3638473401
 20
8.0699996183
 30
0.0
 10
3.3625670653
 20
8.0768204178
 30
0.0
 10
3.3610068038
 20
8.0836659865
 30
0.0
 10
3.3585565428
 20
8.0921996496
 30
0.0
 10
3.354895393
 20
8.1023379964
 30
0.0
 10
3.3505662757
 20
8.1124051907
 30
0.0
 10
3.3456348672
 20
8.1223986824
 30
0.0
 10
3.3420164964
 20
8.1289590425
 30
0.0
 10
3.340128527
 20
8.1322291014
 30
0.0
  0
SPLINE
  5
2E7
100
AcDbEntity
  8
125-194_FEATURES
100
AcDbSpline
 62
7
  6
CONTINUOUS
 70
0
 71
3
 72
15
 73
11
 74
0
 42
0.0000001
 43
0.0000001
 44
0.0000000001
 40
0.0
 40
0.0
 40
0.0
 40
0.0
 40
0.0387976839
 40
0.1479738725
 40
0.3097002221
 40
0.5000003603
 40
0.6903007595
 40
0.852027086
 40
0.9612026479
 40
1.0
 40
1.0
 40
1.0
 40
1.0
 10
5.8049999374
 20
8.2217582501
 30
0.0
 10
5.8026088945
 20
8.2212153017
 30
0.0
 10
5.7934729501
 20
8.2192158665
 30
0.0
 10
5.7742275072
 20
8.2156145159
 30
0.0
 10
5.7452858161
 20
8.2119468601
 30
0.0
 10
5.7109998525
 20
8.2104050452
 30
0.0
 10
5.676713891
 20
8.2119468733
 30
0.0
 10
5.6477722256
 20
8.2156145378
 30
0.0
 10
5.6285268456
 20
8.2192158862
 30
0.0
 10
5.6193909601
 20
8.2212153072
 30
0.0
 10
5.6169999374
 20
8.2217582501
 30
0.0
  0
SPLINE
  5
2E8
100
AcDbEntity
  8
125-194_FEATURES
100
AcDbSpline
 62
7
  6
CONTINUOUS
 70
0
 71
3
 72
15
 73
11
 74
0
 42
0.0000001
 43
0.0000001
 44
0.0000000001
 40
0.0
 40
0.0
 40
0.0
 40
0.0
 40
0.0387976839
 40
0.1479738725
 40
0.3097002221
 40
0.5000003603
 40
0.6903007595
 40
0.852027086
 40
0.9612026479
 40
1.0
 40
1.0
 40
1.0
 40
1.0
 10
5.6169999374
 20
7.3937582501
 30
0.0
 10
5.6193909804
 20
7.3943011985
 30
0.0
 10
5.6285269247
 20
7.3963006338
 30
0.0
 10
5.6477723676
 20
7.3999019843
 30
0.0
 10
5.6767140588
 20
7.4035696401
 30
0.0
 10
5.7110000223
 20
7.405111455
 30
0.0
 10
5.7452859839
 20
7.4035696269
 30
0.0
 10
5.7742276493
 20
7.3999019625
 30
0.0
 10
5.7934730293
 20
7.396300614
 30
0.0
 10
5.8026089148
 20
7.394301193
 30
0.0
 10
5.8049999374
 20
7.3937582501
 30
0.0
  0
SPLINE
  5
2E9
100
AcDbEntity
  8
0
100
AcDbSpline
 62
7
  6
CONTINUOUS
 70
0
 71
3
 72
11
 73
7
 74
0
 42
0.0000001
 43
0.0000001
 44
0.0000000001
 40
0.0
 40
0.0
 40
0.0
 40
0.0
 40
0.2512523058
 40
0.5015370588
 40
0.7510095016
 40
1.0
 40
1.0
 40
1.0
 40
1.0
 10
4.2853012076
 20
7.2666820878
 30
0.0
 10
4.2787656437
 20
7.2875120499
 30
0.0
 10
4.2668257467
 20
7.3294528911
 30
0.0
 10
4.2530700109
 20
7.3932969232
 30
0.0
 10
4.2442699229
 20
7.4578269664
 30
0.0
 10
4.2421104086
 20
7.5011509154
 30
0.0
 10
4.2419999374
 20
7.5227852974
 30
0.0
  0
SPLINE
  5
2EA
100
AcDbEntity
  8
0
100
AcDbSpline
 62
7
  6
CONTINUOUS
 70
0
 71
3
 72
11
 73
7
 74
0
 42
0.0000001
 43
0.0000001
 44
0.0000000001
 40
0.0
 40
0.0
 40
0.0
 40
0.0
 40
0.2489905113
 40
0.4984629629
 40
0.7487477053
 40
1.0
 40
1.0
 40
1.0
 40
1.0
 10
4.2419999374
 20
7.5302477031
 30
0.0
 10
4.2421104086
 20
7.5518820862
 30
0.0
 10
4.2442699232
 20
7.5952060371
 30
0.0
 10
4.2530700116
 20
7.6597360812
 30
0.0
 10
4.2668257478
 20
7.7235801121
 30
0.0
 10
4.278765644
 20
7.7655209515
 30
0.0
 10
4.2853012076
 20
7.7863509127
 30
0.0
  0
SPLINE
  5
2EB
100
AcDbEntity
  8
0
100
AcDbSpline
 62
7
  6
CONTINUOUS
 70
0
 71
3
 72
29
 73
25
 74
0
 42
0.0000001
 43
0.0000001
 44
0.0000000001
 40
0.0
 40
0.0
 40
0.0
 40
0.0
 40
0.0634411291
 40
0.1266003949
 40
0.1894608599
 40
0.2520185444
 40
0.3142999343
 40
0.3453505632
 40
0.3763493512
 40
0.4073036129
 40
0.4382220862
 40
0.4691167381
 40
0.5000000505
 40
0.5308833642
 40
0.5617780166
 40
0.5926964808
 40
0.6236507323
 40
0.654649517
 40
0.6857001397
 40
0.7479815067
 40
0.8105391747
 40
0.873399612
 40
0.9365588701
 40
1.0
 40
1.0
 40
1.0
 40
1.0
 10
4.7364999374
 20
7.2666820878
 30
0.0
 10
4.7420194164
 20
7.2768385597
 30
0.0
 10
4.7526490342
 20
7.2973192982
 30
0.0
 10
4.7671932863
 20
7.3286401617
 30
0.0
 10
4.780094774
 20
7.360503816
 30
0.0
 10
4.7911177554
 20
7.3928996601
 30
0.0
 10
4.7985468289
 20
7.4203391682
 30
0.0
 10
4.8033148557
 20
7.4424897801
 30
0.0
 10
4.8062738462
 20
7.4591793501
 30
0.0
 10
4.8086011299
 20
7.4759443561
 30
0.0
 10
4.8102798296
 20
7.4927678942
 30
0.0
 10
4.8112903698
 20
7.5096319665
 30
0.0
 10
4.8116266124
 20
7.5265165282
 30
0.0
 10
4.8112903549
 20
7.5434010893
 30
0.0
 10
4.8102798335
 20
7.5602651614
 30
0.0
 10
4.8086011305
 20
7.5770886961
 30
0.0
 10
4.8062738338
 20
7.593853696
 30
0.0
 10
4.8033148458
 20
7.6105432626
 30
0.0
 10
4.7985468269
 20
7.6326938704
 30
0.0
 10
4.7911177419
 20
7.6601333668
 30
0.0
 10
4.7800947698
 20
7.6925292008
 30
0.0
 10
4.7671932826
 20
7.7243928453
 30
0.0
 10
4.752649033
 20
7.7557137029
 30
0.0
 10
4.7420194165
 20
7.7761944407
 30
0.0
 10
4.7364999374
 20
7.7863509127
 30
0.0
  0
SPLINE
  5
2EC
100
AcDbEntity
  8
0
100
AcDbSpline
 62
7
  6
CONTINUOUS
 70
0
 71
3
 72
11
 73
7
 74
0
 42
0.0000001
 43
0.0000001
 44
0.0000000001
 40
0.0
 40
0.0
 40
0.0
 40
0.0
 40
0.2512523058
 40
0.5015370588
 40
0.7510095016
 40
1.0
 40
1.0
 40
1.0
 40
1.0
 10
4.2853012076
 20
7.8291655876
 30
0.0
 10
4.2787656437
 20
7.8499955497
 30
0.0
 10
4.2668257467
 20
7.8919363908
 30
0.0
 10
4.2530700109
 20
7.955780423
 30
0.0
 10
4.2442699229
 20
8.0203104662
 30
0.0
 10
4.2421104086
 20
8.0636344151
 30
0.0
 10
4.2419999374
 20
8.0852687971
 30
0.0
  0
SPLINE
  5
2ED
100
AcDbEntity
  8
0
100
AcDbSpline
 62
7
  6
CONTINUOUS
 70
0
 71
3
 72
11
 73
7
 74
0
 42
0.0000001
 43
0.0000001
 44
0.0000000001
 40
0.0
 40
0.0
 40
0.0
 40
0.0
 40
0.2489905113
 40
0.4984629629
 40
0.7487477053
 40
1.0
 40
1.0
 40
1.0
 40
1.0
 10
4.2419999374
 20
8.0927312029
 30
0.0
 10
4.2421104086
 20
8.114365586
 30
0.0
 10
4.2442699232
 20
8.1576895368
 30
0.0
 10
4.2530700116
 20
8.222219581
 30
0.0
 10
4.2668257478
 20
8.2860636119
 30
0.0
 10
4.278765644
 20
8.3280044512
 30
0.0
 10
4.2853012076
 20
8.3488344124
 30
0.0
  0
SPLINE
  5
2EE
100
AcDbEntity
  8
0
100
AcDbSpline
 62
7
  6
CONTINUOUS
 70
0
 71
3
 72
29
 73
25
 74
0
 42
0.0000001
 43
0.0000001
 44
0.0000000001
 40
0.0
 40
0.0
 40
0.0
 40
0.0
 40
0.0634411291
 40
0.1266003949
 40
0.1894608599
 40
0.2520185444
 40
0.3142999343
 40
0.3453505632
 40
0.3763493512
 40
0.4073036129
 40
0.4382220862
 40
0.4691167381
 40
0.5000000505
 40
0.5308833642
 40
0.5617780166
 40
0.5926964808
 40
0.6236507323
 40
0.654649517
 40
0.6857001397
 40
0.7479815067
 40
0.8105391747
 40
0.873399612
 40
0.9365588701
 40
1.0
 40
1.0
 40
1.0
 40
1.0
 10
4.7364999374
 20
7.8291655876
 30
0.0
 10
4.7420194164
 20
7.8393220595
 30
0.0
 10
4.7526490342
 20
7.8598027979
 30
0.0
 10
4.7671932863
 20
7.8911236615
 30
0.0
 10
4.780094774
 20
7.9229873157
 30
0.0
 10
4.7911177554
 20
7.9553831598
 30
0.0
 10
4.7985468289
 20
7.9828226679
 30
0.0
 10
4.8033148557
 20
8.0049732799
 30
0.0
 10
4.8062738462
 20
8.0216628499
 30
0.0
 10
4.8086011299
 20
8.0384278558
 30
0.0
 10
4.8102798296
 20
8.0552513939
 30
0.0
 10
4.8112903698
 20
8.0721154663
 30
0.0
 10
4.8116266124
 20
8.089000028
 30
0.0
 10
4.8112903549
 20
8.1058845891
 30
0.0
 10
4.8102798335
 20
8.1227486612
 30
0.0
 10
4.8086011305
 20
8.1395721958
 30
0.0
 10
4.8062738338
 20
8.1563371957
 30
0.0
 10
4.8033148458
 20
8.1730267623
 30
0.0
 10
4.7985468269
 20
8.1951773701
 30
0.0
 10
4.7911177419
 20
8.2226168666
 30
0.0
 10
4.7800947698
 20
8.2550127006
 30
0.0
 10
4.7671932826
 20
8.2868763451
 30
0.0
 10
4.752649033
 20
8.3181972027
 30
0.0
 10
4.7420194165
 20
8.3386779404
 30
0.0
 10
4.7364999374
 20
8.3488344124
 30
0.0
  0
ELLIPSE
  5
2EF
100
AcDbEntity
  8
0
100
AcDbEllipse
 62
7
  6
CONTINUOUS
 10
6.5319999374
 20
7.3907582501
 30
0.0
 11
0.035
 21
-0.0
 31
0.0
 40
1.0
 41
-3.1415926536
 42
0.0
  0
ELLIPSE
  5
2F0
100
AcDbEntity
  8
0
100
AcDbEllipse
 62
7
  6
CONTINUOUS
 10
6.5319999374
 20
8.2247582501
 30
0.0
 11
0.035
 21
-0.0
 31
0.0
 40
1.0
 41
0.0
 42
3.1415926536
  0
ELLIPSE
  5
2F1
100
AcDbEntity
  8
0
100
AcDbEllipse
 62
7
  6
CONTINUOUS
 10
5.1679999374
 20
7.3147582501
 30
0.0
 11
-0.0
 21
0.035
 31
0.0
 40
1.0
 41
-4.7123889804
 42
-1.5707963268
  0
ELLIPSE
  5
2F2
100
AcDbEntity
  8
0
100
AcDbEllipse
 62
7
  6
CONTINUOUS
 10
5.1679999374
 20
8.3007582501
 30
0.0
 11
0.035
 21
0.0
 31
0.0
 40
1.0
 41
6.2831853072
 42
9.4247779608
  0
ENDSEC
  0
SECTION
  2
OBJECTS
  0
DICTIONARY
  5
C
100
AcDbDictionary
280
0
281
1
  3
ACAD_GROUP
350
D
  3
ACAD_MLINESTYLE
350
17
  3
ACAD_LAYOUT
350
1A
  3
ACAD_PLOTSETTINGS
350
19
  3
ACAD_PLOTSTYLENAME
350
E
  0
DICTIONARY
  5
D
102
{ACAD_REACTORS
330
C
102
}
100
AcDbDictionary
280
0
281
1
  0
ACDBDICTIONARYWDFLT
  5
E
102
{ACAD_REACTORS
330
C
102
}
100
AcDbDictionary
281
1
  3
Normal
350
F
100
AcDbDictionaryWithDefault
340
F
  0
DICTIONARY
  5
17
102
{ACAD_REACTORS
330
C
102
}
100
AcDbDictionary
280
0
281
1
  3
Standard
350
18
  0
DICTIONARY
  5
19
102
{ACAD_REACTORS
330
C
102
}
100
AcDbDictionary
281
1
  0
DICTIONARY
  5
1A
102
{ACAD_REACTORS
330
C
102
}
100
AcDbDictionary
281
1
  3
Model
350
2F3
  3
Layout1
350
2F4
  0
ACDBPLACEHOLDER
  5
F
102
{ACAD_REACTORS
330
E
102
}
  0
MLINESTYLE
  5
18
102
{ACAD_REACTORS
330
17
102
}
100
AcDbMlineStyle
  2
STANDARD
 70
0
  3

 62
256
 51
90.0
 52
90.0
 71
2
 49
0.5
 62
256
  6
BYLAYER
 49
-0.5
 62
256
  6
BYLAYER
  0
LAYOUT
  5
2F3
102
{ACAD_REACTORS
330
1A
102
}
100
AcDbPlotSettings
  1

  2
none_device
  4
ANSI_B_(17.00_x_11.00_Inches)
  6

 40
0.0
 41
0.0
 42
0.0
 43
0.0
 44
431.8
 45
279.4
 46
0.0
 47
0.0
 48
0.0
 49
0.0
140
0.0
141
0.0
142
1.0
143
1.0
 70
1024
 72
0
 73
0
 74
0
  7

 75
0
147
1.0
148
0.0
149
0.0
100
AcDbLayout
  1
Model
 70
0
 71
0
 10
0.0
 20
0.0
 11
17.0
 21
11.0
 12
0.0
 22
0.0
 32
0.0
 14
0.0
 24
0.0
 34
0.0
 15
0.0
 25
0.0
 35
0.0
146
0.0
 13
0.0
 23
0.0
 33
0.0
 16
1.0
 26
0.0
 36
0.0
 17
0.0
 27
1.0
 37
0.0
 76
0
330
23B
345
0
346
0
  0
LAYOUT
  5
2F4
102
{ACAD_REACTORS
330
1A
102
}
100
AcDbPlotSettings
  1

  2
none_device
  4
ANSI_B_(17.00_x_11.00_Inches)
  6

 40
0.0
 41
0.0
 42
0.0
 43
0.0
 44
431.8
 45
279.4
 46
0.0
 47
0.0
 48
0.0
 49
0.0
140
0.0
141
0.0
142
1.0
143
1.0
 70
0
 72
0
 73
0
 74
0
  7

 75
0
147
1.0
148
0.0
149
0.0
100
AcDbLayout
  1
Layout1
 70
0
 71
1
 10
0.0
 20
0.0
 11
17.0
 21
11.0
 12
0.0
 22
0.0
 32
0.0
 14
0.0
 24
0.0
 34
0.0
 15
0.0
 25
0.0
 35
0.0
146
0.0
 13
0.0
 23
0.0
 33
0.0
 16
1.0
 26
0.0
 36
0.0
 17
0.0
 27
1.0
 37
0.0
 76
0
330
23C
345
0
346
0
  0
ENDSEC
  0
EOF
