999
DXF file: FDBALAN.dxf
999
Pro/ENGINEER 2021072 by Parametric Technology Corporation
  0
SECTION
  2
HEADER
  9
$ACADVER
  1
AC1032
  9
$DWGCODEPAGE
  3
ANSI_1252
  9
$EXTMAX
 10
17.0
 20
11.0
 30
0.0
  9
$EXTMIN
 10
0.0
 20
0.0
 30
0.0
  9
$LIMMIN
 10
0.0
 20
0.0
  9
$LIMMAX
 10
17.0
 20
11.0
  9
$VIEWCTR
 10
8.5
 20
5.5
  9
$VIEWSIZE
 40
11.0
  9
$CLAYER
  8
0
  9
$LTSCALE
 40
0.935
  9
$CELTYPE
  6
BYLAYER
  9
$DIMSCALE
 40
1.0
  9
$DIMASZ
 40
0.1875
  9
$DIMEXO
 40
0.0625
  9
$DIMDLI
 40
0.646
  9
$DIMEXE
 40
0.125
  9
$DIMCEN
 40
0.153
  9
$DIMLFAC
 40
1.0
  9
$DIMBLK
  1
_FILLED
  9
$DIMALT
 70
0
  9
$DIMALTF
 40
25.4
  9
$DIMTXT
 40
0.125
  9
$DIMTOL
 70
0
  9
$DIMLIM
 70
0
  9
$DIMTFAC
 40
1.0
  9
$DIMGAP
 40
0.09
  9
$DIMDSEP
 70
46
  9
$AUNITS
 70
0
  9
$PDMODE
 70
3
  9
$PDSIZE
 40
0.3125
  9
$HANDSEED
  5
32F
  9
$TILEMODE
 70
1
  9
$MEASUREMENT
 70
0
  9
$INSUNITS
 70
1
  0
ENDSEC
  0
SECTION
  2
CLASSES
  0
CLASS
  1
ACDBDICTIONARYWDFLT
  2
AcDbDictionaryWithDefault
  3
AutoCAD 2000
 90
0
 91
1
280
0
281
0
  0
CLASS
  1
ACDBPLACEHOLDER
  2
AcDbPlaceHolder
  3
AutoCAD 2000
 90
0
 91
1
280
0
281
0
  0
CLASS
  1
LAYOUT
  2
AcDbLayout
  3
AutoCAD 2000
 90
0
 91
0
280
0
281
0
  0
ENDSEC
  0
SECTION
  2
TABLES
  0
TABLE
  2
VPORT
  5
8
100
AcDbSymbolTable
 70
2
  0
VPORT
  5
1F4
100
AcDbSymbolTableRecord
100
AcDbViewportTableRecord
  2
*ACTIVE
 70
0
 10
0.0
 20
0.0
 11
1.0
 21
1.0
 12
8.5
 22
5.5
 13
0.0
 23
0.0
 14
1.0
 24
1.0
 15
0.0
 25
0.0
 16
0.0
 26
0.0
 36
1.0
 17
0.0
 27
0.0
 37
0.0
 40
11.0
 41
1.5454545455
 42
50.0
 43
0.0
 44
0.0
 50
0.0
 51
0.0
 71
0
 72
100
 73
1
 74
1
 75
0
 76
0
 77
0
 78
0
  0
ENDTAB
  0
TABLE
  2
LTYPE
  5
5
100
AcDbSymbolTable
 70
6
  0
LTYPE
  5
14
100
AcDbSymbolTableRecord
100
AcDbLinetypeTableRecord
  2
BYBLOCK
 70
0
  3

 72
65
 73
0
 40
0.0
  0
LTYPE
  5
15
100
AcDbSymbolTableRecord
100
AcDbLinetypeTableRecord
  2
BYLAYER
 70
0
  3

 72
65
 73
0
 40
0.0
  0
LTYPE
  5
16
100
AcDbSymbolTableRecord
100
AcDbLinetypeTableRecord
  2
CONTINUOUS
 70
64
  3
Solid line
 72
65
 73
0
 40
0.0
  0
LTYPE
  5
1F5
100
AcDbSymbolTableRecord
100
AcDbLinetypeTableRecord
  2
CENTER
 70
64
  3
____ _ ____ _ ____ _ ____ _ ____ _ ____ _ ____
 72
65
 73
4
 40
0.6
 49
0.375
 74
0
 49
-0.075
 74
0
 49
0.075
 74
0
 49
-0.075
 74
0
  0
LTYPE
  5
1F6
100
AcDbSymbolTableRecord
100
AcDbLinetypeTableRecord
  2
HIDDEN
 70
64
  3
- - - - - - - - - - - - - - - - - - - -
 72
65
 73
2
 40
0.2
 49
0.1
 74
0
 49
-0.1
 74
0
  0
LTYPE
  5
1F7
100
AcDbSymbolTableRecord
100
AcDbLinetypeTableRecord
  2
PHANTOM
 70
64
  3
_____ _ _ _____ _ _ _____ _ _ _____
 72
65
 73
6
 40
0.8
 49
0.45
 74
0
 49
-0.05
 74
0
 49
0.1
 74
0
 49
-0.05
 74
0
 49
0.1
 74
0
 49
-0.05
 74
0
  0
LTYPE
  5
1F8
100
AcDbSymbolTableRecord
100
AcDbLinetypeTableRecord
  2
DOT
 70
64
  3
. . . . . . . . . . . . . . . . . . . .
 72
65
 73
2
 40
0.2
 49
0.1
 74
0
 49
-0.1
 74
0
  0
LTYPE
  5
1F9
100
AcDbSymbolTableRecord
100
AcDbLinetypeTableRecord
  2
DASHED
 70
64
  3
- - - - - - - - - - - - - - - - - - - -
 72
65
 73
2
 40
0.2
 49
0.1
 74
0
 49
-0.1
 74
0
  0
ENDTAB
  0
TABLE
  2
LAYER
  5
2
100
AcDbSymbolTable
 70
36
  0
LAYER
  5
10
100
AcDbSymbolTableRecord
100
AcDbLayerTableRecord
  2
0
 70
0
 62
7
  6
CONTINUOUS
370
-3
390
F
  0
LAYER
  5
1FA
100
AcDbSymbolTableRecord
100
AcDbLayerTableRecord
  2
DEFAULT_1
 70
0
 62
7
  6
CENTER
370
-3
390
F
  0
LAYER
  5
1FB
100
AcDbSymbolTableRecord
100
AcDbLayerTableRecord
  2
DEFAULT_2
 70
0
 62
8
  6
HIDDEN
370
-3
390
F
  0
LAYER
  5
1FC
100
AcDbSymbolTableRecord
100
AcDbLayerTableRecord
  2
DEFAULT_3
 70
0
 62
7
  6
PHANTOM
370
-3
390
F
  0
LAYER
  5
1FD
100
AcDbSymbolTableRecord
100
AcDbLayerTableRecord
  2
01_ALL_DTM_PLN
 70
0
 62
7
  6
CONTINUOUS
370
-3
390
F
  0
LAYER
  5
1FE
100
AcDbSymbolTableRecord
100
AcDbLayerTableRecord
  2
01__ASM_ALL_DTM_PLN
 70
0
 62
7
  6
CONTINUOUS
370
-3
390
F
  0
LAYER
  5
1FF
100
AcDbSymbolTableRecord
100
AcDbLayerTableRecord
  2
01__ASM_DEF_DTM_PLN
 70
0
 62
7
  6
CONTINUOUS
370
-3
390
F
  0
LAYER
  5
200
100
AcDbSymbolTableRecord
100
AcDbLayerTableRecord
  2
01___PRT_ALL_DTM_PLN
 70
0
 62
7
  6
CONTINUOUS
370
-3
390
F
  0
LAYER
  5
201
100
AcDbSymbolTableRecord
100
AcDbLayerTableRecord
  2
01___PRT_DEF_DTM_PLN
 70
0
 62
7
  6
CONTINUOUS
370
-3
390
F
  0
LAYER
  5
202
100
AcDbSymbolTableRecord
100
AcDbLayerTableRecord
  2
02_ALL_AXES
 70
0
 62
7
  6
CONTINUOUS
370
-3
390
F
  0
LAYER
  5
203
100
AcDbSymbolTableRecord
100
AcDbLayerTableRecord
  2
02__ASM_ALL_AXES
 70
0
 62
7
  6
CONTINUOUS
370
-3
390
F
  0
LAYER
  5
204
100
AcDbSymbolTableRecord
100
AcDbLayerTableRecord
  2
02___PRT_ALL_AXES
 70
0
 62
7
  6
CONTINUOUS
370
-3
390
F
  0
LAYER
  5
205
100
AcDbSymbolTableRecord
100
AcDbLayerTableRecord
  2
03_ALL_CURVES
 70
0
 62
7
  6
CONTINUOUS
370
-3
390
F
  0
LAYER
  5
206
100
AcDbSymbolTableRecord
100
AcDbLayerTableRecord
  2
03__ASM_ALL_CURVES
 70
0
 62
7
  6
CONTINUOUS
370
-3
390
F
  0
LAYER
  5
207
100
AcDbSymbolTableRecord
100
AcDbLayerTableRecord
  2
03___PRT_ALL_CURVES
 70
0
 62
7
  6
CONTINUOUS
370
-3
390
F
  0
LAYER
  5
208
100
AcDbSymbolTableRecord
100
AcDbLayerTableRecord
  2
04_ALL_DTM_PNT
 70
0
 62
7
  6
CONTINUOUS
370
-3
390
F
  0
LAYER
  5
209
100
AcDbSymbolTableRecord
100
AcDbLayerTableRecord
  2
04__ASM_ALL_DTM_PNT
 70
0
 62
7
  6
CONTINUOUS
370
-3
390
F
  0
LAYER
  5
20A
100
AcDbSymbolTableRecord
100
AcDbLayerTableRecord
  2
04___PRT_ALL_DTM_PNT
 70
0
 62
7
  6
CONTINUOUS
370
-3
390
F
  0
LAYER
  5
20B
100
AcDbSymbolTableRecord
100
AcDbLayerTableRecord
  2
05_ALL_DTM_CSYS
 70
0
 62
7
  6
CONTINUOUS
370
-3
390
F
  0
LAYER
  5
20C
100
AcDbSymbolTableRecord
100
AcDbLayerTableRecord
  2
05__ASM_ALL_DTM_CSYS
 70
0
 62
7
  6
CONTINUOUS
370
-3
390
F
  0
LAYER
  5
20D
100
AcDbSymbolTableRecord
100
AcDbLayerTableRecord
  2
05__ASM_DEF_DTM_CSYS
 70
0
 62
7
  6
CONTINUOUS
370
-3
390
F
  0
LAYER
  5
20E
100
AcDbSymbolTableRecord
100
AcDbLayerTableRecord
  2
05___PRT_ALL_DTM_CSYS
 70
0
 62
7
  6
CONTINUOUS
370
-3
390
F
  0
LAYER
  5
20F
100
AcDbSymbolTableRecord
100
AcDbLayerTableRecord
  2
05___PRT_DEF_DTM_CSYS
 70
0
 62
7
  6
CONTINUOUS
370
-3
390
F
  0
LAYER
  5
210
100
AcDbSymbolTableRecord
100
AcDbLayerTableRecord
  2
06_ALL_SURFS
 70
0
 62
7
  6
CONTINUOUS
370
-3
390
F
  0
LAYER
  5
211
100
AcDbSymbolTableRecord
100
AcDbLayerTableRecord
  2
06__ASM_ALL_SURFS
 70
0
 62
7
  6
CONTINUOUS
370
-3
390
F
  0
LAYER
  5
212
100
AcDbSymbolTableRecord
100
AcDbLayerTableRecord
  2
06___PRT_ALL_SURFS
 70
0
 62
7
  6
CONTINUOUS
370
-3
390
F
  0
LAYER
  5
213
100
AcDbSymbolTableRecord
100
AcDbLayerTableRecord
  2
07__ASM_ALL_SKELETONS
 70
0
 62
7
  6
CONTINUOUS
370
-3
390
F
  0
LAYER
  5
214
100
AcDbSymbolTableRecord
100
AcDbLayerTableRecord
  2
125-104_HEX_FEATURES
 70
0
 62
7
  6
CONTINUOUS
370
-3
390
F
  0
LAYER
  5
215
100
AcDbSymbolTableRecord
100
AcDbLayerTableRecord
  2
125-104_REF_GEOMETRY
 70
0
 62
7
  6
CONTINUOUS
370
-3
390
F
  0
LAYER
  5
216
100
AcDbSymbolTableRecord
100
AcDbLayerTableRecord
  2
125-105_HEX_FEATURES
 70
0
 62
7
  6
CONTINUOUS
370
-3
390
F
  0
LAYER
  5
217
100
AcDbSymbolTableRecord
100
AcDbLayerTableRecord
  2
125-105_REF_GEOMETRY
 70
0
 62
7
  6
CONTINUOUS
370
-3
390
F
  0
LAYER
  5
218
100
AcDbSymbolTableRecord
100
AcDbLayerTableRecord
  2
125-132_HEX_FEATURES
 70
0
 62
7
  6
CONTINUOUS
370
-3
390
F
  0
LAYER
  5
219
100
AcDbSymbolTableRecord
100
AcDbLayerTableRecord
  2
125-132_REF_GEOMETRY
 70
0
 62
7
  6
CONTINUOUS
370
-3
390
F
  0
LAYER
  5
21A
100
AcDbSymbolTableRecord
100
AcDbLayerTableRecord
  2
125-150_HEX_FEATURES
 70
0
 62
7
  6
CONTINUOUS
370
-3
390
F
  0
LAYER
  5
21B
100
AcDbSymbolTableRecord
100
AcDbLayerTableRecord
  2
125-150_REF_GEOMETRY
 70
0
 62
7
  6
CONTINUOUS
370
-3
390
F
  0
LAYER
  5
21C
100
AcDbSymbolTableRecord
100
AcDbLayerTableRecord
  2
125-158_HEX_FEATURES
 70
0
 62
7
  6
CONTINUOUS
370
-3
390
F
  0
LAYER
  5
21D
100
AcDbSymbolTableRecord
100
AcDbLayerTableRecord
  2
125-158_REF_GEOMETRY
 70
0
 62
7
  6
CONTINUOUS
370
-3
390
F
  0
LAYER
  5
21E
100
AcDbSymbolTableRecord
100
AcDbLayerTableRecord
  2
126-003_HEX_FEATURES
 70
0
 62
7
  6
CONTINUOUS
370
-3
390
F
  0
LAYER
  5
21F
100
AcDbSymbolTableRecord
100
AcDbLayerTableRecord
  2
126-003_REF_GEOMETRY
 70
0
 62
7
  6
CONTINUOUS
370
-3
390
F
  0
LAYER
  5
220
100
AcDbSymbolTableRecord
100
AcDbLayerTableRecord
  2
126-005_HEX_FEATURES
 70
0
 62
7
  6
CONTINUOUS
370
-3
390
F
  0
LAYER
  5
221
100
AcDbSymbolTableRecord
100
AcDbLayerTableRecord
  2
126-005_REF_GEOMETRY
 70
0
 62
7
  6
CONTINUOUS
370
-3
390
F
  0
LAYER
  5
222
100
AcDbSymbolTableRecord
100
AcDbLayerTableRecord
  2
126-007_HEX_FEATURES
 70
0
 62
7
  6
CONTINUOUS
370
-3
390
F
  0
LAYER
  5
223
100
AcDbSymbolTableRecord
100
AcDbLayerTableRecord
  2
126-007_REF_GEOMETRY
 70
0
 62
7
  6
CONTINUOUS
370
-3
390
F
  0
LAYER
  5
224
100
AcDbSymbolTableRecord
100
AcDbLayerTableRecord
  2
126-200_HEX_FEATURES
 70
0
 62
7
  6
CONTINUOUS
370
-3
390
F
  0
LAYER
  5
225
100
AcDbSymbolTableRecord
100
AcDbLayerTableRecord
  2
126-200_REF_GEOMETRY
 70
0
 62
7
  6
CONTINUOUS
370
-3
390
F
  0
LAYER
  5
226
100
AcDbSymbolTableRecord
100
AcDbLayerTableRecord
  2
126-202_HEX_FEATURES
 70
0
 62
7
  6
CONTINUOUS
370
-3
390
F
  0
LAYER
  5
227
100
AcDbSymbolTableRecord
100
AcDbLayerTableRecord
  2
126-202_REF_GEOMETRY
 70
0
 62
7
  6
CONTINUOUS
370
-3
390
F
  0
LAYER
  5
228
100
AcDbSymbolTableRecord
100
AcDbLayerTableRecord
  2
126-220_HEX_FEATURES
 70
0
 62
7
  6
CONTINUOUS
370
-3
390
F
  0
LAYER
  5
229
100
AcDbSymbolTableRecord
100
AcDbLayerTableRecord
  2
126-220_REF_GEOMETRY
 70
0
 62
7
  6
CONTINUOUS
370
-3
390
F
  0
LAYER
  5
22A
100
AcDbSymbolTableRecord
100
AcDbLayerTableRecord
  2
COPY_GEO_FET
 70
0
 62
7
  6
CONTINUOUS
370
-3
390
F
  0
LAYER
  5
22B
100
AcDbSymbolTableRecord
100
AcDbLayerTableRecord
  2
COSMETIC
 70
0
 62
7
  6
CONTINUOUS
370
-3
390
F
  0
LAYER
  5
22C
100
AcDbSymbolTableRecord
100
AcDbLayerTableRecord
  2
CURVES
 70
0
 62
7
  6
CONTINUOUS
370
-3
390
F
  0
LAYER
  5
22D
100
AcDbSymbolTableRecord
100
AcDbLayerTableRecord
  2
CUT_REF_SURF
 70
0
 62
7
  6
CONTINUOUS
370
-3
390
F
  0
LAYER
  5
22E
100
AcDbSymbolTableRecord
100
AcDbLayerTableRecord
  2
DATUM
 70
0
 62
7
  6
CONTINUOUS
370
-3
390
F
  0
LAYER
  5
22F
100
AcDbSymbolTableRecord
100
AcDbLayerTableRecord
  2
DATUMCURVES
 70
0
 62
7
  6
CONTINUOUS
370
-3
390
F
  0
LAYER
  5
230
100
AcDbSymbolTableRecord
100
AcDbLayerTableRecord
  2
DATUM_PLANES
 70
0
 62
7
  6
CONTINUOUS
370
-3
390
F
  0
LAYER
  5
231
100
AcDbSymbolTableRecord
100
AcDbLayerTableRecord
  2
DIMENSIONS
 70
0
 62
7
  6
CONTINUOUS
370
-3
390
F
  0
LAYER
  5
232
100
AcDbSymbolTableRecord
100
AcDbLayerTableRecord
  2
DMT
 70
0
 62
7
  6
CONTINUOUS
370
-3
390
F
  0
LAYER
  5
233
100
AcDbSymbolTableRecord
100
AcDbLayerTableRecord
  2
DP_SERATION
 70
0
 62
7
  6
CONTINUOUS
370
-3
390
F
  0
LAYER
  5
234
100
AcDbSymbolTableRecord
100
AcDbLayerTableRecord
  2
DRAWINGNOTES
 70
0
 62
7
  6
CONTINUOUS
370
-3
390
F
  0
LAYER
  5
235
100
AcDbSymbolTableRecord
100
AcDbLayerTableRecord
  2
DTM
 70
0
 62
7
  6
CONTINUOUS
370
-3
390
F
  0
LAYER
  5
236
100
AcDbSymbolTableRecord
100
AcDbLayerTableRecord
  2
DTM230
 70
0
 62
7
  6
CONTINUOUS
370
-3
390
F
  0
LAYER
  5
237
100
AcDbSymbolTableRecord
100
AcDbLayerTableRecord
  2
DTM_500001
 70
0
 62
7
  6
CONTINUOUS
370
-3
390
F
  0
LAYER
  5
238
100
AcDbSymbolTableRecord
100
AcDbLayerTableRecord
  2
DTM_500002
 70
0
 62
7
  6
CONTINUOUS
370
-3
390
F
  0
LAYER
  5
239
100
AcDbSymbolTableRecord
100
AcDbLayerTableRecord
  2
DTM_515002
 70
0
 62
7
  6
CONTINUOUS
370
-3
390
F
  0
LAYER
  5
23A
100
AcDbSymbolTableRecord
100
AcDbLayerTableRecord
  2
DTM_SPRING_RH
 70
0
 62
7
  6
CONTINUOUS
370
-3
390
F
  0
LAYER
  5
23B
100
AcDbSymbolTableRecord
100
AcDbLayerTableRecord
  2
DTM_SP_RH_CONSTR
 70
0
 62
7
  6
CONTINUOUS
370
-3
390
F
  0
LAYER
  5
23C
100
AcDbSymbolTableRecord
100
AcDbLayerTableRecord
  2
GEOMETRICTOLERANCES
 70
0
 62
7
  6
CONTINUOUS
370
-3
390
F
  0
LAYER
  5
23D
100
AcDbSymbolTableRecord
100
AcDbLayerTableRecord
  2
HIDDEN
 70
0
 62
7
  6
CONTINUOUS
370
-3
390
F
  0
LAYER
  5
23E
100
AcDbSymbolTableRecord
100
AcDbLayerTableRecord
  2
HIDDEN_DRW
 70
0
 62
7
  6
CONTINUOUS
370
-3
390
F
  0
LAYER
  5
23F
100
AcDbSymbolTableRecord
100
AcDbLayerTableRecord
  2
LAY0001
 70
0
 62
7
  6
CONTINUOUS
370
-3
390
F
  0
LAYER
  5
240
100
AcDbSymbolTableRecord
100
AcDbLayerTableRecord
  2
PARAMETERDIMENSIONS
 70
0
 62
7
  6
CONTINUOUS
370
-3
390
F
  0
LAYER
  5
241
100
AcDbSymbolTableRecord
100
AcDbLayerTableRecord
  2
PLANE
 70
0
 62
7
  6
CONTINUOUS
370
-3
390
F
  0
LAYER
  5
242
100
AcDbSymbolTableRecord
100
AcDbLayerTableRecord
  2
TEXT
 70
0
 62
7
  6
CONTINUOUS
370
-3
390
F
  0
LAYER
  5
243
100
AcDbSymbolTableRecord
100
AcDbLayerTableRecord
  2
THREAD
 70
0
 62
7
  6
CONTINUOUS
370
-3
390
F
  0
LAYER
  5
244
100
AcDbSymbolTableRecord
100
AcDbLayerTableRecord
  2
WIRE_GRV_RAD_DRW_REF
 70
0
 62
7
  6
CONTINUOUS
370
-3
390
F
  0
LAYER
  5
245
100
AcDbSymbolTableRecord
100
AcDbLayerTableRecord
  2
WIRE_SLOT_DRW_REF
 70
0
 62
7
  6
CONTINUOUS
370
-3
390
F
  0
LAYER
  5
246
100
AcDbSymbolTableRecord
100
AcDbLayerTableRecord
  2
XSEC_DATUMS
 70
0
 62
7
  6
CONTINUOUS
370
-3
390
F
  0
ENDTAB
  0
TABLE
  2
STYLE
  5
3
100
AcDbSymbolTable
 70
1
  0
STYLE
  5
11
100
AcDbSymbolTableRecord
100
AcDbTextStyleTableRecord
  2
STANDARD
 70
0
 40
0.0
 41
0.8
 50
0.0
 71
0
 42
0.2
  3
txt
  4

  0
STYLE
  5
247
100
AcDbSymbolTableRecord
100
AcDbTextStyleTableRecord
  2
TEXTSTYLE_1
 70
0
 40
0.0
 41
0.8
 50
0.0
 71
0
 42
0.2
  3
gdt
  4

  0
ENDTAB
  0
TABLE
  2
VIEW
  5
6
100
AcDbSymbolTable
 70
0
  0
ENDTAB
  0
TABLE
  2
UCS
  5
7
100
AcDbSymbolTable
 70
0
  0
ENDTAB
  0
TABLE
  2
APPID
  5
9
100
AcDbSymbolTable
 70
1
  0
APPID
  5
248
100
AcDbSymbolTableRecord
100
AcDbRegAppTableRecord
  2
ACAD
 70
0
  0
ENDTAB
  0
TABLE
  2
BLOCK_RECORD
  5
1
100
AcDbSymbolTable
 70
0
  0
BLOCK_RECORD
  5
249
100
AcDbSymbolTableRecord
100
AcDbBlockTableRecord
  2
*Model_Space
  0
BLOCK_RECORD
  5
24A
100
AcDbSymbolTableRecord
100
AcDbBlockTableRecord
  2
*Paper_Space
  0
BLOCK_RECORD
  5
24B
100
AcDbSymbolTableRecord
100
AcDbBlockTableRecord
  2
_FILLED
  0
BLOCK_RECORD
  5
24C
100
AcDbSymbolTableRecord
100
AcDbBlockTableRecord
  2
*D0
  0
ENDTAB
  0
TABLE
  2
DIMSTYLE
  5
A
100
AcDbSymbolTable
 70
1
100
AcDbDimStyleTable
 71
0
  0
DIMSTYLE
105
24D
100
AcDbSymbolTableRecord
100
AcDbDimStyleTableRecord
  2
STANDARD
 70
0
  3

  4

 40
1.0
 41
0.1875
 42
0.0625
 43
0.38
 44
0.125
 45
0.0
 46
0.0
 47
0.001
 48
0.001
140
0.125
141
0.09
142
0.0
143
25.4
144
1.0
145
0.0
146
1.0
147
0.09
 71
0
 72
0
 73
1
 74
1
 75
0
 76
0
 77
0
 78
4
 79
1
170
0
171
2
172
0
173
0
174
0
175
0
176
0
177
0
178
0
270
2
179
3
271
3
272
3
273
2
274
2
275
0
280
0
281
0
282
0
283
1
284
4
285
0
286
0
287
3
288
0
340
11
278
46
341
24B
342
24B
343
24B
344
24B
  0
DIMSTYLE
105
24E
100
AcDbSymbolTableRecord
100
AcDbDimStyleTableRecord
  2
DIMSTYLE_1
 70
0
  3

  4

 40
1.0
 41
0.1875
 42
0.0625
 43
0.38
 44
0.125
 45
0.0
 46
0.0
 47
0.0
 48
0.0
140
0.125
141
0.09
142
0.0
143
25.4
144
1.0
145
0.0
146
1.0
147
0.0625
 71
0
 72
0
 73
1
 74
1
 75
0
 76
0
 77
0
 78
4
 79
1
170
0
171
2
172
0
173
0
174
0
175
0
176
0
177
0
178
0
270
2
179
3
271
2
272
3
273
2
274
2
275
0
280
0
281
0
282
0
283
1
284
4
285
0
286
0
287
3
288
0
340
11
278
46
341
24B
342
24B
343
24B
344
24B
  0
ENDTAB
  0
ENDSEC
  0
SECTION
  2
BLOCKS
  0
BLOCK
  5
20
100
AcDbEntity
  8
0
100
AcDbBlockBegin
  2
*Model_Space
 70
0
 10
0.0
 20
0.0
 30
0.0
  3
*Model_Space
  1

  0
ENDBLK
  5
21
100
AcDbEntity
  8
0
100
AcDbBlockEnd
  0
BLOCK
  5
1C
100
AcDbEntity
  8
0
100
AcDbBlockBegin
  2
*Paper_Space
 70
0
 10
0.0
 20
0.0
 30
0.0
  3
*Paper_Space
  1

  0
ENDBLK
  5
1D
100
AcDbEntity
  8
0
100
AcDbBlockEnd
  0
BLOCK
  5
24F
100
AcDbEntity
  8
0
100
AcDbBlockBegin
  2
_FILLED
 70
64
 10
0.0
 20
0.0
  3
_FILLED
  1

  0
SOLID
  5
250
100
AcDbEntity
  8
0
  6
BYBLOCK
 62
0
100
AcDbTrace
 10
0.0
 20
0.0
 11
-1.0
 21
0.1666666667
 12
-1.0
 22
-0.1666666667
 13
-1.0
 23
-0.1666666667
  0
ENDBLK
  5
251
100
AcDbEntity
  8
0
  6
BYBLOCK
 62
0
100
AcDbBlockEnd
  0
BLOCK
  5
252
100
AcDbEntity
  8
0
100
AcDbBlockBegin
 62
6
  6
CONTINUOUS
  2
*D0
 70
65
 10
0.0
 20
0.0
  3
*D0
  1

  0
MTEXT
  5
253
100
AcDbEntity
  8
0
100
AcDbMText
 62
6
  6
CONTINUOUS
  7
STANDARD
 71
1
 72
1
 10
5.5570606166
 20
7.865
 30
0.0
 11
1.0
 21
0.0
 31
0.0
 73
2
 44
0.9
  1
1.99 in (50,4 mm)
 40
0.125
 41
1.7
  0
LINE
  5
254
100
AcDbEntity
  8
0
100
AcDbLine
 62
6
  6
CONTINUOUS
 10
5.3070606166
 20
7.49
 11
5.3070606166
 21
7.9275
  0
LINE
  5
255
100
AcDbEntity
  8
0
100
AcDbLine
 62
6
  6
CONTINUOUS
 10
3.3199392582
 20
7.0625
 11
3.3199392582
 21
7.9275
  0
LINE
  5
256
100
AcDbEntity
  8
0
100
AcDbLine
 62
6
  6
CONTINUOUS
 10
5.3070606166
 20
7.8025
 11
4.3134999374
 21
7.8025
  0
LINE
  5
257
100
AcDbEntity
  8
0
100
AcDbLine
 62
6
  6
CONTINUOUS
 10
4.3134999374
 20
7.8025
 11
5.4945606166
 21
7.8025
  0
LINE
  5
258
100
AcDbEntity
  8
0
100
AcDbLine
 62
6
  6
CONTINUOUS
 10
3.3199392582
 20
7.8025
 11
4.3134999374
 21
7.8025
  0
INSERT
  5
259
100
AcDbEntity
  8
0
100
AcDbBlockReference
 62
6
  6
CONTINUOUS
  2
_FILLED
 10
5.3070606166
 20
7.8025
 41
0.1875
 42
0.1875
 43
0.1875
  0
INSERT
  5
25A
100
AcDbEntity
  8
0
100
AcDbBlockReference
 62
6
  6
CONTINUOUS
  2
_FILLED
 10
3.3199392582
 20
7.8025
 41
0.1875
 42
0.1875
 43
0.1875
 50
180.0
  0
ENDBLK
  5
25B
100
AcDbEntity
  8
0
  6
BYBLOCK
 62
0
100
AcDbBlockEnd
  0
ENDSEC
  0
SECTION
  2
ENTITIES
  0
DIMENSION
  5
25C
100
AcDbEntity
  8
0
100
AcDbDimension
 62
6
  6
CONTINUOUS
  2
*D0
 10
3.3199392582
 20
7.8025
 11
6.4070606166
 21
7.8025
 70
160
 71
1
 72
2
 41
0.9
 42
1.9871213584
  1
<> in (50,4 mm)
  3
DIMSTYLE_1
100
AcDbAlignedDimension
 13
5.3070606166
 23
7.4275
 14
3.3199392582
 24
7.0
 50
180.0
100
AcDbRotatedDimension
  0
MTEXT
  5
25D
100
AcDbEntity
  8
0
100
AcDbMText
 62
2
  6
CONTINUOUS
  7
STANDARD
 71
1
 72
1
 10
6.9420606166
 20
7.0625
 30
0.0
 11
1.0
 21
0.0
 31
0.0
 73
2
 44
0.6
  1
Port 1
 40
0.125
 41
0.6
  0
MTEXT
  5
25E
100
AcDbEntity
  8
0
100
AcDbMText
 62
2
  6
CONTINUOUS
  7
STANDARD
 71
1
 72
1
 10
6.0260606166
 20
6.5005
 30
0.0
 11
1.0
 21
0.0
 31
0.0
 73
2
 44
0.6
  1
Port 2
 40
0.125
 41
0.6
  0
MTEXT
  5
25F
100
AcDbEntity
  8
0
100
AcDbMText
 62
2
  6
CONTINUOUS
  7
STANDARD
 71
1
 72
1
 10
5.5570606529
 20
7.615
 30
0.0
 11
1.0
 21
0.0
 31
0.0
 73
2
 44
0.6
  1
 LOCATING SHOULDER
 40
0.125
 41
1.8
  0
LINE
  5
260
100
AcDbEntity
  8
0
100
AcDbLine
 62
7
  6
CONTINUOUS
 10
3.3199391688
 20
7.1530000006
 11
3.3199391686
 21
6.8470000006
  0
LINE
  5
261
100
AcDbEntity
  8
0
100
AcDbLine
 62
7
  6
CONTINUOUS
 10
3.3509391688
 20
7.1840000006
 11
3.3509391686
 21
6.8160000006
  0
LINE
  5
262
100
AcDbEntity
  8
0
100
AcDbLine
 62
7
  6
CONTINUOUS
 10
3.6490605073
 20
6.7523459131
 11
3.6490605073
 21
7.2476540869
  0
LINE
  5
263
100
AcDbEntity
  8
0
100
AcDbLine
 62
7
  6
CONTINUOUS
 10
3.7110605073
 20
6.729
 11
3.7110605073
 21
7.271
  0
LINE
  5
264
100
AcDbEntity
  8
0
100
AcDbLine
 62
7
  6
CONTINUOUS
 10
3.7170605073
 20
6.729
 11
3.7170605073
 21
7.271
  0
LINE
  5
265
100
AcDbEntity
  8
0
100
AcDbLine
 62
7
  6
CONTINUOUS
 10
3.7225605073
 20
7.2655
 11
3.7225605073
 21
6.7345
  0
LINE
  5
266
100
AcDbEntity
  8
0
100
AcDbLine
 62
7
  6
CONTINUOUS
 10
3.7385605073
 20
7.2655
 11
3.7385605073
 21
6.7345
  0
LINE
  5
267
100
AcDbEntity
  8
0
100
AcDbLine
 62
7
  6
CONTINUOUS
 10
3.3199391688
 20
7.1530000006
 11
3.3509391688
 21
7.1840000006
  0
LINE
  5
268
100
AcDbEntity
  8
0
100
AcDbLine
 62
7
  6
CONTINUOUS
 10
3.3199391686
 20
6.8470000006
 11
3.3509391686
 21
6.8160000006
  0
LINE
  5
269
100
AcDbEntity
  8
0
100
AcDbLine
 62
7
  6
CONTINUOUS
 10
3.9300605073
 20
7.271
 11
3.9300605073
 21
6.729
  0
LINE
  5
26A
100
AcDbEntity
  8
0
100
AcDbLine
 62
7
  6
CONTINUOUS
 10
3.9610605073
 20
7.3115
 11
3.9610605073
 21
6.6885
  0
LINE
  5
26B
100
AcDbEntity
  8
0
100
AcDbLine
 62
7
  6
CONTINUOUS
 10
3.7975313586
 20
7.3244708513
 11
3.7385605073
 21
7.2655
  0
LINE
  5
26C
100
AcDbEntity
  8
0
100
AcDbLine
 62
7
  6
CONTINUOUS
 10
3.7975313586
 20
6.6755291487
 11
3.7385605073
 21
6.7345
  0
LINE
  5
26D
100
AcDbEntity
  8
0
100
AcDbLine
 62
7
  6
CONTINUOUS
 10
4.0230605073
 20
7.3735
 11
4.0230605073
 21
6.6265
  0
LINE
  5
26E
100
AcDbEntity
  8
0
100
AcDbLine
 62
7
  6
CONTINUOUS
 10
3.9610605073
 20
7.3115
 11
4.0230605073
 21
7.3735
  0
LINE
  5
26F
100
AcDbEntity
  8
0
100
AcDbLine
 62
7
  6
CONTINUOUS
 10
3.9610605073
 20
6.6885
 11
4.0230605073
 21
6.6265
  0
LINE
  5
270
100
AcDbEntity
  8
0
100
AcDbLine
 62
7
  6
CONTINUOUS
 10
3.9300605073
 20
6.729
 11
3.899189097
 21
6.6755291487
  0
LINE
  5
271
100
AcDbEntity
  8
0
100
AcDbLine
 62
7
  6
CONTINUOUS
 10
3.7225605073
 20
6.7345
 11
3.7170605073
 21
6.729
  0
LINE
  5
272
100
AcDbEntity
  8
0
100
AcDbLine
 62
7
  6
CONTINUOUS
 10
3.7225605073
 20
7.2655
 11
3.7170605073
 21
7.271
  0
LINE
  5
273
100
AcDbEntity
  8
0
100
AcDbLine
 62
7
  6
CONTINUOUS
 10
3.9300605073
 20
7.271
 11
3.899189097
 21
7.3244708513
  0
LINE
  5
274
100
AcDbEntity
  8
0
100
AcDbLine
 62
7
  6
CONTINUOUS
 10
4.5220605073
 20
7.3635
 11
4.5320605073
 21
7.3735
  0
LINE
  5
275
100
AcDbEntity
  8
0
100
AcDbLine
 62
7
  6
CONTINUOUS
 10
4.5530605073
 20
7.3635
 11
4.5630605073
 21
7.3735
  0
LINE
  5
276
100
AcDbEntity
  8
0
100
AcDbLine
 62
7
  6
CONTINUOUS
 10
4.5220605073
 20
6.6365
 11
4.5320605073
 21
6.6265
  0
LINE
  5
277
100
AcDbEntity
  8
0
100
AcDbLine
 62
7
  6
CONTINUOUS
 10
4.5530605073
 20
6.6365
 11
4.5630605073
 21
6.6265
  0
LINE
  5
278
100
AcDbEntity
  8
0
100
AcDbLine
 62
7
  6
CONTINUOUS
 10
4.5120605073
 20
7.3735
 11
4.5120605073
 21
6.6265
  0
LINE
  5
279
100
AcDbEntity
  8
0
100
AcDbLine
 62
7
  6
CONTINUOUS
 10
4.5220605073
 20
6.6365
 11
4.5220605073
 21
7.3635
  0
LINE
  5
27A
100
AcDbEntity
  8
0
100
AcDbLine
 62
7
  6
CONTINUOUS
 10
4.5320605073
 20
7.3735
 11
4.5320605073
 21
6.6265
  0
LINE
  5
27B
100
AcDbEntity
  8
0
100
AcDbLine
 62
7
  6
CONTINUOUS
 10
4.5430605073
 20
7.3735
 11
4.5430605073
 21
6.6265
  0
LINE
  5
27C
100
AcDbEntity
  8
0
100
AcDbLine
 62
7
  6
CONTINUOUS
 10
4.6200272834
 20
7.4386027084
 11
4.6150605073
 21
7.43
  0
LINE
  5
27D
100
AcDbEntity
  8
0
100
AcDbLine
 62
7
  6
CONTINUOUS
 10
6.0040605073
 20
6.6745842461
 11
6.0600047836
 21
6.6875
  0
LINE
  5
27E
100
AcDbEntity
  8
0
100
AcDbLine
 62
7
  6
CONTINUOUS
 10
4.6200272834
 20
6.5613972916
 11
4.6150605073
 21
6.57
  0
LINE
  5
27F
100
AcDbEntity
  8
0
100
AcDbLine
 62
7
  6
CONTINUOUS
 10
4.5530605073
 20
6.6365
 11
4.5530605073
 21
7.3635
  0
LINE
  5
280
100
AcDbEntity
  8
0
100
AcDbLine
 62
7
  6
CONTINUOUS
 10
4.5630605073
 20
7.3735
 11
4.5630605073
 21
6.6265
  0
LINE
  5
281
100
AcDbEntity
  8
0
100
AcDbLine
 62
7
  6
CONTINUOUS
 10
4.6150605073
 20
6.5700117205
 11
4.6150605073
 21
7.4299882795
  0
LINE
  5
282
100
AcDbEntity
  8
0
100
AcDbLine
 62
7
  6
CONTINUOUS
 10
4.6491241732
 20
7.437516034
 11
4.6491241732
 21
7.4079022477
  0
LINE
  5
283
100
AcDbEntity
  8
0
100
AcDbLine
 62
7
  6
CONTINUOUS
 10
4.6491241732
 20
6.562483966
 11
4.6491241732
 21
6.5920977523
  0
LINE
  5
284
100
AcDbEntity
  8
0
100
AcDbLine
 62
7
  6
CONTINUOUS
 10
4.6491241732
 20
6.9703862137
 11
4.6491241732
 21
7.0296137863
  0
LINE
  5
285
100
AcDbEntity
  8
0
100
AcDbLine
 62
7
  6
CONTINUOUS
 10
4.6194064572
 20
6.562483966
 11
5.0780444731
 21
6.562483966
  0
LINE
  5
286
100
AcDbEntity
  8
0
100
AcDbLine
 62
7
  6
CONTINUOUS
 10
5.3040605073
 20
6.5725
 11
5.0880605073
 21
6.5725
  0
LINE
  5
287
100
AcDbEntity
  8
0
100
AcDbLine
 62
7
  6
CONTINUOUS
 10
5.0265605073
 20
6.5920977523
 11
4.6491241732
 21
6.5920977523
  0
LINE
  5
288
100
AcDbEntity
  8
THREAD
100
AcDbLine
 62
7
  6
CONTINUOUS
 10
5.3540605073
 20
6.595
 11
5.3317829392
 21
6.595
  0
LINE
  5
289
100
AcDbEntity
  8
0
100
AcDbLine
 62
7
  6
CONTINUOUS
 10
5.4240605073
 20
6.5955
 11
5.4740605073
 21
6.5955
  0
LINE
  5
28A
100
AcDbEntity
  8
THREAD
100
AcDbLine
 62
7
  6
CONTINUOUS
 10
5.7625605073
 20
6.6125
 11
5.5154224673
 21
6.6125
  0
LINE
  5
28B
100
AcDbEntity
  8
0
100
AcDbLine
 62
7
  6
CONTINUOUS
 10
4.0230605073
 20
6.6265
 11
4.5120605073
 21
6.6265
  0
LINE
  5
28C
100
AcDbEntity
  8
0
100
AcDbLine
 62
7
  6
CONTINUOUS
 10
4.5320605073
 20
6.6265
 11
4.5430605073
 21
6.6265
  0
LINE
  5
28D
100
AcDbEntity
  8
0
100
AcDbLine
 62
7
  6
CONTINUOUS
 10
4.5630605073
 20
6.6265
 11
4.6150605073
 21
6.6265
  0
LINE
  5
28E
100
AcDbEntity
  8
THREAD
100
AcDbLine
 62
7
  6
CONTINUOUS
 10
5.4894417052
 20
6.6495
 11
5.4740605073
 21
6.6495
  0
LINE
  5
28F
100
AcDbEntity
  8
0
100
AcDbLine
 62
7
  6
CONTINUOUS
 10
6.4270605073
 20
6.654
 11
6.4770605073
 21
6.654
  0
LINE
  5
290
100
AcDbEntity
  8
THREAD
100
AcDbLine
 62
7
  6
CONTINUOUS
 10
5.8850605073
 20
6.657
 11
5.8070605073
 21
6.657
  0
LINE
  5
291
100
AcDbEntity
  8
0
100
AcDbLine
 62
7
  6
CONTINUOUS
 10
5.8950605073
 20
6.6575
 11
5.9260605073
 21
6.6575
  0
LINE
  5
292
100
AcDbEntity
  8
0
100
AcDbLine
 62
7
  6
CONTINUOUS
 10
6.3660605073
 20
6.6575
 11
6.4270605073
 21
6.6575
  0
LINE
  5
293
100
AcDbEntity
  8
0
100
AcDbLine
 62
7
  6
CONTINUOUS
 10
6.5600605073
 20
6.6575
 11
6.6650605073
 21
6.6575
  0
LINE
  5
294
100
AcDbEntity
  8
0
100
AcDbLine
 62
7
  6
CONTINUOUS
 10
3.899189097
 20
6.6755291487
 11
3.7975313586
 21
6.6755291487
  0
LINE
  5
295
100
AcDbEntity
  8
0
100
AcDbLine
 62
7
  6
CONTINUOUS
 10
6.0600047836
 20
6.6875
 11
6.3530605073
 21
6.6875
  0
LINE
  5
296
100
AcDbEntity
  8
0
100
AcDbLine
 62
7
  6
CONTINUOUS
 10
6.5470605073
 20
6.708
 11
6.5600605073
 21
6.708
  0
LINE
  5
297
100
AcDbEntity
  8
0
100
AcDbLine
 62
7
  6
CONTINUOUS
 10
3.9610605073
 20
6.729
 11
3.9300605073
 21
6.729
  0
LINE
  5
298
100
AcDbEntity
  8
0
100
AcDbLine
 62
7
  6
CONTINUOUS
 10
3.7170605073
 20
6.729
 11
3.7110605073
 21
6.729
  0
LINE
  5
299
100
AcDbEntity
  8
0
100
AcDbLine
 62
7
  6
CONTINUOUS
 10
3.7385605073
 20
6.7345
 11
3.7225605073
 21
6.7345
  0
LINE
  5
29A
100
AcDbEntity
  8
0
100
AcDbLine
 62
7
  6
CONTINUOUS
 10
3.3509391686
 20
6.8160000006
 11
3.6490605073
 21
6.8160000005
  0
LINE
  5
29B
100
AcDbEntity
  8
0
100
AcDbLine
 62
7
  6
CONTINUOUS
 10
3.899189097
 20
6.8377645744
 11
3.7975313586
 21
6.8377645744
  0
LINE
  5
29C
100
AcDbEntity
  8
0
100
AcDbLine
 62
7
  6
CONTINUOUS
 10
4.5120605073
 20
6.6265
 11
4.5220605073
 21
6.6365
  0
LINE
  5
29D
100
AcDbEntity
  8
0
100
AcDbLine
 62
7
  6
CONTINUOUS
 10
4.5430605073
 20
6.6265
 11
4.5530605073
 21
6.6365
  0
LINE
  5
29E
100
AcDbEntity
  8
0
100
AcDbLine
 62
7
  6
CONTINUOUS
 10
5.0265605073
 20
6.9703862137
 11
4.6491241732
 21
6.9703862137
  0
LINE
  5
29F
100
AcDbEntity
  8
0
100
AcDbLine
 62
7
  6
CONTINUOUS
 10
4.5120605073
 20
7.3735
 11
4.5220605073
 21
7.3635
  0
LINE
  5
2A0
100
AcDbEntity
  8
0
100
AcDbLine
 62
7
  6
CONTINUOUS
 10
4.5430605073
 20
7.3735
 11
4.5530605073
 21
7.3635
  0
LINE
  5
2A1
100
AcDbEntity
  8
0
100
AcDbLine
 62
7
  6
CONTINUOUS
 10
5.0265605073
 20
7.437516034
 11
5.0265605073
 21
7.4079022477
  0
LINE
  5
2A2
100
AcDbEntity
  8
0
100
AcDbLine
 62
7
  6
CONTINUOUS
 10
5.0265605073
 20
6.562483966
 11
5.0265605073
 21
6.5920977523
  0
LINE
  5
2A3
100
AcDbEntity
  8
0
100
AcDbLine
 62
7
  6
CONTINUOUS
 10
5.0265605073
 20
6.9703862137
 11
5.0265605073
 21
7.0296137863
  0
LINE
  5
2A4
100
AcDbEntity
  8
0
100
AcDbLine
 62
7
  6
CONTINUOUS
 10
5.0880605073
 20
6.5725
 11
5.0880605073
 21
7.4275
  0
LINE
  5
2A5
100
AcDbEntity
  8
0
100
AcDbLine
 62
7
  6
CONTINUOUS
 10
5.0265605073
 20
7.0296137863
 11
4.6491241732
 21
7.0296137863
  0
LINE
  5
2A6
100
AcDbEntity
  8
0
100
AcDbLine
 62
7
  6
CONTINUOUS
 10
3.899189097
 20
7.1622354256
 11
3.7975313586
 21
7.1622354256
  0
LINE
  5
2A7
100
AcDbEntity
  8
0
100
AcDbLine
 62
7
  6
CONTINUOUS
 10
3.3509391688
 20
7.1840000006
 11
3.6490605073
 21
7.1840000005
  0
LINE
  5
2A8
100
AcDbEntity
  8
0
100
AcDbLine
 62
7
  6
CONTINUOUS
 10
5.3040605073
 20
7.4275
 11
5.3040605073
 21
6.5725
  0
LINE
  5
2A9
100
AcDbEntity
  8
0
100
AcDbLine
 62
7
  6
CONTINUOUS
 10
5.3070605073
 20
7.4244952687
 11
5.3070605073
 21
6.5755047313
  0
LINE
  5
2AA
100
AcDbEntity
  8
0
100
AcDbLine
 62
7
  6
CONTINUOUS
 10
5.3095605074
 20
6.5829433757
 11
5.3095605074
 21
7.4170566243
  0
LINE
  5
2AB
100
AcDbEntity
  8
0
100
AcDbLine
 62
7
  6
CONTINUOUS
 10
5.329282939
 20
6.5943301269
 11
5.329282939
 21
7.4056698731
  0
LINE
  5
2AC
100
AcDbEntity
  8
0
100
AcDbLine
 62
7
  6
CONTINUOUS
 10
5.3317829392
 20
6.595
 11
5.3317829392
 21
7.405
  0
LINE
  5
2AD
100
AcDbEntity
  8
THREAD
100
AcDbLine
 62
7
  6
CONTINUOUS
 10
5.3540605073
 20
6.5950110391
 11
5.3540605073
 21
7.4049889609
  0
LINE
  5
2AE
100
AcDbEntity
  8
THREAD
100
AcDbLine
 62
7
  6
CONTINUOUS
 10
5.5154224673
 20
7.3875
 11
5.4963699071
 21
7.3544999977
  0
LINE
  5
2AF
100
AcDbEntity
  8
0
100
AcDbLine
 62
7
  6
CONTINUOUS
 10
3.7385605073
 20
7.2655
 11
3.7225605073
 21
7.2655
  0
LINE
  5
2B0
100
AcDbEntity
  8
0
100
AcDbLine
 62
7
  6
CONTINUOUS
 10
3.9610605073
 20
7.271
 11
3.9300605073
 21
7.271
  0
LINE
  5
2B1
100
AcDbEntity
  8
0
100
AcDbLine
 62
7
  6
CONTINUOUS
 10
3.7170605073
 20
7.271
 11
3.7110605073
 21
7.271
  0
LINE
  5
2B2
100
AcDbEntity
  8
0
100
AcDbLine
 62
7
  6
CONTINUOUS
 10
6.5470605073
 20
7.292
 11
6.5600605073
 21
7.292
  0
LINE
  5
2B3
100
AcDbEntity
  8
0
100
AcDbLine
 62
7
  6
CONTINUOUS
 10
6.0600047836
 20
7.3125
 11
6.3530605073
 21
7.3125
  0
LINE
  5
2B4
100
AcDbEntity
  8
0
100
AcDbLine
 62
7
  6
CONTINUOUS
 10
3.899189097
 20
7.3244708513
 11
3.7975313586
 21
7.3244708513
  0
LINE
  5
2B5
100
AcDbEntity
  8
0
100
AcDbLine
 62
7
  6
CONTINUOUS
 10
5.8950605073
 20
7.3425
 11
5.9260605073
 21
7.3425
  0
LINE
  5
2B6
100
AcDbEntity
  8
0
100
AcDbLine
 62
7
  6
CONTINUOUS
 10
6.3660605073
 20
7.3425
 11
6.4270605073
 21
7.3425
  0
LINE
  5
2B7
100
AcDbEntity
  8
0
100
AcDbLine
 62
7
  6
CONTINUOUS
 10
6.5600605073
 20
7.3425
 11
6.6650605073
 21
7.3425
  0
LINE
  5
2B8
100
AcDbEntity
  8
THREAD
100
AcDbLine
 62
7
  6
CONTINUOUS
 10
5.8850605073
 20
7.343
 11
5.8070605073
 21
7.343
  0
LINE
  5
2B9
100
AcDbEntity
  8
0
100
AcDbLine
 62
7
  6
CONTINUOUS
 10
6.4270605073
 20
7.346
 11
6.4770605073
 21
7.346
  0
LINE
  5
2BA
100
AcDbEntity
  8
THREAD
100
AcDbLine
 62
7
  6
CONTINUOUS
 10
5.4894417052
 20
7.3505
 11
5.4740605073
 21
7.3505
  0
LINE
  5
2BB
100
AcDbEntity
  8
THREAD
100
AcDbLine
 62
7
  6
CONTINUOUS
 10
5.5154224673
 20
6.6125
 11
5.4963699071
 21
6.6455000023
  0
LINE
  5
2BC
100
AcDbEntity
  8
0
100
AcDbLine
 62
7
  6
CONTINUOUS
 10
5.4240605073
 20
7.4045
 11
5.4240605073
 21
6.5955
  0
LINE
  5
2BD
100
AcDbEntity
  8
0
100
AcDbLine
 62
7
  6
CONTINUOUS
 10
5.4740605073
 20
7.4045
 11
5.4740605073
 21
6.5955
  0
LINE
  5
2BE
100
AcDbEntity
  8
0
100
AcDbLine
 62
7
  6
CONTINUOUS
 10
5.0880605073
 20
6.5725
 11
5.0780427067
 21
6.5624821994
  0
LWPOLYLINE
  5
2BF
100
AcDbEntity
  8
0
100
AcDbPolyline
 62
7
  6
CONTINUOUS
 90
6
 70
0
 10
5.9893307874
 20
7.1999091476
 10
5.9885402038
 20
7.1992969357
 10
5.9871700103
 20
7.1980907013
 10
5.9859306039
 20
7.196859741
 10
5.9848187844
 20
7.1956223028
 10
5.983966163
 20
7.1945645
  0
LINE
  5
2C0
100
AcDbEntity
  8
0
100
AcDbLine
 62
7
  6
CONTINUOUS
 10
4.0230605073
 20
7.3735
 11
4.5120605073
 21
7.3735
  0
LINE
  5
2C1
100
AcDbEntity
  8
0
100
AcDbLine
 62
7
  6
CONTINUOUS
 10
4.5320605073
 20
7.3735
 11
4.5430605073
 21
7.3735
  0
LINE
  5
2C2
100
AcDbEntity
  8
0
100
AcDbLine
 62
7
  6
CONTINUOUS
 10
4.5630605073
 20
7.3735
 11
4.6150605073
 21
7.3735
  0
LINE
  5
2C3
100
AcDbEntity
  8
THREAD
100
AcDbLine
 62
7
  6
CONTINUOUS
 10
5.7625605073
 20
7.3875
 11
5.5154224673
 21
7.3875
  0
LINE
  5
2C4
100
AcDbEntity
  8
0
100
AcDbLine
 62
7
  6
CONTINUOUS
 10
5.4240605073
 20
7.4045
 11
5.4740605073
 21
7.4045
  0
LINE
  5
2C5
100
AcDbEntity
  8
THREAD
100
AcDbLine
 62
7
  6
CONTINUOUS
 10
5.3540605073
 20
7.405
 11
5.3317829392
 21
7.405
  0
LINE
  5
2C6
100
AcDbEntity
  8
0
100
AcDbLine
 62
7
  6
CONTINUOUS
 10
5.0265605073
 20
7.4079022477
 11
4.6491241732
 21
7.4079022477
  0
LINE
  5
2C7
100
AcDbEntity
  8
0
100
AcDbLine
 62
7
  6
CONTINUOUS
 10
5.3040605073
 20
7.4275
 11
5.0880605073
 21
7.4275
  0
LINE
  5
2C8
100
AcDbEntity
  8
0
100
AcDbLine
 62
7
  6
CONTINUOUS
 10
4.6194064572
 20
7.437516034
 11
5.0780444731
 21
7.437516034
  0
LINE
  5
2C9
100
AcDbEntity
  8
0
100
AcDbLine
 62
7
  6
CONTINUOUS
 10
5.0880605073
 20
7.4275
 11
5.0780427067
 21
7.4375178006
  0
LINE
  5
2CA
100
AcDbEntity
  8
0
100
AcDbLine
 62
7
  6
CONTINUOUS
 10
5.4894417052
 20
6.6495
 11
5.4894417052
 21
7.3505
  0
LINE
  5
2CB
100
AcDbEntity
  8
0
100
AcDbLine
 62
7
  6
CONTINUOUS
 10
5.4963699071
 20
6.6455000023
 11
5.4963699071
 21
7.3544999977
  0
LINE
  5
2CC
100
AcDbEntity
  8
THREAD
100
AcDbLine
 62
7
  6
CONTINUOUS
 10
5.5154224673
 20
6.6125
 11
5.5154224673
 21
7.3875
  0
LINE
  5
2CD
100
AcDbEntity
  8
THREAD
100
AcDbLine
 62
7
  6
CONTINUOUS
 10
5.3292829391
 20
6.594330127
 11
5.3095605074
 21
6.5829433757
  0
LINE
  5
2CE
100
AcDbEntity
  8
0
100
AcDbLine
 62
7
  6
CONTINUOUS
 10
6.0040605073
 20
7.3254157539
 11
6.0600047836
 21
7.3125
  0
LINE
  5
2CF
100
AcDbEntity
  8
THREAD
100
AcDbLine
 62
7
  6
CONTINUOUS
 10
5.3292829391
 20
7.405669873
 11
5.3095605074
 21
7.4170566243
  0
LINE
  5
2D0
100
AcDbEntity
  8
THREAD
100
AcDbLine
 62
7
  6
CONTINUOUS
 10
5.7625605073
 20
6.6125
 11
5.7625605073
 21
7.3875
  0
LINE
  5
2D1
100
AcDbEntity
  8
THREAD
100
AcDbLine
 62
7
  6
CONTINUOUS
 10
5.8070605073
 20
6.657
 11
5.8070605073
 21
7.343
  0
LINE
  5
2D2
100
AcDbEntity
  8
0
100
AcDbLine
 62
7
  6
CONTINUOUS
 10
6.3530604891
 20
7.3295000183
 11
6.3660604884
 21
7.342500019
  0
LINE
  5
2D3
100
AcDbEntity
  8
THREAD
100
AcDbLine
 62
7
  6
CONTINUOUS
 10
5.8070605073
 20
6.657
 11
5.7625605073
 21
6.6125
  0
LWPOLYLINE
  5
2D4
100
AcDbEntity
  8
0
100
AcDbPolyline
 62
7
  6
CONTINUOUS
 90
18
 70
0
 10
5.9939817889
 20
6.7987457453
 10
5.9951466396
 20
6.7995305734
 10
5.996643792
 20
6.8006879834
 10
5.9980145627
 20
6.8018926802
 10
5.9992549135
 20
6.8031225042
 10
6.0003680388
 20
6.8043593445
 10
6.0013624749
 20
6.8055911301
 10
6.0022487465
 20
6.8068100291
 10
6.0030422469
 20
6.8080178472
 10
6.0037580418
 20
6.8092215629
 10
6.0044066617
 20
6.8104261122
 10
6.0049917919
 20
6.8116261772
 10
6.0055159343
 20
6.8128125092
 10
6.0059834615
 20
6.8139783975
 10
6.0064028068
 20
6.8151281185
 10
6.0067826361
 20
6.8162705068
 10
6.0071303538
 20
6.8174151067
 10
6.0072268288
 20
6.8177617668
  0
LINE
  5
2D5
100
AcDbEntity
  8
0
100
AcDbLine
 62
7
  6
CONTINUOUS
 10
6.3530604891
 20
6.6704999817
 11
6.3660604884
 21
6.657499981
  0
LINE
  5
2D6
100
AcDbEntity
  8
THREAD
100
AcDbLine
 62
7
  6
CONTINUOUS
 10
5.8070605073
 20
7.343
 11
5.7625605073
 21
7.3875
  0
LINE
  5
2D7
100
AcDbEntity
  8
0
100
AcDbLine
 62
7
  6
CONTINUOUS
 10
5.9319724402
 20
6.9797518073
 11
5.9298705531
 21
7.0167300758
  0
LINE
  5
2D8
100
AcDbEntity
  8
0
100
AcDbLine
 62
7
  6
CONTINUOUS
 10
5.9337775269
 20
7.0231189715
 11
5.9345151828
 21
7.0092186911
  0
LINE
  5
2D9
100
AcDbEntity
  8
0
100
AcDbLine
 62
7
  6
CONTINUOUS
 10
5.9357567714
 20
6.9856758055
 11
5.9363827284
 21
6.9738554411
  0
LINE
  5
2DA
100
AcDbEntity
  8
0
100
AcDbLine
 62
7
  6
CONTINUOUS
 10
5.9345151828
 20
7.0092186911
 11
5.9357567714
 21
6.9856758055
  0
LINE
  5
2DB
100
AcDbEntity
  8
0
100
AcDbLine
 62
7
  6
CONTINUOUS
 10
5.8850605073
 20
6.657
 11
5.8850605073
 21
7.343
  0
LINE
  5
2DC
100
AcDbEntity
  8
0
100
AcDbLine
 62
7
  6
CONTINUOUS
 10
5.8950605073
 20
7.3425
 11
5.8950605073
 21
6.6575
  0
LINE
  5
2DD
100
AcDbEntity
  8
0
100
AcDbLine
 62
7
  6
CONTINUOUS
 10
5.9300605073
 20
7.3420676103
 11
5.9300605073
 21
7.0172046505
  0
LINE
  5
2DE
100
AcDbEntity
  8
0
100
AcDbLine
 62
7
  6
CONTINUOUS
 10
5.9300605073
 20
6.9827953495
 11
5.9300605073
 21
6.6579323897
  0
LINE
  5
2DF
100
AcDbEntity
  8
0
100
AcDbLine
 62
7
  6
CONTINUOUS
 10
5.8950605073
 20
6.667
 11
5.8850605073
 21
6.657
  0
LINE
  5
2E0
100
AcDbEntity
  8
0
100
AcDbLine
 62
7
  6
CONTINUOUS
 10
5.8950605073
 20
7.333
 11
5.8850605073
 21
7.343
  0
LINE
  5
2E1
100
AcDbEntity
  8
0
100
AcDbLine
 62
7
  6
CONTINUOUS
 10
5.9912286451
 20
7.0161393701
 11
5.9905222997
 21
7.0294143733
  0
LINE
  5
2E2
100
AcDbEntity
  8
0
100
AcDbLine
 62
7
  6
CONTINUOUS
 10
5.9934778159
 20
6.9735796429
 11
5.9928863817
 21
6.9847235432
  0
LINE
  5
2E3
100
AcDbEntity
  8
0
100
AcDbLine
 62
7
  6
CONTINUOUS
 10
5.9928863817
 20
6.9847235432
 11
5.9912286451
 21
7.0161393701
  0
LINE
  5
2E4
100
AcDbEntity
  8
0
100
AcDbLine
 62
7
  6
CONTINUOUS
 10
5.9915687741
 20
7.0285691467
 11
5.9921217719
 21
7.0180487982
  0
LINE
  5
2E5
100
AcDbEntity
  8
0
100
AcDbLine
 62
7
  6
CONTINUOUS
 10
5.9937633845
 20
6.9865314173
 11
5.9943873897
 21
6.9746025249
  0
LINE
  5
2E6
100
AcDbEntity
  8
0
100
AcDbLine
 62
7
  6
CONTINUOUS
 10
5.9921217719
 20
7.0180487982
 11
5.9937633845
 21
6.9865314173
  0
LINE
  5
2E7
100
AcDbEntity
  8
0
100
AcDbLine
 62
7
  6
CONTINUOUS
 10
6.010537204
 20
6.7961397721
 11
6.010537204
 21
6.8186286538
  0
LINE
  5
2E8
100
AcDbEntity
  8
0
100
AcDbLine
 62
7
  6
CONTINUOUS
 10
6.010537204
 20
7.1813661448
 11
6.010537204
 21
7.203860364
  0
LINE
  5
2E9
100
AcDbEntity
  8
0
100
AcDbLine
 62
7
  6
CONTINUOUS
 10
6.045537204
 20
6.7985728011
 11
6.045537204
 21
6.8206755466
  0
LINE
  5
2EA
100
AcDbEntity
  8
0
100
AcDbLine
 62
7
  6
CONTINUOUS
 10
6.045537204
 20
7.179324316
 11
6.045537204
 21
7.2014284216
  0
LINE
  5
2EB
100
AcDbEntity
  8
0
100
AcDbLine
 62
7
  6
CONTINUOUS
 10
6.0600047836
 20
7.3125
 11
6.0600047836
 21
7.25233143
  0
LINE
  5
2EC
100
AcDbEntity
  8
0
100
AcDbLine
 62
7
  6
CONTINUOUS
 10
6.0600047836
 20
7.1843504798
 11
6.0600047836
 21
6.8156495202
  0
LINE
  5
2ED
100
AcDbEntity
  8
0
100
AcDbLine
 62
7
  6
CONTINUOUS
 10
6.0600047836
 20
6.74766857
 11
6.0600047836
 21
6.6875
  0
LINE
  5
2EE
100
AcDbEntity
  8
0
100
AcDbLine
 62
7
  6
CONTINUOUS
 10
6.3530605073
 20
7.3295
 11
6.3530605073
 21
6.6705
  0
LINE
  5
2EF
100
AcDbEntity
  8
0
100
AcDbLine
 62
7
  6
CONTINUOUS
 10
6.3660605073
 20
7.3425
 11
6.3660605073
 21
6.6575
  0
LINE
  5
2F0
100
AcDbEntity
  8
0
100
AcDbLine
 62
7
  6
CONTINUOUS
 10
6.4270605073
 20
7.346
 11
6.4270605073
 21
6.654
  0
LINE
  5
2F1
100
AcDbEntity
  8
0
100
AcDbLine
 62
7
  6
CONTINUOUS
 10
6.4770605073
 20
7.346
 11
6.4770605073
 21
6.654
  0
LINE
  5
2F2
100
AcDbEntity
  8
0
100
AcDbLine
 62
7
  6
CONTINUOUS
 10
6.6800604828
 20
6.6725000246
 11
6.6650604817
 21
6.6575000257
  0
LINE
  5
2F3
100
AcDbEntity
  8
0
100
AcDbLine
 62
7
  6
CONTINUOUS
 10
6.6800604828
 20
7.3274999754
 11
6.6650604817
 21
7.3424999743
  0
LINE
  5
2F4
100
AcDbEntity
  8
0
100
AcDbLine
 62
7
  6
CONTINUOUS
 10
6.5470605073
 20
7.327
 11
6.5470605073
 21
6.673
  0
LINE
  5
2F5
100
AcDbEntity
  8
0
100
AcDbLine
 62
7
  6
CONTINUOUS
 10
6.5600605073
 20
7.3425
 11
6.5600605073
 21
6.6575
  0
LINE
  5
2F6
100
AcDbEntity
  8
0
100
AcDbLine
 62
7
  6
CONTINUOUS
 10
6.6650605073
 20
6.6575
 11
6.6650605073
 21
7.3425
  0
LINE
  5
2F7
100
AcDbEntity
  8
0
100
AcDbLine
 62
7
  6
CONTINUOUS
 10
6.6800605073
 20
6.6725
 11
6.6800605073
 21
7.3275
  0
ARC
  5
2F8
100
AcDbEntity
  8
0
100
AcDbCircle
 62
7
  6
CONTINUOUS
 10
5.4511204451
 20
6.8312377774
 40
0.836890657
100
AcDbArc
 50
193.5146947832
 51
196.6035791567
  0
ARC
  5
2F9
100
AcDbEntity
  8
0
100
AcDbCircle
 62
7
  6
CONTINUOUS
 10
5.4282617857
 20
7.1749124827
 40
0.81322792
100
AcDbArc
 50
163.3514708334
 51
166.5302569142
  0
ARC
  5
2FA
100
AcDbEntity
  8
0
100
AcDbCircle
 62
7
  6
CONTINUOUS
 10
5.3579932767
 20
6.8079959216
 40
0.7409111493
100
AcDbArc
 50
192.1852443752
 51
193.4501260817
  0
ARC
  5
2FB
100
AcDbEntity
  8
0
100
AcDbCircle
 62
7
  6
CONTINUOUS
 10
5.3512174432
 20
7.1935456988
 40
0.7339625828
100
AcDbArc
 50
166.5438862705
 51
167.8207453883
  0
ARC
  5
2FC
100
AcDbEntity
  8
0
100
AcDbCircle
 62
7
  6
CONTINUOUS
 10
5.9658990156
 20
7.6923245779
 40
0.3520857027
100
AcDbArc
 50
263.5030668371
 51
264.1577923491
  0
ARC
  5
2FD
100
AcDbEntity
  8
0
100
AcDbCircle
 62
7
  6
CONTINUOUS
 10
5.9656928744
 20
6.3095824166
 40
0.3501676304
100
AcDbArc
 50
95.8404144745
 51
96.4987263393
  0
ARC
  5
2FE
100
AcDbEntity
  8
0
100
AcDbCircle
 62
7
  6
CONTINUOUS
 10
6.0200539412
 20
7.083294844
 40
0.1210480929
100
AcDbArc
 50
89.996892032
 51
94.5252402485
  0
ARC
  5
2FF
100
AcDbEntity
  8
0
100
AcDbCircle
 62
7
  6
CONTINUOUS
 10
6.0200259063
 20
6.9159952316
 40
0.1203381733
100
AcDbArc
 50
265.4613772158
 51
270.0164743678
  0
ARC
  5
300
100
AcDbEntity
  8
0
100
AcDbCircle
 62
7
  6
CONTINUOUS
 10
3.7110605073
 20
6.823
 40
0.094
100
AcDbArc
 50
228.732572619
 51
270.0
  0
ARC
  5
301
100
AcDbEntity
  8
0
100
AcDbCircle
 62
7
  6
CONTINUOUS
 10
3.7110605073
 20
7.177
 40
0.094
100
AcDbArc
 50
90.0
 51
131.267427381
  0
CIRCLE
  5
302
100
AcDbEntity
  8
0
100
AcDbCircle
 62
7
  6
CONTINUOUS
 10
5.9650605073
 20
7.0
 40
0.039
  0
ARC
  5
303
100
AcDbEntity
  8
0
100
AcDbCircle
 62
7
  6
CONTINUOUS
 10
5.4894417052
 20
7.3585
 40
0.008
100
AcDbArc
 50
270.0
 51
329.9999810124
  0
ARC
  5
304
100
AcDbEntity
  8
0
100
AcDbCircle
 62
7
  6
CONTINUOUS
 10
5.4894417052
 20
6.6415
 40
0.008
100
AcDbArc
 50
30.0000189875
 51
90.0
  0
ARC
  5
305
100
AcDbEntity
  8
0
100
AcDbCircle
 62
7
  6
CONTINUOUS
 10
5.3120605073
 20
6.5786132487
 40
0.005
100
AcDbArc
 50
119.9999986858
 51
179.9999973975
  0
ARC
  5
306
100
AcDbEntity
  8
0
100
AcDbCircle
 62
7
  6
CONTINUOUS
 10
5.3317829392
 20
6.59
 40
0.005
100
AcDbArc
 50
90.0
 51
120.0000010685
  0
ARC
  5
307
100
AcDbEntity
  8
0
100
AcDbCircle
 62
7
  6
CONTINUOUS
 10
5.3120605073
 20
7.4213867513
 40
0.005
100
AcDbArc
 50
180.0000026025
 51
240.0000013142
  0
ARC
  5
308
100
AcDbEntity
  8
0
100
AcDbCircle
 62
7
  6
CONTINUOUS
 10
5.3317829392
 20
7.41
 40
0.005
100
AcDbArc
 50
239.9999989315
 51
270.0
  0
ARC
  5
309
100
AcDbEntity
  8
0
100
AcDbCircle
 62
7
  6
CONTINUOUS
 10
5.3040605073
 20
6.5755
 40
0.003
100
AcDbArc
 50
270.0
 51
0.0000453193
  0
ARC
  5
30A
100
AcDbEntity
  8
0
100
AcDbCircle
 62
7
  6
CONTINUOUS
 10
5.3040605073
 20
7.4245
 40
0.003
100
AcDbArc
 50
359.9999546807
 51
90.0
  0
SPLINE
  5
30B
100
AcDbEntity
  8
0
100
AcDbSpline
 62
7
  6
CONTINUOUS
 70
0
 71
3
 72
29
 73
25
 74
0
 42
0.0000001
 43
0.0000001
 44
0.0000000001
 40
0.0
 40
0.0
 40
0.0
 40
0.0
 40
0.0699814326
 40
0.1378931693
 40
0.2035483063
 40
0.2668301071
 40
0.3277577624
 40
0.3574096745
 40
0.3865762134
 40
0.4153250756
 40
0.4437427141
 40
0.4719307121
 40
0.5000000301
 40
0.5280693453
 40
0.5562573422
 40
0.5846749808
 40
0.6134238382
 40
0.6425903726
 40
0.6722422822
 40
0.7331699209
 40
0.796451712
 40
0.8621068357
 40
0.9300185679
 40
1.0
 40
1.0
 40
1.0
 40
1.0
 10
3.7975313586
 20
7.1622354256
 30
0.0
 10
3.7944165341
 20
7.1653502502
 30
0.0
 10
3.7884090777
 20
7.171620498
 30
0.0
 10
3.7800442078
 20
7.1813347699
 30
0.0
 10
3.7725749952
 20
7.1912347025
 30
0.0
 10
3.7661462945
 20
7.2013263651
 30
0.0
 10
3.7617398266
 20
7.2099734854
 30
0.0
 10
3.7589129004
 20
7.2169651849
 30
0.0
 10
3.7571657833
 20
7.2221969955
 30
0.0
 10
3.7557879694
 20
7.2274580884
 30
0.0
 10
3.7547955126
 20
7.2327430445
 30
0.0
 10
3.7541953179
 20
7.238043924
 30
0.0
 10
3.753993245
 20
7.243353144
 30
0.0
 10
3.754195315
 20
7.2486623643
 30
0.0
 10
3.7547955174
 20
7.2539632427
 30
0.0
 10
3.7557879715
 20
7.2592481987
 30
0.0
 10
3.7571657836
 20
7.2645092916
 30
0.0
 10
3.7589129048
 20
7.2697411001
 30
0.0
 10
3.7617398295
 20
7.2767327984
 30
0.0
 10
3.7661462969
 20
7.2853799171
 30
0.0
 10
3.7725749976
 20
7.2954715767
 30
0.0
 10
3.7800442086
 20
7.3053715083
 30
0.0
 10
3.7884090781
 20
7.3150857791
 30
0.0
 10
3.7944165341
 20
7.3213560267
 30
0.0
 10
3.7975313586
 20
7.3244708513
 30
0.0
  0
SPLINE
  5
30C
100
AcDbEntity
  8
0
100
AcDbSpline
 62
7
  6
CONTINUOUS
 70
0
 71
3
 72
25
 73
21
 74
0
 42
0.0000001
 43
0.0000001
 44
0.0000000001
 40
0.0
 40
0.0
 40
0.0
 40
0.0
 40
0.0659343996
 40
0.1307786338
 40
0.1945190869
 40
0.2571884297
 40
0.3188803748
 40
0.3494111547
 40
0.3797624252
 40
0.4400381959
 40
0.5000000142
 40
0.5599618336
 40
0.6202376013
 40
0.6505888715
 40
0.68111965
 40
0.7428115909
 40
0.8054809287
 40
0.8692213713
 40
0.9340656013
 40
1.0
 40
1.0
 40
1.0
 40
1.0
 10
3.899189097
 20
6.6755291487
 30
0.0
 10
3.9010770664
 20
6.6787992076
 30
0.0
 10
3.9046954374
 20
6.6853595679
 30
0.0
 10
3.9096268463
 20
6.6953530604
 30
0.0
 10
3.913955963
 20
6.7054202562
 30
0.0
 10
3.9176171152
 20
6.7155586034
 30
0.0
 10
3.9200673727
 20
6.7240922681
 30
0.0
 10
3.9216276373
 20
6.7309378364
 30
0.0
 10
3.9229079111
 20
6.7377586365
 30
0.0
 10
3.923994727
 20
6.7463242762
 30
0.0
 10
3.9244320033
 20
6.756646864
 30
0.0
 10
3.9239947278
 20
6.7669694518
 30
0.0
 10
3.92290791
 20
6.7755350912
 30
0.0
 10
3.9216276352
 20
6.7823558908
 30
0.0
 10
3.9200673737
 20
6.7892014594
 30
0.0
 10
3.9176171127
 20
6.7977351226
 30
0.0
 10
3.9139559629
 20
6.8078734694
 30
0.0
 10
3.9096268456
 20
6.8179406637
 30
0.0
 10
3.9046954371
 20
6.8279341554
 30
0.0
 10
3.9010770663
 20
6.8344945155
 30
0.0
 10
3.899189097
 20
6.8377645744
 30
0.0
  0
SPLINE
  5
30D
100
AcDbEntity
  8
0
100
AcDbSpline
 62
7
  6
CONTINUOUS
 70
0
 71
3
 72
29
 73
25
 74
0
 42
0.0000001
 43
0.0000001
 44
0.0000000001
 40
0.0
 40
0.0
 40
0.0
 40
0.0
 40
0.0699814326
 40
0.1378931693
 40
0.2035483063
 40
0.2668301071
 40
0.3277577624
 40
0.3574096745
 40
0.3865762134
 40
0.4153250756
 40
0.4437427141
 40
0.4719307121
 40
0.5000000301
 40
0.5280693453
 40
0.5562573422
 40
0.5846749808
 40
0.6134238382
 40
0.6425903726
 40
0.6722422822
 40
0.7331699209
 40
0.796451712
 40
0.8621068357
 40
0.9300185679
 40
1.0
 40
1.0
 40
1.0
 40
1.0
 10
3.7975313586
 20
6.6755291487
 30
0.0
 10
3.7944165341
 20
6.6786439733
 30
0.0
 10
3.7884090777
 20
6.684914221
 30
0.0
 10
3.7800442078
 20
6.694628493
 30
0.0
 10
3.7725749952
 20
6.7045284256
 30
0.0
 10
3.7661462945
 20
6.7146200881
 30
0.0
 10
3.7617398266
 20
6.7232672085
 30
0.0
 10
3.7589129004
 20
6.7302589079
 30
0.0
 10
3.7571657833
 20
6.7354907185
 30
0.0
 10
3.7557879694
 20
6.7407518115
 30
0.0
 10
3.7547955126
 20
6.7460367676
 30
0.0
 10
3.7541953179
 20
6.751337647
 30
0.0
 10
3.753993245
 20
6.756646867
 30
0.0
 10
3.754195315
 20
6.7619560874
 30
0.0
 10
3.7547955174
 20
6.7672569657
 30
0.0
 10
3.7557879715
 20
6.7725419217
 30
0.0
 10
3.7571657836
 20
6.7778030147
 30
0.0
 10
3.7589129048
 20
6.7830348231
 30
0.0
 10
3.7617398295
 20
6.7900265215
 30
0.0
 10
3.7661462969
 20
6.7986736402
 30
0.0
 10
3.7725749976
 20
6.8087652997
 30
0.0
 10
3.7800442086
 20
6.8186652314
 30
0.0
 10
3.7884090781
 20
6.8283795022
 30
0.0
 10
3.7944165341
 20
6.8346497498
 30
0.0
 10
3.7975313586
 20
6.8377645744
 30
0.0
  0
SPLINE
  5
30E
100
AcDbEntity
  8
0
100
AcDbSpline
 62
7
  6
CONTINUOUS
 70
0
 71
3
 72
25
 73
21
 74
0
 42
0.0000001
 43
0.0000001
 44
0.0000000001
 40
0.0
 40
0.0
 40
0.0
 40
0.0
 40
0.1249859891
 40
0.1874862541
 40
0.2499858822
 40
0.2812379746
 40
0.3124899424
 40
0.3437420673
 40
0.3749949169
 40
0.4374972714
 40
0.5000000149
 40
0.5625027595
 40
0.6250051101
 40
0.6562579591
 40
0.6875100837
 40
0.7187620486
 40
0.750014138
 40
0.8125137618
 40
0.8750140159
 40
1.0
 40
1.0
 40
1.0
 40
1.0
 10
3.899189097
 20
6.8377645744
 30
0.0
 10
3.9029955341
 20
6.8509504595
 30
0.0
 10
3.9082262805
 20
6.8708762575
 30
0.0
 10
3.9139898435
 20
6.8977181122
 30
0.0
 10
3.9170343628
 20
6.914607377
 30
0.0
 10
3.9191034862
 20
6.9281774237
 30
0.0
 10
3.9204656344
 20
6.9383826107
 30
0.0
 10
3.9216307798
 20
6.9486123073
 30
0.0
 10
3.9229126647
 20
6.9622797041
 30
0.0
 10
3.9239965143
 20
6.9794089268
 30
0.0
 10
3.924431491
 20
7.000000005
 30
0.0
 10
3.9239965152
 20
7.0205910829
 30
0.0
 10
3.9229126636
 20
7.0377203051
 30
0.0
 10
3.9216307777
 20
7.0513877012
 30
0.0
 10
3.9204656348
 20
7.0616173977
 30
0.0
 10
3.9191034855
 20
7.071822584
 30
0.0
 10
3.9170343609
 20
7.0853926293
 30
0.0
 10
3.9139898434
 20
7.1022818924
 30
0.0
 10
3.9082262794
 20
7.1291237446
 30
0.0
 10
3.902995534
 20
7.1490495411
 30
0.0
 10
3.899189097
 20
7.1622354256
 30
0.0
  0
SPLINE
  5
30F
100
AcDbEntity
  8
0
100
AcDbSpline
 62
7
  6
CONTINUOUS
 70
0
 71
3
 72
29
 73
25
 74
0
 42
0.0000001
 43
0.0000001
 44
0.0000000001
 40
0.0
 40
0.0
 40
0.0
 40
0.0
 40
0.0624904563
 40
0.124986907
 40
0.1874824592
 40
0.2499774484
 40
0.3124737491
 40
0.343727532
 40
0.3749816508
 40
0.4062351141
 40
0.4374899104
 40
0.4687452438
 40
0.5000000338
 40
0.5312548209
 40
0.562510151
 40
0.5937649481
 40
0.6250184069
 40
0.6562725173
 40
0.6875262971
 40
0.7500225805
 40
0.8125175578
 40
0.8750130976
 40
0.937509544
 40
1.0
 40
1.0
 40
1.0
 40
1.0
 10
3.7975313586
 20
6.8377645744
 30
0.0
 10
3.7943733946
 20
6.8440805025
 30
0.0
 10
3.7882766793
 20
6.8568246313
 30
0.0
 10
3.7799097211
 20
6.8762947767
 30
0.0
 10
3.7724461736
 20
6.8961319207
 30
0.0
 10
3.7660346907
 20
6.9163355535
 30
0.0
 10
3.7616923955
 20
6.9334620213
 30
0.0
 10
3.7588970437
 20
6.9473104666
 30
0.0
 10
3.7571545947
 20
6.9577634496
 30
0.0
 10
3.7557811819
 20
6.968271489
 30
0.0
 10
3.7547924333
 20
6.9788229566
 30
0.0
 10
3.7541946516
 20
6.9894039589
 30
0.0
 10
3.7539934365
 20
7.0000000111
 30
0.0
 10
3.7541946487
 20
7.0105960632
 30
0.0
 10
3.754792438
 20
7.0211770644
 30
0.0
 10
3.755781184
 20
7.0317285313
 30
0.0
 10
3.7571545948
 20
7.0422365698
 30
0.0
 10
3.7588970482
 20
7.0526895502
 30
0.0
 10
3.7616923985
 20
7.0665379924
 30
0.0
 10
3.766034693
 20
7.0836644567
 30
0.0
 10
3.7724461762
 20
7.1038680844
 30
0.0
 10
3.7799097218
 20
7.1237052256
 30
0.0
 10
3.7882766797
 20
7.1431753692
 30
0.0
 10
3.7943733946
 20
7.1559194975
 30
0.0
 10
3.7975313586
 20
7.1622354256
 30
0.0
  0
SPLINE
  5
310
100
AcDbEntity
  8
0
100
AcDbSpline
 62
7
  6
CONTINUOUS
 70
0
 71
3
 72
25
 73
21
 74
0
 42
0.0000001
 43
0.0000001
 44
0.0000000001
 40
0.0
 40
0.0
 40
0.0
 40
0.0
 40
0.0659343996
 40
0.1307786338
 40
0.1945190869
 40
0.2571884297
 40
0.3188803748
 40
0.3494111547
 40
0.3797624252
 40
0.4400381959
 40
0.5000000142
 40
0.5599618336
 40
0.6202376013
 40
0.6505888715
 40
0.68111965
 40
0.7428115909
 40
0.8054809287
 40
0.8692213713
 40
0.9340656013
 40
1.0
 40
1.0
 40
1.0
 40
1.0
 10
3.899189097
 20
7.1622354256
 30
0.0
 10
3.9010770664
 20
7.1655054845
 30
0.0
 10
3.9046954374
 20
7.1720658448
 30
0.0
 10
3.9096268463
 20
7.1820593374
 30
0.0
 10
3.913955963
 20
7.1921265331
 30
0.0
 10
3.9176171152
 20
7.2022648803
 30
0.0
 10
3.9200673727
 20
7.210798545
 30
0.0
 10
3.9216276373
 20
7.2176441133
 30
0.0
 10
3.9229079111
 20
7.2244649134
 30
0.0
 10
3.923994727
 20
7.2330305531
 30
0.0
 10
3.9244320033
 20
7.243353141
 30
0.0
 10
3.9239947278
 20
7.2536757287
 30
0.0
 10
3.92290791
 20
7.2622413681
 30
0.0
 10
3.9216276352
 20
7.2690621677
 30
0.0
 10
3.9200673737
 20
7.2759077364
 30
0.0
 10
3.9176171127
 20
7.2844413995
 30
0.0
 10
3.9139559629
 20
7.2945797463
 30
0.0
 10
3.9096268456
 20
7.3046469406
 30
0.0
 10
3.9046954371
 20
7.3146404323
 30
0.0
 10
3.9010770663
 20
7.3212007924
 30
0.0
 10
3.899189097
 20
7.3244708513
 30
0.0
  0
SPLINE
  5
311
100
AcDbEntity
  8
0
100
AcDbSpline
 62
7
  6
CONTINUOUS
 70
0
 71
3
 72
11
 73
7
 74
0
 42
0.0000001
 43
0.0000001
 44
0.0000000001
 40
0.0
 40
0.0
 40
0.0
 40
0.0
 40
0.2314269739
 40
0.4753332716
 40
0.7317971917
 40
1.0
 40
1.0
 40
1.0
 40
1.0
 10
6.0687718904
 20
7.1915005895
 30
0.0
 10
6.0671902314
 20
7.1926565932
 30
0.0
 10
6.0637813352
 20
7.1948166165
 30
0.0
 10
6.0581995288
 20
7.1975275502
 30
0.0
 10
6.0520904012
 20
7.1997910699
 30
0.0
 10
6.0478044672
 20
7.2009765183
 30
0.0
 10
6.0455954339
 20
7.2015007902
 30
0.0
  0
SPLINE
  5
312
100
AcDbEntity
  8
0
100
AcDbSpline
 62
7
  6
CONTINUOUS
 70
0
 71
3
 72
11
 73
7
 74
0
 42
0.0000001
 43
0.0000001
 44
0.0000000001
 40
0.0
 40
0.0
 40
0.0
 40
0.0
 40
0.2424496811
 40
0.4912576175
 40
0.7446201023
 40
1.0
 40
1.0
 40
1.0
 40
1.0
 10
6.0455954339
 20
7.2015007902
 30
0.0
 10
6.0435709635
 20
7.2019812596
 30
0.0
 10
6.0394349853
 20
7.2028160623
 30
0.0
 10
6.0331021797
 20
7.2036971712
 30
0.0
 10
6.026619115
 20
7.2042253346
 30
0.0
 10
6.0222521791
 20
7.2043429367
 30
0.0
 10
6.0200605073
 20
7.2043429367
 30
0.0
  0
SPLINE
  5
313
100
AcDbEntity
  8
0
100
AcDbSpline
 62
7
  6
CONTINUOUS
 70
0
 71
3
 72
15
 73
11
 74
0
 42
0.0000001
 43
0.0000001
 44
0.0000000001
 40
0.0
 40
0.0
 40
0.0
 40
0.0
 40
0.1100874803
 40
0.2236621289
 40
0.3414764639
 40
0.4639619316
 40
0.5912293174
 40
0.7232031661
 40
0.8596490479
 40
1.0
 40
1.0
 40
1.0
 40
1.0
 10
6.0825602143
 20
7.2209705988
 30
0.0
 10
6.0825602084
 20
7.219331112
 30
0.0
 10
6.0822969785
 20
7.2159952995
 30
0.0
 10
6.0811499504
 20
7.211024147
 30
0.0
 10
6.079267887
 20
7.2060848324
 30
0.0
 10
6.0766773017
 20
7.2012470763
 30
0.0
 10
6.0734140546
 20
7.1965769721
 30
0.0
 10
6.0695175241
 20
7.192140946
 30
0.0
 10
6.065034946
 20
7.1880069286
 30
0.0
 10
6.0617339768
 20
7.1855246931
 30
0.0
 10
6.0600047836
 20
7.1843504798
 30
0.0
  0
SPLINE
  5
314
100
AcDbEntity
  8
0
100
AcDbSpline
 62
7
  6
CONTINUOUS
 70
0
 71
3
 72
11
 73
7
 74
0
 42
0.0000001
 43
0.0000001
 44
0.0000000001
 40
0.0
 40
0.0
 40
0.0
 40
0.0
 40
0.261791299
 40
0.5170422252
 40
0.7636746451
 40
1.0
 40
1.0
 40
1.0
 40
1.0
 10
6.0200605073
 20
6.8210364863
 30
0.0
 10
6.0235855336
 20
6.8216231175
 30
0.0
 10
6.0306399618
 20
6.8222976294
 30
0.0
 10
6.0410893967
 20
6.8217328097
 30
0.0
 10
6.050981074
 20
6.819596787
 30
0.0
 10
6.0571355159
 20
6.8171238586
 30
0.0
 10
6.0600047836
 20
6.8156495202
 30
0.0
  0
SPLINE
  5
315
100
AcDbEntity
  8
0
100
AcDbSpline
 62
7
  6
CONTINUOUS
 70
0
 71
3
 72
11
 73
7
 74
0
 42
0.0000001
 43
0.0000001
 44
0.0000000001
 40
0.0
 40
0.0
 40
0.0
 40
0.0
 40
0.2495431182
 40
0.59122688
 40
0.8846140923
 40
1.0
 40
1.0
 40
1.0
 40
1.0
 10
5.9300605073
 20
6.6579323897
 30
0.0
 10
5.9360560995
 20
6.6599317937
 30
0.0
 10
5.9503685078
 20
6.6643527799
 30
0.0
 10
5.9721409824
 20
6.6697184914
 30
0.0
 10
5.9908817226
 20
6.6729775393
 30
0.0
 10
6.0011559761
 20
6.6742619649
 30
0.0
 10
6.0040605073
 20
6.6745842461
 30
0.0
  0
SPLINE
  5
316
100
AcDbEntity
  8
0
100
AcDbSpline
 62
7
  6
CONTINUOUS
 70
0
 71
3
 72
22
 73
18
 74
0
 42
0.0000001
 43
0.0000001
 44
0.0000000001
 40
0.0
 40
0.0
 40
0.0
 40
0.0
 40
0.0676899615
 40
0.1358629057
 40
0.2724061298
 40
0.3404491397
 40
0.4080008259
 40
0.474802942
 40
0.5405867589
 40
0.605080964
 40
0.6680004244
 40
0.729069448
 40
0.7880308093
 40
0.8446748861
 40
0.8988720273
 40
0.9505990844
 40
1.0
 40
1.0
 40
1.0
 40
1.0
 10
6.0200605073
 20
7.1789635137
 30
0.0
 10
6.0180131973
 20
7.1793042249
 30
0.0
 10
6.0139298557
 20
7.1801559443
 30
0.0
 10
6.0059046531
 20
7.1824919487
 30
0.0
 10
5.9981580183
 20
7.1857408754
 30
0.0
 10
5.9908559137
 20
7.1897893187
 30
0.0
 10
5.9856541838
 20
7.1931842304
 30
0.0
 10
5.9807669356
 20
7.1969039455
 30
0.0
 10
5.9762346382
 20
7.2009089706
 30
0.0
 10
5.9720990357
 20
7.2051581346
 30
0.0
 10
5.9683999158
 20
7.2096063801
 30
0.0
 10
5.9651785319
 20
7.2142069844
 30
0.0
 10
5.9624720368
 20
7.2189084124
 30
0.0
 10
5.9603185157
 20
7.2236581447
 30
0.0
 10
5.9587471455
 20
7.2283996387
 30
0.0
 10
5.95778733
 20
7.2330759432
 30
0.0
 10
5.9575607105
 20
7.2361798414
 30
0.0
 10
5.957560547
 20
7.237694541
 30
0.0
  0
SPLINE
  5
317
100
AcDbEntity
  8
0
100
AcDbSpline
 62
7
  6
CONTINUOUS
 70
0
 71
3
 72
11
 73
7
 74
0
 42
0.0000001
 43
0.0000001
 44
0.0000000001
 40
0.0
 40
0.0
 40
0.0
 40
0.0
 40
0.2363254009
 40
0.4829578622
 40
0.7382087496
 40
1.0
 40
1.0
 40
1.0
 40
1.0
 10
6.0600047836
 20
7.1843504798
 30
0.0
 10
6.0571355153
 20
7.1828761411
 30
0.0
 10
6.0509810723
 20
7.1804032123
 30
0.0
 10
6.0410893942
 20
7.1782671899
 30
0.0
 10
6.03063996
 20
7.1777023707
 30
0.0
 10
6.023585533
 20
7.1783768826
 30
0.0
 10
6.0200605073
 20
7.1789635137
 30
0.0
  0
SPLINE
  5
318
100
AcDbEntity
  8
0
100
AcDbSpline
 62
7
  6
CONTINUOUS
 70
0
 71
3
 72
15
 73
11
 74
0
 42
0.0000001
 43
0.0000001
 44
0.0000000001
 40
0.0
 40
0.0
 40
0.0
 40
0.0
 40
0.1403515508
 40
0.2767977035
 40
0.4087708166
 40
0.5360375841
 40
0.6585229882
 40
0.7763374478
 40
0.8899123411
 40
1.0
 40
1.0
 40
1.0
 40
1.0
 10
6.0600047836
 20
6.8156495202
 30
0.0
 10
6.0617339942
 20
6.814475295
 30
0.0
 10
6.065034989
 20
6.8119930316
 30
0.0
 10
6.0695175934
 20
6.8078589874
 30
0.0
 10
6.0734141297
 20
6.803422941
 30
0.0
 10
6.0766773642
 20
6.7987528137
 30
0.0
 10
6.0792679556
 20
6.7939150336
 30
0.0
 10
6.0811500029
 20
6.7889756745
 30
0.0
 10
6.0822970184
 20
6.7840044797
 30
0.0
 10
6.0825602201
 20
6.7806686387
 30
0.0
 10
6.0825602143
 20
6.7790291397
 30
0.0
  0
SPLINE
  5
319
100
AcDbEntity
  8
0
100
AcDbSpline
 62
7
  6
CONTINUOUS
 70
0
 71
3
 72
11
 73
7
 74
0
 42
0.0000001
 43
0.0000001
 44
0.0000000001
 40
0.0
 40
0.0
 40
0.0
 40
0.0
 40
0.2637271662
 40
0.5198302776
 40
0.7658441159
 40
1.0
 40
1.0
 40
1.0
 40
1.0
 10
6.0105034578
 20
7.2039655905
 30
0.0
 10
6.0078405846
 20
7.2037537316
 30
0.0
 10
6.0026039362
 20
7.2031574496
 30
0.0
 10
5.9949746049
 20
7.2017130714
 30
0.0
 10
5.9877765446
 20
7.1997292238
 30
0.0
 10
5.9832197555
 20
7.1980005992
 30
0.0
 10
5.9810527277
 20
7.1970366287
 30
0.0
  0
SPLINE
  5
31A
100
AcDbEntity
  8
0
100
AcDbSpline
 62
7
  6
CONTINUOUS
 70
0
 71
3
 72
11
 73
7
 74
0
 42
0.0000001
 43
0.0000001
 44
0.0000000001
 40
0.0
 40
0.0
 40
0.0
 40
0.0
 40
0.2553816596
 40
0.5087449671
 40
0.7575520362
 40
1.0
 40
1.0
 40
1.0
 40
1.0
 10
6.0200605073
 20
6.7956570633
 30
0.0
 10
6.0222522678
 20
6.7956570633
 30
0.0
 10
6.0266193726
 20
6.7957746754
 30
0.0
 10
6.0331026684
 20
6.7963028778
 30
0.0
 10
6.0394356673
 20
6.7971840485
 30
0.0
 10
6.0435717558
 20
6.7980189096
 30
0.0
 10
6.0455962754
 20
6.7984994105
 30
0.0
  0
SPLINE
  5
31B
100
AcDbEntity
  8
0
100
AcDbSpline
 62
7
  6
CONTINUOUS
 70
0
 71
3
 72
11
 73
7
 74
0
 42
0.0000001
 43
0.0000001
 44
0.0000000001
 40
0.0
 40
0.0
 40
0.0
 40
0.0
 40
0.2682020219
 40
0.5246646106
 40
0.7685710043
 40
1.0
 40
1.0
 40
1.0
 40
1.0
 10
6.0455962754
 20
6.7984994105
 30
0.0
 10
6.0478053052
 20
6.7990237033
 30
0.0
 10
6.0520912266
 20
6.8002091901
 30
0.0
 10
6.058200331
 20
6.80247279
 30
0.0
 10
6.0637821271
 20
6.8051838128
 30
0.0
 10
6.0671910049
 20
6.8073439267
 30
0.0
 10
6.0687726601
 20
6.8084999762
 30
0.0
  0
SPLINE
  5
31C
100
AcDbEntity
  8
0
100
AcDbSpline
 62
7
  6
CONTINUOUS
 70
0
 71
3
 72
11
 73
7
 74
0
 42
0.0000001
 43
0.0000001
 44
0.0000000001
 40
0.0
 40
0.0
 40
0.0
 40
0.0
 40
0.2341524795
 40
0.4801654609
 40
0.7362707165
 40
1.0
 40
1.0
 40
1.0
 40
1.0
 10
5.9810492089
 20
6.8029649386
 30
0.0
 10
5.9832164164
 20
6.8020007262
 30
0.0
 10
5.9877736592
 20
6.800271687
 30
0.0
 10
5.9949725404
 20
6.7982873705
 30
0.0
 10
6.0026028421
 20
6.7968426906
 30
0.0
 10
6.007840187
 20
6.7962463011
 30
0.0
 10
6.0105034149
 20
6.7960344126
 30
0.0
  0
SPLINE
  5
31D
100
AcDbEntity
  8
0
100
AcDbSpline
 62
7
  6
CONTINUOUS
 70
0
 71
3
 72
22
 73
18
 74
0
 42
0.0000001
 43
0.0000001
 44
0.0000000001
 40
0.0
 40
0.0
 40
0.0
 40
0.0
 40
0.0494009382
 40
0.1011282146
 40
0.1553260594
 40
0.2119703088
 40
0.2709322651
 40
0.3320013751
 40
0.3949210906
 40
0.4594150476
 40
0.5251986419
 40
0.5920004812
 40
0.6595517374
 40
0.7275941602
 40
0.8641376738
 40
0.9323109302
 40
1.0
 40
1.0
 40
1.0
 40
1.0
 10
5.9575606066
 20
6.7623053746
 30
0.0
 10
5.9575608261
 20
6.7638200761
 30
0.0
 10
5.9577872012
 20
6.7669239992
 30
0.0
 10
5.9587472289
 20
6.7716003064
 30
0.0
 10
5.960318482
 20
6.7763418687
 30
0.0
 10
5.9624720883
 20
6.7810916233
 30
0.0
 10
5.965178565
 20
6.785793094
 30
0.0
 10
5.9684000015
 20
6.7903937039
 30
0.0
 10
5.9720991149
 20
6.7948419635
 30
0.0
 10
5.9762347338
 20
6.7990911095
 30
0.0
 10
5.9807670119
 20
6.8030961292
 30
0.0
 10
5.9856542622
 20
6.8068158027
 30
0.0
 10
5.9908559541
 20
6.8102107077
 30
0.0
 10
5.9981580466
 20
6.8142591421
 30
0.0
 10
6.0059046942
 20
6.8175080591
 30
0.0
 10
6.013929899
 20
6.8198440449
 30
0.0
 10
6.0180132226
 20
6.8206957793
 30
0.0
 10
6.0200605073
 20
6.8210364863
 30
0.0
  0
SPLINE
  5
31E
100
AcDbEntity
  8
0
100
AcDbSpline
 62
7
  6
CONTINUOUS
 70
0
 71
3
 72
13
 73
9
 74
0
 42
0.0000001
 43
0.0000001
 44
0.0000000001
 40
0.0
 40
0.0
 40
0.0
 40
0.0
 40
0.1153885487
 40
0.2469100747
 40
0.4088078704
 40
0.5827785682
 40
0.7504952772
 40
1.0
 40
1.0
 40
1.0
 40
1.0
 10
6.0040605073
 20
7.3254157539
 30
0.0
 10
6.0011555113
 20
7.3257382282
 30
0.0
 10
5.9949490042
 20
7.3265140566
 30
0.0
 10
5.9847138687
 20
7.3280946348
 30
0.0
 10
5.9730781699
 20
7.330291676
 30
0.0
 10
5.9606362712
 20
7.3331165694
 30
0.0
 10
5.9461576918
 20
7.3369480269
 30
0.0
 10
5.936055739
 20
7.3400683266
 30
0.0
 10
5.9300605073
 20
7.3420676103
 30
0.0
  0
SPLINE
  5
31F
100
AcDbEntity
  8
0
100
AcDbSpline
 62
7
  6
CONTINUOUS
 70
0
 71
3
 72
19
 73
15
 74
0
 42
0.0000001
 43
0.0000001
 44
0.0000000001
 40
0.0
 40
0.0
 40
0.0
 40
0.0
 40
0.1179927139
 40
0.2348953228
 40
0.2935166059
 40
0.352502156
 40
0.4120628447
 40
0.4723968675
 40
0.5336824491
 40
0.5960810855
 40
0.7247200049
 40
0.7912484267
 40
0.8593140515
 40
1.0
 40
1.0
 40
1.0
 40
1.0
 10
6.0825602143
 20
6.7790291397
 30
0.0
 10
6.0825602085
 20
6.7774249597
 30
0.0
 10
6.0823133396
 20
6.774225402
 30
0.0
 10
6.0813642938
 20
6.7703306775
 30
0.0
 10
6.0802419272
 20
6.7673434076
 30
0.0
 10
6.0792171173
 20
6.7651607152
 30
0.0
 10
6.0780141108
 20
6.7630443955
 30
0.0
 10
6.076637639
 20
6.7609989145
 30
0.0
 10
6.0750919743
 20
6.7590288294
 30
0.0
 10
6.0727888469
 20
6.7564834011
 30
0.0
 10
6.0701809501
 20
6.7541296597
 30
0.0
 10
6.0673198215
 20
6.7519774894
 30
0.0
 10
6.0642045998
 20
6.7499003073
 30
0.0
 10
6.0617182204
 20
6.74851862
 30
0.0
 10
6.0600047836
 20
6.74766857
 30
0.0
  0
SPLINE
  5
320
100
AcDbEntity
  8
0
100
AcDbSpline
 62
7
  6
CONTINUOUS
 70
0
 71
3
 72
26
 73
22
 74
0
 42
0.0000001
 43
0.0000001
 44
0.0000000001
 40
0.0
 40
0.0
 40
0.0
 40
0.0
 40
0.0780607143
 40
0.1546451487
 40
0.2292796083
 40
0.301640364
 40
0.3714573987
 40
0.4385305418
 40
0.502762246
 40
0.5641626344
 40
0.6228672108
 40
0.6791463222
 40
0.7334371435
 40
0.7600354011
 40
0.7863766736
 40
0.8125597138
 40
0.8386854759
 40
0.8648601622
 40
0.8911942957
 40
0.94470765
 40
1.0
 40
1.0
 40
1.0
 40
1.0
 10
6.0200605073
 20
6.7326481387
 30
0.0
 10
6.0180367955
 20
6.7323113546
 30
0.0
 10
6.0140088605
 20
6.7317514487
 30
0.0
 10
6.0080006732
 20
6.7312526847
 30
0.0
 10
6.0021229271
 20
6.7311075402
 30
0.0
 10
5.9964248408
 20
6.7313206643
 30
0.0
 10
5.9909510818
 20
6.7318967644
 30
0.0
 10
5.9857447891
 20
6.732840843
 30
0.0
 10
5.9808475466
 20
6.7341574006
 30
0.0
 10
5.9762999119
 20
6.7358505979
 30
0.0
 10
5.9721428204
 20
6.737924184
 30
0.0
 10
5.9684183308
 20
6.7403783624
 30
0.0
 10
5.9656918654
 20
6.7427570349
 30
0.0
 10
5.9637853358
 20
6.7448355433
 30
0.0
 10
5.9624997178
 20
6.7464727101
 30
0.0
 10
5.9613538068
 20
6.7481956315
 30
0.0
 10
5.9603512323
 20
6.7500007615
 30
0.0
 10
5.9594959139
 20
6.7518846537
 30
0.0
 10
5.9585526792
 20
6.7545093965
 30
0.0
 10
5.9577614098
 20
6.7579877331
 30
0.0
 10
5.957560396
 20
6.7608522148
 30
0.0
 10
5.9575606066
 20
6.7623053746
 30
0.0
  0
SPLINE
  5
321
100
AcDbEntity
  8
0
100
AcDbSpline
 62
7
  6
CONTINUOUS
 70
0
 71
3
 72
15
 73
11
 74
0
 42
0.0000001
 43
0.0000001
 44
0.0000000001
 40
0.0
 40
0.0
 40
0.0
 40
0.0
 40
0.1189343417
 40
0.2407839999
 40
0.364990208
 40
0.4910022317
 40
0.6181777988
 40
0.7458470131
 40
0.8733647443
 40
1.0
 40
1.0
 40
1.0
 40
1.0
 10
6.0600047836
 20
6.74766857
 30
0.0
 10
6.0585838165
 20
6.7467288518
 30
0.0
 10
6.0556429515
 20
6.7449218144
 30
0.0
 10
6.0510286925
 20
6.7424580596
 30
0.0
 10
6.0461909486
 20
6.7402158016
 30
0.0
 10
6.0411708126
 20
6.7382044413
 30
0.0
 10
6.0360093085
 20
6.7364315202
 30
0.0
 10
6.0307475064
 20
6.7349042108
 30
0.0
 10
6.0254272269
 20
6.7336287119
 30
0.0
 10
6.0218497951
 20
6.7329459101
 30
0.0
 10
6.0200605073
 20
6.7326481387
 30
0.0
  0
SPLINE
  5
322
100
AcDbEntity
  8
0
100
AcDbSpline
 62
7
  6
CONTINUOUS
 70
0
 71
3
 72
24
 73
20
 74
0
 42
0.0000001
 43
0.0000001
 44
0.0000000001
 40
0.0
 40
0.0
 40
0.0
 40
0.0
 40
0.0552948486
 40
0.1088112264
 40
0.1351459262
 40
0.1613224413
 40
0.2135931558
 40
0.2664971487
 40
0.3207921391
 40
0.3770758078
 40
0.4357858576
 40
0.497191836
 40
0.5614293233
 40
0.6285081212
 40
0.6983310835
 40
0.7706979817
 40
0.8453397034
 40
0.9219325974
 40
1.0
 40
1.0
 40
1.0
 40
1.0
 10
5.957560547
 20
7.237694541
 30
0.0
 10
5.9575603902
 20
7.2391476514
 30
0.0
 10
5.957761542
 20
7.2420120297
 30
0.0
 10
5.9585523461
 20
7.2454903022
 30
0.0
 10
5.9594959268
 20
7.2481149773
 30
0.0
 10
5.9606350693
 20
7.2506247288
 30
0.0
 10
5.9624400347
 20
7.2535860412
 30
0.0
 10
5.9651693448
 20
7.2567873603
 30
0.0
 10
5.9684176008
 20
7.2596210762
 30
0.0
 10
5.9721423997
 20
7.2620755428
 30
0.0
 10
5.9762993819
 20
7.2641491966
 30
0.0
 10
5.9808470942
 20
7.2658424519
 30
0.0
 10
5.9857443602
 20
7.2671590634
 30
0.0
 10
5.9909506876
 20
7.2681031818
 30
0.0
 10
5.9964244736
 20
7.2686793063
 30
0.0
 10
6.0021226158
 20
7.2688924669
 30
0.0
 10
6.008000472
 20
7.2687473298
 30
0.0
 10
6.0140087706
 20
7.2682485557
 30
0.0
 10
6.0180367823
 20
7.2676886476
 30
0.0
 10
6.0200605073
 20
7.2673518613
 30
0.0
  0
SPLINE
  5
323
100
AcDbEntity
  8
0
100
AcDbSpline
 62
7
  6
CONTINUOUS
 70
0
 71
3
 72
15
 73
11
 74
0
 42
0.0000001
 43
0.0000001
 44
0.0000000001
 40
0.0
 40
0.0
 40
0.0
 40
0.0
 40
0.126635246
 40
0.2541527016
 40
0.3818215117
 40
0.5089969437
 40
0.6350088699
 40
0.7592151243
 40
0.8810653036
 40
1.0
 40
1.0
 40
1.0
 40
1.0
 10
6.0200605073
 20
7.2673518613
 30
0.0
 10
6.0218497949
 20
7.26705409
 30
0.0
 10
6.0254272227
 20
7.2663712887
 30
0.0
 10
6.0307474928
 20
7.2650957929
 30
0.0
 10
6.0360092838
 20
7.2635684873
 30
0.0
 10
6.0411707798
 20
7.2617955705
 30
0.0
 10
6.046190914
 20
7.2597842133
 30
0.0
 10
6.0510286657
 20
7.2575419557
 30
0.0
 10
6.0556429351
 20
7.2550781925
 30
0.0
 10
6.0585838122
 20
7.253271151
 30
0.0
 10
6.0600047836
 20
7.25233143
 30
0.0
  0
SPLINE
  5
324
100
AcDbEntity
  8
0
100
AcDbSpline
 62
7
  6
CONTINUOUS
 70
0
 71
3
 72
19
 73
15
 74
0
 42
0.0000001
 43
0.0000001
 44
0.0000000001
 40
0.0
 40
0.0
 40
0.0
 40
0.0
 40
0.1406864514
 40
0.2087522792
 40
0.275280662
 40
0.4039187679
 40
0.4663169919
 40
0.5276023365
 40
0.5879362443
 40
0.6474969194
 40
0.7064825655
 40
0.7651039756
 40
0.8820068879
 40
1.0
 40
1.0
 40
1.0
 40
1.0
 10
6.0600047836
 20
7.25233143
 30
0.0
 10
6.0617182375
 20
7.2514813715
 30
0.0
 10
6.0642046391
 20
7.2500996665
 30
0.0
 10
6.0673198857
 20
7.2480224623
 30
0.0
 10
6.0701810251
 20
7.2458702831
 30
0.0
 10
6.0727889223
 20
7.2435165334
 30
0.0
 10
6.075092039
 20
7.2409710926
 30
0.0
 10
6.0766376997
 20
7.2390009972
 30
0.0
 10
6.0780141741
 20
7.2369555051
 30
0.0
 10
6.079217183
 20
7.234839169
 30
0.0
 10
6.0802419835
 20
7.2326564519
 30
0.0
 10
6.0813643453
 20
7.229669151
 30
0.0
 10
6.082313379
 20
7.2257743845
 30
0.0
 10
6.08256022
 20
7.2225747944
 30
0.0
 10
6.0825602143
 20
7.2209705988
 30
0.0
  0
SPLINE
  5
325
100
AcDbEntity
  8
0
100
AcDbSpline
 62
7
  6
CONTINUOUS
 70
0
 71
3
 72
18
 73
14
 74
0
 42
0.0000001
 43
0.0000001
 44
0.0000000001
 40
0.0
 40
0.0
 40
0.0
 40
0.0
 40
0.125692897
 40
0.2510079321
 40
0.3135392906
 40
0.3759969671
 40
0.500728483
 40
0.625345745
 40
0.6876681212
 40
0.7500182635
 40
0.8124146785
 40
0.8748702401
 40
1.0
 40
1.0
 40
1.0
 40
1.0
 10
4.6491241732
 20
7.0296137863
 30
0.0
 10
4.645264722
 20
7.0425755234
 30
0.0
 10
4.6381375319
 20
7.0686380317
 30
0.0
 10
4.6309570847
 20
7.1016203231
 30
0.0
 10
4.6264114615
 20
7.1281698906
 30
0.0
 10
4.6227155561
 20
7.1547874234
 30
0.0
 10
4.6197458334
 20
7.1882326941
 30
0.0
 10
4.6191329577
 20
7.2217919417
 30
0.0
 10
4.6200642334
 20
7.2486031398
 30
0.0
 10
4.6214698816
 20
7.2686861476
 30
0.0
 10
4.6235590146
 20
7.288723796
 30
0.0
 10
4.6272308418
 20
7.3153727619
 30
0.0
 10
4.6309348815
 20
7.3352297897
 30
0.0
 10
4.6337746365
 20
7.348390434
 30
0.0
  0
SPLINE
  5
326
100
AcDbEntity
  8
0
100
AcDbSpline
 62
7
  6
CONTINUOUS
 70
0
 71
3
 72
21
 73
17
 74
0
 42
0.0000001
 43
0.0000001
 44
0.0000000001
 40
0.0
 40
0.0
 40
0.0
 40
0.0
 40
0.1264560126
 40
0.1892875349
 40
0.2518383053
 40
0.3141389815
 40
0.3762244014
 40
0.4381542655
 40
0.5000000641
 40
0.5618458488
 40
0.6237757087
 40
0.6858611075
 40
0.7481617721
 40
0.8107125085
 40
0.8735439971
 40
1.0
 40
1.0
 40
1.0
 40
1.0
 10
5.0265605073
 20
7.0296137863
 30
0.0
 10
5.0342076447
 20
7.0444415588
 30
0.0
 10
5.0448180433
 20
7.0670957235
 30
0.0
 10
5.0566559772
 20
7.0981539187
 30
0.0
 10
5.0641959335
 20
7.1217545486
 30
0.0
 10
5.0702571768
 20
7.1456780355
 30
0.0
 10
5.0747122811
 20
7.1698717309
 30
0.0
 10
5.0774298974
 20
7.1942632535
 30
0.0
 10
5.0783515532
 20
7.2187580407
 30
0.0
 10
5.077429895
 20
7.2432528272
 30
0.0
 10
5.0747122761
 20
7.2676443444
 30
0.0
 10
5.0702571705
 20
7.2918380346
 30
0.0
 10
5.0641959244
 20
7.3157615116
 30
0.0
 10
5.0566559741
 20
7.3393621325
 30
0.0
 10
5.0448180375
 20
7.3704203158
 30
0.0
 10
5.0342076441
 20
7.3930744763
 30
0.0
 10
5.0265605073
 20
7.4079022477
 30
0.0
  0
SPLINE
  5
327
100
AcDbEntity
  8
0
100
AcDbSpline
 62
7
  6
CONTINUOUS
 70
0
 71
3
 72
18
 73
14
 74
0
 42
0.0000001
 43
0.0000001
 44
0.0000000001
 40
0.0
 40
0.0
 40
0.0
 40
0.0
 40
0.1251297872
 40
0.1875853504
 40
0.2499817689
 40
0.3123319144
 40
0.3746542895
 40
0.4992715556
 40
0.624003068
 40
0.6864607444
 40
0.7489920919
 40
0.8743071073
 40
1.0
 40
1.0
 40
1.0
 40
1.0
 10
4.6337746442
 20
6.6516095297
 30
0.0
 10
4.6309348882
 20
6.6647701784
 30
0.0
 10
4.6272308505
 20
6.6846272119
 30
0.0
 10
4.6235590131
 20
6.7112761831
 30
0.0
 10
4.6214698856
 20
6.7313138354
 30
0.0
 10
4.6200642354
 20
6.7513968459
 30
0.0
 10
4.6191329538
 20
6.7782080475
 30
0.0
 10
4.619745831
 20
6.8117672992
 30
0.0
 10
4.6227155601
 20
6.8452125731
 30
0.0
 10
4.6264114591
 20
6.8718301083
 30
0.0
 10
4.6309570833
 20
6.8983796754
 30
0.0
 10
4.6381375325
 20
6.9313619665
 30
0.0
 10
4.6452647217
 20
6.9574244755
 30
0.0
 10
4.6491241732
 20
6.9703862137
 30
0.0
  0
SPLINE
  5
328
100
AcDbEntity
  8
0
100
AcDbSpline
 62
7
  6
CONTINUOUS
 70
0
 71
3
 72
21
 73
17
 74
0
 42
0.0000001
 43
0.0000001
 44
0.0000000001
 40
0.0
 40
0.0
 40
0.0
 40
0.0
 40
0.1264560126
 40
0.1892875349
 40
0.2518383053
 40
0.3141389815
 40
0.3762244014
 40
0.4381542655
 40
0.5000000641
 40
0.5618458488
 40
0.6237757087
 40
0.6858611075
 40
0.7481617721
 40
0.8107125085
 40
0.8735439971
 40
1.0
 40
1.0
 40
1.0
 40
1.0
 10
5.0265605073
 20
6.5920977523
 30
0.0
 10
5.0342076447
 20
6.6069255248
 30
0.0
 10
5.0448180433
 20
6.6295796895
 30
0.0
 10
5.0566559772
 20
6.6606378847
 30
0.0
 10
5.0641959335
 20
6.6842385146
 30
0.0
 10
5.0702571768
 20
6.7081620015
 30
0.0
 10
5.0747122811
 20
6.7323556969
 30
0.0
 10
5.0774298974
 20
6.7567472195
 30
0.0
 10
5.0783515532
 20
6.7812420067
 30
0.0
 10
5.077429895
 20
6.8057367933
 30
0.0
 10
5.0747122761
 20
6.8301283104
 30
0.0
 10
5.0702571705
 20
6.8543220006
 30
0.0
 10
5.0641959244
 20
6.8782454777
 30
0.0
 10
5.0566559741
 20
6.9018460985
 30
0.0
 10
5.0448180375
 20
6.9329042818
 30
0.0
 10
5.0342076441
 20
6.9555584424
 30
0.0
 10
5.0265605073
 20
6.9703862137
 30
0.0
  0
ELLIPSE
  5
329
100
AcDbEntity
  8
0
100
AcDbEllipse
 62
7
  6
CONTINUOUS
 10
6.5120605073
 20
6.673
 30
0.0
 11
0.0
 21
0.035
 31
0.0
 40
1.0
 41
-4.7123889804
 42
-1.5707963268
  0
ELLIPSE
  5
32A
100
AcDbEntity
  8
0
100
AcDbEllipse
 62
7
  6
CONTINUOUS
 10
6.5120605073
 20
7.327
 30
0.0
 11
0.035
 21
-0.0
 31
0.0
 40
1.0
 41
0.0
 42
3.1415926536
  0
ELLIPSE
  5
32B
100
AcDbEntity
  8
0
100
AcDbEllipse
 62
7
  6
CONTINUOUS
 10
5.3890605073
 20
6.6145
 30
0.0
 11
-0.0
 21
0.035
 31
0.0
 40
1.0
 41
-4.7123889804
 42
-1.5707963268
  0
ELLIPSE
  5
32C
100
AcDbEntity
  8
0
100
AcDbEllipse
 62
7
  6
CONTINUOUS
 10
5.3890605073
 20
7.3855
 30
0.0
 11
0.035
 21
0.0
 31
0.0
 40
1.0
 41
0.0
 42
3.1415926536
  0
ENDSEC
  0
SECTION
  2
OBJECTS
  0
DICTIONARY
  5
C
100
AcDbDictionary
280
0
281
1
  3
ACAD_GROUP
350
D
  3
ACAD_MLINESTYLE
350
17
  3
ACAD_LAYOUT
350
1A
  3
ACAD_PLOTSETTINGS
350
19
  3
ACAD_PLOTSTYLENAME
350
E
  0
DICTIONARY
  5
D
102
{ACAD_REACTORS
330
C
102
}
100
AcDbDictionary
280
0
281
1
  0
ACDBDICTIONARYWDFLT
  5
E
102
{ACAD_REACTORS
330
C
102
}
100
AcDbDictionary
281
1
  3
Normal
350
F
100
AcDbDictionaryWithDefault
340
F
  0
DICTIONARY
  5
17
102
{ACAD_REACTORS
330
C
102
}
100
AcDbDictionary
280
0
281
1
  3
Standard
350
18
  0
DICTIONARY
  5
19
102
{ACAD_REACTORS
330
C
102
}
100
AcDbDictionary
281
1
  0
DICTIONARY
  5
1A
102
{ACAD_REACTORS
330
C
102
}
100
AcDbDictionary
281
1
  3
Model
350
32D
  3
Layout1
350
32E
  0
ACDBPLACEHOLDER
  5
F
102
{ACAD_REACTORS
330
E
102
}
  0
MLINESTYLE
  5
18
102
{ACAD_REACTORS
330
17
102
}
100
AcDbMlineStyle
  2
STANDARD
 70
0
  3

 62
256
 51
90.0
 52
90.0
 71
2
 49
0.5
 62
256
  6
BYLAYER
 49
-0.5
 62
256
  6
BYLAYER
  0
LAYOUT
  5
32D
102
{ACAD_REACTORS
330
1A
102
}
100
AcDbPlotSettings
  1

  2
none_device
  4
ANSI_B_(17.00_x_11.00_Inches)
  6

 40
0.0
 41
0.0
 42
0.0
 43
0.0
 44
431.8
 45
279.4
 46
0.0
 47
0.0
 48
0.0
 49
0.0
140
0.0
141
0.0
142
1.0
143
1.0
 70
1024
 72
0
 73
0
 74
0
  7

 75
0
147
1.0
148
0.0
149
0.0
100
AcDbLayout
  1
Model
 70
0
 71
0
 10
0.0
 20
0.0
 11
17.0
 21
11.0
 12
0.0
 22
0.0
 32
0.0
 14
0.0
 24
0.0
 34
0.0
 15
0.0
 25
0.0
 35
0.0
146
0.0
 13
0.0
 23
0.0
 33
0.0
 16
1.0
 26
0.0
 36
0.0
 17
0.0
 27
1.0
 37
0.0
 76
0
330
249
345
0
346
0
  0
LAYOUT
  5
32E
102
{ACAD_REACTORS
330
1A
102
}
100
AcDbPlotSettings
  1

  2
none_device
  4
ANSI_B_(17.00_x_11.00_Inches)
  6

 40
0.0
 41
0.0
 42
0.0
 43
0.0
 44
431.8
 45
279.4
 46
0.0
 47
0.0
 48
0.0
 49
0.0
140
0.0
141
0.0
142
1.0
143
1.0
 70
0
 72
0
 73
0
 74
0
  7

 75
0
147
1.0
148
0.0
149
0.0
100
AcDbLayout
  1
Layout1
 70
0
 71
1
 10
0.0
 20
0.0
 11
17.0
 21
11.0
 12
0.0
 22
0.0
 32
0.0
 14
0.0
 24
0.0
 34
0.0
 15
0.0
 25
0.0
 35
0.0
146
0.0
 13
0.0
 23
0.0
 33
0.0
 16
1.0
 26
0.0
 36
0.0
 17
0.0
 27
1.0
 37
0.0
 76
0
330
24A
345
0
346
0
  0
ENDSEC
  0
EOF
