999
DXF file: DTAFMHN224.dxf
999
Pro/ENGINEER 2021072 by Parametric Technology Corporation
  0
SECTION
  2
HEADER
  9
$ACADVER
  1
AC1032
  9
$DWGCODEPAGE
  3
ANSI_1252
  9
$EXTMAX
 10
17.0
 20
11.0
 30
0.0
  9
$EXTMIN
 10
0.0
 20
0.0
 30
0.0
  9
$LIMMIN
 10
0.0
 20
0.0
  9
$LIMMAX
 10
17.0
 20
11.0
  9
$VIEWCTR
 10
8.5
 20
5.5
  9
$VIEWSIZE
 40
11.0
  9
$CLAYER
  8
0
  9
$LTSCALE
 40
0.935
  9
$CELTYPE
  6
BYLAYER
  9
$DIMSCALE
 40
1.0
  9
$DIMASZ
 40
0.1875
  9
$DIMEXO
 40
0.0625
  9
$DIMDLI
 40
0.646
  9
$DIMEXE
 40
0.125
  9
$DIMCEN
 40
0.153
  9
$DIMLFAC
 40
1.0
  9
$DIMBLK
  1
_FILLED
  9
$DIMALT
 70
0
  9
$DIMALTF
 40
25.4
  9
$DIMTXT
 40
0.125
  9
$DIMTOL
 70
0
  9
$DIMLIM
 70
0
  9
$DIMTFAC
 40
1.0
  9
$DIMGAP
 40
0.09
  9
$DIMDSEP
 70
46
  9
$AUNITS
 70
0
  9
$PDMODE
 70
3
  9
$PDSIZE
 40
0.3125
  9
$HANDSEED
  5
368
  9
$TILEMODE
 70
1
  9
$MEASUREMENT
 70
0
  9
$INSUNITS
 70
1
  0
ENDSEC
  0
SECTION
  2
CLASSES
  0
CLASS
  1
ACDBDICTIONARYWDFLT
  2
AcDbDictionaryWithDefault
  3
AutoCAD 2000
 90
0
 91
1
280
0
281
0
  0
CLASS
  1
ACDBPLACEHOLDER
  2
AcDbPlaceHolder
  3
AutoCAD 2000
 90
0
 91
1
280
0
281
0
  0
CLASS
  1
LAYOUT
  2
AcDbLayout
  3
AutoCAD 2000
 90
0
 91
0
280
0
281
0
  0
ENDSEC
  0
SECTION
  2
TABLES
  0
TABLE
  2
VPORT
  5
8
100
AcDbSymbolTable
 70
2
  0
VPORT
  5
1F4
100
AcDbSymbolTableRecord
100
AcDbViewportTableRecord
  2
*ACTIVE
 70
0
 10
0.0
 20
0.0
 11
1.0
 21
1.0
 12
8.5
 22
5.5
 13
0.0
 23
0.0
 14
1.0
 24
1.0
 15
0.0
 25
0.0
 16
0.0
 26
0.0
 36
1.0
 17
0.0
 27
0.0
 37
0.0
 40
11.0
 41
1.5454545455
 42
50.0
 43
0.0
 44
0.0
 50
0.0
 51
0.0
 71
0
 72
100
 73
1
 74
1
 75
0
 76
0
 77
0
 78
0
  0
ENDTAB
  0
TABLE
  2
LTYPE
  5
5
100
AcDbSymbolTable
 70
6
  0
LTYPE
  5
14
100
AcDbSymbolTableRecord
100
AcDbLinetypeTableRecord
  2
BYBLOCK
 70
0
  3

 72
65
 73
0
 40
0.0
  0
LTYPE
  5
15
100
AcDbSymbolTableRecord
100
AcDbLinetypeTableRecord
  2
BYLAYER
 70
0
  3

 72
65
 73
0
 40
0.0
  0
LTYPE
  5
16
100
AcDbSymbolTableRecord
100
AcDbLinetypeTableRecord
  2
CONTINUOUS
 70
64
  3
Solid line
 72
65
 73
0
 40
0.0
  0
LTYPE
  5
1F5
100
AcDbSymbolTableRecord
100
AcDbLinetypeTableRecord
  2
CENTER
 70
64
  3
____ _ ____ _ ____ _ ____ _ ____ _ ____ _ ____
 72
65
 73
4
 40
0.6
 49
0.375
 74
0
 49
-0.075
 74
0
 49
0.075
 74
0
 49
-0.075
 74
0
  0
LTYPE
  5
1F6
100
AcDbSymbolTableRecord
100
AcDbLinetypeTableRecord
  2
HIDDEN
 70
64
  3
- - - - - - - - - - - - - - - - - - - -
 72
65
 73
2
 40
0.2
 49
0.1
 74
0
 49
-0.1
 74
0
  0
LTYPE
  5
1F7
100
AcDbSymbolTableRecord
100
AcDbLinetypeTableRecord
  2
PHANTOM
 70
64
  3
_____ _ _ _____ _ _ _____ _ _ _____
 72
65
 73
6
 40
0.8
 49
0.45
 74
0
 49
-0.05
 74
0
 49
0.1
 74
0
 49
-0.05
 74
0
 49
0.1
 74
0
 49
-0.05
 74
0
  0
LTYPE
  5
1F8
100
AcDbSymbolTableRecord
100
AcDbLinetypeTableRecord
  2
DOT
 70
64
  3
. . . . . . . . . . . . . . . . . . . .
 72
65
 73
2
 40
0.2
 49
0.1
 74
0
 49
-0.1
 74
0
  0
LTYPE
  5
1F9
100
AcDbSymbolTableRecord
100
AcDbLinetypeTableRecord
  2
DASHED
 70
64
  3
- - - - - - - - - - - - - - - - - - - -
 72
65
 73
2
 40
0.2
 49
0.1
 74
0
 49
-0.1
 74
0
  0
ENDTAB
  0
TABLE
  2
LAYER
  5
2
100
AcDbSymbolTable
 70
36
  0
LAYER
  5
10
100
AcDbSymbolTableRecord
100
AcDbLayerTableRecord
  2
0
 70
0
 62
7
  6
CONTINUOUS
370
-3
390
F
  0
LAYER
  5
1FA
100
AcDbSymbolTableRecord
100
AcDbLayerTableRecord
  2
DEFAULT_1
 70
0
 62
7
  6
CENTER
370
-3
390
F
  0
LAYER
  5
1FB
100
AcDbSymbolTableRecord
100
AcDbLayerTableRecord
  2
DEFAULT_2
 70
0
 62
8
  6
HIDDEN
370
-3
390
F
  0
LAYER
  5
1FC
100
AcDbSymbolTableRecord
100
AcDbLayerTableRecord
  2
DEFAULT_3
 70
0
 62
7
  6
PHANTOM
370
-3
390
F
  0
LAYER
  5
1FD
100
AcDbSymbolTableRecord
100
AcDbLayerTableRecord
  2
01_ALL_DTM_PLN
 70
0
 62
7
  6
CONTINUOUS
370
-3
390
F
  0
LAYER
  5
1FE
100
AcDbSymbolTableRecord
100
AcDbLayerTableRecord
  2
01__ASM_ALL_DTM_PLN
 70
0
 62
7
  6
CONTINUOUS
370
-3
390
F
  0
LAYER
  5
1FF
100
AcDbSymbolTableRecord
100
AcDbLayerTableRecord
  2
01__ASM_DEF_DTM_PLN
 70
0
 62
7
  6
CONTINUOUS
370
-3
390
F
  0
LAYER
  5
200
100
AcDbSymbolTableRecord
100
AcDbLayerTableRecord
  2
01___PRT_ALL_DTM_PLN
 70
0
 62
7
  6
CONTINUOUS
370
-3
390
F
  0
LAYER
  5
201
100
AcDbSymbolTableRecord
100
AcDbLayerTableRecord
  2
01___PRT_DEF_DTM_PLN
 70
0
 62
7
  6
CONTINUOUS
370
-3
390
F
  0
LAYER
  5
202
100
AcDbSymbolTableRecord
100
AcDbLayerTableRecord
  2
02_ALL_AXES
 70
0
 62
7
  6
CONTINUOUS
370
-3
390
F
  0
LAYER
  5
203
100
AcDbSymbolTableRecord
100
AcDbLayerTableRecord
  2
02__ASM_ALL_AXES
 70
0
 62
7
  6
CONTINUOUS
370
-3
390
F
  0
LAYER
  5
204
100
AcDbSymbolTableRecord
100
AcDbLayerTableRecord
  2
02___PRT_ALL_AXES
 70
0
 62
7
  6
CONTINUOUS
370
-3
390
F
  0
LAYER
  5
205
100
AcDbSymbolTableRecord
100
AcDbLayerTableRecord
  2
03_ALL_CURVES
 70
0
 62
7
  6
CONTINUOUS
370
-3
390
F
  0
LAYER
  5
206
100
AcDbSymbolTableRecord
100
AcDbLayerTableRecord
  2
03__ASM_ALL_CURVES
 70
0
 62
7
  6
CONTINUOUS
370
-3
390
F
  0
LAYER
  5
207
100
AcDbSymbolTableRecord
100
AcDbLayerTableRecord
  2
03___PRT_ALL_CURVES
 70
0
 62
7
  6
CONTINUOUS
370
-3
390
F
  0
LAYER
  5
208
100
AcDbSymbolTableRecord
100
AcDbLayerTableRecord
  2
04_ALL_DTM_PNT
 70
0
 62
7
  6
CONTINUOUS
370
-3
390
F
  0
LAYER
  5
209
100
AcDbSymbolTableRecord
100
AcDbLayerTableRecord
  2
04__ASM_ALL_DTM_PNT
 70
0
 62
7
  6
CONTINUOUS
370
-3
390
F
  0
LAYER
  5
20A
100
AcDbSymbolTableRecord
100
AcDbLayerTableRecord
  2
04___PRT_ALL_DTM_PNT
 70
0
 62
7
  6
CONTINUOUS
370
-3
390
F
  0
LAYER
  5
20B
100
AcDbSymbolTableRecord
100
AcDbLayerTableRecord
  2
05_ALL_DTM_CSYS
 70
0
 62
7
  6
CONTINUOUS
370
-3
390
F
  0
LAYER
  5
20C
100
AcDbSymbolTableRecord
100
AcDbLayerTableRecord
  2
05__ASM_ALL_DTM_CSYS
 70
0
 62
7
  6
CONTINUOUS
370
-3
390
F
  0
LAYER
  5
20D
100
AcDbSymbolTableRecord
100
AcDbLayerTableRecord
  2
05__ASM_DEF_DTM_CSYS
 70
0
 62
7
  6
CONTINUOUS
370
-3
390
F
  0
LAYER
  5
20E
100
AcDbSymbolTableRecord
100
AcDbLayerTableRecord
  2
05___PRT_ALL_DTM_CSYS
 70
0
 62
7
  6
CONTINUOUS
370
-3
390
F
  0
LAYER
  5
20F
100
AcDbSymbolTableRecord
100
AcDbLayerTableRecord
  2
05___PRT_DEF_DTM_CSYS
 70
0
 62
7
  6
CONTINUOUS
370
-3
390
F
  0
LAYER
  5
210
100
AcDbSymbolTableRecord
100
AcDbLayerTableRecord
  2
06_ALL_SURFS
 70
0
 62
7
  6
CONTINUOUS
370
-3
390
F
  0
LAYER
  5
211
100
AcDbSymbolTableRecord
100
AcDbLayerTableRecord
  2
06__ASM_ALL_SURFS
 70
0
 62
7
  6
CONTINUOUS
370
-3
390
F
  0
LAYER
  5
212
100
AcDbSymbolTableRecord
100
AcDbLayerTableRecord
  2
06___PRT_ALL_SURFS
 70
0
 62
7
  6
CONTINUOUS
370
-3
390
F
  0
LAYER
  5
213
100
AcDbSymbolTableRecord
100
AcDbLayerTableRecord
  2
07__ASM_ALL_SKELETONS
 70
0
 62
7
  6
CONTINUOUS
370
-3
390
F
  0
LAYER
  5
214
100
AcDbSymbolTableRecord
100
AcDbLayerTableRecord
  2
COPY_GEO_FET
 70
0
 62
7
  6
CONTINUOUS
370
-3
390
F
  0
LAYER
  5
215
100
AcDbSymbolTableRecord
100
AcDbLayerTableRecord
  2
COSMETIC
 70
0
 62
7
  6
CONTINUOUS
370
-3
390
F
  0
LAYER
  5
216
100
AcDbSymbolTableRecord
100
AcDbLayerTableRecord
  2
CUT_REF_SURF
 70
0
 62
7
  6
CONTINUOUS
370
-3
390
F
  0
LAYER
  5
217
100
AcDbSymbolTableRecord
100
AcDbLayerTableRecord
  2
DATUM
 70
0
 62
7
  6
CONTINUOUS
370
-3
390
F
  0
LAYER
  5
218
100
AcDbSymbolTableRecord
100
AcDbLayerTableRecord
  2
DATUMCURVES
 70
0
 62
7
  6
CONTINUOUS
370
-3
390
F
  0
LAYER
  5
219
100
AcDbSymbolTableRecord
100
AcDbLayerTableRecord
  2
DIMENSIONS
 70
0
 62
7
  6
CONTINUOUS
370
-3
390
F
  0
LAYER
  5
21A
100
AcDbSymbolTableRecord
100
AcDbLayerTableRecord
  2
DTM_500001
 70
0
 62
7
  6
CONTINUOUS
370
-3
390
F
  0
LAYER
  5
21B
100
AcDbSymbolTableRecord
100
AcDbLayerTableRecord
  2
DTM_500002
 70
0
 62
7
  6
CONTINUOUS
370
-3
390
F
  0
LAYER
  5
21C
100
AcDbSymbolTableRecord
100
AcDbLayerTableRecord
  2
DTM_500051
 70
0
 62
7
  6
CONTINUOUS
370
-3
390
F
  0
LAYER
  5
21D
100
AcDbSymbolTableRecord
100
AcDbLayerTableRecord
  2
DTM_515002
 70
0
 62
7
  6
CONTINUOUS
370
-3
390
F
  0
LAYER
  5
21E
100
AcDbSymbolTableRecord
100
AcDbLayerTableRecord
  2
DTM_530002
 70
0
 62
7
  6
CONTINUOUS
370
-3
390
F
  0
LAYER
  5
21F
100
AcDbSymbolTableRecord
100
AcDbLayerTableRecord
  2
GEOMETRICTOLERANCES
 70
0
 62
7
  6
CONTINUOUS
370
-3
390
F
  0
LAYER
  5
220
100
AcDbSymbolTableRecord
100
AcDbLayerTableRecord
  2
HIDDEN
 70
0
 62
7
  6
CONTINUOUS
370
-3
390
F
  0
LAYER
  5
221
100
AcDbSymbolTableRecord
100
AcDbLayerTableRecord
  2
HIDDEN_DRW
 70
0
 62
7
  6
CONTINUOUS
370
-3
390
F
  0
LAYER
  5
222
100
AcDbSymbolTableRecord
100
AcDbLayerTableRecord
  2
NONE
 70
0
 62
7
  6
CONTINUOUS
370
-3
390
F
  0
LAYER
  5
223
100
AcDbSymbolTableRecord
100
AcDbLayerTableRecord
  2
PARAMETERDIMENSIONS
 70
0
 62
7
  6
CONTINUOUS
370
-3
390
F
  0
LAYER
  5
224
100
AcDbSymbolTableRecord
100
AcDbLayerTableRecord
  2
PLANE
 70
0
 62
7
  6
CONTINUOUS
370
-3
390
F
  0
LAYER
  5
225
100
AcDbSymbolTableRecord
100
AcDbLayerTableRecord
  2
TEXT
 70
0
 62
7
  6
CONTINUOUS
370
-3
390
F
  0
LAYER
  5
226
100
AcDbSymbolTableRecord
100
AcDbLayerTableRecord
  2
THREAD
 70
0
 62
7
  6
CONTINUOUS
370
-3
390
F
  0
ENDTAB
  0
TABLE
  2
STYLE
  5
3
100
AcDbSymbolTable
 70
1
  0
STYLE
  5
11
100
AcDbSymbolTableRecord
100
AcDbTextStyleTableRecord
  2
STANDARD
 70
0
 40
0.0
 41
0.8
 50
0.0
 71
0
 42
0.2
  3
txt
  4

  0
STYLE
  5
227
100
AcDbSymbolTableRecord
100
AcDbTextStyleTableRecord
  2
TEXTSTYLE_1
 70
0
 40
0.0
 41
0.8
 50
0.0
 71
0
 42
0.2
  3
gdt
  4

  0
ENDTAB
  0
TABLE
  2
VIEW
  5
6
100
AcDbSymbolTable
 70
0
  0
ENDTAB
  0
TABLE
  2
UCS
  5
7
100
AcDbSymbolTable
 70
0
  0
ENDTAB
  0
TABLE
  2
APPID
  5
9
100
AcDbSymbolTable
 70
1
  0
APPID
  5
228
100
AcDbSymbolTableRecord
100
AcDbRegAppTableRecord
  2
ACAD
 70
0
  0
ENDTAB
  0
TABLE
  2
BLOCK_RECORD
  5
1
100
AcDbSymbolTable
 70
0
  0
BLOCK_RECORD
  5
229
100
AcDbSymbolTableRecord
100
AcDbBlockTableRecord
  2
*Model_Space
  0
BLOCK_RECORD
  5
22A
100
AcDbSymbolTableRecord
100
AcDbBlockTableRecord
  2
*Paper_Space
  0
BLOCK_RECORD
  5
22B
100
AcDbSymbolTableRecord
100
AcDbBlockTableRecord
  2
_FILLED
  0
BLOCK_RECORD
  5
22C
100
AcDbSymbolTableRecord
100
AcDbBlockTableRecord
  2
*D0
  0
ENDTAB
  0
TABLE
  2
DIMSTYLE
  5
A
100
AcDbSymbolTable
 70
1
100
AcDbDimStyleTable
 71
0
  0
DIMSTYLE
105
22D
100
AcDbSymbolTableRecord
100
AcDbDimStyleTableRecord
  2
STANDARD
 70
0
  3

  4

 40
1.0
 41
0.1875
 42
0.0625
 43
0.38
 44
0.125
 45
0.0
 46
0.0
 47
0.001
 48
0.001
140
0.125
141
0.09
142
0.0
143
25.4
144
1.0
145
0.0
146
1.0
147
0.09
 71
0
 72
0
 73
1
 74
1
 75
0
 76
0
 77
0
 78
4
 79
1
170
0
171
2
172
0
173
0
174
0
175
0
176
0
177
0
178
0
270
2
179
3
271
3
272
3
273
2
274
2
275
0
280
0
281
0
282
0
283
1
284
4
285
0
286
0
287
3
288
0
340
11
278
46
341
22B
342
22B
343
22B
344
22B
  0
DIMSTYLE
105
22E
100
AcDbSymbolTableRecord
100
AcDbDimStyleTableRecord
  2
DIMSTYLE_1
 70
0
  3

  4

 40
1.0
 41
0.1875
 42
0.0625
 43
0.38
 44
0.125
 45
0.0
 46
0.0
 47
0.0
 48
0.0
140
0.125
141
0.09
142
0.0
143
25.4
144
1.0
145
0.0
146
1.0
147
0.0625
 71
0
 72
0
 73
1
 74
1
 75
0
 76
0
 77
0
 78
4
 79
1
170
0
171
2
172
0
173
0
174
0
175
0
176
0
177
0
178
0
270
2
179
3
271
2
272
3
273
2
274
2
275
0
280
0
281
0
282
0
283
1
284
4
285
0
286
0
287
3
288
0
340
11
278
46
341
22B
342
22B
343
22B
344
22B
  0
ENDTAB
  0
ENDSEC
  0
SECTION
  2
BLOCKS
  0
BLOCK
  5
20
100
AcDbEntity
  8
0
100
AcDbBlockBegin
  2
*Model_Space
 70
0
 10
0.0
 20
0.0
 30
0.0
  3
*Model_Space
  1

  0
ENDBLK
  5
21
100
AcDbEntity
  8
0
100
AcDbBlockEnd
  0
BLOCK
  5
1C
100
AcDbEntity
  8
0
100
AcDbBlockBegin
  2
*Paper_Space
 70
0
 10
0.0
 20
0.0
 30
0.0
  3
*Paper_Space
  1

  0
ENDBLK
  5
1D
100
AcDbEntity
  8
0
100
AcDbBlockEnd
  0
BLOCK
  5
22F
100
AcDbEntity
  8
0
100
AcDbBlockBegin
  2
_FILLED
 70
64
 10
0.0
 20
0.0
  3
_FILLED
  1

  0
SOLID
  5
230
100
AcDbEntity
  8
0
  6
BYBLOCK
 62
0
100
AcDbTrace
 10
0.0
 20
0.0
 11
-1.0
 21
0.1666666667
 12
-1.0
 22
-0.1666666667
 13
-1.0
 23
-0.1666666667
  0
ENDBLK
  5
231
100
AcDbEntity
  8
0
  6
BYBLOCK
 62
0
100
AcDbBlockEnd
  0
BLOCK
  5
232
100
AcDbEntity
  8
0
100
AcDbBlockBegin
 62
6
  6
CONTINUOUS
  2
*D0
 70
65
 10
0.0
 20
0.0
  3
*D0
  1

  0
MTEXT
  5
233
100
AcDbEntity
  8
0
100
AcDbMText
 62
6
  6
CONTINUOUS
  7
STANDARD
 71
1
 72
1
 10
6.6485
 20
7.6386249933
 30
0.0
 11
1.0
 21
0.0
 31
0.0
 73
2
 44
0.9
  1
3.54 in (89,8 mm)
 40
0.125
 41
1.7
  0
LINE
  5
234
100
AcDbEntity
  8
0
100
AcDbLine
 62
6
  6
CONTINUOUS
 10
6.3985
 20
6.8886249933
 11
6.3985
 21
7.7011249933
  0
LINE
  5
235
100
AcDbEntity
  8
0
100
AcDbLine
 62
6
  6
CONTINUOUS
 10
2.8594999008
 20
6.5386249933
 11
2.8594999008
 21
7.7011249933
  0
LINE
  5
236
100
AcDbEntity
  8
0
100
AcDbLine
 62
6
  6
CONTINUOUS
 10
6.3985
 20
7.5761249933
 11
4.6289999504
 21
7.5761249933
  0
LINE
  5
237
100
AcDbEntity
  8
0
100
AcDbLine
 62
6
  6
CONTINUOUS
 10
4.6289999504
 20
7.5761249933
 11
6.586
 21
7.5761249933
  0
LINE
  5
238
100
AcDbEntity
  8
0
100
AcDbLine
 62
6
  6
CONTINUOUS
 10
2.8594999008
 20
7.5761249933
 11
4.6289999504
 21
7.5761249933
  0
INSERT
  5
239
100
AcDbEntity
  8
0
100
AcDbBlockReference
 62
6
  6
CONTINUOUS
  2
_FILLED
 10
6.3985
 20
7.5761249933
 41
0.1875
 42
0.1875
 43
0.1875
  0
INSERT
  5
23A
100
AcDbEntity
  8
0
100
AcDbBlockReference
 62
6
  6
CONTINUOUS
  2
_FILLED
 10
2.8594999008
 20
7.5761249933
 41
0.1875
 42
0.1875
 43
0.1875
 50
180.0
  0
ENDBLK
  5
23B
100
AcDbEntity
  8
0
  6
BYBLOCK
 62
0
100
AcDbBlockEnd
  0
ENDSEC
  0
SECTION
  2
ENTITIES
  0
DIMENSION
  5
23C
100
AcDbEntity
  8
0
100
AcDbDimension
 62
6
  6
CONTINUOUS
  2
*D0
 10
2.8594999008
 20
7.5761249933
 11
7.4985
 21
7.5761249933
 70
160
 71
1
 72
2
 41
0.9
 42
3.5390000992
  1
<> in (89,8 mm)
  3
DIMSTYLE_1
100
AcDbAlignedDimension
 13
6.3985
 23
6.8261249933
 14
2.8594999008
 24
6.4761249933
 50
180.0
100
AcDbRotatedDimension
  0
MTEXT
  5
23D
100
AcDbEntity
  8
0
100
AcDbMText
 62
2
  6
CONTINUOUS
  7
STANDARD
 71
1
 72
1
 10
7.4025
 20
6.5386249933
 30
0.0
 11
1.0
 21
0.0
 31
0.0
 73
2
 44
0.6
  1
Port 1\PValve
 40
0.125
 41
0.6
  0
MTEXT
  5
23E
100
AcDbEntity
  8
0
100
AcDbMText
 62
2
  6
CONTINUOUS
  7
STANDARD
 71
1
 72
1
 10
6.6365
 20
6.0386249933
 30
0.0
 11
1.0
 21
0.0
 31
0.0
 73
2
 44
0.6
  1
Port 2\PValve
 40
0.125
 41
0.6
  0
MTEXT
  5
23F
100
AcDbEntity
  8
0
100
AcDbMText
 62
2
  6
CONTINUOUS
  7
STANDARD
 71
1
 72
1
 10
6.6485
 20
7.3886249556
 30
0.0
 11
1.0
 21
0.0
 31
0.0
 73
2
 44
0.6
  1
 LOCATING SHOULDER
 40
0.125
 41
1.8
  0
LINE
  5
240
100
AcDbEntity
  8
0
100
AcDbLine
 62
7
  6
CONTINUOUS
 10
2.8595
 20
6.7486248465
 11
2.8595
 21
6.2036248465
  0
LINE
  5
241
100
AcDbEntity
  8
0
100
AcDbLine
 62
7
  6
CONTINUOUS
 10
3.1885
 20
5.9761248465
 11
3.2285750162
 21
5.9067128823
  0
LINE
  5
242
100
AcDbEntity
  8
0
100
AcDbLine
 62
7
  6
CONTINUOUS
 10
3.1675
 20
6.1981248465
 11
3.1675
 21
6.7541248465
  0
LINE
  5
243
100
AcDbEntity
  8
0
100
AcDbLine
 62
7
  6
CONTINUOUS
 10
3.1735
 20
6.0102006188
 11
3.1735
 21
6.174287613
  0
LINE
  5
244
100
AcDbEntity
  8
0
100
AcDbLine
 62
7
  6
CONTINUOUS
 10
3.1735
 20
6.2597567561
 11
3.1735
 21
6.3981978683
  0
LINE
  5
245
100
AcDbEntity
  8
0
100
AcDbLine
 62
7
  6
CONTINUOUS
 10
3.1735
 20
6.4217937307
 11
3.1735
 21
6.5230183074
  0
LINE
  5
246
100
AcDbEntity
  8
0
100
AcDbLine
 62
7
  6
CONTINUOUS
 10
3.1735
 20
6.54799288
 11
3.1735
 21
6.6916247168
  0
LINE
  5
247
100
AcDbEntity
  8
0
100
AcDbLine
 62
7
  6
CONTINUOUS
 10
3.1735
 20
6.7779620801
 11
3.1735
 21
6.9411294952
  0
LINE
  5
248
100
AcDbEntity
  8
0
100
AcDbLine
 62
7
  6
CONTINUOUS
 10
3.1735
 20
6.9414393653
 11
3.1735
 21
6.9417470065
  0
LINE
  5
249
100
AcDbEntity
  8
0
100
AcDbLine
 62
7
  6
CONTINUOUS
 10
3.1885
 20
6.9761248465
 11
3.1885
 21
5.9761248465
  0
LINE
  5
24A
100
AcDbEntity
  8
0
100
AcDbLine
 62
7
  6
CONTINUOUS
 10
3.1675
 20
6.1981248465
 11
3.1885
 21
6.1771248465
  0
LINE
  5
24B
100
AcDbEntity
  8
0
100
AcDbLine
 62
7
  6
CONTINUOUS
 10
3.2318012702
 20
5.9767023801
 11
3.2318012702
 21
5.9796310166
  0
LINE
  5
24C
100
AcDbEntity
  8
0
100
AcDbLine
 62
7
  6
CONTINUOUS
 10
3.2318012702
 20
6.1860923021
 11
3.2318012702
 21
6.1911648492
  0
LINE
  5
24D
100
AcDbEntity
  8
0
100
AcDbLine
 62
7
  6
CONTINUOUS
 10
3.2318012702
 20
6.4731962101
 11
3.2318012702
 21
6.4790534829
  0
LINE
  5
24E
100
AcDbEntity
  8
0
100
AcDbLine
 62
7
  6
CONTINUOUS
 10
3.2318012702
 20
6.7610848439
 11
3.2318012702
 21
6.7661573909
  0
LINE
  5
24F
100
AcDbEntity
  8
0
100
AcDbLine
 62
7
  6
CONTINUOUS
 10
3.2318012702
 20
6.9726186765
 11
3.2318012702
 21
6.9755473129
  0
LINE
  5
250
100
AcDbEntity
  8
0
100
AcDbLine
 62
7
  6
CONTINUOUS
 10
3.5185
 20
5.9767023801
 11
3.5185
 21
5.9796310166
  0
LINE
  5
251
100
AcDbEntity
  8
0
100
AcDbLine
 62
7
  6
CONTINUOUS
 10
3.5185
 20
6.1860923021
 11
3.5185
 21
6.1911648492
  0
LINE
  5
252
100
AcDbEntity
  8
0
100
AcDbLine
 62
7
  6
CONTINUOUS
 10
3.5185
 20
6.4731962101
 11
3.5185
 21
6.4790534829
  0
LINE
  5
253
100
AcDbEntity
  8
0
100
AcDbLine
 62
7
  6
CONTINUOUS
 10
3.5185
 20
6.7610848439
 11
3.5185
 21
6.7661573909
  0
LINE
  5
254
100
AcDbEntity
  8
0
100
AcDbLine
 62
7
  6
CONTINUOUS
 10
3.5185
 20
6.9726186765
 11
3.5185
 21
6.9755473129
  0
LINE
  5
255
100
AcDbEntity
  8
0
100
AcDbLine
 62
7
  6
CONTINUOUS
 10
3.1885
 20
6.9761248465
 11
3.2285750162
 21
7.0455368107
  0
LINE
  5
256
100
AcDbEntity
  8
0
100
AcDbLine
 62
7
  6
CONTINUOUS
 10
3.5385
 20
7.2223744389
 11
3.5385
 21
5.7298751535
  0
LINE
  5
257
100
AcDbEntity
  8
0
100
AcDbLine
 62
7
  6
CONTINUOUS
 10
3.5385
 20
5.7298748465
 11
5.5305
 21
5.7298748465
  0
LINE
  5
258
100
AcDbEntity
  8
0
100
AcDbLine
 62
7
  6
CONTINUOUS
 10
3.1674999999
 20
6.7541248464
 11
3.1885
 21
6.7751248465
  0
LINE
  5
259
100
AcDbEntity
  8
0
100
AcDbLine
 62
7
  6
CONTINUOUS
 10
7.0785
 20
6.2571248465
 11
7.0905
 21
6.2589182585
  0
LINE
  5
25A
100
AcDbEntity
  8
0
100
AcDbLine
 62
7
  6
CONTINUOUS
 10
3.5185
 20
5.9011323047
 11
3.2318012702
 21
5.9011323047
  0
LINE
  5
25B
100
AcDbEntity
  8
0
100
AcDbLine
 62
7
  6
CONTINUOUS
 10
3.5239483671
 20
5.9067594386
 11
3.228655654
 21
5.9067594386
  0
LINE
  5
25C
100
AcDbEntity
  8
0
100
AcDbLine
 62
7
  6
CONTINUOUS
 10
3.2306334189
 20
5.9747307923
 11
3.5204985171
 21
5.9747307923
  0
LINE
  5
25D
100
AcDbEntity
  8
0
100
AcDbLine
 62
7
  6
CONTINUOUS
 10
3.2318012702
 20
5.9767023801
 11
3.5185
 21
5.9767023801
  0
LINE
  5
25E
100
AcDbEntity
  8
0
100
AcDbLine
 62
7
  6
CONTINUOUS
 10
3.5185
 20
5.9796310166
 11
3.2318012702
 21
5.9796310166
  0
LINE
  5
25F
100
AcDbEntity
  8
0
100
AcDbLine
 62
7
  6
CONTINUOUS
 10
3.5239483671
 20
5.9903216753
 11
3.228655654
 21
5.9903216753
  0
LINE
  5
260
100
AcDbEntity
  8
0
100
AcDbLine
 62
7
  6
CONTINUOUS
 10
3.1885
 20
6.0102006188
 11
3.1735
 21
6.0102006188
  0
LINE
  5
261
100
AcDbEntity
  8
0
100
AcDbLine
 62
7
  6
CONTINUOUS
 10
3.1885
 20
6.0219082595
 11
3.1735
 21
6.0219082595
  0
LINE
  5
262
100
AcDbEntity
  8
0
100
AcDbLine
 62
7
  6
CONTINUOUS
 10
3.5385
 20
7.0311248465
 11
3.5240414796
 21
7.0455833669
  0
LINE
  5
263
100
AcDbEntity
  8
0
100
AcDbLine
 62
7
  6
CONTINUOUS
 10
3.1885
 20
6.0600488188
 11
3.1735
 21
6.0600488188
  0
LINE
  5
264
100
AcDbEntity
  8
0
100
AcDbLine
 62
7
  6
CONTINUOUS
 10
5.5328094011
 20
6.1011248465
 11
6.1190662433
 21
6.1011248465
  0
LINE
  5
265
100
AcDbEntity
  8
0
100
AcDbLine
 62
7
  6
CONTINUOUS
 10
6.0907760801
 20
6.1172677632
 11
5.5610995643
 21
6.1172677632
  0
LINE
  5
266
100
AcDbEntity
  8
0
100
AcDbLine
 62
7
  6
CONTINUOUS
 10
3.1885
 20
6.1255111796
 11
3.1735
 21
6.1255111796
  0
LINE
  5
267
100
AcDbEntity
  8
0
100
AcDbLine
 62
7
  6
CONTINUOUS
 10
6.3955
 20
6.1261248465
 11
6.1335
 21
6.1261248465
  0
LINE
  5
268
100
AcDbEntity
  8
0
100
AcDbLine
 62
7
  6
CONTINUOUS
 10
6.4355
 20
6.1491248465
 11
6.4214903811
 21
6.1491248465
  0
LINE
  5
269
100
AcDbEntity
  8
0
100
AcDbLine
 62
7
  6
CONTINUOUS
 10
6.5055
 20
6.1506248465
 11
6.5555
 21
6.1506248465
  0
LINE
  5
26A
100
AcDbEntity
  8
0
100
AcDbLine
 62
7
  6
CONTINUOUS
 10
3.1885
 20
6.1509246401
 11
3.1735
 21
6.1509246401
  0
LINE
  5
26B
100
AcDbEntity
  8
0
100
AcDbLine
 62
7
  6
CONTINUOUS
 10
6.7595
 20
6.1676248465
 11
6.6105
 21
6.1676248465
  0
LINE
  5
26C
100
AcDbEntity
  8
0
100
AcDbLine
 62
7
  6
CONTINUOUS
 10
3.1885
 20
6.1738421385
 11
3.1735
 21
6.1738421385
  0
LINE
  5
26D
100
AcDbEntity
  8
0
100
AcDbLine
 62
7
  6
CONTINUOUS
 10
3.1885
 20
6.174287613
 11
3.1735
 21
6.174287613
  0
LINE
  5
26E
100
AcDbEntity
  8
0
100
AcDbLine
 62
7
  6
CONTINUOUS
 10
3.228655654
 20
6.1788298056
 11
3.5239483671
 21
6.1788298056
  0
LINE
  5
26F
100
AcDbEntity
  8
0
100
AcDbLine
 62
7
  6
CONTINUOUS
 10
3.2318012702
 20
6.1860923021
 11
3.5185
 21
6.1860923021
  0
LINE
  5
270
100
AcDbEntity
  8
0
100
AcDbLine
 62
7
  6
CONTINUOUS
 10
3.5185
 20
6.1911648492
 11
3.2318012702
 21
6.1911648492
  0
LINE
  5
271
100
AcDbEntity
  8
0
100
AcDbLine
 62
7
  6
CONTINUOUS
 10
4.2375
 20
7.6892540157
 11
4.2375
 21
7.7931248465
  0
LINE
  5
272
100
AcDbEntity
  8
0
100
AcDbLine
 62
7
  6
CONTINUOUS
 10
4.8993948914
 20
8.1791248465
 11
4.8763008806
 21
8.1391248465
  0
LINE
  5
273
100
AcDbEntity
  8
0
100
AcDbLine
 62
7
  6
CONTINUOUS
 10
3.1675
 20
6.2036248465
 11
2.8595
 21
6.2036248465
  0
LINE
  5
274
100
AcDbEntity
  8
0
100
AcDbLine
 62
7
  6
CONTINUOUS
 10
3.5239483671
 20
6.2040544795
 11
3.228655654
 21
6.2040544795
  0
LINE
  5
275
100
AcDbEntity
  8
0
100
AcDbLine
 62
7
  6
CONTINUOUS
 10
6.5681152237
 20
6.2046248465
 11
6.5555
 21
6.2046248465
  0
LINE
  5
276
100
AcDbEntity
  8
0
100
AcDbLine
 62
7
  6
CONTINUOUS
 10
7.0375
 20
6.2571248465
 11
7.0785
 21
6.2571248465
  0
LINE
  5
277
100
AcDbEntity
  8
0
100
AcDbLine
 62
7
  6
CONTINUOUS
 10
6.7965
 20
6.2586248465
 11
6.802
 21
6.2586248465
  0
LINE
  5
278
100
AcDbEntity
  8
0
100
AcDbLine
 62
7
  6
CONTINUOUS
 10
6.895
 20
6.2586248465
 11
7.0205
 21
6.2586248465
  0
LINE
  5
279
100
AcDbEntity
  8
0
100
AcDbLine
 62
7
  6
CONTINUOUS
 10
7.0955
 20
6.2586248465
 11
7.1305
 21
6.2586248465
  0
LINE
  5
27A
100
AcDbEntity
  8
0
100
AcDbLine
 62
7
  6
CONTINUOUS
 10
3.1885
 20
6.2597567561
 11
3.1735
 21
6.2597567561
  0
LINE
  5
27B
100
AcDbEntity
  8
0
100
AcDbLine
 62
7
  6
CONTINUOUS
 10
3.1885
 20
6.3540621382
 11
3.1735
 21
6.3540621382
  0
LINE
  5
27C
100
AcDbEntity
  8
0
100
AcDbLine
 62
7
  6
CONTINUOUS
 10
4.3603184492
 20
7.7931248465
 11
4.3603184492
 21
7.711543109
  0
LINE
  5
27D
100
AcDbEntity
  8
0
100
AcDbLine
 62
7
  6
CONTINUOUS
 10
4.5665
 20
8.2301248465
 11
4.5721216334
 21
8.2701248465
  0
LINE
  5
27E
100
AcDbEntity
  8
0
100
AcDbLine
 62
7
  6
CONTINUOUS
 10
7.0255
 20
6.6933314345
 11
7.0375
 21
6.6951248465
  0
LINE
  5
27F
100
AcDbEntity
  8
0
100
AcDbLine
 62
7
  6
CONTINUOUS
 10
3.1885
 20
6.3981978683
 11
3.1735
 21
6.3981978683
  0
LINE
  5
280
100
AcDbEntity
  8
0
100
AcDbLine
 62
7
  6
CONTINUOUS
 10
3.1885
 20
6.4217937307
 11
3.1735
 21
6.4217937307
  0
LINE
  5
281
100
AcDbEntity
  8
0
100
AcDbLine
 62
7
  6
CONTINUOUS
 10
3.1885
 20
6.45553111
 11
3.1735
 21
6.45553111
  0
LINE
  5
282
100
AcDbEntity
  8
0
100
AcDbLine
 62
7
  6
CONTINUOUS
 10
3.1885
 20
6.4564105621
 11
3.1735
 21
6.4564105621
  0
LINE
  5
283
100
AcDbEntity
  8
0
100
AcDbLine
 62
7
  6
CONTINUOUS
 10
6.0907760801
 20
6.4599819298
 11
5.5610995643
 21
6.4599819298
  0
LINE
  5
284
100
AcDbEntity
  8
0
100
AcDbLine
 62
7
  6
CONTINUOUS
 10
3.228655654
 20
6.4615613743
 11
3.5239483671
 21
6.4615613743
  0
LINE
  5
285
100
AcDbEntity
  8
0
100
AcDbLine
 62
7
  6
CONTINUOUS
 10
3.2318012702
 20
6.4731962101
 11
3.5185
 21
6.4731962101
  0
LINE
  5
286
100
AcDbEntity
  8
0
100
AcDbLine
 62
7
  6
CONTINUOUS
 10
3.5185
 20
6.4790534829
 11
3.2318012702
 21
6.4790534829
  0
LINE
  5
287
100
AcDbEntity
  8
0
100
AcDbLine
 62
7
  6
CONTINUOUS
 10
3.1885
 20
6.4890258085
 11
3.1735
 21
6.4890258085
  0
LINE
  5
288
100
AcDbEntity
  8
0
100
AcDbLine
 62
7
  6
CONTINUOUS
 10
3.5239483671
 20
6.4906883188
 11
3.228655654
 21
6.4906883188
  0
LINE
  5
289
100
AcDbEntity
  8
0
100
AcDbLine
 62
7
  6
CONTINUOUS
 10
6.0907760801
 20
6.4922677632
 11
5.5610995643
 21
6.4922677632
  0
LINE
  5
28A
100
AcDbEntity
  8
0
100
AcDbLine
 62
7
  6
CONTINUOUS
 10
3.1885
 20
6.5219136977
 11
3.1735
 21
6.5219136977
  0
LINE
  5
28B
100
AcDbEntity
  8
0
100
AcDbLine
 62
7
  6
CONTINUOUS
 10
3.1885
 20
6.5230183074
 11
3.1735
 21
6.5230183074
  0
LINE
  5
28C
100
AcDbEntity
  8
0
100
AcDbLine
 62
7
  6
CONTINUOUS
 10
4.5535
 20
7.111184449
 11
4.5535
 21
7.306051846
  0
LINE
  5
28D
100
AcDbEntity
  8
0
100
AcDbLine
 62
7
  6
CONTINUOUS
 10
4.5665
 20
7.7931248465
 11
4.5665
 21
8.2301248465
  0
LINE
  5
28E
100
AcDbEntity
  8
0
100
AcDbLine
 62
7
  6
CONTINUOUS
 10
4.5985
 20
7.7931248465
 11
4.5985
 21
8.2301248465
  0
LINE
  5
28F
100
AcDbEntity
  8
0
100
AcDbLine
 62
7
  6
CONTINUOUS
 10
4.6026273797
 20
7.3060515851
 11
4.6026273797
 21
7.0761046736
  0
LINE
  5
290
100
AcDbEntity
  8
0
100
AcDbLine
 62
7
  6
CONTINUOUS
 10
3.1885
 20
6.54799288
 11
3.1735
 21
6.54799288
  0
LINE
  5
291
100
AcDbEntity
  8
0
100
AcDbLine
 62
7
  6
CONTINUOUS
 10
3.1885
 20
6.5757471407
 11
3.1735
 21
6.5757471407
  0
LINE
  5
292
100
AcDbEntity
  8
0
100
AcDbLine
 62
7
  6
CONTINUOUS
 10
3.1885
 20
6.5825133164
 11
3.1735
 21
6.5825133164
  0
LINE
  5
293
100
AcDbEntity
  8
0
100
AcDbLine
 62
7
  6
CONTINUOUS
 10
3.1885
 20
6.5912188478
 11
3.1735
 21
6.5912188478
  0
LINE
  5
294
100
AcDbEntity
  8
0
100
AcDbLine
 62
7
  6
CONTINUOUS
 10
7.0255
 20
6.2589182585
 11
7.0375
 21
6.2571248465
  0
LINE
  5
295
100
AcDbEntity
  8
0
100
AcDbLine
 62
7
  6
CONTINUOUS
 10
4.8393008806
 20
7.9541248465
 11
4.8393008806
 21
8.1091248465
  0
LINE
  5
296
100
AcDbEntity
  8
0
100
AcDbLine
 62
7
  6
CONTINUOUS
 10
3.5385
 20
5.9211248465
 11
3.5240414796
 21
5.9066663261
  0
LINE
  5
297
100
AcDbEntity
  8
0
100
AcDbLine
 62
7
  6
CONTINUOUS
 10
3.1885
 20
6.6916247168
 11
3.1735
 21
6.6916247168
  0
LINE
  5
298
100
AcDbEntity
  8
0
100
AcDbLine
 62
7
  6
CONTINUOUS
 10
6.7965
 20
6.6936248465
 11
6.802
 21
6.6936248465
  0
LINE
  5
299
100
AcDbEntity
  8
0
100
AcDbLine
 62
7
  6
CONTINUOUS
 10
6.895
 20
6.6936248465
 11
7.0205
 21
6.6936248465
  0
LINE
  5
29A
100
AcDbEntity
  8
0
100
AcDbLine
 62
7
  6
CONTINUOUS
 10
7.0955
 20
6.6936248465
 11
7.1305
 21
6.6936248465
  0
LINE
  5
29B
100
AcDbEntity
  8
0
100
AcDbLine
 62
7
  6
CONTINUOUS
 10
7.0375
 20
6.6951248465
 11
7.0785
 21
6.6951248465
  0
LINE
  5
29C
100
AcDbEntity
  8
0
100
AcDbLine
 62
7
  6
CONTINUOUS
 10
6.5681152237
 20
6.7476248465
 11
6.5555
 21
6.7476248465
  0
LINE
  5
29D
100
AcDbEntity
  8
0
100
AcDbLine
 62
7
  6
CONTINUOUS
 10
3.228655654
 20
6.7481952135
 11
3.5239483671
 21
6.7481952135
  0
LINE
  5
29E
100
AcDbEntity
  8
0
100
AcDbLine
 62
7
  6
CONTINUOUS
 10
3.1675
 20
6.7486248465
 11
2.8595
 21
6.7486248465
  0
LINE
  5
29F
100
AcDbEntity
  8
0
100
AcDbLine
 62
7
  6
CONTINUOUS
 10
3.2318012702
 20
6.7610848439
 11
3.5185
 21
6.7610848439
  0
LINE
  5
2A0
100
AcDbEntity
  8
0
100
AcDbLine
 62
7
  6
CONTINUOUS
 10
3.5185
 20
6.7661573909
 11
3.2318012702
 21
6.7661573909
  0
LINE
  5
2A1
100
AcDbEntity
  8
0
100
AcDbLine
 62
7
  6
CONTINUOUS
 10
3.5239483671
 20
6.7734198874
 11
3.228655654
 21
6.7734198874
  0
LINE
  5
2A2
100
AcDbEntity
  8
0
100
AcDbLine
 62
7
  6
CONTINUOUS
 10
3.1885
 20
6.7779620801
 11
3.1735
 21
6.7779620801
  0
LINE
  5
2A3
100
AcDbEntity
  8
0
100
AcDbLine
 62
7
  6
CONTINUOUS
 10
6.7595
 20
6.7846248465
 11
6.6105
 21
6.7846248465
  0
LINE
  5
2A4
100
AcDbEntity
  8
0
100
AcDbLine
 62
7
  6
CONTINUOUS
 10
6.5055
 20
6.8016248465
 11
6.5555
 21
6.8016248465
  0
LINE
  5
2A5
100
AcDbEntity
  8
0
100
AcDbLine
 62
7
  6
CONTINUOUS
 10
6.4355
 20
6.8031248465
 11
6.4214903811
 21
6.8031248465
  0
LINE
  5
2A6
100
AcDbEntity
  8
0
100
AcDbLine
 62
7
  6
CONTINUOUS
 10
6.3955
 20
6.8261248465
 11
6.1335
 21
6.8261248465
  0
LINE
  5
2A7
100
AcDbEntity
  8
0
100
AcDbLine
 62
7
  6
CONTINUOUS
 10
6.0907760801
 20
6.8349819298
 11
5.5610995643
 21
6.8349819298
  0
LINE
  5
2A8
100
AcDbEntity
  8
0
100
AcDbLine
 62
7
  6
CONTINUOUS
 10
5.5328094011
 20
6.8511248465
 11
6.1190662433
 21
6.8511248465
  0
LINE
  5
2A9
100
AcDbEntity
  8
0
100
AcDbLine
 62
7
  6
CONTINUOUS
 10
4.5928783666
 20
8.2701248465
 11
4.5985
 21
8.2301248465
  0
LINE
  5
2AA
100
AcDbEntity
  8
0
100
AcDbLine
 62
7
  6
CONTINUOUS
 10
4.8763008806
 20
8.1391248465
 11
4.8763008806
 21
7.7931248465
  0
LINE
  5
2AB
100
AcDbEntity
  8
0
100
AcDbLine
 62
7
  6
CONTINUOUS
 10
4.9913008806
 20
7.7931248465
 11
4.9913008806
 21
8.1391248465
  0
LINE
  5
2AC
100
AcDbEntity
  8
0
100
AcDbLine
 62
7
  6
CONTINUOUS
 10
3.1885
 20
6.8913540365
 11
3.1735
 21
6.8913540365
  0
LINE
  5
2AD
100
AcDbEntity
  8
0
100
AcDbLine
 62
7
  6
CONTINUOUS
 10
3.1885
 20
6.9277799354
 11
3.1735
 21
6.9277799354
  0
LINE
  5
2AE
100
AcDbEntity
  8
0
100
AcDbLine
 62
7
  6
CONTINUOUS
 10
3.1885
 20
6.9411294952
 11
3.1735
 21
6.9411294952
  0
LINE
  5
2AF
100
AcDbEntity
  8
0
100
AcDbLine
 62
7
  6
CONTINUOUS
 10
3.1885
 20
6.9414393653
 11
3.1735
 21
6.9414393653
  0
LINE
  5
2B0
100
AcDbEntity
  8
0
100
AcDbLine
 62
7
  6
CONTINUOUS
 10
3.1885
 20
6.9417470065
 11
3.1735
 21
6.9417470065
  0
LINE
  5
2B1
100
AcDbEntity
  8
0
100
AcDbLine
 62
7
  6
CONTINUOUS
 10
3.1885
 20
6.9420490742
 11
3.1735
 21
6.9420490742
  0
LINE
  5
2B2
100
AcDbEntity
  8
0
100
AcDbLine
 62
7
  6
CONTINUOUS
 10
3.228655654
 20
6.9619280177
 11
3.5239483671
 21
6.9619280177
  0
LINE
  5
2B3
100
AcDbEntity
  8
0
100
AcDbLine
 62
7
  6
CONTINUOUS
 10
3.2318012702
 20
6.9726186765
 11
3.5185
 21
6.9726186765
  0
LINE
  5
2B4
100
AcDbEntity
  8
0
100
AcDbLine
 62
7
  6
CONTINUOUS
 10
3.5185
 20
6.9755473129
 11
3.2318012702
 21
6.9755473129
  0
LINE
  5
2B5
100
AcDbEntity
  8
0
100
AcDbLine
 62
7
  6
CONTINUOUS
 10
3.5204985171
 20
6.9775189007
 11
3.2306334189
 21
6.9775189007
  0
LINE
  5
2B6
100
AcDbEntity
  8
0
100
AcDbLine
 62
7
  6
CONTINUOUS
 10
7.0785
 20
6.6951248465
 11
7.0905
 21
6.6933314345
  0
LINE
  5
2B7
100
AcDbEntity
  8
0
100
AcDbLine
 62
7
  6
CONTINUOUS
 10
4.2558618833
 20
7.6720019161
 11
4.5380461326
 21
7.3473860706
  0
LINE
  5
2B8
100
AcDbEntity
  8
0
100
AcDbLine
 62
7
  6
CONTINUOUS
 10
4.574908888
 20
7.3801891409
 11
4.3960534692
 21
7.5859385219
  0
LINE
  5
2B9
100
AcDbEntity
  8
0
100
AcDbLine
 62
7
  6
CONTINUOUS
 10
5.5328094011
 20
6.1011248465
 11
5.5305
 21
6.1051248465
  0
LINE
  5
2BA
100
AcDbEntity
  8
0
100
AcDbLine
 62
7
  6
CONTINUOUS
 10
5.0283008806
 20
8.1091248465
 11
5.0283008806
 21
7.9541248465
  0
LINE
  5
2BB
100
AcDbEntity
  8
0
100
AcDbLine
 62
7
  6
CONTINUOUS
 10
3.228655654
 20
7.0454902545
 11
3.5239483671
 21
7.0454902545
  0
LINE
  5
2BC
100
AcDbEntity
  8
0
100
AcDbLine
 62
7
  6
CONTINUOUS
 10
3.2318012702
 20
7.0511173883
 11
3.5185
 21
7.0511173883
  0
LINE
  5
2BD
100
AcDbEntity
  8
0
100
AcDbLine
 62
7
  6
CONTINUOUS
 10
3.5385
 20
7.2223748465
 11
4.5535
 21
7.2223748465
  0
LINE
  5
2BE
100
AcDbEntity
  8
0
100
AcDbLine
 62
7
  6
CONTINUOUS
 10
4.6026273797
 20
7.306053695
 11
4.5535
 21
7.306053695
  0
LINE
  5
2BF
100
AcDbEntity
  8
0
100
AcDbLine
 62
7
  6
CONTINUOUS
 10
5.4155
 20
7.7931248465
 11
5.4155
 21
7.6931248465
  0
LINE
  5
2C0
100
AcDbEntity
  8
0
100
AcDbLine
 62
7
  6
CONTINUOUS
 10
5.4155
 20
7.0649955878
 11
5.4155
 21
7.5681438846
  0
LINE
  5
2C1
100
AcDbEntity
  8
0
100
AcDbLine
 62
7
  6
CONTINUOUS
 10
5.4826815508
 20
7.6942975048
 11
5.4826815508
 21
7.7931248465
  0
LINE
  5
2C2
100
AcDbEntity
  8
0
100
AcDbLine
 62
7
  6
CONTINUOUS
 10
5.5108490481
 20
7.0663271559
 11
5.5108490481
 21
7.5698082084
  0
LINE
  5
2C3
100
AcDbEntity
  8
0
100
AcDbLine
 62
7
  6
CONTINUOUS
 10
5.5305
 20
5.7298751535
 11
5.5305
 21
7.6656380535
  0
LINE
  5
2C4
100
AcDbEntity
  8
0
100
AcDbLine
 62
7
  6
CONTINUOUS
 10
5.5550636906
 20
7.6655655092
 11
5.5550636906
 21
7.1450645009
  0
LINE
  5
2C5
100
AcDbEntity
  8
0
100
AcDbLine
 62
7
  6
CONTINUOUS
 10
5.5610995643
 20
6.8511248465
 11
5.5610995643
 21
6.8349819298
  0
LINE
  5
2C6
100
AcDbEntity
  8
0
100
AcDbLine
 62
7
  6
CONTINUOUS
 10
5.5610995643
 20
6.4922677632
 11
5.5610995643
 21
6.4599819298
  0
LINE
  5
2C7
100
AcDbEntity
  8
0
100
AcDbLine
 62
7
  6
CONTINUOUS
 10
5.5610995643
 20
6.1172677632
 11
5.5610995643
 21
6.1011248465
  0
LINE
  5
2C8
100
AcDbEntity
  8
0
100
AcDbLine
 62
7
  6
CONTINUOUS
 10
5.5809363102
 20
7.0426866814
 11
5.5809363102
 21
7.6660171172
  0
LINE
  5
2C9
100
AcDbEntity
  8
0
100
AcDbLine
 62
7
  6
CONTINUOUS
 10
5.6055
 20
7.0992952936
 11
5.6055
 21
7.7931248465
  0
LINE
  5
2CA
100
AcDbEntity
  8
0
100
AcDbLine
 62
7
  6
CONTINUOUS
 10
5.5328094011
 20
6.8511248465
 11
5.5305
 21
6.8471248465
  0
LINE
  5
2CB
100
AcDbEntity
  8
0
100
AcDbLine
 62
7
  6
CONTINUOUS
 10
5.5809363102
 20
7.6660171151
 11
5.6055
 21
7.6669604393
  0
LINE
  5
2CC
100
AcDbEntity
  8
0
100
AcDbLine
 62
7
  6
CONTINUOUS
 10
5.4155
 20
7.5681438846
 11
5.5108490481
 21
7.5698082084
  0
LINE
  5
2CD
100
AcDbEntity
  8
0
100
AcDbLine
 62
7
  6
CONTINUOUS
 10
5.5550636906
 20
7.6655655092
 11
5.5809363102
 21
7.6660171172
  0
LINE
  5
2CE
100
AcDbEntity
  8
0
100
AcDbLine
 62
7
  6
CONTINUOUS
 10
5.4155
 20
7.6931248465
 11
5.6055000006
 21
7.6964413089
  0
LINE
  5
2CF
100
AcDbEntity
  8
0
100
AcDbLine
 62
7
  6
CONTINUOUS
 10
5.5305
 20
7.5698082084
 11
5.5108490481
 21
7.5698082084
  0
LINE
  5
2D0
100
AcDbEntity
  8
0
100
AcDbLine
 62
7
  6
CONTINUOUS
 10
4.3960534692
 20
7.5859385219
 11
5.4155
 21
7.5681438846
  0
LINE
  5
2D1
100
AcDbEntity
  8
0
100
AcDbLine
 62
7
  6
CONTINUOUS
 10
6.4189903811
 20
6.8037947195
 11
6.401
 21
6.8141814708
  0
LINE
  5
2D2
100
AcDbEntity
  8
0
100
AcDbLine
 62
7
  6
CONTINUOUS
 10
6.6105
 20
6.1676248465
 11
6.5773076118
 21
6.2008172347
  0
LINE
  5
2D3
100
AcDbEntity
  8
0
100
AcDbLine
 62
7
  6
CONTINUOUS
 10
4.9913008806
 20
8.1391248465
 11
4.9682068699
 21
8.1791248465
  0
LINE
  5
2D4
100
AcDbEntity
  8
0
100
AcDbLine
 62
7
  6
CONTINUOUS
 10
5.6055
 20
7.7931248465
 11
4.2375
 21
7.7931248465
  0
LINE
  5
2D5
100
AcDbEntity
  8
0
100
AcDbLine
 62
7
  6
CONTINUOUS
 10
4.2620141491
 20
7.7132590169
 11
5.4155
 21
7.6931248465
  0
LINE
  5
2D6
100
AcDbEntity
  8
0
100
AcDbLine
 62
7
  6
CONTINUOUS
 10
4.8393008806
 20
7.9541248465
 11
4.8763008806
 21
7.9541248465
  0
LINE
  5
2D7
100
AcDbEntity
  8
0
100
AcDbLine
 62
7
  6
CONTINUOUS
 10
4.9913008806
 20
7.9541248465
 11
5.0283008806
 21
7.9541248465
  0
LINE
  5
2D8
100
AcDbEntity
  8
0
100
AcDbLine
 62
7
  6
CONTINUOUS
 10
6.1335
 20
6.8261248465
 11
6.1190662433
 21
6.8511248465
  0
LINE
  5
2D9
100
AcDbEntity
  8
0
100
AcDbLine
 62
7
  6
CONTINUOUS
 10
6.0907760801
 20
6.8511248465
 11
6.0907760801
 21
6.8349819298
  0
LINE
  5
2DA
100
AcDbEntity
  8
0
100
AcDbLine
 62
7
  6
CONTINUOUS
 10
6.0907760801
 20
6.4922677632
 11
6.0907760801
 21
6.4599819298
  0
LINE
  5
2DB
100
AcDbEntity
  8
0
100
AcDbLine
 62
7
  6
CONTINUOUS
 10
6.0907760801
 20
6.1172677632
 11
6.0907760801
 21
6.1011248465
  0
LINE
  5
2DC
100
AcDbEntity
  8
0
100
AcDbLine
 62
7
  6
CONTINUOUS
 10
6.1335
 20
6.8261248465
 11
6.1335
 21
6.1261248465
  0
LINE
  5
2DD
100
AcDbEntity
  8
0
100
AcDbLine
 62
7
  6
CONTINUOUS
 10
5.0283008806
 20
8.1091248465
 11
4.9913008806
 21
8.1091248465
  0
LINE
  5
2DE
100
AcDbEntity
  8
0
100
AcDbLine
 62
7
  6
CONTINUOUS
 10
4.8763008806
 20
8.1091248465
 11
4.8393008806
 21
8.1091248465
  0
LINE
  5
2DF
100
AcDbEntity
  8
0
100
AcDbLine
 62
7
  6
CONTINUOUS
 10
4.8763008806
 20
8.1391248465
 11
4.9913008806
 21
8.1391248465
  0
LINE
  5
2E0
100
AcDbEntity
  8
0
100
AcDbLine
 62
7
  6
CONTINUOUS
 10
4.8993948914
 20
8.1791248465
 11
4.9682068699
 21
8.1791248465
  0
LINE
  5
2E1
100
AcDbEntity
  8
0
100
AcDbLine
 62
7
  6
CONTINUOUS
 10
6.7965
 20
6.7476248465
 11
6.7595
 21
6.7846248465
  0
LINE
  5
2E2
100
AcDbEntity
  8
0
100
AcDbLine
 62
7
  6
CONTINUOUS
 10
6.6105
 20
6.7846248465
 11
6.5773076118
 21
6.7514324584
  0
LINE
  5
2E3
100
AcDbEntity
  8
0
100
AcDbLine
 62
7
  6
CONTINUOUS
 10
4.5665
 20
8.2301248465
 11
4.5985
 21
8.2301248465
  0
LINE
  5
2E4
100
AcDbEntity
  8
0
100
AcDbLine
 62
7
  6
CONTINUOUS
 10
4.5721216334
 20
8.2701248465
 11
4.5928783666
 21
8.2701248465
  0
LINE
  5
2E5
100
AcDbEntity
  8
0
100
AcDbLine
 62
7
  6
CONTINUOUS
 10
7.1405
 20
6.6836248465
 11
7.1305
 21
6.6936248465
  0
LINE
  5
2E6
100
AcDbEntity
  8
0
100
AcDbLine
 62
7
  6
CONTINUOUS
 10
6.3955
 20
6.1261248465
 11
6.3955
 21
6.8261248465
  0
LINE
  5
2E7
100
AcDbEntity
  8
0
100
AcDbLine
 62
7
  6
CONTINUOUS
 10
6.3985
 20
6.1291248465
 11
6.3985
 21
6.8231248465
  0
LINE
  5
2E8
100
AcDbEntity
  8
0
100
AcDbLine
 62
7
  6
CONTINUOUS
 10
6.401
 20
6.8141814708
 11
6.401
 21
6.1380682222
  0
LINE
  5
2E9
100
AcDbEntity
  8
0
100
AcDbLine
 62
7
  6
CONTINUOUS
 10
6.4189903811
 20
6.8037947195
 11
6.4189903811
 21
6.1484549735
  0
LINE
  5
2EA
100
AcDbEntity
  8
0
100
AcDbLine
 62
7
  6
CONTINUOUS
 10
6.4214903811
 20
6.8031248465
 11
6.4214903811
 21
6.1491248465
  0
LINE
  5
2EB
100
AcDbEntity
  8
0
100
AcDbLine
 62
7
  6
CONTINUOUS
 10
6.4355
 20
6.8031248465
 11
6.4355
 21
6.1491248465
  0
LINE
  5
2EC
100
AcDbEntity
  8
0
100
AcDbLine
 62
7
  6
CONTINUOUS
 10
6.5055
 20
6.8016248465
 11
6.5055
 21
6.1506248465
  0
LINE
  5
2ED
100
AcDbEntity
  8
0
100
AcDbLine
 62
7
  6
CONTINUOUS
 10
6.1335
 20
6.1261248465
 11
6.1190662433
 21
6.1011248465
  0
LINE
  5
2EE
100
AcDbEntity
  8
0
100
AcDbLine
 62
7
  6
CONTINUOUS
 10
6.4189903811
 20
6.1484549735
 11
6.401
 21
6.1380682222
  0
LINE
  5
2EF
100
AcDbEntity
  8
0
100
AcDbLine
 62
7
  6
CONTINUOUS
 10
6.5555
 20
6.8016248465
 11
6.5555
 21
6.1506248465
  0
LINE
  5
2F0
100
AcDbEntity
  8
0
100
AcDbLine
 62
7
  6
CONTINUOUS
 10
6.5681152237
 20
6.7476248465
 11
6.5681152237
 21
6.2046248465
  0
LINE
  5
2F1
100
AcDbEntity
  8
0
100
AcDbLine
 62
7
  6
CONTINUOUS
 10
6.5773076118
 20
6.7514324584
 11
6.5773076118
 21
6.2008172347
  0
LINE
  5
2F2
100
AcDbEntity
  8
0
100
AcDbLine
 62
7
  6
CONTINUOUS
 10
6.6105
 20
6.7846248465
 11
6.6105
 21
6.1676248465
  0
LINE
  5
2F3
100
AcDbEntity
  8
0
100
AcDbLine
 62
7
  6
CONTINUOUS
 10
6.7595
 20
6.7846248465
 11
6.7595
 21
6.1676248465
  0
LINE
  5
2F4
100
AcDbEntity
  8
0
100
AcDbLine
 62
7
  6
CONTINUOUS
 10
6.7965
 20
6.7476248465
 11
6.7965
 21
6.2046248465
  0
LINE
  5
2F5
100
AcDbEntity
  8
0
100
AcDbLine
 62
7
  6
CONTINUOUS
 10
6.7965
 20
6.2046248465
 11
6.7595
 21
6.1676248465
  0
LINE
  5
2F6
100
AcDbEntity
  8
0
100
AcDbLine
 62
7
  6
CONTINUOUS
 10
6.8555
 20
6.521932406
 11
6.8555
 21
6.4303165086
  0
LINE
  5
2F7
100
AcDbEntity
  8
0
100
AcDbLine
 62
7
  6
CONTINUOUS
 10
6.8605
 20
6.43140633
 11
6.8605
 21
6.5208437114
  0
LINE
  5
2F8
100
AcDbEntity
  8
0
100
AcDbLine
 62
7
  6
CONTINUOUS
 10
7.0205
 20
6.2586248465
 11
7.0205
 21
6.6936248465
  0
LINE
  5
2F9
100
AcDbEntity
  8
0
100
AcDbLine
 62
7
  6
CONTINUOUS
 10
7.0255
 20
6.6933314345
 11
7.0255
 21
6.2589182585
  0
LINE
  5
2FA
100
AcDbEntity
  8
0
100
AcDbLine
 62
7
  6
CONTINUOUS
 10
7.0375
 20
6.6951248465
 11
7.0375
 21
6.2571248465
  0
LINE
  5
2FB
100
AcDbEntity
  8
0
100
AcDbLine
 62
7
  6
CONTINUOUS
 10
7.0785
 20
6.6951248465
 11
7.0785
 21
6.2571248465
  0
LINE
  5
2FC
100
AcDbEntity
  8
0
100
AcDbLine
 62
7
  6
CONTINUOUS
 10
7.0905
 20
6.6933314345
 11
7.0905
 21
6.2589182585
  0
LINE
  5
2FD
100
AcDbEntity
  8
0
100
AcDbLine
 62
7
  6
CONTINUOUS
 10
7.0955
 20
6.6936248465
 11
7.0955
 21
6.2586248465
  0
LINE
  5
2FE
100
AcDbEntity
  8
0
100
AcDbLine
 62
7
  6
CONTINUOUS
 10
7.1305
 20
6.2586248465
 11
7.1305
 21
6.6936248465
  0
LINE
  5
2FF
100
AcDbEntity
  8
0
100
AcDbLine
 62
7
  6
CONTINUOUS
 10
7.1405
 20
6.2686248465
 11
7.1405
 21
6.6836248465
  0
LINE
  5
300
100
AcDbEntity
  8
0
100
AcDbLine
 62
7
  6
CONTINUOUS
 10
7.1405
 20
6.2686248465
 11
7.1305
 21
6.2586248465
  0
ARC
  5
301
100
AcDbEntity
  8
0
100
AcDbCircle
 62
7
  6
CONTINUOUS
 10
2.4511641395
 20
6.9578942112
 40
1.5019155467
100
AcDbArc
 50
315.5840050577
 51
316.3829029188
  0
ARC
  5
302
100
AcDbEntity
  8
0
100
AcDbCircle
 62
7
  6
CONTINUOUS
 10
2.5476363314
 20
6.0875714495
 40
1.3677695815
100
AcDbArc
 50
43.5779198228
 51
44.4551722007
  0
ARC
  5
303
100
AcDbEntity
  8
0
100
AcDbCircle
 62
7
  6
CONTINUOUS
 10
3.0636455336
 20
6.3465937716
 40
0.5820725944
100
AcDbArc
 50
322.2603076999
 51
324.6664804289
  0
ARC
  5
304
100
AcDbEntity
  8
0
100
AcDbCircle
 62
7
  6
CONTINUOUS
 10
3.0820709606
 20
6.6193082463
 40
0.5591457325
100
AcDbArc
 50
35.2841812667
 51
37.7890306045
  0
ARC
  5
305
100
AcDbEntity
  8
0
100
AcDbCircle
 62
7
  6
CONTINUOUS
 10
3.2429734293
 20
6.4348084769
 40
0.3635853724
100
AcDbArc
 50
320.6050435976
 51
324.3715929698
  0
ARC
  5
306
100
AcDbEntity
  8
0
100
AcDbCircle
 62
7
  6
CONTINUOUS
 10
3.2488087366
 20
6.5219206955
 40
0.356233033
100
AcDbArc
 50
35.5895234411
 51
39.4338399915
  0
ARC
  5
307
100
AcDbEntity
  8
0
100
AcDbCircle
 62
7
  6
CONTINUOUS
 10
3.4035233164
 20
6.638129386
 40
0.1903708517
100
AcDbArc
 50
309.2408278271
 51
315.1552110783
  0
ARC
  5
308
100
AcDbEntity
  8
0
100
AcDbCircle
 62
7
  6
CONTINUOUS
 10
3.4051922877
 20
6.3159610538
 40
0.1878894881
100
AcDbArc
 50
44.8056993466
 51
50.7982617481
  0
ARC
  5
309
100
AcDbEntity
  8
0
100
AcDbCircle
 62
7
  6
CONTINUOUS
 10
4.1615236141
 20
7.5899940447
 40
0.125
100
AcDbArc
 50
41.0
 51
52.5685743949
  0
ARC
  5
30A
100
AcDbEntity
  8
0
100
AcDbCircle
 62
7
  6
CONTINUOUS
 10
4.4896302759
 20
7.3060550496
 40
0.1129961948
100
AcDbArc
 50
359.9982433128
 51
41.0009662098
  0
ARC
  5
30B
100
AcDbEntity
  8
0
100
AcDbCircle
 62
7
  6
CONTINUOUS
 10
4.4905
 20
7.306053695
 40
0.063
100
AcDbArc
 50
0.0
 51
41.0007914706
  0
ARC
  5
30C
100
AcDbEntity
  8
0
100
AcDbCircle
 62
7
  6
CONTINUOUS
 10
5.5546237042
 20
6.4292469333
 40
1.236793249
100
AcDbArc
 50
89.9796922774
 51
90.7234579578
  0
CIRCLE
  5
30D
100
AcDbEntity
  8
0
100
AcDbCircle
 62
7
  6
CONTINUOUS
 10
6.8485
 20
6.4761248465
 40
0.0465
  0
ARC
  5
30E
100
AcDbEntity
  8
0
100
AcDbCircle
 62
7
  6
CONTINUOUS
 10
6.5681152237
 20
6.1916248465
 40
0.013
100
AcDbArc
 50
44.999999998
 51
90.0
  0
ARC
  5
30F
100
AcDbEntity
  8
0
100
AcDbCircle
 62
7
  6
CONTINUOUS
 10
6.5681152237
 20
6.7606248465
 40
0.013
100
AcDbArc
 50
270.0
 51
315.0000000022
  0
ARC
  5
310
100
AcDbEntity
  8
0
100
AcDbCircle
 62
7
  6
CONTINUOUS
 10
7.0955
 20
6.6886248465
 40
0.005
100
AcDbArc
 50
90.0
 51
180.0
  0
ARC
  5
311
100
AcDbEntity
  8
0
100
AcDbCircle
 62
7
  6
CONTINUOUS
 10
7.0955
 20
6.2636248465
 40
0.005
100
AcDbArc
 50
180.0
 51
270.0
  0
ARC
  5
312
100
AcDbEntity
  8
0
100
AcDbCircle
 62
7
  6
CONTINUOUS
 10
7.0205
 20
6.6886248465
 40
0.005
100
AcDbArc
 50
0.0
 51
90.0
  0
ARC
  5
313
100
AcDbEntity
  8
0
100
AcDbCircle
 62
7
  6
CONTINUOUS
 10
7.0205
 20
6.2636248465
 40
0.005
100
AcDbArc
 50
270.0
 51
360.0
  0
ARC
  5
314
100
AcDbEntity
  8
0
100
AcDbCircle
 62
7
  6
CONTINUOUS
 10
6.4214903811
 20
6.1441248465
 40
0.005
100
AcDbArc
 50
90.0
 51
120.0000000003
  0
ARC
  5
315
100
AcDbEntity
  8
0
100
AcDbCircle
 62
7
  6
CONTINUOUS
 10
6.4214903811
 20
6.8081248465
 40
0.005
100
AcDbArc
 50
239.9999999996
 51
270.0
  0
ARC
  5
316
100
AcDbEntity
  8
0
100
AcDbCircle
 62
7
  6
CONTINUOUS
 10
6.4035
 20
6.1337380952
 40
0.005
100
AcDbArc
 50
120.0000000032
 51
179.9999999999
  0
ARC
  5
317
100
AcDbEntity
  8
0
100
AcDbCircle
 62
7
  6
CONTINUOUS
 10
6.4035
 20
6.8185115979
 40
0.005
100
AcDbArc
 50
180.0
 51
239.9999999989
  0
ARC
  5
318
100
AcDbEntity
  8
0
100
AcDbCircle
 62
7
  6
CONTINUOUS
 10
6.3955
 20
6.1291248465
 40
0.003
100
AcDbArc
 50
270.0
 51
360.0
  0
ARC
  5
319
100
AcDbEntity
  8
0
100
AcDbCircle
 62
7
  6
CONTINUOUS
 10
6.3955
 20
6.8231248465
 40
0.003
100
AcDbArc
 50
0.0
 51
90.0
  0
ARC
  5
31A
100
AcDbEntity
  8
0
100
AcDbCircle
 62
7
  6
CONTINUOUS
 10
5.5459330576
 20
7.158117016
 40
0.5078717966
100
AcDbArc
 50
90.7813370904
 51
91.2228802077
  0
CIRCLE
  5
31B
100
AcDbEntity
  8
0
100
AcDbCircle
 62
7
  6
CONTINUOUS
 10
4.9338008806
 20
8.0141248465
 40
0.03325
  0
ARC
  5
31C
100
AcDbEntity
  8
0
100
AcDbCircle
 62
7
  6
CONTINUOUS
 10
5.5605
 20
7.6656512611
 40
0.03
100
AcDbArc
 50
91.0000533971
 51
180.0504111477
  0
LINE
  5
31D
100
AcDbEntity
  8
0
100
AcDbLine
 62
7
  6
CONTINUOUS
 10
6.895
 20
6.6936248465
 11
6.8941269668
 21
6.6934398705
  0
SPLINE
  5
31E
100
AcDbEntity
  8
0
100
AcDbSpline
 62
7
  6
CONTINUOUS
 70
0
 71
3
 72
15
 73
11
 74
0
 42
0.0000001
 43
0.0000001
 44
0.0000000001
 40
0.0
 40
0.0
 40
0.0
 40
0.0
 40
0.063255669
 40
0.1773487259
 40
0.3285654568
 40
0.4997013349
 40
0.6708811815
 40
0.8222197617
 40
0.9365019885
 40
1.0
 40
1.0
 40
1.0
 40
1.0
 10
6.8941269668
 20
6.6934398705
 30
0.0
 10
6.892230473
 20
6.6930417868
 30
0.0
 10
6.8868998952
 20
6.6919888547
 30
0.0
 10
6.8769599614
 20
6.6903817099
 30
0.0
 10
6.8636557318
 20
6.6889654806
 30
0.0
 10
6.8485330497
 20
6.688401119
 30
0.0
 10
6.8334064551
 20
6.68896092
 30
0.0
 10
6.820090992
 20
6.690374629
 30
0.0
 10
6.8101340123
 20
6.6919826526
 30
0.0
 10
6.8047903262
 20
6.6930374756
 30
0.0
 10
6.8028865558
 20
6.6934370328
 30
0.0
  0
LINE
  5
31F
100
AcDbEntity
  8
0
100
AcDbLine
 62
7
  6
CONTINUOUS
 10
6.8028865558
 20
6.6934370328
 11
6.802
 21
6.6936248465
  0
LINE
  5
320
100
AcDbEntity
  8
0
100
AcDbLine
 62
7
  6
CONTINUOUS
 10
6.802
 20
6.2586248465
 11
6.8028754736
 21
6.2588103349
  0
SPLINE
  5
321
100
AcDbEntity
  8
0
100
AcDbSpline
 62
7
  6
CONTINUOUS
 70
0
 71
3
 72
15
 73
11
 74
0
 42
0.0000001
 43
0.0000001
 44
0.0000000001
 40
0.0
 40
0.0
 40
0.0
 40
0.0
 40
0.0632987143
 40
0.1774242899
 40
0.3286606807
 40
0.4998018802
 40
0.6709724316
 40
0.8222884794
 40
0.9365389975
 40
1.0
 40
1.0
 40
1.0
 40
1.0
 10
6.8028754736
 20
6.2588103349
 30
0.0
 10
6.8047732513
 20
6.2592086697
 30
0.0
 10
6.8101060921
 20
6.2602619429
 30
0.0
 10
6.8200489092
 20
6.2618692057
 30
0.0
 10
6.8333548873
 20
6.2632849972
 30
0.0
 10
6.8484779986
 20
6.2638485683
 30
0.0
 10
6.8636036668
 20
6.2632880129
 30
0.0
 10
6.8769170567
 20
6.2618739502
 30
0.0
 10
6.8868711704
 20
6.2602660793
 30
0.0
 10
6.8922127452
 20
6.2592115896
 30
0.0
 10
6.8941153923
 20
6.2588122513
 30
0.0
  0
LINE
  5
322
100
AcDbEntity
  8
0
100
AcDbLine
 62
7
  6
CONTINUOUS
 10
6.8941153923
 20
6.2588122513
 11
6.895
 21
6.2586248465
  0
SPLINE
  5
323
100
AcDbEntity
  8
0
100
AcDbSpline
 62
7
  6
CONTINUOUS
 70
0
 71
3
 72
11
 73
7
 74
0
 42
0.0000001
 43
0.0000001
 44
0.0000000001
 40
0.0
 40
0.0
 40
0.0
 40
0.0
 40
0.1882731826
 40
0.415652084
 40
0.6862463112
 40
1.0
 40
1.0
 40
1.0
 40
1.0
 10
3.2306943866
 20
6.9775189462
 30
0.0
 10
3.2305488249
 20
6.9775193962
 30
0.0
 10
3.2302275058
 20
6.9774606929
 30
0.0
 10
3.2297381116
 20
6.9772502371
 30
0.0
 10
3.2292019837
 20
6.9769209015
 30
0.0
 10
3.2288428596
 20
6.9766457549
 30
0.0
 10
3.228655654
 20
6.97649149
 30
0.0
  0
SPLINE
  5
324
100
AcDbEntity
  8
0
100
AcDbSpline
 62
7
  6
CONTINUOUS
 70
0
 71
3
 72
11
 73
7
 74
0
 42
0.0000001
 43
0.0000001
 44
0.0000000001
 40
0.0
 40
0.0
 40
0.0
 40
0.0
 40
0.20887292
 40
0.4463626991
 40
0.7109339454
 40
1.0
 40
1.0
 40
1.0
 40
1.0
 10
3.5204190567
 20
5.9747307413
 30
0.0
 10
3.5206767589
 20
5.9747304523
 30
0.0
 10
3.5212275993
 20
5.9747891169
 30
0.0
 10
3.5220803866
 20
5.9750007799
 30
0.0
 10
3.5230011058
 20
5.9753285602
 30
0.0
 10
3.5236263146
 20
5.9756049834
 30
0.0
 10
3.5239483671
 20
5.9757582031
 30
0.0
  0
SPLINE
  5
325
100
AcDbEntity
  8
0
100
AcDbSpline
 62
7
  6
CONTINUOUS
 70
0
 71
3
 72
18
 73
14
 74
0
 42
0.0000001
 43
0.0000001
 44
0.0000000001
 40
0.0
 40
0.0
 40
0.0
 40
0.0
 40
0.0366162346
 40
0.0764216756
 40
0.1196141611
 40
0.1663173619
 40
0.2166008893
 40
0.2704943758
 40
0.3890652405
 40
0.5218155187
 40
0.6682887696
 40
0.8279044084
 40
1.0
 40
1.0
 40
1.0
 40
1.0
 10
3.2005785552
 20
5.991169319
 30
0.0
 10
3.2009750132
 20
5.9911695256
 30
0.0
 10
3.2018028498
 20
5.99112089
 30
0.0
 10
3.2030841479
 20
5.9909224389
 30
0.0
 10
3.2044517246
 20
5.9905976906
 30
0.0
 10
3.2059024829
 20
5.9901484478
 30
0.0
 10
3.2074335344
 20
5.9895764417
 30
0.0
 10
3.2096490884
 20
5.9886215443
 30
0.0
 10
3.2125947913
 20
5.9871157785
 30
0.0
 10
3.2162951244
 20
5.9849072492
 30
0.0
 10
3.2202413446
 20
5.9822573126
 30
0.0
 10
3.2244090992
 20
5.9791832036
 30
0.0
 10
3.227217642
 20
5.9769431824
 30
0.0
 10
3.228655654
 20
5.9757582031
 30
0.0
  0
SPLINE
  5
326
100
AcDbEntity
  8
0
100
AcDbSpline
 62
7
  6
CONTINUOUS
 70
0
 71
3
 72
11
 73
7
 74
0
 42
0.0000001
 43
0.0000001
 44
0.0000000001
 40
0.0
 40
0.0
 40
0.0
 40
0.0
 40
0.2890660546
 40
0.5536373009
 40
0.79112708
 40
1.0
 40
1.0
 40
1.0
 40
1.0
 10
3.5239483671
 20
6.97649149
 30
0.0
 10
3.5236263146
 20
6.9766447096
 30
0.0
 10
3.5230011058
 20
6.9769211328
 30
0.0
 10
3.5220803866
 20
6.9772489131
 30
0.0
 10
3.5212275993
 20
6.9774605761
 30
0.0
 10
3.5206767589
 20
6.9775192408
 30
0.0
 10
3.5204190567
 20
6.9775189518
 30
0.0
  0
SPLINE
  5
327
100
AcDbEntity
  8
0
100
AcDbSpline
 62
7
  6
CONTINUOUS
 70
0
 71
3
 72
18
 73
14
 74
0
 42
0.0000001
 43
0.0000001
 44
0.0000000001
 40
0.0
 40
0.0
 40
0.0
 40
0.0
 40
0.1720965987
 40
0.3317132008
 40
0.4781871596
 40
0.610937722
 40
0.7295084104
 40
0.7834016292
 40
0.8336847645
 40
0.8803874663
 40
0.9235793965
 40
0.9633842783
 40
1.0
 40
1.0
 40
1.0
 40
1.0
 10
3.228655654
 20
6.97649149
 30
0.0
 10
3.2272176214
 20
6.9753064937
 30
0.0
 10
3.2244090373
 20
6.9730664416
 30
0.0
 10
3.2202412206
 20
6.9699922943
 30
0.0
 10
3.2162949457
 20
6.9673423294
 30
0.0
 10
3.2125945673
 20
6.9651337876
 30
0.0
 10
3.2096488327
 20
6.963628026
 30
0.0
 10
3.2074332612
 20
6.9626731406
 30
0.0
 10
3.2059022037
 20
6.9621011472
 30
0.0
 10
3.2044514424
 20
6.9616519231
 30
0.0
 10
3.2030838658
 20
6.9613271984
 30
0.0
 10
3.2018025701
 20
6.9611287744
 30
0.0
 10
3.2009747369
 20
6.9610801591
 30
0.0
 10
3.2005782812
 20
6.9610803759
 30
0.0
  0
SPLINE
  5
328
100
AcDbEntity
  8
0
100
AcDbSpline
 62
7
  6
CONTINUOUS
 70
0
 71
3
 72
9
 73
5
 74
0
 42
0.0000001
 43
0.0000001
 44
0.0000000001
 40
0.0
 40
0.0
 40
0.0
 40
0.0
 40
0.5119390951
 40
1.0
 40
1.0
 40
1.0
 40
1.0
 10
3.5239483671
 20
6.97649149
 30
0.0
 10
3.5264010824
 20
6.9753245869
 30
0.0
 10
3.5312206632
 20
6.9731045895
 30
0.0
 10
3.5361016106
 20
6.9710222783
 30
0.0
 10
3.5385
 20
6.9700460389
 30
0.0
  0
SPLINE
  5
329
100
AcDbEntity
  8
0
100
AcDbSpline
 62
7
  6
CONTINUOUS
 70
0
 71
3
 72
9
 73
5
 74
0
 42
0.0000001
 43
0.0000001
 44
0.0000000001
 40
0.0
 40
0.0
 40
0.0
 40
0.0
 40
0.4880609063
 40
1.0
 40
1.0
 40
1.0
 40
1.0
 10
3.5385
 20
5.9822036541
 30
0.0
 10
3.5361016106
 20
5.9812274147
 30
0.0
 10
3.5312206632
 20
5.9791451035
 30
0.0
 10
3.5264010824
 20
5.9769251061
 30
0.0
 10
3.5239483671
 20
5.9757582031
 30
0.0
  0
SPLINE
  5
32A
100
AcDbEntity
  8
0
100
AcDbSpline
 62
7
  6
CONTINUOUS
 70
0
 71
3
 72
11
 73
7
 74
0
 42
0.0000001
 43
0.0000001
 44
0.0000000001
 40
0.0
 40
0.0
 40
0.0
 40
0.0
 40
0.3137536888
 40
0.584347916
 40
0.8117268174
 40
1.0
 40
1.0
 40
1.0
 40
1.0
 10
3.228655654
 20
5.9757582031
 30
0.0
 10
3.2288428596
 20
5.9756039381
 30
0.0
 10
3.2292019837
 20
5.9753287915
 30
0.0
 10
3.2297381116
 20
5.9749994559
 30
0.0
 10
3.2302275058
 20
5.9747890002
 30
0.0
 10
3.2305488249
 20
5.9747302968
 30
0.0
 10
3.2306943866
 20
5.9747307468
 30
0.0
  0
SPLINE
  5
32B
100
AcDbEntity
  8
0
100
AcDbSpline
 62
7
  6
CONTINUOUS
 70
0
 71
3
 72
9
 73
5
 74
0
 42
0.0000001
 43
0.0000001
 44
0.0000000001
 40
0.0
 40
0.0
 40
0.0
 40
0.0
 40
0.2470119639
 40
1.0
 40
1.0
 40
1.0
 40
1.0
 10
3.5385
 20
6.1749337032
 30
0.0
 10
3.5373275412
 20
6.1753401857
 30
0.0
 10
3.5325495508
 20
6.1768945659
 30
0.0
 10
3.5276597083
 20
6.1780979567
 30
0.0
 10
3.5239483671
 20
6.1788298056
 30
0.0
  0
SPLINE
  5
32C
100
AcDbEntity
  8
0
100
AcDbSpline
 62
7
  6
CONTINUOUS
 70
0
 71
3
 72
13
 73
9
 74
0
 42
0.0000001
 43
0.0000001
 44
0.0000000001
 40
0.0
 40
0.0
 40
0.0
 40
0.0
 40
0.1408044302
 40
0.2801329783
 40
0.5460154501
 40
0.7875240335
 40
0.897583428
 40
1.0
 40
1.0
 40
1.0
 40
1.0
 10
3.2318012702
 20
6.4790534829
 30
0.0
 10
3.2318012702
 20
6.4796271961
 30
0.0
 10
3.2317636346
 20
6.4807689883
 30
0.0
 10
3.2315480391
 20
6.4829844474
 30
0.0
 10
3.2310361162
 20
6.4855779735
 30
0.0
 10
3.2301951358
 20
6.4879612637
 30
0.0
 10
3.2293580623
 20
6.4896131044
 30
0.0
 10
3.228896423
 20
6.4903474818
 30
0.0
 10
3.228655654
 20
6.4906883188
 30
0.0
  0
SPLINE
  5
32D
100
AcDbEntity
  8
0
100
AcDbSpline
 62
7
  6
CONTINUOUS
 70
0
 71
3
 72
12
 73
8
 74
0
 42
0.0000001
 43
0.0000001
 44
0.0000000001
 40
0.0
 40
0.0
 40
0.0
 40
0.0
 40
0.2240897762
 40
0.4654294694
 40
0.7255748973
 40
0.8618996977
 40
1.0
 40
1.0
 40
1.0
 40
1.0
 10
3.5239483671
 20
6.4906883188
 30
0.0
 10
3.5231817111
 20
6.4900617253
 30
0.0
 10
3.5217186388
 20
6.4885926885
 30
0.0
 10
3.5199680175
 20
6.4858791204
 30
0.0
 10
3.5189902363
 20
6.4832067125
 30
0.0
 10
3.5185734813
 20
6.4808775411
 30
0.0
 10
3.5185
 20
6.4796636798
 30
0.0
 10
3.5185
 20
6.4790534829
 30
0.0
  0
SPLINE
  5
32E
100
AcDbEntity
  8
0
100
AcDbSpline
 62
7
  6
CONTINUOUS
 70
0
 71
3
 72
33
 73
29
 74
0
 42
0.0000001
 43
0.0000001
 44
0.0000000001
 40
0.0
 40
0.0
 40
0.0
 40
0.0
 40
0.0875413071
 40
0.1737677772
 40
0.2580622403
 40
0.3398062604
 40
0.3795362768
 40
0.4183907333
 40
0.4931360085
 40
0.5288879022
 40
0.5634678649
 40
0.6288891961
 40
0.6596874206
 40
0.689186226
 40
0.7173943392
 40
0.7443476884
 40
0.7700917458
 40
0.7946859394
 40
0.8182159507
 40
0.8407763984
 40
0.8624670736
 40
0.8834032491
 40
0.9037094503
 40
0.9235084603
 40
0.9429206279
 40
0.9620660971
 40
0.9810581686
 40
1.0
 40
1.0
 40
1.0
 40
1.0
 10
3.228655654
 20
5.9903216753
 30
0.0
 10
3.2261835741
 20
5.9958582877
 30
0.0
 10
3.2214137668
 20
6.0069104438
 30
0.0
 10
3.2148117881
 20
6.0235239883
 30
0.0
 10
3.2089145412
 20
6.0399755432
 30
0.0
 10
3.2046470994
 20
6.0535793241
 30
0.0
 10
3.2017104171
 20
6.0642901868
 30
0.0
 10
3.1991711704
 20
6.0746031216
 30
0.0
 10
3.1971233699
 20
6.0847513226
 30
0.0
 10
3.1956505779
 20
6.0946935544
 30
0.0
 10
3.1946192435
 20
6.1040409474
 30
0.0
 10
3.1941679265
 20
6.1131037867
 30
0.0
 10
3.1943728384
 20
6.1218122537
 30
0.0
 10
3.1948374314
 20
6.1279279692
 30
0.0
 10
3.1956140599
 20
6.1337435927
 30
0.0
 10
3.1966925477
 20
6.1392464132
 30
0.0
 10
3.1980639114
 20
6.1444255476
 30
0.0
 10
3.1997197133
 20
6.14927134
 30
0.0
 10
3.2016449652
 20
6.1537779746
 30
0.0
 10
3.203824808
 20
6.1579417503
 30
0.0
 10
3.2062454238
 20
6.1617595557
 30
0.0
 10
3.2088917366
 20
6.1652303671
 30
0.0
 10
3.2117477896
 20
6.1683555766
 30
0.0
 10
3.2147982117
 20
6.1711371003
 30
0.0
 10
3.2180278313
 20
6.1735771437
 30
0.0
 10
3.2214213839
 20
6.1756791378
 30
0.0
 10
3.2249634403
 20
6.1774470164
 30
0.0
 10
3.2274140923
 20
6.1784057533
 30
0.0
 10
3.228655654
 20
6.1788298056
 30
0.0
  0
SPLINE
  5
32F
100
AcDbEntity
  8
0
100
AcDbSpline
 62
7
  6
CONTINUOUS
 70
0
 71
3
 72
28
 73
24
 74
0
 42
0.0000001
 43
0.0000001
 44
0.0000000001
 40
0.0
 40
0.0
 40
0.0
 40
0.0
 40
0.0652931279
 40
0.1318506957
 40
0.1993736952
 40
0.2675510617
 40
0.3360537518
 40
0.3702988653
 40
0.4044675951
 40
0.4385016079
 40
0.4723402957
 40
0.5059258974
 40
0.5392030351
 40
0.6046038241
 40
0.6366380674
 40
0.668172239
 40
0.6991696849
 40
0.7295974334
 40
0.7594372663
 40
0.7886725902
 40
0.8452608015
 40
0.8993495762
 40
1.0
 40
1.0
 40
1.0
 40
1.0
 10
3.228655654
 20
6.2040544795
 30
0.0
 10
3.2261427506
 20
6.2093576456
 30
0.0
 10
3.2212949538
 20
6.2201758923
 30
0.0
 10
3.2146954819
 20
6.2368420379
 30
0.0
 10
3.2088030735
 20
6.254046835
 30
0.0
 10
3.2037394007
 20
6.2716963108
 30
0.0
 10
3.2003129068
 20
6.2866810257
 30
0.0
 10
3.1980995795
 20
6.2987877201
 30
0.0
 10
3.1967223476
 20
6.3078935079
 30
0.0
 10
3.1956376375
 20
6.3170019784
 30
0.0
 10
3.1948536885
 20
6.326088715
 30
0.0
 10
3.1943803728
 20
6.3351290971
 30
0.0
 10
3.1941705938
 20
6.3470164917
 30
0.0
 10
3.1945794194
 20
6.3587697857
 30
0.0
 10
3.1956279558
 20
6.3703158602
 30
0.0
 10
3.1967102456
 20
6.3787481413
 30
0.0
 10
3.1980846106
 20
6.3869913391
 30
0.0
 10
3.1997420028
 20
6.3950268752
 30
0.0
 10
3.2016673877
 20
6.4028395692
 30
0.0
 10
3.2045401212
 20
6.4128322504
 30
0.0
 10
3.2087066851
 20
6.4247130994
 30
0.0
 10
3.2163693081
 20
6.4421044881
 30
0.0
 10
3.223436253
 20
6.4541726982
 30
0.0
 10
3.228655654
 20
6.4615613743
 30
0.0
  0
SPLINE
  5
330
100
AcDbEntity
  8
0
100
AcDbSpline
 62
7
  6
CONTINUOUS
 70
0
 71
3
 72
26
 73
22
 74
0
 42
0.0000001
 43
0.0000001
 44
0.0000000001
 40
0.0
 40
0.0
 40
0.0
 40
0.0
 40
0.1006558595
 40
0.154750562
 40
0.2113429945
 40
0.270412783
 40
0.3008425174
 40
0.3318413768
 40
0.3954035909
 40
0.4279016336
 40
0.4608166392
 40
0.5276712908
 40
0.5615096144
 40
0.5955430976
 40
0.629711901
 40
0.6639563556
 40
0.7324565672
 40
0.8006319673
 40
0.8681507075
 40
0.9347064757
 40
1.0
 40
1.0
 40
1.0
 40
1.0
 10
3.228655654
 20
6.4906883188
 30
0.0
 10
3.2234360815
 20
6.4980772375
 30
0.0
 10
3.2163688183
 20
6.5101459051
 30
0.0
 10
3.208705876
 20
6.527538829
 30
0.0
 10
3.2036512262
 20
6.5419520048
 30
0.0
 10
3.2002721489
 20
6.5546538963
 30
0.0
 10
3.1980837461
 20
6.5652627442
 30
0.0
 10
3.1962360351
 20
6.5763456907
 30
0.0
 10
3.1949989286
 20
6.5877106469
 30
0.0
 10
3.1943769024
 20
6.5992877262
 30
0.0
 10
3.1941694651
 20
6.6111757767
 30
0.0
 10
3.1945966388
 20
6.6231877253
 30
0.0
 10
3.1956380145
 20
6.6352531307
 30
0.0
 10
3.1967232687
 20
6.6443613835
 30
0.0
 10
3.1981003967
 20
6.653466851
 30
0.0
 10
3.2003135541
 20
6.6655730484
 30
0.0
 10
3.2037405401
 20
6.6805568404
 30
0.0
 10
3.2088037397
 20
6.6982052254
 30
0.0
 10
3.2146959914
 20
6.7154089121
 30
0.0
 10
3.2212951592
 20
6.732074218
 30
0.0
 10
3.2261427886
 20
6.7428921274
 30
0.0
 10
3.228655654
 20
6.7481952135
 30
0.0
  0
SPLINE
  5
331
100
AcDbEntity
  8
0
100
AcDbSpline
 62
7
  6
CONTINUOUS
 70
0
 71
3
 72
32
 73
28
 74
0
 42
0.0000001
 43
0.0000001
 44
0.0000000001
 40
0.0
 40
0.0
 40
0.0
 40
0.0
 40
0.0189423878
 40
0.0379353255
 40
0.0570819605
 40
0.0764956031
 40
0.0962966302
 40
0.1166051967
 40
0.1375434307
 40
0.1592353383
 40
0.181797963
 40
0.2053307467
 40
0.2299266919
 40
0.2556721154
 40
0.2826285367
 40
0.3108390978
 40
0.3711177446
 40
0.436541837
 40
0.471122055
 40
0.5068745143
 40
0.5816194943
 40
0.620472986
 40
0.6602024806
 40
0.7419444168
 40
0.8262339371
 40
0.9124581604
 40
1.0
 40
1.0
 40
1.0
 40
1.0
 10
3.228655654
 20
6.7734198874
 30
0.0
 10
3.2274140816
 20
6.7738439434
 30
0.0
 10
3.2249633886
 20
6.7748026965
 30
0.0
 10
3.2214212468
 20
6.7765706228
 30
0.0
 10
3.2180275684
 20
6.7786727191
 30
0.0
 10
3.2147977787
 20
6.7811129362
 30
0.0
 10
3.2117471871
 20
6.7838947517
 30
0.0
 10
3.2088909734
 20
6.7870203006
 30
0.0
 10
3.2062445451
 20
6.7904913986
 30
0.0
 10
3.2038237573
 20
6.7943094377
 30
0.0
 10
3.2016440858
 20
6.7984736874
 30
0.0
 10
3.1997190551
 20
6.8029808005
 30
0.0
 10
3.1980630815
 20
6.8078268477
 30
0.0
 10
3.1966916049
 20
6.8130062795
 30
0.0
 10
3.1956136994
 20
6.818509647
 30
0.0
 10
3.1945551847
 20
6.8264395946
 30
0.0
 10
3.1940667022
 20
6.8371105497
 30
0.0
 10
3.1946193778
 20
6.8482126716
 30
0.0
 10
3.1956509486
 20
6.8575605839
 30
0.0
 10
3.1971244451
 20
6.8675024023
 30
0.0
 10
3.1991717783
 20
6.8776504766
 30
0.0
 10
3.2017113006
 20
6.8879629868
 30
0.0
 10
3.2046481087
 20
6.8986733179
 30
0.0
 10
3.2089152187
 20
6.9122763417
 30
0.0
 10
3.2148122763
 20
6.9287268998
 30
0.0
 10
3.2214139664
 20
6.9453396609
 30
0.0
 10
3.2261836104
 20
6.9563914866
 30
0.0
 10
3.228655654
 20
6.9619280177
 30
0.0
  0
SPLINE
  5
332
100
AcDbEntity
  8
0
100
AcDbSpline
 62
7
  6
CONTINUOUS
 70
0
 71
3
 72
15
 73
11
 74
0
 42
0.0000001
 43
0.0000001
 44
0.0000000001
 40
0.0
 40
0.0
 40
0.0
 40
0.0
 40
0.1337472333
 40
0.256836662
 40
0.371924196
 40
0.4831423009
 40
0.5961129449
 40
0.7169310028
 40
0.8504058489
 40
1.0
 40
1.0
 40
1.0
 40
1.0
 10
3.5204190567
 20
6.9775189518
 30
0.0
 10
3.5202790013
 20
6.9775187947
 30
0.0
 10
3.5200095324
 20
6.9775025247
 30
0.0
 10
3.5196273823
 20
6.9774178578
 30
0.0
 10
3.5192898018
 20
6.9772696597
 30
0.0
 10
3.5190031722
 20
6.9770537455
 30
0.0
 10
3.5187760176
 20
6.9767678905
 30
0.0
 10
3.5186146304
 20
6.9764152698
 30
0.0
 10
3.5185187015
 20
6.9760010578
 30
0.0
 10
3.5185
 20
6.9757039627
 30
0.0
 10
3.5185
 20
6.9755473129
 30
0.0
  0
SPLINE
  5
333
100
AcDbEntity
  8
0
100
AcDbSpline
 62
7
  6
CONTINUOUS
 70
0
 71
3
 72
31
 73
27
 74
0
 42
0.0000001
 43
0.0000001
 44
0.0000000001
 40
0.0
 40
0.0
 40
0.0
 40
0.0
 40
0.0132698346
 40
0.0254455039
 40
0.0368745232
 40
0.0479981914
 40
0.0593165976
 40
0.071325825
 40
0.0844506518
 40
0.099019067
 40
0.1152725229
 40
0.1333832478
 40
0.1534567361
 40
0.1755534589
 40
0.1997072614
 40
0.2259328193
 40
0.2542194052
 40
0.2845366242
 40
0.3510982135
 40
0.4252322446
 40
0.5064388596
 40
0.5941810289
 40
0.6879373154
 40
0.7871820227
 40
0.8913820473
 40
1.0
 40
1.0
 40
1.0
 40
1.0
 10
3.2005782812
 20
6.9610803759
 30
0.0
 10
3.2001539783
 20
6.961080608
 30
0.0
 10
3.1993386068
 20
6.9611327075
 30
0.0
 10
3.1981838899
 20
6.9613994546
 30
0.0
 10
3.1971630029
 20
6.9618561573
 30
0.0
 10
3.1962857232
 20
6.9625063696
 30
0.0
 10
3.1955622166
 20
6.9633486006
 30
0.0
 10
3.1949984505
 20
6.9643770693
 30
0.0
 10
3.194592798
 20
6.9655857488
 30
0.0
 10
3.1943431023
 20
6.9669726252
 30
0.0
 10
3.1942484903
 20
6.9685372824
 30
0.0
 10
3.1943094067
 20
6.9702789607
 30
0.0
 10
3.1945240224
 20
6.9721959713
 30
0.0
 10
3.1948907558
 20
6.9742858638
 30
0.0
 10
3.1954081698
 20
6.9765456556
 30
0.0
 10
3.1960749439
 20
6.9789716877
 30
0.0
 10
3.1968879759
 20
6.9815599105
 30
0.0
 10
3.1982035371
 20
6.9853402036
 30
0.0
 10
3.2002059197
 20
6.9904308049
 30
0.0
 10
3.2030539143
 20
6.9969306989
 30
0.0
 10
3.2063773248
 20
7.0039578652
 30
0.0
 10
3.2101359764
 20
7.011470586
 30
0.0
 10
3.2142887367
 20
7.0194294045
 30
0.0
 10
3.2187946291
 20
7.0277964753
 30
0.0
 10
3.2236139898
 20
7.0365337981
 30
0.0
 10
3.2269464142
 20
7.0424669057
 30
0.0
 10
3.228655654
 20
7.0454902545
 30
0.0
  0
LINE
  5
334
100
AcDbEntity
  8
0
100
AcDbLine
 62
7
  6
CONTINUOUS
 10
3.5185
 20
7.0511173883
 11
3.5239483671
 21
7.0454902545
  0
SPLINE
  5
335
100
AcDbEntity
  8
0
100
AcDbSpline
 62
7
  6
CONTINUOUS
 70
0
 71
3
 72
15
 73
11
 74
0
 42
0.0000001
 43
0.0000001
 44
0.0000000001
 40
0.0
 40
0.0
 40
0.0
 40
0.0
 40
0.0999306421
 40
0.1948070245
 40
0.2917683788
 40
0.3980518733
 40
0.519298773
 40
0.6588891861
 40
0.8187659434
 40
1.0
 40
1.0
 40
1.0
 40
1.0
 10
3.2306943866
 20
5.9747307468
 30
0.0
 10
3.2307785022
 20
5.9747310069
 30
0.0
 10
3.2309435015
 20
5.974749409
 30
0.0
 10
3.2311738422
 20
5.9748439963
 30
0.0
 10
3.2313705641
 20
5.9750053554
 30
0.0
 10
3.2315297218
 20
5.9752305481
 30
0.0
 10
3.2316520549
 20
5.9755161408
 30
0.0
 10
3.2317392141
 20
5.9758604917
 30
0.0
 10
3.2317911385
 20
5.9762624959
 30
0.0
 10
3.2318012702
 20
5.9765498276
 30
0.0
 10
3.2318012702
 20
5.9767023801
 30
0.0
  0
LINE
  5
336
100
AcDbEntity
  8
0
100
AcDbLine
 62
7
  6
CONTINUOUS
 10
3.228655654
 20
7.0454902545
 11
3.2318012702
 21
7.0511173883
  0
SPLINE
  5
337
100
AcDbEntity
  8
0
100
AcDbSpline
 62
7
  6
CONTINUOUS
 70
0
 71
3
 72
12
 73
8
 74
0
 42
0.0000001
 43
0.0000001
 44
0.0000000001
 40
0.0
 40
0.0
 40
0.0
 40
0.0
 40
0.1381003023
 40
0.2744251027
 40
0.5345705306
 40
0.7759102238
 40
1.0
 40
1.0
 40
1.0
 40
1.0
 10
3.5185
 20
6.4731962101
 30
0.0
 10
3.5185
 20
6.4725860132
 30
0.0
 10
3.5185734813
 20
6.4713721519
 30
0.0
 10
3.5189902363
 20
6.4690429805
 30
0.0
 10
3.5199680175
 20
6.4663705726
 30
0.0
 10
3.5217186388
 20
6.4636570045
 30
0.0
 10
3.5231817111
 20
6.4621879677
 30
0.0
 10
3.5239483671
 20
6.4615613743
 30
0.0
  0
SPLINE
  5
338
100
AcDbEntity
  8
0
100
AcDbSpline
 62
7
  6
CONTINUOUS
 70
0
 71
3
 72
13
 73
9
 74
0
 42
0.0000001
 43
0.0000001
 44
0.0000000001
 40
0.0
 40
0.0
 40
0.0
 40
0.0
 40
0.102416572
 40
0.2124759665
 40
0.4539845499
 40
0.7198670217
 40
0.8591955698
 40
1.0
 40
1.0
 40
1.0
 40
1.0
 10
3.228655654
 20
6.4615613743
 30
0.0
 10
3.228896423
 20
6.4619022112
 30
0.0
 10
3.2293580623
 20
6.4626365886
 30
0.0
 10
3.2301951358
 20
6.4642884293
 30
0.0
 10
3.2310361162
 20
6.4666717195
 30
0.0
 10
3.2315480391
 20
6.4692652456
 30
0.0
 10
3.2317636346
 20
6.4714807047
 30
0.0
 10
3.2318012702
 20
6.472622497
 30
0.0
 10
3.2318012702
 20
6.4731962101
 30
0.0
  0
SPLINE
  5
339
100
AcDbEntity
  8
0
100
AcDbSpline
 62
7
  6
CONTINUOUS
 70
0
 71
3
 72
15
 73
11
 74
0
 42
0.0000001
 43
0.0000001
 44
0.0000000001
 40
0.0
 40
0.0
 40
0.0
 40
0.0
 40
0.1812340566
 40
0.3411108139
 40
0.480701227
 40
0.6019481267
 40
0.7082316212
 40
0.8051929755
 40
0.9000693579
 40
1.0
 40
1.0
 40
1.0
 40
1.0
 10
3.2318012702
 20
6.9755473129
 30
0.0
 10
3.2318012702
 20
6.9756998654
 30
0.0
 10
3.2317911385
 20
6.9759871971
 30
0.0
 10
3.2317392141
 20
6.9763892013
 30
0.0
 10
3.2316520549
 20
6.9767335523
 30
0.0
 10
3.2315297218
 20
6.9770191449
 30
0.0
 10
3.2313705641
 20
6.9772443376
 30
0.0
 10
3.2311738422
 20
6.9774056967
 30
0.0
 10
3.2309435015
 20
6.977500284
 30
0.0
 10
3.2307785022
 20
6.9775186861
 30
0.0
 10
3.2306943866
 20
6.9775189462
 30
0.0
  0
SPLINE
  5
33A
100
AcDbEntity
  8
0
100
AcDbSpline
 62
7
  6
CONTINUOUS
 70
0
 71
3
 72
12
 73
8
 74
0
 42
0.0000001
 43
0.0000001
 44
0.0000000001
 40
0.0
 40
0.0
 40
0.0
 40
0.0
 40
0.1156272667
 40
0.2374689645
 40
0.4917491279
 40
0.7497125692
 40
1.0
 40
1.0
 40
1.0
 40
1.0
 10
3.2318012702
 20
6.1911648492
 30
0.0
 10
3.2318012702
 20
6.1916799176
 30
0.0
 10
3.2317600654
 20
6.1927379926
 30
0.0
 10
3.2315337229
 20
6.1949179217
 30
0.0
 10
3.2309899612
 20
6.1976963515
 30
0.0
 10
3.2299991006
 20
6.2009504519
 30
0.0
 10
3.2291330721
 20
6.2030469485
 30
0.0
 10
3.228655654
 20
6.2040544795
 30
0.0
  0
SPLINE
  5
33B
100
AcDbEntity
  8
0
100
AcDbSpline
 62
7
  6
CONTINUOUS
 70
0
 71
3
 72
13
 73
9
 74
0
 42
0.0000001
 43
0.0000001
 44
0.0000000001
 40
0.0
 40
0.0
 40
0.0
 40
0.0
 40
0.2509935021
 40
0.5079019951
 40
0.6361989286
 40
0.7623240372
 40
0.8843693282
 40
1.0
 40
1.0
 40
1.0
 40
1.0
 10
3.5239483671
 20
6.2040544795
 30
0.0
 10
3.5231923247
 20
6.2031332984
 30
0.0
 10
3.5217707388
 20
6.2011773682
 30
0.0
 10
3.5203204495
 20
6.1985147278
 30
0.0
 10
3.5194183407
 20
6.1962580302
 30
0.0
 10
3.5189039236
 20
6.1945431728
 30
0.0
 10
3.5185809243
 20
6.1928431127
 30
0.0
 10
3.5185
 20
6.1917138607
 30
0.0
 10
3.5185
 20
6.1911648492
 30
0.0
  0
SPLINE
  5
33C
100
AcDbEntity
  8
0
100
AcDbSpline
 62
7
  6
CONTINUOUS
 70
0
 71
3
 72
15
 73
11
 74
0
 42
0.0000001
 43
0.0000001
 44
0.0000000001
 40
0.0
 40
0.0
 40
0.0
 40
0.0
 40
0.0401145428
 40
0.0844479842
 40
0.1851413145
 40
0.3002530212
 40
0.4270182823
 40
0.5626432069
 40
0.7047321807
 40
1.0
 40
1.0
 40
1.0
 40
1.0
 10
3.5185
 20
6.9726186765
 30
0.0
 10
3.5185
 20
6.9724561955
 30
0.0
 10
3.518521512
 20
6.9721140263
 30
0.0
 10
3.5186389007
 20
6.9713725957
 30
0.0
 10
3.5189259687
 20
6.9703551833
 30
0.0
 10
3.5194422727
 20
6.9690656148
 30
0.0
 10
3.5201182509
 20
6.9676927489
 30
0.0
 10
3.5209295708
 20
6.9662685263
 30
0.0
 10
3.5221750733
 20
6.9643094799
 30
0.0
 10
3.5232167282
 20
6.9628740758
 30
0.0
 10
3.5239483671
 20
6.9619280177
 30
0.0
  0
SPLINE
  5
33D
100
AcDbEntity
  8
0
100
AcDbSpline
 62
7
  6
CONTINUOUS
 70
0
 71
3
 72
15
 73
11
 74
0
 42
0.0000001
 43
0.0000001
 44
0.0000000001
 40
0.0
 40
0.0
 40
0.0
 40
0.0
 40
0.1536630989
 40
0.295539968
 40
0.425940256
 40
0.5473414398
 40
0.6626901584
 40
0.7750701687
 40
0.8868940702
 40
1.0
 40
1.0
 40
1.0
 40
1.0
 10
3.5185
 20
6.1860923021
 30
0.0
 10
3.5185
 20
6.185583785
 30
0.0
 10
3.518566172
 20
6.1846039297
 30
0.0
 10
3.518878613
 20
6.1832228431
 30
0.0
 10
3.5193909904
 20
6.1820168213
 30
0.0
 10
3.5200729283
 20
6.181002004
 30
0.0
 10
3.5208974636
 20
6.1801822912
 30
0.0
 10
3.5218344997
 20
6.1795507747
 30
0.0
 10
3.522859192
 20
6.1790956727
 30
0.0
 10
3.5235811376
 20
6.1789022205
 30
0.0
 10
3.5239483671
 20
6.1788298056
 30
0.0
  0
SPLINE
  5
33E
100
AcDbEntity
  8
0
100
AcDbSpline
 62
7
  6
CONTINUOUS
 70
0
 71
3
 72
13
 73
9
 74
0
 42
0.0000001
 43
0.0000001
 44
0.0000000001
 40
0.0
 40
0.0
 40
0.0
 40
0.0
 40
0.2989896839
 40
0.5758925064
 40
0.7009336161
 40
0.8144531196
 40
0.9146715323
 40
1.0
 40
1.0
 40
1.0
 40
1.0
 10
3.228655654
 20
6.9619280177
 30
0.0
 10
3.2291109116
 20
6.9629476388
 30
0.0
 10
3.2299372729
 20
6.9649345784
 30
0.0
 10
3.2307949428
 20
6.9674105526
 30
0.0
 10
3.2313083438
 20
6.9692665813
 30
0.0
 10
3.2315825932
 20
6.9705025365
 30
0.0
 10
3.2317534795
 20
6.9716070807
 30
0.0
 10
3.2318012702
 20
6.9722999991
 30
0.0
 10
3.2318012702
 20
6.9726186765
 30
0.0
  0
SPLINE
  5
33F
100
AcDbEntity
  8
0
100
AcDbSpline
 62
7
  6
CONTINUOUS
 70
0
 71
3
 72
15
 73
11
 74
0
 42
0.0000001
 43
0.0000001
 44
0.0000000001
 40
0.0
 40
0.0
 40
0.0
 40
0.0
 40
0.0885937114
 40
0.1823176968
 40
0.2848498933
 40
0.399242137
 40
0.5274601445
 40
0.6707396592
 40
0.8288177552
 40
1.0
 40
1.0
 40
1.0
 40
1.0
 10
3.228655654
 20
6.1788298056
 30
0.0
 10
3.2288901571
 20
6.1789098996
 30
0.0
 10
3.2293540595
 20
6.1791353021
 30
0.0
 10
3.2299744298
 20
6.1796453292
 30
0.0
 10
3.2305185454
 20
6.1803300179
 30
0.0
 10
3.2309760159
 20
6.1811849121
 30
0.0
 10
3.2313419187
 20
6.1822037515
 30
0.0
 10
3.231607078
 20
6.1833782461
 30
0.0
 10
3.2317673786
 20
6.1846920043
 30
0.0
 10
3.2318012702
 20
6.1856134913
 30
0.0
 10
3.2318012702
 20
6.1860923021
 30
0.0
  0
SPLINE
  5
340
100
AcDbEntity
  8
0
100
AcDbSpline
 62
7
  6
CONTINUOUS
 70
0
 71
3
 72
13
 73
9
 74
0
 42
0.0000001
 43
0.0000001
 44
0.0000000001
 40
0.0
 40
0.0
 40
0.0
 40
0.0
 40
0.0853284677
 40
0.1855468804
 40
0.2990663839
 40
0.4241074936
 40
0.7010103161
 40
1.0
 40
1.0
 40
1.0
 40
1.0
 10
3.2318012702
 20
5.9796310166
 30
0.0
 10
3.2318012702
 20
5.9799496939
 30
0.0
 10
3.2317534795
 20
5.9806426123
 30
0.0
 10
3.2315825932
 20
5.9817471565
 30
0.0
 10
3.2313083438
 20
5.9829831117
 30
0.0
 10
3.2307949428
 20
5.9848391405
 30
0.0
 10
3.2299372729
 20
5.9873151146
 30
0.0
 10
3.2291109116
 20
5.9893020542
 30
0.0
 10
3.228655654
 20
5.9903216753
 30
0.0
  0
SPLINE
  5
341
100
AcDbEntity
  8
0
100
AcDbSpline
 62
7
  6
CONTINUOUS
 70
0
 71
3
 72
15
 73
11
 74
0
 42
0.0000001
 43
0.0000001
 44
0.0000000001
 40
0.0
 40
0.0
 40
0.0
 40
0.0
 40
0.2952678193
 40
0.4373567931
 40
0.5729817177
 40
0.6997469788
 40
0.8148586855
 40
0.9155520158
 40
0.9598854572
 40
1.0
 40
1.0
 40
1.0
 40
1.0
 10
3.5239483671
 20
5.9903216753
 30
0.0
 10
3.5232167282
 20
5.9893756172
 30
0.0
 10
3.5221750733
 20
5.9879402132
 30
0.0
 10
3.5209295708
 20
5.9859811667
 30
0.0
 10
3.5201182509
 20
5.9845569441
 30
0.0
 10
3.5194422727
 20
5.9831840782
 30
0.0
 10
3.5189259687
 20
5.9818945097
 30
0.0
 10
3.5186389007
 20
5.9808770973
 30
0.0
 10
3.518521512
 20
5.9801356667
 30
0.0
 10
3.5185
 20
5.9797934975
 30
0.0
 10
3.5185
 20
5.9796310166
 30
0.0
  0
SPLINE
  5
342
100
AcDbEntity
  8
0
100
AcDbSpline
 62
7
  6
CONTINUOUS
 70
0
 71
3
 72
15
 73
11
 74
0
 42
0.0000001
 43
0.0000001
 44
0.0000000001
 40
0.0
 40
0.0
 40
0.0
 40
0.0
 40
0.1495941511
 40
0.2830689972
 40
0.4038870551
 40
0.5168576991
 40
0.628075804
 40
0.743163338
 40
0.8662527667
 40
1.0
 40
1.0
 40
1.0
 40
1.0
 10
3.5185
 20
5.9767023801
 30
0.0
 10
3.5185
 20
5.9765457303
 30
0.0
 10
3.5185187015
 20
5.9762486352
 30
0.0
 10
3.5186146304
 20
5.9758344232
 30
0.0
 10
3.5187760176
 20
5.9754818025
 30
0.0
 10
3.5190031722
 20
5.9751959476
 30
0.0
 10
3.5192898018
 20
5.9749800333
 30
0.0
 10
3.5196273823
 20
5.9748318353
 30
0.0
 10
3.5200095324
 20
5.9747471684
 30
0.0
 10
3.5202790013
 20
5.9747308983
 30
0.0
 10
3.5204190567
 20
5.9747307413
 30
0.0
  0
LINE
  5
343
100
AcDbEntity
  8
0
100
AcDbLine
 62
7
  6
CONTINUOUS
 10
3.2318012702
 20
5.9011323047
 11
3.228655654
 21
5.9067594386
  0
SPLINE
  5
344
100
AcDbEntity
  8
0
100
AcDbSpline
 62
7
  6
CONTINUOUS
 70
0
 71
3
 72
15
 73
11
 74
0
 42
0.0000001
 43
0.0000001
 44
0.0000000001
 40
0.0
 40
0.0
 40
0.0
 40
0.0
 40
0.1711822448
 40
0.3292603408
 40
0.4725398555
 40
0.600757863
 40
0.7151501067
 40
0.8176823032
 40
0.9114062886
 40
1.0
 40
1.0
 40
1.0
 40
1.0
 10
3.2318012702
 20
6.7661573909
 30
0.0
 10
3.2318012702
 20
6.7666362017
 30
0.0
 10
3.2317673786
 20
6.7675576888
 30
0.0
 10
3.231607078
 20
6.7688714469
 30
0.0
 10
3.2313419187
 20
6.7700459415
 30
0.0
 10
3.2309760159
 20
6.771064781
 30
0.0
 10
3.2305185454
 20
6.7719196751
 30
0.0
 10
3.2299744298
 20
6.7726043638
 30
0.0
 10
3.2293540595
 20
6.7731143909
 30
0.0
 10
3.2288901571
 20
6.7733397935
 30
0.0
 10
3.228655654
 20
6.7734198874
 30
0.0
  0
LINE
  5
345
100
AcDbEntity
  8
0
100
AcDbLine
 62
7
  6
CONTINUOUS
 10
3.5239483671
 20
5.9067594386
 11
3.5185
 21
5.9011323047
  0
SPLINE
  5
346
100
AcDbEntity
  8
0
100
AcDbSpline
 62
7
  6
CONTINUOUS
 70
0
 71
3
 72
31
 73
27
 74
0
 42
0.0000001
 43
0.0000001
 44
0.0000000001
 40
0.0
 40
0.0
 40
0.0
 40
0.0
 40
0.1086181497
 40
0.2128181867
 40
0.3120628665
 40
0.4058191789
 40
0.4935614885
 40
0.5747682525
 40
0.6489023144
 40
0.7154638868
 40
0.7457810956
 40
0.7740676344
 40
0.8002930908
 40
0.824446785
 40
0.8465433962
 40
0.8666167588
 40
0.8847273368
 40
0.9009806195
 40
0.9155488617
 40
0.9286735494
 40
0.9406826946
 40
0.9520010761
 40
0.9631248069
 40
0.9745539905
 40
0.9867298957
 40
1.0
 40
1.0
 40
1.0
 40
1.0
 10
3.228655654
 20
5.9067594386
 30
0.0
 10
3.2269464063
 20
5.9097828013
 30
0.0
 10
3.2236139697
 20
5.9157159318
 30
0.0
 10
3.2187945939
 20
5.9244532852
 30
0.0
 10
3.2142886875
 20
5.9328203794
 30
0.0
 10
3.2101359148
 20
5.940779225
 30
0.0
 10
3.2063772529
 20
5.9482919785
 30
0.0
 10
3.2030538301
 20
5.9553191747
 30
0.0
 10
3.2002058316
 20
5.9618190946
 30
0.0
 10
3.1982034551
 20
5.966909715
 30
0.0
 10
3.1968878969
 20
5.9706900187
 30
0.0
 10
3.1960748706
 20
5.9732782461
 30
0.0
 10
3.1954081099
 20
5.9757042807
 30
0.0
 10
3.1948907095
 20
5.9779640718
 30
0.0
 10
3.19452399
 20
5.9800539617
 30
0.0
 10
3.19430939
 20
5.9819709672
 30
0.0
 10
3.1942484915
 20
5.983712637
 30
0.0
 10
3.1943431273
 20
5.9852772817
 30
0.0
 10
3.1945928509
 20
5.9866641417
 30
0.0
 10
3.1949985335
 20
5.9878728018
 30
0.0
 10
3.1955623265
 20
5.9889012505
 30
0.0
 10
3.1962858624
 20
5.9897434597
 30
0.0
 10
3.197163179
 20
5.9903936392
 30
0.0
 10
3.1981841017
 20
5.9908503052
 30
0.0
 10
3.1993388515
 20
5.9911170172
 30
0.0
 10
3.2001542425
 20
5.991169098
 30
0.0
 10
3.2005785552
 20
5.991169319
 30
0.0
  0
SPLINE
  5
347
100
AcDbEntity
  8
0
100
AcDbSpline
 62
7
  6
CONTINUOUS
 70
0
 71
3
 72
15
 73
11
 74
0
 42
0.0000001
 43
0.0000001
 44
0.0000000001
 40
0.0
 40
0.0
 40
0.0
 40
0.0
 40
0.1131059298
 40
0.2249298313
 40
0.3373098416
 40
0.4526585602
 40
0.574059744
 40
0.704460032
 40
0.8463369011
 40
1.0
 40
1.0
 40
1.0
 40
1.0
 10
3.5239483671
 20
6.7734198874
 30
0.0
 10
3.5235811376
 20
6.7733474725
 30
0.0
 10
3.522859192
 20
6.7731540203
 30
0.0
 10
3.5218344997
 20
6.7726989183
 30
0.0
 10
3.5208974636
 20
6.7720674018
 30
0.0
 10
3.5200729283
 20
6.771247689
 30
0.0
 10
3.5193909904
 20
6.7702328717
 30
0.0
 10
3.518878613
 20
6.7690268499
 30
0.0
 10
3.518566172
 20
6.7676457633
 30
0.0
 10
3.5185
 20
6.766665908
 30
0.0
 10
3.5185
 20
6.7661573909
 30
0.0
  0
SPLINE
  5
348
100
AcDbEntity
  8
0
100
AcDbSpline
 62
7
  6
CONTINUOUS
 70
0
 71
3
 72
9
 73
5
 74
0
 42
0.0000001
 43
0.0000001
 44
0.0000000001
 40
0.0
 40
0.0
 40
0.0
 40
0.0
 40
0.2531833368
 40
1.0
 40
1.0
 40
1.0
 40
1.0
 10
3.5239483671
 20
6.7734198874
 30
0.0
 10
3.5251962288
 20
6.7736659565
 30
0.0
 10
3.5301090537
 20
6.7747152281
 30
0.0
 10
3.5349552786
 20
6.776087062
 30
0.0
 10
3.5385
 20
6.7773159899
 30
0.0
  0
SPLINE
  5
349
100
AcDbEntity
  8
0
100
AcDbSpline
 62
7
  6
CONTINUOUS
 70
0
 71
3
 72
13
 73
9
 74
0
 42
0.0000001
 43
0.0000001
 44
0.0000000001
 40
0.0
 40
0.0
 40
0.0
 40
0.0
 40
0.1156301525
 40
0.2376744548
 40
0.3637997582
 40
0.4920970052
 40
0.7490061805
 40
1.0
 40
1.0
 40
1.0
 40
1.0
 10
3.5185
 20
6.7610848439
 30
0.0
 10
3.5185
 20
6.7605358348
 30
0.0
 10
3.5185809176
 20
6.7594065894
 30
0.0
 10
3.5189039219
 20
6.7577065363
 30
0.0
 10
3.5194183364
 20
6.7559916809
 30
0.0
 10
3.5203204418
 20
6.7537349755
 30
0.0
 10
3.5217707359
 20
6.7510723303
 30
0.0
 10
3.5231923237
 20
6.7491163958
 30
0.0
 10
3.5239483671
 20
6.7481952135
 30
0.0
  0
SPLINE
  5
34A
100
AcDbEntity
  8
0
100
AcDbSpline
 62
7
  6
CONTINUOUS
 70
0
 71
3
 72
12
 73
8
 74
0
 42
0.0000001
 43
0.0000001
 44
0.0000000001
 40
0.0
 40
0.0
 40
0.0
 40
0.0
 40
0.2502873842
 40
0.5082510257
 40
0.7625312299
 40
0.8843727989
 40
1.0
 40
1.0
 40
1.0
 40
1.0
 10
3.228655654
 20
6.7481952135
 30
0.0
 10
3.229133072
 20
6.7492027443
 30
0.0
 10
3.2299991012
 20
6.7512992414
 30
0.0
 10
3.2309899608
 20
6.754553343
 30
0.0
 10
3.2315337237
 20
6.7573317731
 30
0.0
 10
3.2317600658
 20
6.7595117016
 30
0.0
 10
3.2318012702
 20
6.7605697757
 30
0.0
 10
3.2318012702
 20
6.7610848439
 30
0.0
  0
SPLINE
  5
34B
100
AcDbEntity
  8
0
100
AcDbSpline
 62
7
  6
CONTINUOUS
 70
0
 71
3
 72
15
 73
11
 74
0
 42
0.0000001
 43
0.0000001
 44
0.0000000001
 40
0.0
 40
0.0
 40
0.0
 40
0.0
 40
0.1256209692
 40
0.2507583492
 40
0.3754947238
 40
0.5000000159
 40
0.6245053053
 40
0.7492416752
 40
0.8743790363
 40
1.0
 40
1.0
 40
1.0
 40
1.0
 10
6.0907760801
 20
6.1172677632
 30
0.0
 10
6.0951126623
 20
6.1312068164
 30
0.0
 10
6.1030196749
 20
6.1592742457
 30
0.0
 10
6.1120674681
 20
6.2019982669
 30
0.0
 10
6.1177657224
 20
6.2451791186
 30
0.0
 10
6.119715901
 20
6.2886248517
 30
0.0
 10
6.1177657215
 20
6.3320705843
 30
0.0
 10
6.1120674667
 20
6.3752514329
 30
0.0
 10
6.1030196738
 20
6.4179754506
 30
0.0
 10
6.0951126621
 20
6.4460428773
 30
0.0
 10
6.0907760801
 20
6.4599819298
 30
0.0
  0
SPLINE
  5
34C
100
AcDbEntity
  8
0
100
AcDbSpline
 62
7
  6
CONTINUOUS
 70
0
 71
3
 72
15
 73
11
 74
0
 42
0.0000001
 43
0.0000001
 44
0.0000000001
 40
0.0
 40
0.0
 40
0.0
 40
0.0
 40
0.1256209692
 40
0.2507583492
 40
0.3754947238
 40
0.5000000159
 40
0.6245053053
 40
0.7492416752
 40
0.8743790363
 40
1.0
 40
1.0
 40
1.0
 40
1.0
 10
6.0907760801
 20
6.4922677632
 30
0.0
 10
6.0951126623
 20
6.5062068164
 30
0.0
 10
6.1030196749
 20
6.5342742457
 30
0.0
 10
6.1120674681
 20
6.5769982669
 30
0.0
 10
6.1177657224
 20
6.6201791186
 30
0.0
 10
6.119715901
 20
6.6636248517
 30
0.0
 10
6.1177657215
 20
6.7070705843
 30
0.0
 10
6.1120674667
 20
6.7502514329
 30
0.0
 10
6.1030196738
 20
6.7929754506
 30
0.0
 10
6.0951126621
 20
6.8210428773
 30
0.0
 10
6.0907760801
 20
6.8349819298
 30
0.0
  0
SPLINE
  5
34D
100
AcDbEntity
  8
0
100
AcDbSpline
 62
7
  6
CONTINUOUS
 70
0
 71
3
 72
15
 73
11
 74
0
 42
0.0000001
 43
0.0000001
 44
0.0000000001
 40
0.0
 40
0.0
 40
0.0
 40
0.0
 40
0.1256209692
 40
0.2507583492
 40
0.3754947238
 40
0.5000000159
 40
0.6245053053
 40
0.7492416752
 40
0.8743790363
 40
1.0
 40
1.0
 40
1.0
 40
1.0
 10
5.5610995643
 20
6.4922677632
 30
0.0
 10
5.556762982
 20
6.5062068164
 30
0.0
 10
5.5488559694
 20
6.5342742457
 30
0.0
 10
5.5398081762
 20
6.5769982669
 30
0.0
 10
5.5341099219
 20
6.6201791186
 30
0.0
 10
5.5321597433
 20
6.6636248517
 30
0.0
 10
5.5341099228
 20
6.7070705843
 30
0.0
 10
5.5398081776
 20
6.7502514329
 30
0.0
 10
5.5488559706
 20
6.7929754506
 30
0.0
 10
5.5567629822
 20
6.8210428773
 30
0.0
 10
5.5610995643
 20
6.8349819298
 30
0.0
  0
SPLINE
  5
34E
100
AcDbEntity
  8
0
100
AcDbSpline
 62
7
  6
CONTINUOUS
 70
0
 71
3
 72
15
 73
11
 74
0
 42
0.0000001
 43
0.0000001
 44
0.0000000001
 40
0.0
 40
0.0
 40
0.0
 40
0.0
 40
0.1256209692
 40
0.2507583492
 40
0.3754947238
 40
0.5000000159
 40
0.6245053053
 40
0.7492416752
 40
0.8743790363
 40
1.0
 40
1.0
 40
1.0
 40
1.0
 10
5.5610995643
 20
6.1172677632
 30
0.0
 10
5.556762982
 20
6.1312068164
 30
0.0
 10
5.5488559694
 20
6.1592742457
 30
0.0
 10
5.5398081762
 20
6.2019982669
 30
0.0
 10
5.5341099219
 20
6.2451791186
 30
0.0
 10
5.5321597433
 20
6.2886248517
 30
0.0
 10
5.5341099228
 20
6.3320705843
 30
0.0
 10
5.5398081776
 20
6.3752514329
 30
0.0
 10
5.5488559706
 20
6.4179754506
 30
0.0
 10
5.5567629822
 20
6.4460428773
 30
0.0
 10
5.5610995643
 20
6.4599819298
 30
0.0
  0
SPLINE
  5
34F
100
AcDbEntity
  8
0
100
AcDbSpline
 62
7
  6
CONTINUOUS
 70
0
 71
3
 72
15
 73
11
 74
0
 42
0.0000001
 43
0.0000001
 44
0.0000000001
 40
0.0
 40
0.0
 40
0.0
 40
0.0
 40
0.0844936524
 40
0.1744910682
 40
0.2753021715
 40
0.3908680071
 40
0.5228847208
 40
0.6708429479
 40
0.8317769714
 40
1.0
 40
1.0
 40
1.0
 40
1.0
 10
5.5305
 20
7.131376647
 30
0.0
 10
5.5305
 20
7.1322399301
 30
0.0
 10
5.5307936996
 20
7.1340346884
 30
0.0
 10
5.5321003115
 20
7.1365689313
 30
0.0
 10
5.5342417337
 20
7.1388941105
 30
0.0
 10
5.5371757224
 20
7.1409473456
 30
0.0
 10
5.540848204
 20
7.1426724265
 30
0.0
 10
5.5451691928
 20
7.1439919469
 30
0.0
 10
5.5499807249
 20
7.1448368313
 30
0.0
 10
5.5533450041
 20
7.1450488017
 30
0.0
 10
5.5550636898
 20
7.1450645009
 30
0.0
  0
SPLINE
  5
350
100
AcDbEntity
  8
0
100
AcDbSpline
 62
7
  6
CONTINUOUS
 70
0
 71
3
 72
15
 73
11
 74
0
 42
0.0000001
 43
0.0000001
 44
0.0000000001
 40
0.0
 40
0.0
 40
0.0
 40
0.0
 40
0.1588044826
 40
0.3102546854
 40
0.4504628342
 40
0.5785066436
 40
0.6953342139
 40
0.8028301362
 40
0.9034316223
 40
1.0
 40
1.0
 40
1.0
 40
1.0
 10
5.5108490481
 20
7.0663271559
 30
0.0
 10
5.5123029173
 20
7.0663474008
 30
0.0
 10
5.5151463963
 20
7.0666346117
 30
0.0
 10
5.5191354983
 20
7.0677584213
 30
0.0
 10
5.5226156194
 20
7.0694347728
 30
0.0
 10
5.5254871265
 20
7.071513516
 30
0.0
 10
5.5277211802
 20
7.0738679488
 30
0.0
 10
5.529317849
 20
7.076403028
 30
0.0
 10
5.5302806871
 20
7.0790439837
 30
0.0
 10
5.5305
 20
7.0808556012
 30
0.0
 10
5.5305
 20
7.081739779
 30
0.0
  0
SPLINE
  5
351
100
AcDbEntity
  8
0
100
AcDbSpline
 62
7
  6
CONTINUOUS
 70
0
 71
3
 72
16
 73
12
 74
0
 42
0.0000001
 43
0.0000001
 44
0.0000000001
 40
0.0
 40
0.0
 40
0.0
 40
0.0
 40
0.1333144797
 40
0.1987562458
 40
0.2632708782
 40
0.389961259
 40
0.5144076938
 40
0.6372401258
 40
0.7588958543
 40
0.8797247515
 40
1.0
 40
1.0
 40
1.0
 40
1.0
 10
5.5809363102
 20
7.0426866814
 30
0.0
 10
5.5834910199
 20
7.0439699508
 30
0.0
 10
5.5869480542
 20
7.0466123038
 30
0.0
 10
5.5907405334
 20
7.0507954085
 30
0.0
 10
5.5940268466
 20
7.0552217304
 30
0.0
 10
5.5973836785
 20
7.0611278829
 30
0.0
 10
5.6004702258
 20
7.0685461306
 30
0.0
 10
5.6027592213
 20
7.076131873
 30
0.0
 10
5.6043480824
 20
7.0838129183
 30
0.0
 10
5.6052894087
 20
7.0915432437
 30
0.0
 10
5.6055
 20
7.0967160151
 30
0.0
 10
5.6055
 20
7.0992952936
 30
0.0
  0
SPLINE
  5
352
100
AcDbEntity
  8
0
100
AcDbSpline
 62
7
  6
CONTINUOUS
 70
0
 71
3
 72
16
 73
12
 74
0
 42
0.0000001
 43
0.0000001
 44
0.0000000001
 40
0.0
 40
0.0
 40
0.0
 40
0.0
 40
0.1620574261
 40
0.3168010331
 40
0.4600286226
 40
0.5902110442
 40
0.7075747282
 40
0.8133791391
 40
0.9097333671
 40
0.9554133428
 40
1.0
 40
1.0
 40
1.0
 40
1.0
 10
4.6026273797
 20
7.0761046736
 30
0.0
 10
4.599064711
 20
7.0761521766
 30
0.0
 10
4.5920937831
 20
7.0768149809
 30
0.0
 10
4.5822718968
 20
7.0794008711
 30
0.0
 10
4.5736352202
 20
7.0832498078
 30
0.0
 10
4.5664329015
 20
7.0880072082
 30
0.0
 10
4.560756999
 20
7.0933745559
 30
0.0
 10
4.5566374133
 20
7.0991222125
 30
0.0
 10
4.5544865004
 20
7.1041912878
 30
0.0
 10
4.5536422061
 20
7.1082169548
 30
0.0
 10
4.5535
 20
7.1102041691
 30
0.0
 10
4.5535
 20
7.1111844488
 30
0.0
  0
SPLINE
  5
353
100
AcDbEntity
  8
0
100
AcDbSpline
 62
7
  6
CONTINUOUS
 70
0
 71
3
 72
9
 73
5
 74
0
 42
0.0000001
 43
0.0000001
 44
0.0000000001
 40
0.0
 40
0.0
 40
0.0
 40
0.0
 40
0.5000545973
 40
1.0
 40
1.0
 40
1.0
 40
1.0
 10
5.5809363102
 20
7.0426866814
 30
0.0
 10
5.5785525526
 20
7.0414892839
 30
0.0
 10
5.5735124429
 20
7.0395975845
 30
0.0
 10
5.5681668551
 20
7.0389039908
 30
0.0
 10
5.5655
 20
7.0388750489
 30
0.0
  0
SPLINE
  5
354
100
AcDbEntity
  8
0
100
AcDbSpline
 62
7
  6
CONTINUOUS
 70
0
 71
3
 72
38
 73
34
 74
0
 42
0.0000001
 43
0.0000001
 44
0.0000000001
 40
0.0
 40
0.0
 40
0.0
 40
0.0
 40
0.0000835414
 40
0.0003143881
 40
0.0006959557
 40
0.0012284614
 40
0.0019117395
 40
0.0027455187
 40
0.0037294868
 40
0.0048633126
 40
0.0075791636
 40
0.0108902874
 40
0.0147938529
 40
0.0192870101
 40
0.0243668987
 40
0.0300306527
 40
0.0430982739
 40
0.0584668941
 40
0.0761135116
 40
0.0960078723
 40
0.1180907458
 40
0.1422956547
 40
0.1685561193
 40
0.1968056581
 40
0.2269777882
 40
0.2928238871
 40
0.3655216702
 40
0.4443348968
 40
0.5284864496
 40
0.6171992091
 40
0.7096629311
 40
0.8049348783
 40
1.0
 40
1.0
 40
1.0
 40
1.0
 10
5.5108490568
 20
7.694789079
 30
0.0
 10
5.5108525372
 20
7.6947890665
 30
0.0
 10
5.5108538566
 20
7.6947699941
 30
0.0
 10
5.510859067
 20
7.6947470086
 30
0.0
 10
5.5108620297
 20
7.6946962075
 30
0.0
 10
5.5108663615
 20
7.6946312054
 30
0.0
 10
5.5108701446
 20
7.694545351
 30
0.0
 10
5.5108741131
 20
7.694441429
 30
0.0
 10
5.51087797
 20
7.6943184553
 30
0.0
 10
5.5108834178
 20
7.6941171827
 30
0.0
 10
5.5108898749
 20
7.6938189062
 30
0.0
 10
5.5108970747
 20
7.6934052585
 30
0.0
 10
5.5109040653
 20
7.6929175438
 30
0.0
 10
5.5109108413
 20
7.6923561349
 30
0.0
 10
5.5109173876
 20
7.6917213865
 30
0.0
 10
5.5109262244
 20
7.6907294225
 30
0.0
 10
5.5109363711
 20
7.6893088148
 30
0.0
 10
5.5109470744
 20
7.6873889821
 30
0.0
 10
5.5109567382
 20
7.6851847314
 30
0.0
 10
5.510965319
 20
7.6827007514
 30
0.0
 10
5.5109728027
 20
7.6799435413
 30
0.0
 10
5.5109791714
 20
7.676921109
 30
0.0
 10
5.5109844085
 20
7.6736417641
 30
0.0
 10
5.5109885001
 20
7.6701138166
 30
0.0
 10
5.5109925243
 20
7.6649366877
 30
0.0
 10
5.5109943461
 20
7.6579077948
 30
0.0
 10
5.510991762
 20
7.6488524612
 30
0.0
 10
5.5109845254
 20
7.6390345048
 30
0.0
 10
5.5109727058
 20
7.6285493512
 30
0.0
 10
5.5109563788
 20
7.6174955084
 30
0.0
 10
5.5109356453
 20
7.6059783846
 30
0.0
 10
5.5109022008
 20
7.5900305221
 30
0.0
 10
5.5108717367
 20
7.5779348015
 30
0.0
 10
5.510849057
 20
7.5698082079
 30
0.0
  0
SPLINE
  5
355
100
AcDbEntity
  8
0
100
AcDbSpline
 62
7
  6
CONTINUOUS
 70
0
 71
3
 72
19
 73
15
 74
0
 42
0.0000001
 43
0.0000001
 44
0.0000000001
 40
0.0
 40
0.0
 40
0.0
 40
0.0
 40
0.0425500583
 40
0.0822054726
 40
0.1205672454
 40
0.1593783968
 40
0.2444864802
 40
0.2935248239
 40
0.3478458241
 40
0.4079147837
 40
0.4740273719
 40
0.6249280949
 40
0.8005779064
 40
1.0
 40
1.0
 40
1.0
 40
1.0
 10
4.2375
 20
7.705396231
 30
0.0
 10
4.2375
 20
7.7057966512
 30
0.0
 10
4.2375561707
 20
7.7065723775
 30
0.0
 10
4.2378434362
 20
7.7076772066
 30
0.0
 10
4.2383341325
 20
7.7086700879
 30
0.0
 10
4.2392861284
 20
7.7098773521
 30
0.0
 10
4.2406552706
 20
7.7108211188
 30
0.0
 10
4.2422800523
 20
7.7115329154
 30
0.0
 10
4.2437472399
 20
7.7120038591
 30
0.0
 10
4.2454023526
 20
7.712391031
 30
0.0
 10
4.2479751126
 20
7.7128238889
 30
0.0
 10
4.2516594747
 20
7.7131594563
 30
0.0
 10
4.2566079875
 20
7.7133156411
 30
0.0
 10
4.260138263
 20
7.7132925115
 30
0.0
 10
4.2620146475
 20
7.7132594763
 30
0.0
  0
SPLINE
  5
356
100
AcDbEntity
  8
0
100
AcDbSpline
 62
7
  6
CONTINUOUS
 70
0
 71
3
 72
22
 73
18
 74
0
 42
0.0000001
 43
0.0000001
 44
0.0000000001
 40
0.0
 40
0.0
 40
0.0
 40
0.0
 40
0.0087337609
 40
0.0179380266
 40
0.0281054926
 40
0.0395964463
 40
0.0674029379
 40
0.1024923423
 40
0.1451223769
 40
0.1951713038
 40
0.2524050737
 40
0.316470471
 40
0.4629533834
 40
0.6299109464
 40
0.7192100361
 40
0.8112965228
 40
1.0
 40
1.0
 40
1.0
 40
1.0
 10
5.559976417
 20
7.6956466917
 30
0.0
 10
5.5598868424
 20
7.6956451282
 30
0.0
 10
5.5597024612
 20
7.6956169665
 30
0.0
 10
5.5594354529
 20
7.6955016974
 30
0.0
 10
5.5591762198
 20
7.6953166941
 30
0.0
 10
5.5588166827
 20
7.6949561903
 30
0.0
 10
5.5583907021
 20
7.6943160331
 30
0.0
 10
5.5579259014
 20
7.6933367932
 30
0.0
 10
5.5574787286
 20
7.6921030693
 30
0.0
 10
5.5570551012
 20
7.6906239772
 30
0.0
 10
5.5566611962
 20
7.6889103379
 30
0.0
 10
5.5561611187
 20
7.6862087791
 30
0.0
 10
5.5556621331
 20
7.6823659138
 30
0.0
 10
5.555343788
 20
7.6782458394
 30
0.0
 10
5.555162364
 20
7.6746771022
 30
0.0
 10
5.5550236882
 20
7.6708835277
 30
0.0
 10
5.5549980582
 20
7.6680012664
 30
0.0
 10
5.5550564654
 20
7.6660664858
 30
0.0
  0
SPLINE
  5
357
100
AcDbEntity
  8
0
100
AcDbSpline
 62
7
  6
CONTINUOUS
 70
0
 71
3
 72
29
 73
25
 74
0
 42
0.0000001
 43
0.0000001
 44
0.0000000001
 40
0.0
 40
0.0
 40
0.0
 40
0.0
 40
0.0003590241
 40
0.0011626061
 40
0.0024677199
 40
0.0042922731
 40
0.0066482418
 40
0.0095458957
 40
0.0170042403
 40
0.0267412875
 40
0.0388289754
 40
0.0533385591
 40
0.0703409744
 40
0.0898830545
 40
0.11191585
 40
0.1631617719
 40
0.2234948233
 40
0.2923306775
 40
0.3689252872
 40
0.4518963857
 40
0.5397021049
 40
0.6308005111
 40
0.8170473263
 40
1.0
 40
1.0
 40
1.0
 40
1.0
 10
4.5380459922
 20
7.3473847951
 30
0.0
 10
4.5380421214
 20
7.3473892572
 30
0.0
 10
4.5380498363
 20
7.3474119319
 30
0.0
 10
4.5380707641
 20
7.3474427103
 30
0.0
 10
4.5381114444
 20
7.3474954294
 30
0.0
 10
4.5381704605
 20
7.3475626958
 30
0.0
 10
4.538249583
 20
7.3476485739
 30
0.0
 10
4.538394421
 20
7.3477992673
 30
0.0
 10
4.5386285416
 20
7.3480328476
 30
0.0
 10
4.538974629
 20
7.3483679798
 30
0.0
 10
4.5394082822
 20
7.3487794983
 30
0.0
 10
4.5399321559
 20
7.3492695352
 30
0.0
 10
4.5405487093
 20
7.3498400219
 30
0.0
 10
4.5412588771
 20
7.3504915715
 30
0.0
 10
4.542387601
 20
7.3515202885
 30
0.0
 10
4.5440184353
 20
7.3529943911
 30
0.0
 10
4.5462278538
 20
7.3549767242
 30
0.0
 10
4.5487543293
 20
7.3572301683
 30
0.0
 10
4.5515648475
 20
7.359724699
 30
0.0
 10
4.5546139568
 20
7.3624205817
 30
0.0
 10
4.5578464447
 20
7.3652693119
 30
0.0
 10
4.5623594456
 20
7.3692349982
 30
0.0
 10
4.5680584565
 20
7.3742225528
 30
0.0
 10
4.5726381287
 20
7.3782132029
 30
0.0
 10
4.5749095928
 20
7.3801883562
 30
0.0
  0
SPLINE
  5
358
100
AcDbEntity
  8
0
100
AcDbSpline
 62
7
  6
CONTINUOUS
 70
0
 71
3
 72
33
 73
29
 74
0
 42
0.0000001
 43
0.0000001
 44
0.0000000001
 40
0.0
 40
0.0
 40
0.0
 40
0.0
 40
0.0002473097
 40
0.0007294958
 40
0.0014450564
 40
0.0023917062
 40
0.0049684247
 40
0.0084396119
 40
0.0127849607
 40
0.0179840934
 40
0.0240166037
 40
0.0308620717
 40
0.0468927298
 40
0.0658254782
 40
0.0873922753
 40
0.1113250619
 40
0.137367824
 40
0.1653127318
 40
0.1949639933
 40
0.2261258141
 40
0.2922852569
 40
0.3626611469
 40
0.4362987902
 40
0.5125952655
 40
0.5910355769
 40
0.6711047262
 40
0.8343983342
 40
1.0
 40
1.0
 40
1.0
 40
1.0
 10
4.2558625904
 20
7.672001191
 30
0.0
 10
4.255871459
 20
7.6719909319
 30
0.0
 10
4.2559039321
 20
7.6719668595
 30
0.0
 10
4.2559674572
 20
7.671919995
 30
0.0
 10
4.2560648275
 20
7.6718537782
 30
0.0
 10
4.2562579123
 20
7.6717245311
 30
0.0
 10
4.2565795573
 20
7.6715154704
 30
0.0
 10
4.2570592729
 20
7.6712078509
 30
0.0
 10
4.257661864
 20
7.6708253896
 30
0.0
 10
4.258384329
 20
7.6703697446
 30
0.0
 10
4.2592238936
 20
7.6698427736
 30
0.0
 10
4.2605678722
 20
7.6690022266
 30
0.0
 10
4.2625139715
 20
7.6677904042
 30
0.0
 10
4.2651478807
 20
7.6661560238
 30
0.0
 10
4.2681520895
 20
7.6642965942
 30
0.0
 10
4.2714895628
 20
7.6622348174
 30
0.0
 10
4.275126085
 20
7.6599916731
 30
0.0
 10
4.2790307948
 20
7.65758603
 30
0.0
 10
4.2831756372
 20
7.6550350151
 30
0.0
 10
4.289106418
 20
7.6513879213
 30
0.0
 10
4.2969417936
 20
7.6465749479
 30
0.0
 10
4.306764793
 20
7.6405478061
 30
0.0
 10
4.3170641261
 20
7.6342341259
 30
0.0
 10
4.3277427524
 20
7.6276930668
 30
0.0
 10
4.3387241702
 20
7.6209711602
 30
0.0
 10
4.3537767852
 20
7.6117628457
 30
0.0
 10
4.3729107773
 20
7.6000675102
 30
0.0
 10
4.3883028297
 20
7.5906688409
 30
0.0
 10
4.3960538702
 20
7.5859381775
 30
0.0
  0
LINE
  5
359
100
AcDbEntity
  8
0
100
AcDbLine
 62
7
  6
CONTINUOUS
 10
5.5350940647
 20
7.665593466
 11
5.5305
 21
7.6656484776
  0
LINE
  5
35A
100
AcDbEntity
  8
0
100
AcDbLine
 62
7
  6
CONTINUOUS
 10
5.5550564654
 20
7.6660664858
 11
5.5550636913
 21
7.6655655091
  0
LINE
  5
35B
100
AcDbEntity
  8
0
100
AcDbLine
 62
7
  6
CONTINUOUS
 10
5.5550636906
 20
7.6655656865
 11
5.5390019497
 21
7.6655657103
  0
LINE
  5
35C
100
AcDbEntity
  8
0
100
AcDbLine
 62
7
  6
CONTINUOUS
 10
5.5390019497
 20
7.6655657103
 11
5.5350940647
 21
7.665593466
  0
SPLINE
  5
35D
100
AcDbEntity
  8
0
100
AcDbSpline
 62
7
  6
CONTINUOUS
 70
0
 71
3
 72
18
 73
14
 74
0
 42
0.0000001
 43
0.0000001
 44
0.0000000001
 40
0.0
 40
0.0
 40
0.0
 40
0.0
 40
0.045340833
 40
0.0918831279
 40
0.1408433587
 40
0.1931323069
 40
0.2493121613
 40
0.3094107602
 40
0.4399989408
 40
0.5807508287
 40
0.7250978351
 40
0.8665572449
 40
1.0
 40
1.0
 40
1.0
 40
1.0
 10
5.5108491783
 20
7.6947890811
 30
0.0
 10
5.5114189657
 20
7.6947981998
 30
0.0
 10
5.5125783962
 20
7.6947008056
 30
0.0
 10
5.5142915229
 20
7.6942204975
 30
0.0
 10
5.515977401
 20
7.693422375
 30
0.0
 10
5.5176287556
 20
7.6923217661
 30
0.0
 10
5.5192373917
 20
7.6909363734
 30
0.0
 10
5.5213791662
 20
7.6886860563
 30
0.0
 10
5.5238669392
 20
7.6853264274
 30
0.0
 10
5.5264803764
 20
7.6807920039
 30
0.0
 10
5.528620996
 20
7.6758618629
 30
0.0
 10
5.5300897164
 20
7.6707859236
 30
0.0
 10
5.5304999364
 20
7.6673280787
 30
0.0
 10
5.5304999099
 20
7.665650921
 30
0.0
  0
LINE
  5
35E
100
AcDbEntity
  8
0
100
AcDbLine
 62
7
  6
CONTINUOUS
 10
5.4154999944
 20
7.5681438845
 11
5.4154999945
 21
7.6931248464
  0
SPLINE
  5
35F
100
AcDbEntity
  8
0
100
AcDbSpline
 62
7
  6
CONTINUOUS
 70
0
 71
3
 72
31
 73
27
 74
0
 42
0.0000001
 43
0.0000001
 44
0.0000000001
 40
0.0
 40
0.0
 40
0.0
 40
0.0
 40
0.0004618423
 40
0.0008333302
 40
0.0013191627
 40
0.0026574476
 40
0.0045066363
 40
0.009797143
 40
0.017286752
 40
0.0270547247
 40
0.0391763364
 40
0.0537253121
 40
0.0707746501
 40
0.0903725578
 40
0.1124693647
 40
0.1369908071
 40
0.1638625069
 40
0.2243587841
 40
0.2933621892
 40
0.3701141987
 40
0.4532076644
 40
0.5410730809
 40
0.6321407914
 40
0.7248873324
 40
0.8179742504
 40
1.0
 40
1.0
 40
1.0
 40
1.0
 10
4.3960538477
 20
7.7109221011
 30
0.0
 10
4.3960730967
 20
7.7109217594
 30
0.0
 10
4.3961026322
 20
7.7108932146
 30
0.0
 10
4.3961281604
 20
7.7108463003
 30
0.0
 10
4.3961632053
 20
7.7107607498
 30
0.0
 10
4.3962023225
 20
7.7106128288
 30
0.0
 10
4.3962698051
 20
7.7102655688
 30
0.0
 10
4.3963440022
 20
7.7096599139
 30
0.0
 10
4.3964258749
 20
7.7087235289
 30
0.0
 10
4.3965035413
 20
7.7075012108
 30
0.0
 10
4.3965772884
 20
7.705984031
 30
0.0
 10
4.3966458128
 20
7.7041628147
 30
0.0
 10
4.3967086076
 20
7.7020295992
 30
0.0
 10
4.3967649428
 20
7.6995814778
 30
0.0
 10
4.3968147225
 20
7.6968216861
 30
0.0
 10
4.3968576184
 20
7.6937585382
 30
0.0
 10
4.396907175
 20
7.6890946647
 30
0.0
 10
4.3969474805
 20
7.6825763893
 30
0.0
 10
4.3969626027
 20
7.6739787442
 30
0.0
 10
4.3969440155
 20
7.6644391394
 30
0.0
 10
4.3968939102
 20
7.6541133782
 30
0.0
 10
4.3968140793
 20
7.6431910366
 30
0.0
 10
4.3967065362
 20
7.6318665251
 30
0.0
 10
4.3965731991
 20
7.6203246146
 30
0.0
 10
4.3963679805
 20
7.604991708
 30
0.0
 10
4.3961861807
 20
7.593525004
 30
0.0
 10
4.3960537961
 20
7.5859383842
 30
0.0
  0
SPLINE
  5
360
100
AcDbEntity
  8
0
100
AcDbSpline
 62
7
  6
CONTINUOUS
 70
0
 71
3
 72
26
 73
22
 74
0
 42
0.0000001
 43
0.0000001
 44
0.0000000001
 40
0.0
 40
0.0
 40
0.0
 40
0.0
 40
0.1820263623
 40
0.3678606544
 40
0.4589289311
 40
0.5467949481
 40
0.6298890129
 40
0.7066415847
 40
0.7756455294
 40
0.8361423088
 40
0.8875357634
 40
0.9292305372
 40
0.9462799025
 40
0.9608288851
 40
0.9729504781
 40
0.9827184019
 40
0.9902079268
 40
0.9954983104
 40
0.9986829763
 40
0.9995382131
 40
1.0
 40
1.0
 40
1.0
 40
1.0
 10
5.5809363103
 20
7.6660171173
 30
0.0
 10
5.5809045387
 20
7.6678378633
 30
0.0
 10
5.5808462226
 20
7.6715175493
 30
0.0
 10
5.5807885114
 20
7.676108402
 30
0.0
 10
5.5807538454
 20
7.6797574477
 30
0.0
 10
5.5807346895
 20
7.682378757
 30
0.0
 10
5.5807226641
 20
7.6848568907
 30
0.0
 10
5.580718205
 20
7.6871463513
 30
0.0
 10
5.5807218323
 20
7.689209747
 30
0.0
 10
5.5807330316
 20
7.6910194168
 30
0.0
 10
5.5807512489
 20
7.692555809
 30
0.0
 10
5.5807726908
 20
7.6936574536
 30
0.0
 10
5.5807942328
 20
7.6943903878
 30
0.0
 10
5.580810684
 20
7.6948274496
 30
0.0
 10
5.5808283823
 20
7.6951916149
 30
0.0
 10
5.5808470233
 20
7.6954848195
 30
0.0
 10
5.5808666713
 20
7.6957099011
 30
0.0
 10
5.5808861081
 20
7.6958677224
 30
0.0
 10
5.5809051366
 20
7.6959606252
 30
0.0
 10
5.5809207864
 20
7.6960017603
 30
0.0
 10
5.5809316913
 20
7.6960124676
 30
0.0
 10
5.5809363104
 20
7.696012548
 30
0.0
  0
ELLIPSE
  5
361
100
AcDbEntity
  8
0
100
AcDbEllipse
 62
7
  6
CONTINUOUS
 10
6.4705
 20
6.1696248465
 30
0.0
 11
-0.0
 21
0.035
 31
0.0
 40
1.0
 41
-4.7123889804
 42
-1.5707963268
  0
ELLIPSE
  5
362
100
AcDbEntity
  8
0
100
AcDbEllipse
 62
7
  6
CONTINUOUS
 10
6.4705
 20
6.7826248465
 30
0.0
 11
0.035
 21
-0.0
 31
0.0
 40
1.0
 41
0.0
 42
3.1415926536
  0
ELLIPSE
  5
363
100
AcDbEntity
  8
0
100
AcDbEllipse
 62
7
  6
CONTINUOUS
 10
25.6102114748
 20
6.4761248465
 30
0.0
 11
37.9631930746
 21
-0.0
 31
0.0
 40
0.0174550649
 41
2.1270446426
 42
2.1281306196
  0
ELLIPSE
  5
364
100
AcDbEntity
  8
0
100
AcDbEllipse
 62
7
  6
CONTINUOUS
 10
-21.6540068705
 20
6.4761248465
 30
0.0
 11
43.2539210312
 21
-0.0
 31
0.0
 40
0.0174550649
 41
0.8946038917
 42
0.9184724436
  0
ELLIPSE
  5
365
100
AcDbEntity
  8
0
100
AcDbEllipse
 62
7
  6
CONTINUOUS
 10
32.4850068705
 20
6.4761248465
 30
0.0
 11
43.2539210312
 21
-0.0
 31
0.0
 40
0.0174550649
 41
2.2441656582
 42
2.2469887618
  0
ENDSEC
  0
SECTION
  2
OBJECTS
  0
DICTIONARY
  5
C
100
AcDbDictionary
280
0
281
1
  3
ACAD_GROUP
350
D
  3
ACAD_MLINESTYLE
350
17
  3
ACAD_LAYOUT
350
1A
  3
ACAD_PLOTSETTINGS
350
19
  3
ACAD_PLOTSTYLENAME
350
E
  0
DICTIONARY
  5
D
102
{ACAD_REACTORS
330
C
102
}
100
AcDbDictionary
280
0
281
1
  0
ACDBDICTIONARYWDFLT
  5
E
102
{ACAD_REACTORS
330
C
102
}
100
AcDbDictionary
281
1
  3
Normal
350
F
100
AcDbDictionaryWithDefault
340
F
  0
DICTIONARY
  5
17
102
{ACAD_REACTORS
330
C
102
}
100
AcDbDictionary
280
0
281
1
  3
Standard
350
18
  0
DICTIONARY
  5
19
102
{ACAD_REACTORS
330
C
102
}
100
AcDbDictionary
281
1
  0
DICTIONARY
  5
1A
102
{ACAD_REACTORS
330
C
102
}
100
AcDbDictionary
281
1
  3
Model
350
366
  3
Layout1
350
367
  0
ACDBPLACEHOLDER
  5
F
102
{ACAD_REACTORS
330
E
102
}
  0
MLINESTYLE
  5
18
102
{ACAD_REACTORS
330
17
102
}
100
AcDbMlineStyle
  2
STANDARD
 70
0
  3

 62
256
 51
90.0
 52
90.0
 71
2
 49
0.5
 62
256
  6
BYLAYER
 49
-0.5
 62
256
  6
BYLAYER
  0
LAYOUT
  5
366
102
{ACAD_REACTORS
330
1A
102
}
100
AcDbPlotSettings
  1

  2
none_device
  4
ANSI_B_(17.00_x_11.00_Inches)
  6

 40
0.0
 41
0.0
 42
0.0
 43
0.0
 44
431.8
 45
279.4
 46
0.0
 47
0.0
 48
0.0
 49
0.0
140
0.0
141
0.0
142
1.0
143
1.0
 70
1024
 72
0
 73
0
 74
0
  7

 75
0
147
1.0
148
0.0
149
0.0
100
AcDbLayout
  1
Model
 70
0
 71
0
 10
0.0
 20
0.0
 11
17.0
 21
11.0
 12
0.0
 22
0.0
 32
0.0
 14
0.0
 24
0.0
 34
0.0
 15
0.0
 25
0.0
 35
0.0
146
0.0
 13
0.0
 23
0.0
 33
0.0
 16
1.0
 26
0.0
 36
0.0
 17
0.0
 27
1.0
 37
0.0
 76
0
330
229
345
0
346
0
  0
LAYOUT
  5
367
102
{ACAD_REACTORS
330
1A
102
}
100
AcDbPlotSettings
  1

  2
none_device
  4
ANSI_B_(17.00_x_11.00_Inches)
  6

 40
0.0
 41
0.0
 42
0.0
 43
0.0
 44
431.8
 45
279.4
 46
0.0
 47
0.0
 48
0.0
 49
0.0
140
0.0
141
0.0
142
1.0
143
1.0
 70
0
 72
0
 73
0
 74
0
  7

 75
0
147
1.0
148
0.0
149
0.0
100
AcDbLayout
  1
Layout1
 70
0
 71
1
 10
0.0
 20
0.0
 11
17.0
 21
11.0
 12
0.0
 22
0.0
 32
0.0
 14
0.0
 24
0.0
 34
0.0
 15
0.0
 25
0.0
 35
0.0
146
0.0
 13
0.0
 23
0.0
 33
0.0
 16
1.0
 26
0.0
 36
0.0
 17
0.0
 27
1.0
 37
0.0
 76
0
330
22A
345
0
346
0
  0
ENDSEC
  0
EOF
