999
DXF file: DMBFXNN.dxf
999
Pro/ENGINEER 2016010 by Parametric Technology Corporation
  0
SECTION
  2
HEADER
  9
$ACADVER
  1
AC1021
  9
$DWGCODEPAGE
  3
ANSI_1252
  9
$EXTMAX
 10
17.0
 20
11.0
 30
0.0
  9
$EXTMIN
 10
0.0
 20
0.0
 30
0.0
  9
$LIMMIN
 10
0.0
 20
0.0
  9
$LIMMAX
 10
17.0
 20
11.0
  9
$VIEWCTR
 10
8.5
 20
5.5
  9
$VIEWSIZE
 40
11.0
  9
$CLAYER
  8
0
  9
$LTSCALE
 40
0.935
  9
$CELTYPE
  6
BYLAYER
  9
$DIMSCALE
 40
1.0
  9
$DIMASZ
 40
0.1875
  9
$DIMEXO
 40
0.0625
  9
$DIMDLI
 40
0.646
  9
$DIMEXE
 40
0.125
  9
$DIMCEN
 40
0.153
  9
$DIMLFAC
 40
1.0
  9
$DIMBLK
  1
_FILLED
  9
$DIMALT
 70
0
  9
$DIMALTF
 40
25.4
  9
$DIMTXT
 40
0.125
  9
$DIMTOL
 70
0
  9
$DIMLIM
 70
0
  9
$DIMTFAC
 40
1.0
  9
$DIMGAP
 40
0.09
  9
$DIMDSEP
 70
46
  9
$AUNITS
 70
0
  9
$PDMODE
 70
3
  9
$PDSIZE
 40
0.3125
  9
$HANDSEED
  5
377
  9
$TILEMODE
 70
1
  9
$MEASUREMENT
 70
0
  9
$INSUNITS
 70
1
  0
ENDSEC
  0
SECTION
  2
CLASSES
  0
CLASS
  1
ACDBDICTIONARYWDFLT
  2
AcDbDictionaryWithDefault
  3
AutoCAD 2000
 90
0
 91
1
280
0
281
0
  0
CLASS
  1
ACDBPLACEHOLDER
  2
AcDbPlaceHolder
  3
AutoCAD 2000
 90
0
 91
1
280
0
281
0
  0
CLASS
  1
LAYOUT
  2
AcDbLayout
  3
AutoCAD 2000
 90
0
 91
0
280
0
281
0
  0
ENDSEC
  0
SECTION
  2
TABLES
  0
TABLE
  2
VPORT
  5
8
100
AcDbSymbolTable
 70
2
  0
VPORT
  5
1F4
100
AcDbSymbolTableRecord
100
AcDbViewportTableRecord
  2
*ACTIVE
 70
0
 10
0.0
 20
0.0
 11
1.0
 21
1.0
 12
8.5
 22
5.5
 13
0.0
 23
0.0
 14
1.0
 24
1.0
 15
0.0
 25
0.0
 16
0.0
 26
0.0
 36
1.0
 17
0.0
 27
0.0
 37
0.0
 40
11.0
 41
1.5454545455
 42
50.0
 43
0.0
 44
0.0
 50
0.0
 51
0.0
 71
0
 72
100
 73
1
 74
1
 75
0
 76
0
 77
0
 78
0
  0
ENDTAB
  0
TABLE
  2
LTYPE
  5
5
100
AcDbSymbolTable
 70
6
  0
LTYPE
  5
14
100
AcDbSymbolTableRecord
100
AcDbLinetypeTableRecord
  2
BYBLOCK
 70
0
  3

 72
65
 73
0
 40
0.0
  0
LTYPE
  5
15
100
AcDbSymbolTableRecord
100
AcDbLinetypeTableRecord
  2
BYLAYER
 70
0
  3

 72
65
 73
0
 40
0.0
  0
LTYPE
  5
16
100
AcDbSymbolTableRecord
100
AcDbLinetypeTableRecord
  2
CONTINUOUS
 70
64
  3
Solid line
 72
65
 73
0
 40
0.0
  0
LTYPE
  5
1F5
100
AcDbSymbolTableRecord
100
AcDbLinetypeTableRecord
  2
CENTER
 70
64
  3
____ _ ____ _ ____ _ ____ _ ____ _ ____ _ ____
 72
65
 73
4
 40
0.6
 49
0.375
 74
0
 49
-0.075
 74
0
 49
0.075
 74
0
 49
-0.075
 74
0
  0
LTYPE
  5
1F6
100
AcDbSymbolTableRecord
100
AcDbLinetypeTableRecord
  2
HIDDEN
 70
64
  3
- - - - - - - - - - - - - - - - - - - -
 72
65
 73
2
 40
0.2
 49
0.1
 74
0
 49
-0.1
 74
0
  0
LTYPE
  5
1F7
100
AcDbSymbolTableRecord
100
AcDbLinetypeTableRecord
  2
PHANTOM
 70
64
  3
_____ _ _ _____ _ _ _____ _ _ _____
 72
65
 73
6
 40
0.8
 49
0.45
 74
0
 49
-0.05
 74
0
 49
0.1
 74
0
 49
-0.05
 74
0
 49
0.1
 74
0
 49
-0.05
 74
0
  0
LTYPE
  5
1F8
100
AcDbSymbolTableRecord
100
AcDbLinetypeTableRecord
  2
DOT
 70
64
  3
. . . . . . . . . . . . . . . . . . . .
 72
65
 73
2
 40
0.2
 49
0.1
 74
0
 49
-0.1
 74
0
  0
LTYPE
  5
1F9
100
AcDbSymbolTableRecord
100
AcDbLinetypeTableRecord
  2
DASHED
 70
64
  3
- - - - - - - - - - - - - - - - - - - -
 72
65
 73
2
 40
0.2
 49
0.1
 74
0
 49
-0.1
 74
0
  0
ENDTAB
  0
TABLE
  2
LAYER
  5
2
100
AcDbSymbolTable
 70
36
  0
LAYER
  5
10
100
AcDbSymbolTableRecord
100
AcDbLayerTableRecord
  2
0
 70
0
 62
7
  6
CONTINUOUS
370
-3
390
F
  0
LAYER
  5
1FA
100
AcDbSymbolTableRecord
100
AcDbLayerTableRecord
  2
DEFAULT_1
 70
0
 62
7
  6
CENTER
370
-3
390
F
  0
LAYER
  5
1FB
100
AcDbSymbolTableRecord
100
AcDbLayerTableRecord
  2
DEFAULT_2
 70
0
 62
8
  6
HIDDEN
370
-3
390
F
  0
LAYER
  5
1FC
100
AcDbSymbolTableRecord
100
AcDbLayerTableRecord
  2
DEFAULT_3
 70
0
 62
7
  6
PHANTOM
370
-3
390
F
  0
LAYER
  5
1FD
100
AcDbSymbolTableRecord
100
AcDbLayerTableRecord
  2
01_ALL_DTM_PLN
 70
0
 62
7
  6
CONTINUOUS
370
-3
390
F
  0
LAYER
  5
1FE
100
AcDbSymbolTableRecord
100
AcDbLayerTableRecord
  2
01__ASM_ALL_DTM_PLN
 70
0
 62
7
  6
CONTINUOUS
370
-3
390
F
  0
LAYER
  5
1FF
100
AcDbSymbolTableRecord
100
AcDbLayerTableRecord
  2
01__ASM_DEF_DTM_PLN
 70
0
 62
7
  6
CONTINUOUS
370
-3
390
F
  0
LAYER
  5
200
100
AcDbSymbolTableRecord
100
AcDbLayerTableRecord
  2
01___PRT_ALL_DTM_PLN
 70
0
 62
7
  6
CONTINUOUS
370
-3
390
F
  0
LAYER
  5
201
100
AcDbSymbolTableRecord
100
AcDbLayerTableRecord
  2
01___PRT_DEF_DTM_PLN
 70
0
 62
7
  6
CONTINUOUS
370
-3
390
F
  0
LAYER
  5
202
100
AcDbSymbolTableRecord
100
AcDbLayerTableRecord
  2
02_ALL_AXES
 70
0
 62
7
  6
CONTINUOUS
370
-3
390
F
  0
LAYER
  5
203
100
AcDbSymbolTableRecord
100
AcDbLayerTableRecord
  2
02__ASM_ALL_AXES
 70
0
 62
7
  6
CONTINUOUS
370
-3
390
F
  0
LAYER
  5
204
100
AcDbSymbolTableRecord
100
AcDbLayerTableRecord
  2
02___PRT_ALL_AXES
 70
0
 62
7
  6
CONTINUOUS
370
-3
390
F
  0
LAYER
  5
205
100
AcDbSymbolTableRecord
100
AcDbLayerTableRecord
  2
03_ALL_CURVES
 70
0
 62
7
  6
CONTINUOUS
370
-3
390
F
  0
LAYER
  5
206
100
AcDbSymbolTableRecord
100
AcDbLayerTableRecord
  2
03__ASM_ALL_CURVES
 70
0
 62
7
  6
CONTINUOUS
370
-3
390
F
  0
LAYER
  5
207
100
AcDbSymbolTableRecord
100
AcDbLayerTableRecord
  2
03___PRT_ALL_CURVES
 70
0
 62
7
  6
CONTINUOUS
370
-3
390
F
  0
LAYER
  5
208
100
AcDbSymbolTableRecord
100
AcDbLayerTableRecord
  2
04_ALL_DTM_PNT
 70
0
 62
7
  6
CONTINUOUS
370
-3
390
F
  0
LAYER
  5
209
100
AcDbSymbolTableRecord
100
AcDbLayerTableRecord
  2
04__ASM_ALL_DTM_PNT
 70
0
 62
7
  6
CONTINUOUS
370
-3
390
F
  0
LAYER
  5
20A
100
AcDbSymbolTableRecord
100
AcDbLayerTableRecord
  2
04___PRT_ALL_DTM_PNT
 70
0
 62
7
  6
CONTINUOUS
370
-3
390
F
  0
LAYER
  5
20B
100
AcDbSymbolTableRecord
100
AcDbLayerTableRecord
  2
05_ALL_DTM_CSYS
 70
0
 62
7
  6
CONTINUOUS
370
-3
390
F
  0
LAYER
  5
20C
100
AcDbSymbolTableRecord
100
AcDbLayerTableRecord
  2
05__ASM_ALL_DTM_CSYS
 70
0
 62
7
  6
CONTINUOUS
370
-3
390
F
  0
LAYER
  5
20D
100
AcDbSymbolTableRecord
100
AcDbLayerTableRecord
  2
05__ASM_DEF_DTM_CSYS
 70
0
 62
7
  6
CONTINUOUS
370
-3
390
F
  0
LAYER
  5
20E
100
AcDbSymbolTableRecord
100
AcDbLayerTableRecord
  2
05___PRT_ALL_DTM_CSYS
 70
0
 62
7
  6
CONTINUOUS
370
-3
390
F
  0
LAYER
  5
20F
100
AcDbSymbolTableRecord
100
AcDbLayerTableRecord
  2
05___PRT_DEF_DTM_CSYS
 70
0
 62
7
  6
CONTINUOUS
370
-3
390
F
  0
LAYER
  5
210
100
AcDbSymbolTableRecord
100
AcDbLayerTableRecord
  2
06_ALL_SURFS
 70
0
 62
7
  6
CONTINUOUS
370
-3
390
F
  0
LAYER
  5
211
100
AcDbSymbolTableRecord
100
AcDbLayerTableRecord
  2
06__ASM_ALL_SURFS
 70
0
 62
7
  6
CONTINUOUS
370
-3
390
F
  0
LAYER
  5
212
100
AcDbSymbolTableRecord
100
AcDbLayerTableRecord
  2
06___PRT_ALL_SURFS
 70
0
 62
7
  6
CONTINUOUS
370
-3
390
F
  0
LAYER
  5
213
100
AcDbSymbolTableRecord
100
AcDbLayerTableRecord
  2
07__ASM_ALL_SKELETONS
 70
0
 62
7
  6
CONTINUOUS
370
-3
390
F
  0
LAYER
  5
214
100
AcDbSymbolTableRecord
100
AcDbLayerTableRecord
  2
COPY_GEO_FET
 70
0
 62
7
  6
CONTINUOUS
370
-3
390
F
  0
LAYER
  5
215
100
AcDbSymbolTableRecord
100
AcDbLayerTableRecord
  2
COSMETIC
 70
0
 62
7
  6
CONTINUOUS
370
-3
390
F
  0
LAYER
  5
216
100
AcDbSymbolTableRecord
100
AcDbLayerTableRecord
  2
CURVES
 70
0
 62
7
  6
CONTINUOUS
370
-3
390
F
  0
LAYER
  5
217
100
AcDbSymbolTableRecord
100
AcDbLayerTableRecord
  2
CUT_REF_SURF
 70
0
 62
7
  6
CONTINUOUS
370
-3
390
F
  0
LAYER
  5
218
100
AcDbSymbolTableRecord
100
AcDbLayerTableRecord
  2
DATUM
 70
0
 62
7
  6
CONTINUOUS
370
-3
390
F
  0
LAYER
  5
219
100
AcDbSymbolTableRecord
100
AcDbLayerTableRecord
  2
DATUMCURVES
 70
0
 62
7
  6
CONTINUOUS
370
-3
390
F
  0
LAYER
  5
21A
100
AcDbSymbolTableRecord
100
AcDbLayerTableRecord
  2
DIMENSIONS
 70
0
 62
7
  6
CONTINUOUS
370
-3
390
F
  0
LAYER
  5
21B
100
AcDbSymbolTableRecord
100
AcDbLayerTableRecord
  2
DTM
 70
0
 62
7
  6
CONTINUOUS
370
-3
390
F
  0
LAYER
  5
21C
100
AcDbSymbolTableRecord
100
AcDbLayerTableRecord
  2
DTM_500001
 70
0
 62
7
  6
CONTINUOUS
370
-3
390
F
  0
LAYER
  5
21D
100
AcDbSymbolTableRecord
100
AcDbLayerTableRecord
  2
DTM_500002
 70
0
 62
7
  6
CONTINUOUS
370
-3
390
F
  0
LAYER
  5
21E
100
AcDbSymbolTableRecord
100
AcDbLayerTableRecord
  2
DTM_500051
 70
0
 62
7
  6
CONTINUOUS
370
-3
390
F
  0
LAYER
  5
21F
100
AcDbSymbolTableRecord
100
AcDbLayerTableRecord
  2
DTM_515002
 70
0
 62
7
  6
CONTINUOUS
370
-3
390
F
  0
LAYER
  5
220
100
AcDbSymbolTableRecord
100
AcDbLayerTableRecord
  2
GEOMETRICTOLERANCES
 70
0
 62
7
  6
CONTINUOUS
370
-3
390
F
  0
LAYER
  5
221
100
AcDbSymbolTableRecord
100
AcDbLayerTableRecord
  2
HIDDEN
 70
0
 62
7
  6
CONTINUOUS
370
-3
390
F
  0
LAYER
  5
222
100
AcDbSymbolTableRecord
100
AcDbLayerTableRecord
  2
HIDDEN_DRW
 70
0
 62
7
  6
CONTINUOUS
370
-3
390
F
  0
LAYER
  5
223
100
AcDbSymbolTableRecord
100
AcDbLayerTableRecord
  2
PARAMETERDIMENSIONS
 70
0
 62
7
  6
CONTINUOUS
370
-3
390
F
  0
LAYER
  5
224
100
AcDbSymbolTableRecord
100
AcDbLayerTableRecord
  2
PLANE
 70
0
 62
7
  6
CONTINUOUS
370
-3
390
F
  0
LAYER
  5
225
100
AcDbSymbolTableRecord
100
AcDbLayerTableRecord
  2
TEXT
 70
0
 62
7
  6
CONTINUOUS
370
-3
390
F
  0
LAYER
  5
226
100
AcDbSymbolTableRecord
100
AcDbLayerTableRecord
  2
THREAD
 70
0
 62
7
  6
CONTINUOUS
370
-3
390
F
  0
ENDTAB
  0
TABLE
  2
STYLE
  5
3
100
AcDbSymbolTable
 70
1
  0
STYLE
  5
11
100
AcDbSymbolTableRecord
100
AcDbTextStyleTableRecord
  2
STANDARD
 70
0
 40
0.0
 41
0.8
 50
0.0
 71
0
 42
0.2
  3
txt
  4

  0
STYLE
  5
227
100
AcDbSymbolTableRecord
100
AcDbTextStyleTableRecord
  2
TEXTSTYLE_1
 70
0
 40
0.0
 41
0.8
 50
0.0
 71
0
 42
0.2
  3
gdt
  4

  0
ENDTAB
  0
TABLE
  2
VIEW
  5
6
100
AcDbSymbolTable
 70
0
  0
ENDTAB
  0
TABLE
  2
UCS
  5
7
100
AcDbSymbolTable
 70
0
  0
ENDTAB
  0
TABLE
  2
APPID
  5
9
100
AcDbSymbolTable
 70
1
  0
APPID
  5
228
100
AcDbSymbolTableRecord
100
AcDbRegAppTableRecord
  2
ACAD
 70
0
  0
ENDTAB
  0
TABLE
  2
BLOCK_RECORD
  5
1
100
AcDbSymbolTable
 70
0
  0
BLOCK_RECORD
  5
229
100
AcDbSymbolTableRecord
100
AcDbBlockTableRecord
  2
*Model_Space
  0
BLOCK_RECORD
  5
22A
100
AcDbSymbolTableRecord
100
AcDbBlockTableRecord
  2
*Paper_Space
  0
BLOCK_RECORD
  5
22B
100
AcDbSymbolTableRecord
100
AcDbBlockTableRecord
  2
_FILLED
  0
BLOCK_RECORD
  5
22C
100
AcDbSymbolTableRecord
100
AcDbBlockTableRecord
  2
*D0
  0
ENDTAB
  0
TABLE
  2
DIMSTYLE
  5
A
100
AcDbSymbolTable
 70
1
100
AcDbDimStyleTable
 71
0
  0
DIMSTYLE
105
22D
100
AcDbSymbolTableRecord
100
AcDbDimStyleTableRecord
  2
STANDARD
 70
0
  3

  4

 40
1.0
 41
0.1875
 42
0.0625
 43
0.38
 44
0.125
 45
0.0
 46
0.0
 47
0.001
 48
0.001
140
0.125
141
0.09
142
0.0
143
25.4
144
1.0
145
0.0
146
1.0
147
0.09
 71
0.0
 72
0.0
 73
1
 74
1
 75
0
 76
0
 77
0
 78
4
170
0
171
2
172
0
173
0
174
0
175
0
176
0
177
0
178
0
270
2
271
3
272
3
273
2
274
2
275
0
280
0
281
0
282
0
283
1
284
4
285
0
286
0
287
3
288
0
340
11
278
46
341
22B
342
22B
343
22B
344
22B
  0
DIMSTYLE
105
22E
100
AcDbSymbolTableRecord
100
AcDbDimStyleTableRecord
  2
DIMSTYLE_1
 70
0
  3

  4

 40
1.0
 41
0.1875
 42
0.0625
 43
0.38
 44
0.125
 45
0.0
 46
0.0
 47
0.0
 48
0.0
140
0.125
141
0.09
142
0.0
143
25.4
144
1.0
145
0.0
146
1.0
147
0.0625
 71
0.0
 72
0.0
 73
1
 74
1
 75
0
 76
0
 77
0
 78
4
170
0
171
2
172
0
173
0
174
0
175
0
176
0
177
0
178
0
270
2
271
2
272
2
273
2
274
2
275
0
280
0
281
0
282
0
283
1
284
4
285
0
286
0
287
3
288
0
340
11
278
46
341
22B
342
22B
343
22B
344
22B
  0
ENDTAB
  0
ENDSEC
  0
SECTION
  2
BLOCKS
  0
BLOCK
  5
20
100
AcDbEntity
  8
0
100
AcDbBlockBegin
  2
*Model_Space
 70
0
 10
0.0
 20
0.0
 30
0.0
  3
*Model_Space
  1

  0
ENDBLK
  5
21
100
AcDbEntity
  8
0
100
AcDbBlockEnd
  0
BLOCK
  5
1C
100
AcDbEntity
  8
0
100
AcDbBlockBegin
  2
*Paper_Space
 70
0
 10
0.0
 20
0.0
 30
0.0
  3
*Paper_Space
  1

  0
ENDBLK
  5
1D
100
AcDbEntity
  8
0
100
AcDbBlockEnd
  0
BLOCK
  5
22F
100
AcDbEntity
  8
0
100
AcDbBlockBegin
  2
_FILLED
 70
64
 10
0.0
 20
0.0
  3
_FILLED
  1

  0
SOLID
  5
230
100
AcDbEntity
  8
0
  6
BYBLOCK
 62
0
100
AcDbTrace
 10
0.0
 20
0.0
 11
-1.0
 21
0.1666666667
 12
-1.0
 22
-0.1666666667
 13
-1.0
 23
-0.1666666667
  0
ENDBLK
  5
231
100
AcDbEntity
  8
0
  6
BYBLOCK
 62
0
100
AcDbBlockEnd
  0
BLOCK
  5
232
100
AcDbEntity
  8
0
100
AcDbBlockBegin
 62
6
  6
CONTINUOUS
  2
*D0
 70
65
 10
0.0
 20
0.0
  3
*D0
  1

  0
MTEXT
  5
233
100
AcDbEntity
  8
0
100
AcDbMText
 62
6
  6
CONTINUOUS
  7
STANDARD
 71
1
 72
1
 10
6.0605
 20
8.1815
 30
0.0
 11
1.0
 21
0.0
 31
0.0
 44
0.9
  1
3.23 in (82,0 mm)
 40
0.125
 41
1.7
  0
LINE
  5
234
100
AcDbEntity
  8
0
100
AcDbLine
 62
6
  6
CONTINUOUS
 10
5.8105
 20
7.4315
 11
5.8105
 21
8.244
  0
LINE
  5
235
100
AcDbEntity
  8
0
100
AcDbLine
 62
6
  6
CONTINUOUS
 10
2.578500061
 20
7.0625
 11
2.578500061
 21
8.244
  0
LINE
  5
236
100
AcDbEntity
  8
0
100
AcDbLine
 62
6
  6
CONTINUOUS
 10
5.8105
 20
8.119
 11
4.1945000305
 21
8.119
  0
LINE
  5
237
100
AcDbEntity
  8
0
100
AcDbLine
 62
6
  6
CONTINUOUS
 10
4.1945000305
 20
8.119
 11
5.998
 21
8.119
  0
LINE
  5
238
100
AcDbEntity
  8
0
100
AcDbLine
 62
6
  6
CONTINUOUS
 10
2.578500061
 20
8.119
 11
4.1945000305
 21
8.119
  0
INSERT
  5
239
100
AcDbEntity
  8
0
100
AcDbBlockReference
 62
6
  6
CONTINUOUS
  2
_FILLED
 10
5.8105
 20
8.119
 41
0.1875
 42
0.1875
 43
0.1875
  0
INSERT
  5
23A
100
AcDbEntity
  8
0
100
AcDbBlockReference
 62
6
  6
CONTINUOUS
  2
_FILLED
 10
2.578500061
 20
8.119
 41
0.1875
 42
0.1875
 43
0.1875
 50
180.0
  0
ENDBLK
  5
23B
100
AcDbEntity
  8
0
  6
BYBLOCK
 62
0
100
AcDbBlockEnd
  0
ENDSEC
  0
SECTION
  2
ENTITIES
  0
DIMENSION
  5
23C
100
AcDbEntity
  8
0
100
AcDbDimension
 62
6
  6
CONTINUOUS
  2
*D0
 10
2.578500061
 20
8.119
 11
6.9105
 21
8.119
 70
160
 71
1
 42
3.231999939
  1
<> in (82,0 mm)
  3
DIMSTYLE_1
100
AcDbAlignedDimension
 13
5.8105
 23
7.369
 14
2.578500061
 24
7.0
 50
180.0
100
AcDbRotatedDimension
  0
MTEXT
  5
23D
100
AcDbEntity
  8
0
100
AcDbMText
 62
2
  6
CONTINUOUS
  7
STANDARD
 71
1
 72
1
 10
7.5605
 20
7.0625
 30
0.0
 11
1.0
 21
0.0
 31
0.0
 44
0.6
  1
Port 1\PValve
 40
0.125
 41
0.6
  0
MTEXT
  5
23E
100
AcDbEntity
  8
0
100
AcDbMText
 62
2
  6
CONTINUOUS
  7
STANDARD
 71
1
 72
1
 10
6.9105
 20
6.5785
 30
0.0
 11
1.0
 21
0.0
 31
0.0
 44
0.6
  1
Port 2\PValve
 40
0.125
 41
0.6
  0
MTEXT
  5
23F
100
AcDbEntity
  8
0
100
AcDbMText
 62
2
  6
CONTINUOUS
  7
STANDARD
 71
1
 72
1
 10
6.1105
 20
6.5785
 30
0.0
 11
1.0
 21
0.0
 31
0.0
 44
0.6
  1
Port 3\PValve
 40
0.125
 41
0.6
  0
MTEXT
  5
240
100
AcDbEntity
  8
0
100
AcDbMText
 62
2
  6
CONTINUOUS
  7
STANDARD
 71
1
 72
1
 10
6.0605
 20
7.9315
 30
0.0
 11
1.0
 21
0.0
 31
0.0
 44
0.6
  1
 LOCATING SHOULDER
 40
0.125
 41
1.8
  0
LINE
  5
241
100
AcDbEntity
  8
0
100
AcDbLine
 62
7
  6
CONTINUOUS
 10
2.5785
 20
6.722
 11
2.5785
 21
7.278
  0
LINE
  5
242
100
AcDbEntity
  8
0
100
AcDbLine
 62
7
  6
CONTINUOUS
 10
2.5845
 20
6.5340757723
 11
2.5845
 21
6.6981627665
  0
LINE
  5
243
100
AcDbEntity
  8
0
100
AcDbLine
 62
7
  6
CONTINUOUS
 10
2.5845
 20
6.7836319096
 11
2.5845
 21
6.9220730218
  0
LINE
  5
244
100
AcDbEntity
  8
0
100
AcDbLine
 62
7
  6
CONTINUOUS
 10
2.5845
 20
6.9456688842
 11
2.5845
 21
7.0468934609
  0
LINE
  5
245
100
AcDbEntity
  8
0
100
AcDbLine
 62
7
  6
CONTINUOUS
 10
2.5845
 20
7.0718680334
 11
2.5845
 21
7.2154998703
  0
LINE
  5
246
100
AcDbEntity
  8
0
100
AcDbLine
 62
7
  6
CONTINUOUS
 10
2.5845
 20
7.3018372335
 11
2.5845
 21
7.4650046487
  0
LINE
  5
247
100
AcDbEntity
  8
0
100
AcDbLine
 62
7
  6
CONTINUOUS
 10
2.5845
 20
7.4653145188
 11
2.5845
 21
7.46562216
  0
LINE
  5
248
100
AcDbEntity
  8
0
100
AcDbLine
 62
7
  6
CONTINUOUS
 10
2.5955
 20
7.295
 11
2.5955
 21
7.2155098002
  0
LINE
  5
249
100
AcDbEntity
  8
0
100
AcDbLine
 62
7
  6
CONTINUOUS
 10
2.5955
 20
7.0718830383
 11
2.5955
 21
7.0469025776
  0
LINE
  5
24A
100
AcDbEntity
  8
0
100
AcDbLine
 62
7
  6
CONTINUOUS
 10
2.5955
 20
6.9456656844
 11
2.5955
 21
6.922066217
  0
LINE
  5
24B
100
AcDbEntity
  8
0
100
AcDbLine
 62
7
  6
CONTINUOUS
 10
2.5955
 20
6.7836061805
 11
2.5955
 21
6.705
  0
LINE
  5
24C
100
AcDbEntity
  8
0
100
AcDbLine
 62
7
  6
CONTINUOUS
 10
2.5995
 20
7.5
 11
2.5995
 21
6.5
  0
LINE
  5
24D
100
AcDbEntity
  8
0
100
AcDbLine
 62
7
  6
CONTINUOUS
 10
2.6428012702
 20
6.5005775336
 11
2.6428012702
 21
6.50350617
  0
LINE
  5
24E
100
AcDbEntity
  8
0
100
AcDbLine
 62
7
  6
CONTINUOUS
 10
2.6428012702
 20
6.7099674556
 11
2.6428012702
 21
6.7150400026
  0
LINE
  5
24F
100
AcDbEntity
  8
0
100
AcDbLine
 62
7
  6
CONTINUOUS
 10
2.6428012702
 20
6.9970713636
 11
2.6428012702
 21
7.0029286364
  0
LINE
  5
250
100
AcDbEntity
  8
0
100
AcDbLine
 62
7
  6
CONTINUOUS
 10
2.6428012702
 20
7.2849599974
 11
2.6428012702
 21
7.2900325444
  0
LINE
  5
251
100
AcDbEntity
  8
0
100
AcDbLine
 62
7
  6
CONTINUOUS
 10
2.6428012702
 20
7.49649383
 11
2.6428012702
 21
7.4994224664
  0
LINE
  5
252
100
AcDbEntity
  8
0
100
AcDbLine
 62
7
  6
CONTINUOUS
 10
2.5995
 20
7.5
 11
2.6395750162
 21
7.5694119642
  0
LINE
  5
253
100
AcDbEntity
  8
0
100
AcDbLine
 62
7
  6
CONTINUOUS
 10
2.5995
 20
6.5
 11
2.6395750162
 21
6.4305880358
  0
LINE
  5
254
100
AcDbEntity
  8
0
100
AcDbLine
 62
7
  6
CONTINUOUS
 10
2.9295
 20
6.5005775336
 11
2.9295
 21
6.50350617
  0
LINE
  5
255
100
AcDbEntity
  8
0
100
AcDbLine
 62
7
  6
CONTINUOUS
 10
2.9295
 20
6.7099674556
 11
2.9295
 21
6.7150400026
  0
LINE
  5
256
100
AcDbEntity
  8
0
100
AcDbLine
 62
7
  6
CONTINUOUS
 10
2.9295
 20
6.9970713636
 11
2.9295
 21
7.0029286364
  0
LINE
  5
257
100
AcDbEntity
  8
0
100
AcDbLine
 62
7
  6
CONTINUOUS
 10
2.9295
 20
7.2849599974
 11
2.9295
 21
7.2900325444
  0
LINE
  5
258
100
AcDbEntity
  8
0
100
AcDbLine
 62
7
  6
CONTINUOUS
 10
2.9295
 20
7.49649383
 11
2.9295
 21
7.4994224664
  0
LINE
  5
259
100
AcDbEntity
  8
0
100
AcDbLine
 62
7
  6
CONTINUOUS
 10
2.9495
 20
6.4450000047
 11
2.9495
 21
7.5549999945
  0
LINE
  5
25A
100
AcDbEntity
  8
0
100
AcDbLine
 62
7
  6
CONTINUOUS
 10
2.9645
 20
7.3625
 11
2.9645
 21
6.6375
  0
LINE
  5
25B
100
AcDbEntity
  8
0
100
AcDbLine
 62
7
  6
CONTINUOUS
 10
2.5785
 20
7.278
 11
2.5995
 21
7.299
  0
LINE
  5
25C
100
AcDbEntity
  8
0
100
AcDbLine
 62
7
  6
CONTINUOUS
 10
2.5785
 20
6.722
 11
2.5995
 21
6.701
  0
LINE
  5
25D
100
AcDbEntity
  8
0
100
AcDbLine
 62
7
  6
CONTINUOUS
 10
2.9495
 20
6.445
 11
2.9350414796
 21
6.4305414796
  0
LINE
  5
25E
100
AcDbEntity
  8
0
100
AcDbLine
 62
7
  6
CONTINUOUS
 10
2.9495
 20
7.555
 11
2.9350414796
 21
7.5694585204
  0
LINE
  5
25F
100
AcDbEntity
  8
0
100
AcDbLine
 62
7
  6
CONTINUOUS
 10
2.9295
 20
6.4250074582
 11
2.6428012702
 21
6.4250074582
  0
LINE
  5
260
100
AcDbEntity
  8
0
100
AcDbLine
 62
7
  6
CONTINUOUS
 10
2.9349483671
 20
6.430634592
 11
2.639655654
 21
6.430634592
  0
LINE
  5
261
100
AcDbEntity
  8
0
100
AcDbLine
 62
7
  6
CONTINUOUS
 10
2.6416334189
 20
6.4986059458
 11
2.9314985171
 21
6.4986059458
  0
LINE
  5
262
100
AcDbEntity
  8
0
100
AcDbLine
 62
7
  6
CONTINUOUS
 10
2.6428012702
 20
6.5005775336
 11
2.9295
 21
6.5005775336
  0
LINE
  5
263
100
AcDbEntity
  8
0
100
AcDbLine
 62
7
  6
CONTINUOUS
 10
2.9295
 20
6.50350617
 11
2.6428012702
 21
6.50350617
  0
LINE
  5
264
100
AcDbEntity
  8
0
100
AcDbLine
 62
7
  6
CONTINUOUS
 10
2.9349483671
 20
6.5141968288
 11
2.639655654
 21
6.5141968288
  0
LINE
  5
265
100
AcDbEntity
  8
0
100
AcDbLine
 62
7
  6
CONTINUOUS
 10
2.5995
 20
6.5340757723
 11
2.5845
 21
6.5340757723
  0
LINE
  5
266
100
AcDbEntity
  8
0
100
AcDbLine
 62
7
  6
CONTINUOUS
 10
2.5995
 20
6.545783413
 11
2.5845
 21
6.545783413
  0
LINE
  5
267
100
AcDbEntity
  8
0
100
AcDbLine
 62
7
  6
CONTINUOUS
 10
2.5995
 20
6.5839239723
 11
2.5845
 21
6.5839239723
  0
LINE
  5
268
100
AcDbEntity
  8
0
100
AcDbLine
 62
7
  6
CONTINUOUS
 10
4.9448094011
 20
6.625
 11
5.5420358984
 21
6.625
  0
LINE
  5
269
100
AcDbEntity
  8
0
100
AcDbLine
 62
7
  6
CONTINUOUS
 10
5.8075
 20
6.631
 11
5.5455
 21
6.631
  0
LINE
  5
26A
100
AcDbEntity
  8
0
100
AcDbLine
 62
7
  6
CONTINUOUS
 10
5.5137457352
 20
6.6411429167
 11
4.9730995643
 21
6.6411429167
  0
LINE
  5
26B
100
AcDbEntity
  8
0
100
AcDbLine
 62
7
  6
CONTINUOUS
 10
2.5995
 20
6.649386333
 11
2.5845
 21
6.649386333
  0
LINE
  5
26C
100
AcDbEntity
  8
0
100
AcDbLine
 62
7
  6
CONTINUOUS
 10
5.8475
 20
6.673
 11
5.8255
 21
6.673
  0
LINE
  5
26D
100
AcDbEntity
  8
0
100
AcDbLine
 62
7
  6
CONTINUOUS
 10
5.9175
 20
6.6745
 11
5.9675
 21
6.6745
  0
LINE
  5
26E
100
AcDbEntity
  8
0
100
AcDbLine
 62
7
  6
CONTINUOUS
 10
2.5995
 20
6.6747997936
 11
2.5845
 21
6.6747997936
  0
LINE
  5
26F
100
AcDbEntity
  8
0
100
AcDbLine
 62
7
  6
CONTINUOUS
 10
4.9448094011
 20
7.375
 11
4.9425
 21
7.371
  0
LINE
  5
270
100
AcDbEntity
  8
0
100
AcDbLine
 62
7
  6
CONTINUOUS
 10
4.9425
 20
6.686
 11
2.9645
 21
6.686
  0
LINE
  5
271
100
AcDbEntity
  8
0
100
AcDbLine
 62
7
  6
CONTINUOUS
 10
6.174
 20
6.6915
 11
6.0225
 21
6.6915
  0
LINE
  5
272
100
AcDbEntity
  8
0
100
AcDbLine
 62
7
  6
CONTINUOUS
 10
2.5995
 20
6.697717292
 11
2.5845
 21
6.697717292
  0
LINE
  5
273
100
AcDbEntity
  8
0
100
AcDbLine
 62
7
  6
CONTINUOUS
 10
2.5995
 20
6.6981627665
 11
2.5845
 21
6.6981627665
  0
LINE
  5
274
100
AcDbEntity
  8
0
100
AcDbLine
 62
7
  6
CONTINUOUS
 10
2.639655654
 20
6.7027049591
 11
2.9349483671
 21
6.7027049591
  0
LINE
  5
275
100
AcDbEntity
  8
0
100
AcDbLine
 62
7
  6
CONTINUOUS
 10
2.6428012702
 20
6.7099674556
 11
2.9295
 21
6.7099674556
  0
LINE
  5
276
100
AcDbEntity
  8
0
100
AcDbLine
 62
7
  6
CONTINUOUS
 10
2.9295
 20
6.7150400026
 11
2.6428012702
 21
6.7150400026
  0
LINE
  5
277
100
AcDbEntity
  8
0
100
AcDbLine
 62
7
  6
CONTINUOUS
 10
6.3125
 20
6.726
 11
6.2085
 21
6.726
  0
LINE
  5
278
100
AcDbEntity
  8
0
100
AcDbLine
 62
7
  6
CONTINUOUS
 10
2.9349483671
 20
6.727929633
 11
2.639655654
 21
6.727929633
  0
LINE
  5
279
100
AcDbEntity
  8
0
100
AcDbLine
 62
7
  6
CONTINUOUS
 10
5.9801152237
 20
6.7285
 11
5.9675
 21
6.7285
  0
LINE
  5
27A
100
AcDbEntity
  8
0
100
AcDbLine
 62
7
  6
CONTINUOUS
 10
6.6215
 20
6.7425
 11
6.6595
 21
6.7425
  0
LINE
  5
27B
100
AcDbEntity
  8
0
100
AcDbLine
 62
7
  6
CONTINUOUS
 10
6.7095
 20
6.7425
 11
6.7475
 21
6.7425
  0
LINE
  5
27C
100
AcDbEntity
  8
0
100
AcDbLine
 62
7
  6
CONTINUOUS
 10
6.5765
 20
6.7435
 11
6.6165
 21
6.7435
  0
LINE
  5
27D
100
AcDbEntity
  8
0
100
AcDbLine
 62
7
  6
CONTINUOUS
 10
6.7745
 20
6.7435
 11
6.8145
 21
6.7435
  0
LINE
  5
27E
100
AcDbEntity
  8
0
100
AcDbLine
 62
7
  6
CONTINUOUS
 10
7.2245
 20
6.7605
 11
7.2625
 21
6.7605
  0
LINE
  5
27F
100
AcDbEntity
  8
0
100
AcDbLine
 62
7
  6
CONTINUOUS
 10
7.3125
 20
6.7605
 11
7.3505
 21
6.7605
  0
LINE
  5
280
100
AcDbEntity
  8
0
100
AcDbLine
 62
7
  6
CONTINUOUS
 10
7.1785
 20
6.7615
 11
7.2195
 21
6.7615
  0
LINE
  5
281
100
AcDbEntity
  8
0
100
AcDbLine
 62
7
  6
CONTINUOUS
 10
7.3775
 20
6.7615
 11
7.4065
 21
6.7615
  0
LINE
  5
282
100
AcDbEntity
  8
0
100
AcDbLine
 62
7
  6
CONTINUOUS
 10
6.3225
 20
6.7825
 11
6.4445
 21
6.7825
  0
LINE
  5
283
100
AcDbEntity
  8
0
100
AcDbLine
 62
7
  6
CONTINUOUS
 10
6.5385
 20
6.7825
 11
6.5635
 21
6.7825
  0
LINE
  5
284
100
AcDbEntity
  8
0
100
AcDbLine
 62
7
  6
CONTINUOUS
 10
2.5995
 20
6.7836319096
 11
2.5845
 21
6.7836319096
  0
LINE
  5
285
100
AcDbEntity
  8
0
100
AcDbLine
 62
7
  6
CONTINUOUS
 10
6.7475
 20
6.784
 11
6.7565
 21
6.784
  0
LINE
  5
286
100
AcDbEntity
  8
0
100
AcDbLine
 62
7
  6
CONTINUOUS
 10
6.8275
 20
6.79
 11
6.8295
 21
6.79
  0
LINE
  5
287
100
AcDbEntity
  8
0
100
AcDbLine
 62
7
  6
CONTINUOUS
 10
6.9235
 20
6.79
 11
7.0695
 21
6.79
  0
LINE
  5
288
100
AcDbEntity
  8
0
100
AcDbLine
 62
7
  6
CONTINUOUS
 10
7.1635
 20
6.79
 11
7.1655
 21
6.79
  0
LINE
  5
289
100
AcDbEntity
  8
0
100
AcDbLine
 62
7
  6
CONTINUOUS
 10
7.3505
 20
6.802
 11
7.3595
 21
6.802
  0
LINE
  5
28A
100
AcDbEntity
  8
0
100
AcDbLine
 62
7
  6
CONTINUOUS
 10
4.9448094011
 20
6.625
 11
4.9425
 21
6.629
  0
LINE
  5
28B
100
AcDbEntity
  8
0
100
AcDbLine
 62
7
  6
CONTINUOUS
 10
4.9425
 20
7.371
 11
4.9425
 21
6.629
  0
LINE
  5
28C
100
AcDbEntity
  8
0
100
AcDbLine
 62
7
  6
CONTINUOUS
 10
4.9730995643
 20
7.375
 11
4.9730995643
 21
7.3588570833
  0
LINE
  5
28D
100
AcDbEntity
  8
0
100
AcDbLine
 62
7
  6
CONTINUOUS
 10
4.9730995643
 20
7.0161429167
 11
4.9730995643
 21
6.9838570833
  0
LINE
  5
28E
100
AcDbEntity
  8
0
100
AcDbLine
 62
7
  6
CONTINUOUS
 10
4.9730995643
 20
6.6411429167
 11
4.9730995643
 21
6.625
  0
LINE
  5
28F
100
AcDbEntity
  8
0
100
AcDbLine
 62
7
  6
CONTINUOUS
 10
6.2645
 20
6.8737855876
 11
6.2305
 21
6.8737855876
  0
LINE
  5
290
100
AcDbEntity
  8
0
100
AcDbLine
 62
7
  6
CONTINUOUS
 10
2.5995
 20
6.8779372917
 11
2.5845
 21
6.8779372917
  0
LINE
  5
291
100
AcDbEntity
  8
0
100
AcDbLine
 62
7
  6
CONTINUOUS
 10
2.5995
 20
6.9220730218
 11
2.5845
 21
6.9220730218
  0
LINE
  5
292
100
AcDbEntity
  8
0
100
AcDbLine
 62
7
  6
CONTINUOUS
 10
2.5995
 20
6.9456688842
 11
2.5845
 21
6.9456688842
  0
LINE
  5
293
100
AcDbEntity
  8
0
100
AcDbLine
 62
7
  6
CONTINUOUS
 10
2.5995
 20
6.9794062635
 11
2.5845
 21
6.9794062635
  0
LINE
  5
294
100
AcDbEntity
  8
0
100
AcDbLine
 62
7
  6
CONTINUOUS
 10
2.5995
 20
6.9802857156
 11
2.5845
 21
6.9802857156
  0
LINE
  5
295
100
AcDbEntity
  8
0
100
AcDbLine
 62
7
  6
CONTINUOUS
 10
5.5137457352
 20
6.9838570833
 11
4.9730995643
 21
6.9838570833
  0
LINE
  5
296
100
AcDbEntity
  8
0
100
AcDbLine
 62
7
  6
CONTINUOUS
 10
2.639655654
 20
6.9854365277
 11
2.9349483671
 21
6.9854365277
  0
LINE
  5
297
100
AcDbEntity
  8
0
100
AcDbLine
 62
7
  6
CONTINUOUS
 10
2.6428012702
 20
6.9970713636
 11
2.9295
 21
6.9970713636
  0
LINE
  5
298
100
AcDbEntity
  8
0
100
AcDbLine
 62
7
  6
CONTINUOUS
 10
2.9295
 20
7.0029286364
 11
2.6428012702
 21
7.0029286364
  0
LINE
  5
299
100
AcDbEntity
  8
0
100
AcDbLine
 62
7
  6
CONTINUOUS
 10
2.5995
 20
7.012900962
 11
2.5845
 21
7.012900962
  0
LINE
  5
29A
100
AcDbEntity
  8
0
100
AcDbLine
 62
7
  6
CONTINUOUS
 10
2.9349483671
 20
7.0145634723
 11
2.639655654
 21
7.0145634723
  0
LINE
  5
29B
100
AcDbEntity
  8
0
100
AcDbLine
 62
7
  6
CONTINUOUS
 10
5.5137457352
 20
7.0161429167
 11
4.9730995643
 21
7.0161429167
  0
LINE
  5
29C
100
AcDbEntity
  8
0
100
AcDbLine
 62
7
  6
CONTINUOUS
 10
2.5995
 20
7.0457888512
 11
2.5845
 21
7.0457888512
  0
LINE
  5
29D
100
AcDbEntity
  8
0
100
AcDbLine
 62
7
  6
CONTINUOUS
 10
2.5995
 20
7.0468934609
 11
2.5845
 21
7.0468934609
  0
LINE
  5
29E
100
AcDbEntity
  8
0
100
AcDbLine
 62
7
  6
CONTINUOUS
 10
2.5995
 20
7.0718680334
 11
2.5845
 21
7.0718680334
  0
LINE
  5
29F
100
AcDbEntity
  8
0
100
AcDbLine
 62
7
  6
CONTINUOUS
 10
2.5995
 20
7.0996222942
 11
2.5845
 21
7.0996222942
  0
LINE
  5
2A0
100
AcDbEntity
  8
0
100
AcDbLine
 62
7
  6
CONTINUOUS
 10
2.5995
 20
7.1063884699
 11
2.5845
 21
7.1063884699
  0
LINE
  5
2A1
100
AcDbEntity
  8
0
100
AcDbLine
 62
7
  6
CONTINUOUS
 10
2.5995
 20
7.1150940013
 11
2.5845
 21
7.1150940013
  0
LINE
  5
2A2
100
AcDbEntity
  8
0
100
AcDbLine
 62
7
  6
CONTINUOUS
 10
6.2645
 20
7.1262144124
 11
6.2305
 21
7.1262144124
  0
LINE
  5
2A3
100
AcDbEntity
  8
0
100
AcDbLine
 62
7
  6
CONTINUOUS
 10
7.3505
 20
7.198
 11
7.3595
 21
7.198
  0
LINE
  5
2A4
100
AcDbEntity
  8
0
100
AcDbLine
 62
7
  6
CONTINUOUS
 10
6.8275
 20
7.21
 11
6.8295
 21
7.21
  0
LINE
  5
2A5
100
AcDbEntity
  8
0
100
AcDbLine
 62
7
  6
CONTINUOUS
 10
6.9235
 20
7.21
 11
7.0695
 21
7.21
  0
LINE
  5
2A6
100
AcDbEntity
  8
0
100
AcDbLine
 62
7
  6
CONTINUOUS
 10
7.1635
 20
7.21
 11
7.1655
 21
7.21
  0
LINE
  5
2A7
100
AcDbEntity
  8
0
100
AcDbLine
 62
7
  6
CONTINUOUS
 10
2.5995
 20
7.2154998703
 11
2.5845
 21
7.2154998703
  0
LINE
  5
2A8
100
AcDbEntity
  8
0
100
AcDbLine
 62
7
  6
CONTINUOUS
 10
6.7475
 20
7.216
 11
6.7565
 21
7.216
  0
LINE
  5
2A9
100
AcDbEntity
  8
0
100
AcDbLine
 62
7
  6
CONTINUOUS
 10
6.3225
 20
7.2175
 11
6.4445
 21
7.2175
  0
LINE
  5
2AA
100
AcDbEntity
  8
0
100
AcDbLine
 62
7
  6
CONTINUOUS
 10
6.5385
 20
7.2175
 11
6.5635
 21
7.2175
  0
LINE
  5
2AB
100
AcDbEntity
  8
0
100
AcDbLine
 62
7
  6
CONTINUOUS
 10
7.1785
 20
7.2385
 11
7.2195
 21
7.2385
  0
LINE
  5
2AC
100
AcDbEntity
  8
0
100
AcDbLine
 62
7
  6
CONTINUOUS
 10
7.3775
 20
7.2385
 11
7.4065
 21
7.2385
  0
LINE
  5
2AD
100
AcDbEntity
  8
0
100
AcDbLine
 62
7
  6
CONTINUOUS
 10
7.2245
 20
7.2395
 11
7.2625
 21
7.2395
  0
LINE
  5
2AE
100
AcDbEntity
  8
0
100
AcDbLine
 62
7
  6
CONTINUOUS
 10
7.3125
 20
7.2395
 11
7.3505
 21
7.2395
  0
LINE
  5
2AF
100
AcDbEntity
  8
0
100
AcDbLine
 62
7
  6
CONTINUOUS
 10
6.5765
 20
7.2565
 11
6.6165
 21
7.2565
  0
LINE
  5
2B0
100
AcDbEntity
  8
0
100
AcDbLine
 62
7
  6
CONTINUOUS
 10
6.7745
 20
7.2565
 11
6.8145
 21
7.2565
  0
LINE
  5
2B1
100
AcDbEntity
  8
0
100
AcDbLine
 62
7
  6
CONTINUOUS
 10
6.6215
 20
7.2575
 11
6.6595
 21
7.2575
  0
LINE
  5
2B2
100
AcDbEntity
  8
0
100
AcDbLine
 62
7
  6
CONTINUOUS
 10
6.7095
 20
7.2575
 11
6.7475
 21
7.2575
  0
LINE
  5
2B3
100
AcDbEntity
  8
0
100
AcDbLine
 62
7
  6
CONTINUOUS
 10
5.9801152237
 20
7.2715
 11
5.9675
 21
7.2715
  0
LINE
  5
2B4
100
AcDbEntity
  8
0
100
AcDbLine
 62
7
  6
CONTINUOUS
 10
2.639655654
 20
7.272070367
 11
2.9349483671
 21
7.272070367
  0
LINE
  5
2B5
100
AcDbEntity
  8
0
100
AcDbLine
 62
7
  6
CONTINUOUS
 10
6.3125
 20
7.274
 11
6.2085
 21
7.274
  0
LINE
  5
2B6
100
AcDbEntity
  8
0
100
AcDbLine
 62
7
  6
CONTINUOUS
 10
2.6428012702
 20
7.2849599974
 11
2.9295
 21
7.2849599974
  0
LINE
  5
2B7
100
AcDbEntity
  8
0
100
AcDbLine
 62
7
  6
CONTINUOUS
 10
2.9295
 20
7.2900325444
 11
2.6428012702
 21
7.2900325444
  0
LINE
  5
2B8
100
AcDbEntity
  8
0
100
AcDbLine
 62
7
  6
CONTINUOUS
 10
2.9349483671
 20
7.2972950409
 11
2.639655654
 21
7.2972950409
  0
LINE
  5
2B9
100
AcDbEntity
  8
0
100
AcDbLine
 62
7
  6
CONTINUOUS
 10
2.5995
 20
7.3018372335
 11
2.5845
 21
7.3018372335
  0
LINE
  5
2BA
100
AcDbEntity
  8
0
100
AcDbLine
 62
7
  6
CONTINUOUS
 10
6.174
 20
7.3085
 11
6.0225
 21
7.3085
  0
LINE
  5
2BB
100
AcDbEntity
  8
0
100
AcDbLine
 62
7
  6
CONTINUOUS
 10
4.9425
 20
7.314
 11
2.9645
 21
7.314
  0
LINE
  5
2BC
100
AcDbEntity
  8
0
100
AcDbLine
 62
7
  6
CONTINUOUS
 10
5.9175
 20
7.3255
 11
5.9675
 21
7.3255
  0
LINE
  5
2BD
100
AcDbEntity
  8
0
100
AcDbLine
 62
7
  6
CONTINUOUS
 10
5.8475
 20
7.327
 11
5.8255
 21
7.327
  0
LINE
  5
2BE
100
AcDbEntity
  8
0
100
AcDbLine
 62
7
  6
CONTINUOUS
 10
5.5137457352
 20
7.3588570833
 11
4.9730995643
 21
7.3588570833
  0
LINE
  5
2BF
100
AcDbEntity
  8
0
100
AcDbLine
 62
7
  6
CONTINUOUS
 10
5.5137457352
 20
7.375
 11
5.5137457352
 21
7.3588570833
  0
LINE
  5
2C0
100
AcDbEntity
  8
0
100
AcDbLine
 62
7
  6
CONTINUOUS
 10
5.5137457352
 20
7.0161429167
 11
5.5137457352
 21
6.9838570833
  0
LINE
  5
2C1
100
AcDbEntity
  8
0
100
AcDbLine
 62
7
  6
CONTINUOUS
 10
5.5137457352
 20
6.6411429167
 11
5.5137457352
 21
6.625
  0
LINE
  5
2C2
100
AcDbEntity
  8
0
100
AcDbLine
 62
7
  6
CONTINUOUS
 10
6.0225
 20
7.3085
 11
5.9893076118
 21
7.2753076118
  0
LINE
  5
2C3
100
AcDbEntity
  8
0
100
AcDbLine
 62
7
  6
CONTINUOUS
 10
5.8075
 20
7.369
 11
5.5455
 21
7.369
  0
LINE
  5
2C4
100
AcDbEntity
  8
0
100
AcDbLine
 62
7
  6
CONTINUOUS
 10
4.9448094011
 20
7.375
 11
5.5420358984
 21
7.375
  0
LINE
  5
2C5
100
AcDbEntity
  8
0
100
AcDbLine
 62
7
  6
CONTINUOUS
 10
2.5995
 20
7.41522919
 11
2.5845
 21
7.41522919
  0
LINE
  5
2C6
100
AcDbEntity
  8
0
100
AcDbLine
 62
7
  6
CONTINUOUS
 10
2.5995
 20
7.4516550889
 11
2.5845
 21
7.4516550889
  0
LINE
  5
2C7
100
AcDbEntity
  8
0
100
AcDbLine
 62
7
  6
CONTINUOUS
 10
2.5995
 20
7.4650046487
 11
2.5845
 21
7.4650046487
  0
LINE
  5
2C8
100
AcDbEntity
  8
0
100
AcDbLine
 62
7
  6
CONTINUOUS
 10
2.5995
 20
7.4653145188
 11
2.5845
 21
7.4653145188
  0
LINE
  5
2C9
100
AcDbEntity
  8
0
100
AcDbLine
 62
7
  6
CONTINUOUS
 10
2.5995
 20
7.46562216
 11
2.5845
 21
7.46562216
  0
LINE
  5
2CA
100
AcDbEntity
  8
0
100
AcDbLine
 62
7
  6
CONTINUOUS
 10
2.5995
 20
7.4659242277
 11
2.5845
 21
7.4659242277
  0
LINE
  5
2CB
100
AcDbEntity
  8
0
100
AcDbLine
 62
7
  6
CONTINUOUS
 10
2.639655654
 20
7.4858031712
 11
2.9349483671
 21
7.4858031712
  0
LINE
  5
2CC
100
AcDbEntity
  8
0
100
AcDbLine
 62
7
  6
CONTINUOUS
 10
2.6428012702
 20
7.49649383
 11
2.9295
 21
7.49649383
  0
LINE
  5
2CD
100
AcDbEntity
  8
0
100
AcDbLine
 62
7
  6
CONTINUOUS
 10
2.9295
 20
7.4994224664
 11
2.6428012702
 21
7.4994224664
  0
LINE
  5
2CE
100
AcDbEntity
  8
0
100
AcDbLine
 62
7
  6
CONTINUOUS
 10
2.9314985171
 20
7.5013940542
 11
2.6416334189
 21
7.5013940542
  0
LINE
  5
2CF
100
AcDbEntity
  8
0
100
AcDbLine
 62
7
  6
CONTINUOUS
 10
6.0225
 20
6.6915
 11
5.9893076118
 21
6.7246923882
  0
LINE
  5
2D0
100
AcDbEntity
  8
0
100
AcDbLine
 62
7
  6
CONTINUOUS
 10
5.5455
 20
7.369
 11
5.5455
 21
6.631
  0
LINE
  5
2D1
100
AcDbEntity
  8
0
100
AcDbLine
 62
7
  6
CONTINUOUS
 10
5.5455
 20
6.631
 11
5.5420358984
 21
6.625
  0
LINE
  5
2D2
100
AcDbEntity
  8
0
100
AcDbLine
 62
7
  6
CONTINUOUS
 10
2.639655654
 20
7.569365408
 11
2.9349483671
 21
7.569365408
  0
LINE
  5
2D3
100
AcDbEntity
  8
0
100
AcDbLine
 62
7
  6
CONTINUOUS
 10
2.6428012702
 20
7.5749925418
 11
2.9295
 21
7.5749925418
  0
LINE
  5
2D4
100
AcDbEntity
  8
0
100
AcDbLine
 62
7
  6
CONTINUOUS
 10
5.5455
 20
7.369
 11
5.5420358984
 21
7.375
  0
LINE
  5
2D5
100
AcDbEntity
  8
0
100
AcDbLine
 62
7
  6
CONTINUOUS
 10
5.8075
 20
6.631
 11
5.8075
 21
7.369
  0
LINE
  5
2D6
100
AcDbEntity
  8
0
100
AcDbLine
 62
7
  6
CONTINUOUS
 10
5.8105
 20
6.634
 11
5.8105
 21
7.366
  0
LINE
  5
2D7
100
AcDbEntity
  8
0
100
AcDbLine
 62
7
  6
CONTINUOUS
 10
5.8255
 20
7.327
 11
5.8255
 21
6.673
  0
LINE
  5
2D8
100
AcDbEntity
  8
0
100
AcDbLine
 62
7
  6
CONTINUOUS
 10
5.8475
 20
7.327
 11
5.8475
 21
6.673
  0
LINE
  5
2D9
100
AcDbEntity
  8
0
100
AcDbLine
 62
7
  6
CONTINUOUS
 10
5.9175
 20
7.3255
 11
5.9175
 21
6.6745
  0
LINE
  5
2DA
100
AcDbEntity
  8
0
100
AcDbLine
 62
7
  6
CONTINUOUS
 10
5.9675
 20
7.3255
 11
5.9675
 21
6.6745
  0
LINE
  5
2DB
100
AcDbEntity
  8
0
100
AcDbLine
 62
7
  6
CONTINUOUS
 10
5.9801152237
 20
7.2715
 11
5.9801152237
 21
6.7285
  0
LINE
  5
2DC
100
AcDbEntity
  8
0
100
AcDbLine
 62
7
  6
CONTINUOUS
 10
5.9893076118
 20
7.2753076118
 11
5.9893076118
 21
6.7246923882
  0
LINE
  5
2DD
100
AcDbEntity
  8
0
100
AcDbLine
 62
7
  6
CONTINUOUS
 10
5.9915
 20
6.7225
 11
5.9915
 21
7.2775
  0
LINE
  5
2DE
100
AcDbEntity
  8
0
100
AcDbLine
 62
7
  6
CONTINUOUS
 10
6.0225
 20
7.3085
 11
6.0225
 21
6.6915
  0
LINE
  5
2DF
100
AcDbEntity
  8
0
100
AcDbLine
 62
7
  6
CONTINUOUS
 10
6.174
 20
7.3085
 11
6.174
 21
6.6915
  0
LINE
  5
2E0
100
AcDbEntity
  8
0
100
AcDbLine
 62
7
  6
CONTINUOUS
 10
6.2085
 20
6.726
 11
6.174
 21
6.6915
  0
LINE
  5
2E1
100
AcDbEntity
  8
0
100
AcDbLine
 62
7
  6
CONTINUOUS
 10
6.3225
 20
6.736
 11
6.3125
 21
6.726
  0
LINE
  5
2E2
100
AcDbEntity
  8
0
100
AcDbLine
 62
7
  6
CONTINUOUS
 10
6.2085
 20
7.274
 11
6.174
 21
7.3085
  0
LINE
  5
2E3
100
AcDbEntity
  8
0
100
AcDbLine
 62
7
  6
CONTINUOUS
 10
6.3225
 20
7.264
 11
6.3125
 21
7.274
  0
LINE
  5
2E4
100
AcDbEntity
  8
0
100
AcDbLine
 62
7
  6
CONTINUOUS
 10
6.205
 20
6.7225
 11
6.205
 21
7.2775
  0
LINE
  5
2E5
100
AcDbEntity
  8
0
100
AcDbLine
 62
7
  6
CONTINUOUS
 10
6.2085
 20
7.274
 11
6.2085
 21
6.726
  0
LINE
  5
2E6
100
AcDbEntity
  8
0
100
AcDbLine
 62
7
  6
CONTINUOUS
 10
6.2305
 20
6.8737855876
 11
6.2305
 21
7.1262144124
  0
LINE
  5
2E7
100
AcDbEntity
  8
0
100
AcDbLine
 62
7
  6
CONTINUOUS
 10
6.2565
 20
6.9213109816
 11
6.2565
 21
7.0786897241
  0
LINE
  5
2E8
100
AcDbEntity
  8
0
100
AcDbLine
 62
7
  6
CONTINUOUS
 10
6.2645
 20
6.8737855876
 11
6.2645
 21
7.1262144124
  0
LINE
  5
2E9
100
AcDbEntity
  8
0
100
AcDbLine
 62
7
  6
CONTINUOUS
 10
6.3125
 20
6.726
 11
6.3125
 21
7.274
  0
LINE
  5
2EA
100
AcDbEntity
  8
0
100
AcDbLine
 62
7
  6
CONTINUOUS
 10
6.3225
 20
6.736
 11
6.3225
 21
7.264
  0
LINE
  5
2EB
100
AcDbEntity
  8
0
100
AcDbLine
 62
7
  6
CONTINUOUS
 10
6.5635
 20
6.7825
 11
6.5635
 21
7.2175
  0
LINE
  5
2EC
100
AcDbEntity
  8
0
100
AcDbLine
 62
7
  6
CONTINUOUS
 10
6.5715
 20
7.2515
 11
6.5715
 21
6.7485
  0
LINE
  5
2ED
100
AcDbEntity
  8
0
100
AcDbLine
 62
7
  6
CONTINUOUS
 10
6.5765
 20
7.2565
 11
6.5765
 21
6.7435
  0
LINE
  5
2EE
100
AcDbEntity
  8
0
100
AcDbLine
 62
7
  6
CONTINUOUS
 10
6.6165
 20
6.7435
 11
6.6165
 21
7.2565
  0
LINE
  5
2EF
100
AcDbEntity
  8
0
100
AcDbLine
 62
7
  6
CONTINUOUS
 10
6.6215
 20
7.2575
 11
6.6215
 21
6.7425
  0
LINE
  5
2F0
100
AcDbEntity
  8
0
100
AcDbLine
 62
7
  6
CONTINUOUS
 10
6.6595
 20
7.2575
 11
6.6595
 21
6.7425
  0
LINE
  5
2F1
100
AcDbEntity
  8
0
100
AcDbLine
 62
7
  6
CONTINUOUS
 10
6.7095
 20
7.2575
 11
6.7095
 21
6.7425
  0
LINE
  5
2F2
100
AcDbEntity
  8
0
100
AcDbLine
 62
7
  6
CONTINUOUS
 10
6.7475
 20
7.2575
 11
6.7475
 21
6.7425
  0
LINE
  5
2F3
100
AcDbEntity
  8
0
100
AcDbLine
 62
7
  6
CONTINUOUS
 10
6.7565
 20
6.784
 11
6.7565
 21
7.216
  0
LINE
  5
2F4
100
AcDbEntity
  8
0
100
AcDbLine
 62
7
  6
CONTINUOUS
 10
6.7695
 20
7.2515
 11
6.7695
 21
6.7485
  0
LINE
  5
2F5
100
AcDbEntity
  8
0
100
AcDbLine
 62
7
  6
CONTINUOUS
 10
6.7745
 20
7.2565
 11
6.7745
 21
6.7435
  0
LINE
  5
2F6
100
AcDbEntity
  8
0
100
AcDbLine
 62
7
  6
CONTINUOUS
 10
6.8145
 20
6.7435
 11
6.8145
 21
7.2565
  0
LINE
  5
2F7
100
AcDbEntity
  8
0
100
AcDbLine
 62
7
  6
CONTINUOUS
 10
6.8195
 20
7.2515
 11
6.8195
 21
6.7485
  0
LINE
  5
2F8
100
AcDbEntity
  8
0
100
AcDbLine
 62
7
  6
CONTINUOUS
 10
6.8275
 20
6.79
 11
6.8275
 21
7.21
  0
LINE
  5
2F9
100
AcDbEntity
  8
0
100
AcDbLine
 62
7
  6
CONTINUOUS
 10
7.4215
 20
6.7765
 11
7.4065
 21
6.7615
  0
LINE
  5
2FA
100
AcDbEntity
  8
0
100
AcDbLine
 62
7
  6
CONTINUOUS
 10
7.4215
 20
7.2235
 11
7.4065
 21
7.2385
  0
LINE
  5
2FB
100
AcDbEntity
  8
0
100
AcDbLine
 62
7
  6
CONTINUOUS
 10
6.8895
 20
6.9549368197
 11
6.8895
 21
7.0450487081
  0
LINE
  5
2FC
100
AcDbEntity
  8
0
100
AcDbLine
 62
7
  6
CONTINUOUS
 10
6.9045
 20
7.0372462996
 11
6.9045
 21
6.9627486255
  0
LINE
  5
2FD
100
AcDbEntity
  8
0
100
AcDbLine
 62
7
  6
CONTINUOUS
 10
7.1655
 20
6.79
 11
7.1655
 21
7.21
  0
LINE
  5
2FE
100
AcDbEntity
  8
0
100
AcDbLine
 62
7
  6
CONTINUOUS
 10
7.1735
 20
7.2334936189
 11
7.1735
 21
6.7665063811
  0
LINE
  5
2FF
100
AcDbEntity
  8
0
100
AcDbLine
 62
7
  6
CONTINUOUS
 10
7.1785
 20
7.2385
 11
7.1785
 21
6.7615
  0
LINE
  5
300
100
AcDbEntity
  8
0
100
AcDbLine
 62
7
  6
CONTINUOUS
 10
7.2195
 20
6.7615
 11
7.2195
 21
7.2385
  0
LINE
  5
301
100
AcDbEntity
  8
0
100
AcDbLine
 62
7
  6
CONTINUOUS
 10
7.2245
 20
7.2395
 11
7.2245
 21
6.7605
  0
LINE
  5
302
100
AcDbEntity
  8
0
100
AcDbLine
 62
7
  6
CONTINUOUS
 10
7.2625
 20
7.2395
 11
7.2625
 21
6.7605
  0
LINE
  5
303
100
AcDbEntity
  8
0
100
AcDbLine
 62
7
  6
CONTINUOUS
 10
7.3125
 20
7.2395
 11
7.3125
 21
6.7605
  0
LINE
  5
304
100
AcDbEntity
  8
0
100
AcDbLine
 62
7
  6
CONTINUOUS
 10
7.3505
 20
7.2395
 11
7.3505
 21
6.7605
  0
LINE
  5
305
100
AcDbEntity
  8
0
100
AcDbLine
 62
7
  6
CONTINUOUS
 10
7.3595
 20
6.802
 11
7.3595
 21
7.198
  0
LINE
  5
306
100
AcDbEntity
  8
0
100
AcDbLine
 62
7
  6
CONTINUOUS
 10
7.3725
 20
7.2334936189
 11
7.3725
 21
6.7665063811
  0
LINE
  5
307
100
AcDbEntity
  8
0
100
AcDbLine
 62
7
  6
CONTINUOUS
 10
7.3775
 20
7.2385
 11
7.3775
 21
6.7615
  0
LINE
  5
308
100
AcDbEntity
  8
0
100
AcDbLine
 62
7
  6
CONTINUOUS
 10
7.4065
 20
7.2385
 11
7.4065
 21
6.7615
  0
LINE
  5
309
100
AcDbEntity
  8
0
100
AcDbLine
 62
7
  6
CONTINUOUS
 10
7.4215
 20
7.2234939055
 11
7.4215
 21
6.7765060945
  0
ARC
  5
30A
100
AcDbEntity
  8
0
100
AcDbCircle
 62
7
  6
CONTINUOUS
 10
1.9586363314
 20
6.611446603
 40
1.3677695815
100
AcDbArc
 50
43.5779198228
 51
44.4551722007
  0
ARC
  5
30B
100
AcDbEntity
  8
0
100
AcDbCircle
 62
7
  6
CONTINUOUS
 10
2.4746455336
 20
6.8704689251
 40
0.5820725944
100
AcDbArc
 50
322.2603076999
 51
324.6664804289
  0
ARC
  5
30C
100
AcDbEntity
  8
0
100
AcDbCircle
 62
7
  6
CONTINUOUS
 10
2.6539734293
 20
6.9586836304
 40
0.3635853724
100
AcDbArc
 50
320.6050435976
 51
324.3715929698
  0
ARC
  5
30D
100
AcDbEntity
  8
0
100
AcDbCircle
 62
7
  6
CONTINUOUS
 10
2.6598087366
 20
7.045795849
 40
0.356233033
100
AcDbArc
 50
35.5895234411
 51
39.4338399915
  0
ARC
  5
30E
100
AcDbEntity
  8
0
100
AcDbCircle
 62
7
  6
CONTINUOUS
 10
2.8161922877
 20
6.8398362073
 40
0.1878894881
100
AcDbArc
 50
44.8056993466
 51
50.798261748
  0
ARC
  5
30F
100
AcDbEntity
  8
0
100
AcDbCircle
 62
7
  6
CONTINUOUS
 10
1.8621641395
 20
7.4817693647
 40
1.5019155467
100
AcDbArc
 50
315.5840050577
 51
316.3829029188
  0
ARC
  5
310
100
AcDbEntity
  8
0
100
AcDbCircle
 62
7
  6
CONTINUOUS
 10
2.4930709606
 20
7.1431833998
 40
0.5591457325
100
AcDbArc
 50
35.2841812667
 51
37.7890306045
  0
ARC
  5
311
100
AcDbEntity
  8
0
100
AcDbCircle
 62
7
  6
CONTINUOUS
 10
2.8145233164
 20
7.1620045395
 40
0.1903708517
100
AcDbArc
 50
309.2408278271
 51
315.1552110783
  0
CIRCLE
  5
312
100
AcDbEntity
  8
0
100
AcDbCircle
 62
7
  6
CONTINUOUS
 10
6.4915
 20
7.0
 40
0.047
  0
CIRCLE
  5
313
100
AcDbEntity
  8
0
100
AcDbCircle
 62
7
  6
CONTINUOUS
 10
7.1165
 20
7.0
 40
0.047
  0
CIRCLE
  5
314
100
AcDbEntity
  8
0
100
AcDbCircle
 62
7
  6
CONTINUOUS
 10
6.8765
 20
7.0
 40
0.047
  0
ARC
  5
315
100
AcDbEntity
  8
0
100
AcDbCircle
 62
7
  6
CONTINUOUS
 10
5.8255
 20
6.658
 40
0.015
100
AcDbArc
 50
90.0
 51
180.0
  0
ARC
  5
316
100
AcDbEntity
  8
0
100
AcDbCircle
 62
7
  6
CONTINUOUS
 10
7.3595
 20
6.789
 40
0.013
100
AcDbArc
 50
0.0
 51
90.0
  0
ARC
  5
317
100
AcDbEntity
  8
0
100
AcDbCircle
 62
7
  6
CONTINUOUS
 10
6.7565
 20
6.771
 40
0.013
100
AcDbArc
 50
0.0
 51
90.0
  0
ARC
  5
318
100
AcDbEntity
  8
0
100
AcDbCircle
 62
7
  6
CONTINUOUS
 10
5.9801152237
 20
6.7155
 40
0.013
100
AcDbArc
 50
44.9999999979
 51
90.0
  0
ARC
  5
319
100
AcDbEntity
  8
0
100
AcDbCircle
 62
7
  6
CONTINUOUS
 10
7.1655
 20
6.782
 40
0.008
100
AcDbArc
 50
0.0
 51
90.0
  0
ARC
  5
31A
100
AcDbEntity
  8
0
100
AcDbCircle
 62
7
  6
CONTINUOUS
 10
6.8275
 20
6.782
 40
0.008
100
AcDbArc
 50
90.0
 51
180.0
  0
ARC
  5
31B
100
AcDbEntity
  8
0
100
AcDbCircle
 62
7
  6
CONTINUOUS
 10
6.5635
 20
6.7745
 40
0.008
100
AcDbArc
 50
0.0
 51
90.0
  0
ARC
  5
31C
100
AcDbEntity
  8
0
100
AcDbCircle
 62
7
  6
CONTINUOUS
 10
6.5765
 20
6.7485
 40
0.005
100
AcDbArc
 50
180.0
 51
270.0
  0
ARC
  5
31D
100
AcDbEntity
  8
0
100
AcDbCircle
 62
7
  6
CONTINUOUS
 10
7.1785
 20
6.7665
 40
0.005
100
AcDbArc
 50
180.0
 51
270.0
  0
ARC
  5
31E
100
AcDbEntity
  8
0
100
AcDbCircle
 62
7
  6
CONTINUOUS
 10
6.8145
 20
6.7485
 40
0.005
100
AcDbArc
 50
270.0
 51
360.0
  0
ARC
  5
31F
100
AcDbEntity
  8
0
100
AcDbCircle
 62
7
  6
CONTINUOUS
 10
7.3775
 20
6.7665
 40
0.005
100
AcDbArc
 50
180.0
 51
270.0
  0
ARC
  5
320
100
AcDbEntity
  8
0
100
AcDbCircle
 62
7
  6
CONTINUOUS
 10
7.2195
 20
6.7665
 40
0.005
100
AcDbArc
 50
270.0
 51
360.0
  0
ARC
  5
321
100
AcDbEntity
  8
0
100
AcDbCircle
 62
7
  6
CONTINUOUS
 10
6.6165
 20
6.7485
 40
0.005
100
AcDbArc
 50
270.0
 51
360.0
  0
ARC
  5
322
100
AcDbEntity
  8
0
100
AcDbCircle
 62
7
  6
CONTINUOUS
 10
6.7745
 20
6.7485
 40
0.005
100
AcDbArc
 50
180.0
 51
270.0
  0
ARC
  5
323
100
AcDbEntity
  8
0
100
AcDbCircle
 62
7
  6
CONTINUOUS
 10
5.8075
 20
6.634
 40
0.003
100
AcDbArc
 50
270.0
 51
360.0
  0
ARC
  5
324
100
AcDbEntity
  8
0
100
AcDbCircle
 62
7
  6
CONTINUOUS
 10
5.8255
 20
7.342
 40
0.015
100
AcDbArc
 50
180.0
 51
270.0
  0
ARC
  5
325
100
AcDbEntity
  8
0
100
AcDbCircle
 62
7
  6
CONTINUOUS
 10
7.3595
 20
7.211
 40
0.013
100
AcDbArc
 50
270.0
 51
360.0
  0
ARC
  5
326
100
AcDbEntity
  8
0
100
AcDbCircle
 62
7
  6
CONTINUOUS
 10
6.7565
 20
7.229
 40
0.013
100
AcDbArc
 50
270.0
 51
360.0
  0
ARC
  5
327
100
AcDbEntity
  8
0
100
AcDbCircle
 62
7
  6
CONTINUOUS
 10
5.9801152237
 20
7.2845
 40
0.013
100
AcDbArc
 50
270.0
 51
315.0000000022
  0
ARC
  5
328
100
AcDbEntity
  8
0
100
AcDbCircle
 62
7
  6
CONTINUOUS
 10
6.5635
 20
7.2255
 40
0.008
100
AcDbArc
 50
270.0
 51
360.0
  0
ARC
  5
329
100
AcDbEntity
  8
0
100
AcDbCircle
 62
7
  6
CONTINUOUS
 10
7.1655
 20
7.218
 40
0.008
100
AcDbArc
 50
270.0
 51
360.0
  0
ARC
  5
32A
100
AcDbEntity
  8
0
100
AcDbCircle
 62
7
  6
CONTINUOUS
 10
6.8275
 20
7.218
 40
0.008
100
AcDbArc
 50
180.0
 51
270.0
  0
ARC
  5
32B
100
AcDbEntity
  8
0
100
AcDbCircle
 62
7
  6
CONTINUOUS
 10
6.7745
 20
7.2515
 40
0.005
100
AcDbArc
 50
90.0
 51
180.0
  0
ARC
  5
32C
100
AcDbEntity
  8
0
100
AcDbCircle
 62
7
  6
CONTINUOUS
 10
6.6165
 20
7.2515
 40
0.005
100
AcDbArc
 50
0.0
 51
90.0
  0
ARC
  5
32D
100
AcDbEntity
  8
0
100
AcDbCircle
 62
7
  6
CONTINUOUS
 10
7.2195
 20
7.2335
 40
0.005
100
AcDbArc
 50
0.0
 51
90.0
  0
ARC
  5
32E
100
AcDbEntity
  8
0
100
AcDbCircle
 62
7
  6
CONTINUOUS
 10
7.3775
 20
7.2335
 40
0.005
100
AcDbArc
 50
90.0
 51
180.0
  0
ARC
  5
32F
100
AcDbEntity
  8
0
100
AcDbCircle
 62
7
  6
CONTINUOUS
 10
6.5765
 20
7.2515
 40
0.005
100
AcDbArc
 50
90.0
 51
180.0
  0
ARC
  5
330
100
AcDbEntity
  8
0
100
AcDbCircle
 62
7
  6
CONTINUOUS
 10
6.8145
 20
7.2515
 40
0.005
100
AcDbArc
 50
0.0
 51
90.0
  0
ARC
  5
331
100
AcDbEntity
  8
0
100
AcDbCircle
 62
7
  6
CONTINUOUS
 10
7.1785
 20
7.2335
 40
0.005
100
AcDbArc
 50
90.0
 51
180.0
  0
ARC
  5
332
100
AcDbEntity
  8
0
100
AcDbCircle
 62
7
  6
CONTINUOUS
 10
5.8075
 20
7.366
 40
0.003
100
AcDbArc
 50
0.0
 51
90.0
  0
SPLINE
  5
333
100
AcDbEntity
  8
0
100
AcDbSpline
 62
7
  6
CONTINUOUS
 70
0
 71
3
 72
11
 73
7
 74
0
 42
0.0000001
 43
0.0000001
 44
0.0000000001
 40
0.0
 40
0.0
 40
0.0
 40
0.0
 40
0.1882731826
 40
0.415652084
 40
0.6862463112
 40
1.0
 40
1.0
 40
1.0
 40
1.0
 10
2.6416943866
 20
7.5013940997
 30
0.0
 10
2.6415488249
 20
7.5013945497
 30
0.0
 10
2.6412275058
 20
7.5013358463
 30
0.0
 10
2.6407381116
 20
7.5011253906
 30
0.0
 10
2.6402019837
 20
7.500796055
 30
0.0
 10
2.6398428596
 20
7.5005209084
 30
0.0
 10
2.639655654
 20
7.5003666435
 30
0.0
  0
SPLINE
  5
334
100
AcDbEntity
  8
0
100
AcDbSpline
 62
7
  6
CONTINUOUS
 70
0
 71
3
 72
11
 73
7
 74
0
 42
0.0000001
 43
0.0000001
 44
0.0000000001
 40
0.0
 40
0.0
 40
0.0
 40
0.0
 40
0.20887292
 40
0.4463626991
 40
0.7109339454
 40
1.0
 40
1.0
 40
1.0
 40
1.0
 10
2.9314190567
 20
6.4986058947
 30
0.0
 10
2.9316767589
 20
6.4986056058
 30
0.0
 10
2.9322275993
 20
6.4986642704
 30
0.0
 10
2.9330803866
 20
6.4988759334
 30
0.0
 10
2.9340011058
 20
6.4992037137
 30
0.0
 10
2.9346263146
 20
6.4994801369
 30
0.0
 10
2.9349483671
 20
6.4996333565
 30
0.0
  0
SPLINE
  5
335
100
AcDbEntity
  8
0
100
AcDbSpline
 62
7
  6
CONTINUOUS
 70
0
 71
3
 72
18
 73
14
 74
0
 42
0.0000001
 43
0.0000001
 44
0.0000000001
 40
0.0
 40
0.0
 40
0.0
 40
0.0
 40
0.0366162346
 40
0.0764216756
 40
0.1196141611
 40
0.1663173619
 40
0.2166008893
 40
0.2704943758
 40
0.3890652405
 40
0.5218155187
 40
0.6682887696
 40
0.8279044084
 40
1.0
 40
1.0
 40
1.0
 40
1.0
 10
2.6115785552
 20
6.5150444725
 30
0.0
 10
2.6119750132
 20
6.5150446791
 30
0.0
 10
2.6128028498
 20
6.5149960435
 30
0.0
 10
2.6140841479
 20
6.5147975924
 30
0.0
 10
2.6154517246
 20
6.5144728441
 30
0.0
 10
2.6169024829
 20
6.5140236013
 30
0.0
 10
2.6184335344
 20
6.5134515952
 30
0.0
 10
2.6206490884
 20
6.5124966978
 30
0.0
 10
2.6235947913
 20
6.510990932
 30
0.0
 10
2.6272951244
 20
6.5087824027
 30
0.0
 10
2.6312413446
 20
6.5061324661
 30
0.0
 10
2.6354090992
 20
6.503058357
 30
0.0
 10
2.638217642
 20
6.5008183359
 30
0.0
 10
2.639655654
 20
6.4996333565
 30
0.0
  0
SPLINE
  5
336
100
AcDbEntity
  8
0
100
AcDbSpline
 62
7
  6
CONTINUOUS
 70
0
 71
3
 72
11
 73
7
 74
0
 42
0.0000001
 43
0.0000001
 44
0.0000000001
 40
0.0
 40
0.0
 40
0.0
 40
0.0
 40
0.2890660546
 40
0.5536373009
 40
0.79112708
 40
1.0
 40
1.0
 40
1.0
 40
1.0
 10
2.9349483671
 20
7.5003666435
 30
0.0
 10
2.9346263146
 20
7.5005198631
 30
0.0
 10
2.9340011058
 20
7.5007962863
 30
0.0
 10
2.9330803866
 20
7.5011240666
 30
0.0
 10
2.9322275993
 20
7.5013357296
 30
0.0
 10
2.9316767589
 20
7.5013943942
 30
0.0
 10
2.9314190567
 20
7.5013941053
 30
0.0
  0
SPLINE
  5
337
100
AcDbEntity
  8
0
100
AcDbSpline
 62
7
  6
CONTINUOUS
 70
0
 71
3
 72
18
 73
14
 74
0
 42
0.0000001
 43
0.0000001
 44
0.0000000001
 40
0.0
 40
0.0
 40
0.0
 40
0.0
 40
0.1720965987
 40
0.3317132008
 40
0.4781871596
 40
0.610937722
 40
0.7295084104
 40
0.7834016292
 40
0.8336847645
 40
0.8803874663
 40
0.9235793965
 40
0.9633842783
 40
1.0
 40
1.0
 40
1.0
 40
1.0
 10
2.639655654
 20
7.5003666435
 30
0.0
 10
2.6382176214
 20
7.4991816472
 30
0.0
 10
2.6354090373
 20
7.4969415951
 30
0.0
 10
2.6312412206
 20
7.4938674478
 30
0.0
 10
2.6272949457
 20
7.4912174829
 30
0.0
 10
2.6235945673
 20
7.4890089411
 30
0.0
 10
2.6206488327
 20
7.4875031795
 30
0.0
 10
2.6184332612
 20
7.4865482941
 30
0.0
 10
2.6169022037
 20
7.4859763006
 30
0.0
 10
2.6154514424
 20
7.4855270766
 30
0.0
 10
2.6140838658
 20
7.4852023519
 30
0.0
 10
2.6128025701
 20
7.4850039278
 30
0.0
 10
2.6119747369
 20
7.4849553126
 30
0.0
 10
2.6115782812
 20
7.4849555294
 30
0.0
  0
SPLINE
  5
338
100
AcDbEntity
  8
0
100
AcDbSpline
 62
7
  6
CONTINUOUS
 70
0
 71
3
 72
9
 73
5
 74
0
 42
0.0000001
 43
0.0000001
 44
0.0000000001
 40
0.0
 40
0.0
 40
0.0
 40
0.0
 40
0.5119390951
 40
1.0
 40
1.0
 40
1.0
 40
1.0
 10
2.9349483671
 20
7.5003666435
 30
0.0
 10
2.9374010824
 20
7.4991997404
 30
0.0
 10
2.9422206632
 20
7.496979743
 30
0.0
 10
2.9471016106
 20
7.4948974318
 30
0.0
 10
2.9495
 20
7.4939211924
 30
0.0
  0
SPLINE
  5
339
100
AcDbEntity
  8
0
100
AcDbSpline
 62
7
  6
CONTINUOUS
 70
0
 71
3
 72
9
 73
5
 74
0
 42
0.0000001
 43
0.0000001
 44
0.0000000001
 40
0.0
 40
0.0
 40
0.0
 40
0.0
 40
0.4880609063
 40
1.0
 40
1.0
 40
1.0
 40
1.0
 10
2.9495
 20
6.5060788076
 30
0.0
 10
2.9471016106
 20
6.5051025682
 30
0.0
 10
2.9422206632
 20
6.503020257
 30
0.0
 10
2.9374010824
 20
6.5008002596
 30
0.0
 10
2.9349483671
 20
6.4996333565
 30
0.0
  0
SPLINE
  5
33A
100
AcDbEntity
  8
0
100
AcDbSpline
 62
7
  6
CONTINUOUS
 70
0
 71
3
 72
11
 73
7
 74
0
 42
0.0000001
 43
0.0000001
 44
0.0000000001
 40
0.0
 40
0.0
 40
0.0
 40
0.0
 40
0.3137536888
 40
0.584347916
 40
0.8117268174
 40
1.0
 40
1.0
 40
1.0
 40
1.0
 10
2.639655654
 20
6.4996333565
 30
0.0
 10
2.6398428596
 20
6.4994790916
 30
0.0
 10
2.6402019837
 20
6.499203945
 30
0.0
 10
2.6407381116
 20
6.4988746094
 30
0.0
 10
2.6412275058
 20
6.4986641537
 30
0.0
 10
2.6415488249
 20
6.4986054503
 30
0.0
 10
2.6416943866
 20
6.4986059003
 30
0.0
  0
SPLINE
  5
33B
100
AcDbEntity
  8
0
100
AcDbSpline
 62
7
  6
CONTINUOUS
 70
0
 71
3
 72
9
 73
5
 74
0
 42
0.0000001
 43
0.0000001
 44
0.0000000001
 40
0.0
 40
0.0
 40
0.0
 40
0.0
 40
0.2470119639
 40
1.0
 40
1.0
 40
1.0
 40
1.0
 10
2.9495
 20
6.6988088566
 30
0.0
 10
2.9483275412
 20
6.6992153392
 30
0.0
 10
2.9435495508
 20
6.7007697194
 30
0.0
 10
2.9386597083
 20
6.7019731102
 30
0.0
 10
2.9349483671
 20
6.7027049591
 30
0.0
  0
SPLINE
  5
33C
100
AcDbEntity
  8
0
100
AcDbSpline
 62
7
  6
CONTINUOUS
 70
0
 71
3
 72
13
 73
9
 74
0
 42
0.0000001
 43
0.0000001
 44
0.0000000001
 40
0.0
 40
0.0
 40
0.0
 40
0.0
 40
0.1408044302
 40
0.2801329783
 40
0.5460154501
 40
0.7875240335
 40
0.897583428
 40
1.0
 40
1.0
 40
1.0
 40
1.0
 10
2.6428012702
 20
7.0029286364
 30
0.0
 10
2.6428012702
 20
7.0035023495
 30
0.0
 10
2.6427636346
 20
7.0046441418
 30
0.0
 10
2.6425480391
 20
7.0068596009
 30
0.0
 10
2.6420361162
 20
7.009453127
 30
0.0
 10
2.6411951358
 20
7.0118364172
 30
0.0
 10
2.6403580623
 20
7.0134882579
 30
0.0
 10
2.639896423
 20
7.0142226353
 30
0.0
 10
2.639655654
 20
7.0145634723
 30
0.0
  0
SPLINE
  5
33D
100
AcDbEntity
  8
0
100
AcDbSpline
 62
7
  6
CONTINUOUS
 70
0
 71
3
 72
12
 73
8
 74
0
 42
0.0000001
 43
0.0000001
 44
0.0000000001
 40
0.0
 40
0.0
 40
0.0
 40
0.0
 40
0.2240897762
 40
0.4654294694
 40
0.7255748973
 40
0.8618996977
 40
1.0
 40
1.0
 40
1.0
 40
1.0
 10
2.9349483671
 20
7.0145634723
 30
0.0
 10
2.9341817111
 20
7.0139368788
 30
0.0
 10
2.9327186388
 20
7.012467842
 30
0.0
 10
2.9309680175
 20
7.0097542739
 30
0.0
 10
2.9299902363
 20
7.007081866
 30
0.0
 10
2.9295734813
 20
7.0047526946
 30
0.0
 10
2.9295
 20
7.0035388333
 30
0.0
 10
2.9295
 20
7.0029286364
 30
0.0
  0
SPLINE
  5
33E
100
AcDbEntity
  8
0
100
AcDbSpline
 62
7
  6
CONTINUOUS
 70
0
 71
3
 72
33
 73
29
 74
0
 42
0.0000001
 43
0.0000001
 44
0.0000000001
 40
0.0
 40
0.0
 40
0.0
 40
0.0
 40
0.0875413071
 40
0.1737677772
 40
0.2580622403
 40
0.3398062604
 40
0.3795362768
 40
0.4183907333
 40
0.4931360085
 40
0.5288879022
 40
0.5634678649
 40
0.6288891961
 40
0.6596874206
 40
0.689186226
 40
0.7173943392
 40
0.7443476884
 40
0.7700917458
 40
0.7946859394
 40
0.8182159507
 40
0.8407763984
 40
0.8624670736
 40
0.8834032491
 40
0.9037094503
 40
0.9235084603
 40
0.9429206279
 40
0.9620660971
 40
0.9810581686
 40
1.0
 40
1.0
 40
1.0
 40
1.0
 10
2.639655654
 20
6.5141968288
 30
0.0
 10
2.6371835741
 20
6.5197334411
 30
0.0
 10
2.6324137668
 20
6.5307855972
 30
0.0
 10
2.6258117881
 20
6.5473991418
 30
0.0
 10
2.6199145412
 20
6.5638506967
 30
0.0
 10
2.6156470994
 20
6.5774544776
 30
0.0
 10
2.6127104171
 20
6.5881653403
 30
0.0
 10
2.6101711704
 20
6.598478275
 30
0.0
 10
2.6081233699
 20
6.6086264761
 30
0.0
 10
2.6066505779
 20
6.6185687079
 30
0.0
 10
2.6056192435
 20
6.6279161009
 30
0.0
 10
2.6051679265
 20
6.6369789402
 30
0.0
 10
2.6053728384
 20
6.6456874072
 30
0.0
 10
2.6058374314
 20
6.6518031227
 30
0.0
 10
2.6066140599
 20
6.6576187462
 30
0.0
 10
2.6076925477
 20
6.6631215666
 30
0.0
 10
2.6090639114
 20
6.6683007011
 30
0.0
 10
2.6107197133
 20
6.6731464935
 30
0.0
 10
2.6126449652
 20
6.6776531281
 30
0.0
 10
2.614824808
 20
6.6818169038
 30
0.0
 10
2.6172454238
 20
6.6856347091
 30
0.0
 10
2.6198917366
 20
6.6891055206
 30
0.0
 10
2.6227477896
 20
6.6922307301
 30
0.0
 10
2.6257982117
 20
6.6950122538
 30
0.0
 10
2.6290278313
 20
6.6974522972
 30
0.0
 10
2.6324213839
 20
6.6995542913
 30
0.0
 10
2.6359634403
 20
6.7013221698
 30
0.0
 10
2.6384140923
 20
6.7022809068
 30
0.0
 10
2.639655654
 20
6.7027049591
 30
0.0
  0
SPLINE
  5
33F
100
AcDbEntity
  8
0
100
AcDbSpline
 62
7
  6
CONTINUOUS
 70
0
 71
3
 72
28
 73
24
 74
0
 42
0.0000001
 43
0.0000001
 44
0.0000000001
 40
0.0
 40
0.0
 40
0.0
 40
0.0
 40
0.0652931279
 40
0.1318506957
 40
0.1993736952
 40
0.2675510617
 40
0.3360537518
 40
0.3702988653
 40
0.4044675951
 40
0.4385016079
 40
0.4723402957
 40
0.5059258974
 40
0.5392030351
 40
0.6046038241
 40
0.6366380674
 40
0.668172239
 40
0.6991696849
 40
0.7295974334
 40
0.7594372663
 40
0.7886725902
 40
0.8452608015
 40
0.8993495762
 40
1.0
 40
1.0
 40
1.0
 40
1.0
 10
2.639655654
 20
6.727929633
 30
0.0
 10
2.6371427506
 20
6.7332327991
 30
0.0
 10
2.6322949538
 20
6.7440510458
 30
0.0
 10
2.6256954819
 20
6.7607171914
 30
0.0
 10
2.6198030735
 20
6.7779219885
 30
0.0
 10
2.6147394007
 20
6.7955714643
 30
0.0
 10
2.6113129068
 20
6.8105561792
 30
0.0
 10
2.6090995795
 20
6.8226628736
 30
0.0
 10
2.6077223476
 20
6.8317686614
 30
0.0
 10
2.6066376375
 20
6.8408771319
 30
0.0
 10
2.6058536885
 20
6.8499638685
 30
0.0
 10
2.6053803728
 20
6.8590042506
 30
0.0
 10
2.6051705938
 20
6.8708916452
 30
0.0
 10
2.6055794194
 20
6.8826449392
 30
0.0
 10
2.6066279558
 20
6.8941910137
 30
0.0
 10
2.6077102456
 20
6.9026232948
 30
0.0
 10
2.6090846106
 20
6.9108664926
 30
0.0
 10
2.6107420028
 20
6.9189020287
 30
0.0
 10
2.6126673877
 20
6.9267147227
 30
0.0
 10
2.6155401212
 20
6.9367074039
 30
0.0
 10
2.6197066851
 20
6.9485882529
 30
0.0
 10
2.6273693081
 20
6.9659796416
 30
0.0
 10
2.634436253
 20
6.9780478517
 30
0.0
 10
2.639655654
 20
6.9854365277
 30
0.0
  0
SPLINE
  5
340
100
AcDbEntity
  8
0
100
AcDbSpline
 62
7
  6
CONTINUOUS
 70
0
 71
3
 72
26
 73
22
 74
0
 42
0.0000001
 43
0.0000001
 44
0.0000000001
 40
0.0
 40
0.0
 40
0.0
 40
0.0
 40
0.1006558595
 40
0.154750562
 40
0.2113429945
 40
0.270412783
 40
0.3008425174
 40
0.3318413768
 40
0.3954035909
 40
0.4279016336
 40
0.4608166392
 40
0.5276712908
 40
0.5615096144
 40
0.5955430976
 40
0.629711901
 40
0.6639563556
 40
0.7324565672
 40
0.8006319673
 40
0.8681507075
 40
0.9347064757
 40
1.0
 40
1.0
 40
1.0
 40
1.0
 10
2.639655654
 20
7.0145634723
 30
0.0
 10
2.6344360815
 20
7.021952391
 30
0.0
 10
2.6273688183
 20
7.0340210586
 30
0.0
 10
2.619705876
 20
7.0514139825
 30
0.0
 10
2.6146512262
 20
7.0658271583
 30
0.0
 10
2.6112721489
 20
7.0785290498
 30
0.0
 10
2.6090837461
 20
7.0891378977
 30
0.0
 10
2.6072360351
 20
7.1002208442
 30
0.0
 10
2.6059989286
 20
7.1115858004
 30
0.0
 10
2.6053769024
 20
7.1231628797
 30
0.0
 10
2.6051694651
 20
7.1350509302
 30
0.0
 10
2.6055966388
 20
7.1470628788
 30
0.0
 10
2.6066380145
 20
7.1591282842
 30
0.0
 10
2.6077232687
 20
7.168236537
 30
0.0
 10
2.6091003967
 20
7.1773420045
 30
0.0
 10
2.6113135541
 20
7.1894482019
 30
0.0
 10
2.6147405401
 20
7.2044319939
 30
0.0
 10
2.6198037397
 20
7.2220803788
 30
0.0
 10
2.6256959914
 20
7.2392840656
 30
0.0
 10
2.6322951592
 20
7.2559493715
 30
0.0
 10
2.6371427886
 20
7.2667672809
 30
0.0
 10
2.639655654
 20
7.272070367
 30
0.0
  0
SPLINE
  5
341
100
AcDbEntity
  8
0
100
AcDbSpline
 62
7
  6
CONTINUOUS
 70
0
 71
3
 72
32
 73
28
 74
0
 42
0.0000001
 43
0.0000001
 44
0.0000000001
 40
0.0
 40
0.0
 40
0.0
 40
0.0
 40
0.0189423878
 40
0.0379353255
 40
0.0570819605
 40
0.0764956031
 40
0.0962966302
 40
0.1166051967
 40
0.1375434307
 40
0.1592353383
 40
0.181797963
 40
0.2053307467
 40
0.2299266919
 40
0.2556721154
 40
0.2826285367
 40
0.3108390978
 40
0.3711177446
 40
0.436541837
 40
0.471122055
 40
0.5068745143
 40
0.5816194943
 40
0.620472986
 40
0.6602024806
 40
0.7419444168
 40
0.8262339371
 40
0.9124581604
 40
1.0
 40
1.0
 40
1.0
 40
1.0
 10
2.639655654
 20
7.2972950409
 30
0.0
 10
2.6384140816
 20
7.2977190969
 30
0.0
 10
2.6359633886
 20
7.29867785
 30
0.0
 10
2.6324212468
 20
7.3004457763
 30
0.0
 10
2.6290275684
 20
7.3025478726
 30
0.0
 10
2.6257977787
 20
7.3049880897
 30
0.0
 10
2.6227471871
 20
7.3077699052
 30
0.0
 10
2.6198909734
 20
7.3108954541
 30
0.0
 10
2.6172445451
 20
7.3143665521
 30
0.0
 10
2.6148237573
 20
7.3181845911
 30
0.0
 10
2.6126440858
 20
7.3223488409
 30
0.0
 10
2.6107190551
 20
7.326855954
 30
0.0
 10
2.6090630815
 20
7.3317020012
 30
0.0
 10
2.6076916049
 20
7.336881433
 30
0.0
 10
2.6066136994
 20
7.3423848005
 30
0.0
 10
2.6055551847
 20
7.350314748
 30
0.0
 10
2.6050667022
 20
7.3609857032
 30
0.0
 10
2.6056193778
 20
7.3720878251
 30
0.0
 10
2.6066509486
 20
7.3814357374
 30
0.0
 10
2.6081244451
 20
7.3913775558
 30
0.0
 10
2.6101717783
 20
7.4015256301
 30
0.0
 10
2.6127113006
 20
7.4118381403
 30
0.0
 10
2.6156481087
 20
7.4225484714
 30
0.0
 10
2.6199152187
 20
7.4361514952
 30
0.0
 10
2.6258122763
 20
7.4526020533
 30
0.0
 10
2.6324139664
 20
7.4692148144
 30
0.0
 10
2.6371836104
 20
7.4802666401
 30
0.0
 10
2.639655654
 20
7.4858031712
 30
0.0
  0
SPLINE
  5
342
100
AcDbEntity
  8
0
100
AcDbSpline
 62
7
  6
CONTINUOUS
 70
0
 71
3
 72
15
 73
11
 74
0
 42
0.0000001
 43
0.0000001
 44
0.0000000001
 40
0.0
 40
0.0
 40
0.0
 40
0.0
 40
0.1337472333
 40
0.256836662
 40
0.371924196
 40
0.4831423009
 40
0.5961129449
 40
0.7169310028
 40
0.8504058489
 40
1.0
 40
1.0
 40
1.0
 40
1.0
 10
2.9314190567
 20
7.5013941053
 30
0.0
 10
2.9312790013
 20
7.5013939482
 30
0.0
 10
2.9310095324
 20
7.5013776781
 30
0.0
 10
2.9306273823
 20
7.5012930113
 30
0.0
 10
2.9302898018
 20
7.5011448132
 30
0.0
 10
2.9300031722
 20
7.500928899
 30
0.0
 10
2.9297760176
 20
7.500643044
 30
0.0
 10
2.9296146304
 20
7.5002904233
 30
0.0
 10
2.9295187015
 20
7.4998762113
 30
0.0
 10
2.9295
 20
7.4995791162
 30
0.0
 10
2.9295
 20
7.4994224664
 30
0.0
  0
SPLINE
  5
343
100
AcDbEntity
  8
0
100
AcDbSpline
 62
7
  6
CONTINUOUS
 70
0
 71
3
 72
31
 73
27
 74
0
 42
0.0000001
 43
0.0000001
 44
0.0000000001
 40
0.0
 40
0.0
 40
0.0
 40
0.0
 40
0.0132698346
 40
0.0254455039
 40
0.0368745232
 40
0.0479981914
 40
0.0593165976
 40
0.071325825
 40
0.0844506518
 40
0.099019067
 40
0.1152725229
 40
0.1333832478
 40
0.1534567361
 40
0.1755534589
 40
0.1997072614
 40
0.2259328193
 40
0.2542194052
 40
0.2845366242
 40
0.3510982135
 40
0.4252322446
 40
0.5064388596
 40
0.5941810289
 40
0.6879373154
 40
0.7871820227
 40
0.8913820473
 40
1.0
 40
1.0
 40
1.0
 40
1.0
 10
2.6115782812
 20
7.4849555294
 30
0.0
 10
2.6111539783
 20
7.4849557615
 30
0.0
 10
2.6103386068
 20
7.485007861
 30
0.0
 10
2.6091838899
 20
7.4852746081
 30
0.0
 10
2.6081630029
 20
7.4857313108
 30
0.0
 10
2.6072857232
 20
7.4863815231
 30
0.0
 10
2.6065622166
 20
7.4872237541
 30
0.0
 10
2.6059984505
 20
7.4882522228
 30
0.0
 10
2.605592798
 20
7.4894609023
 30
0.0
 10
2.6053431023
 20
7.4908477787
 30
0.0
 10
2.6052484903
 20
7.4924124359
 30
0.0
 10
2.6053094067
 20
7.4941541142
 30
0.0
 10
2.6055240224
 20
7.4960711248
 30
0.0
 10
2.6058907558
 20
7.4981610173
 30
0.0
 10
2.6064081698
 20
7.5004208091
 30
0.0
 10
2.6070749439
 20
7.5028468412
 30
0.0
 10
2.6078879759
 20
7.505435064
 30
0.0
 10
2.6092035371
 20
7.5092153571
 30
0.0
 10
2.6112059197
 20
7.5143059584
 30
0.0
 10
2.6140539143
 20
7.5208058524
 30
0.0
 10
2.6173773248
 20
7.5278330187
 30
0.0
 10
2.6211359764
 20
7.5353457395
 30
0.0
 10
2.6252887367
 20
7.543304558
 30
0.0
 10
2.6297946291
 20
7.5516716288
 30
0.0
 10
2.6346139898
 20
7.5604089516
 30
0.0
 10
2.6379464142
 20
7.5663420592
 30
0.0
 10
2.639655654
 20
7.569365408
 30
0.0
  0
LINE
  5
344
100
AcDbEntity
  8
0
100
AcDbLine
 62
7
  6
CONTINUOUS
 10
2.9295
 20
7.5749925418
 11
2.9349483671
 21
7.569365408
  0
SPLINE
  5
345
100
AcDbEntity
  8
0
100
AcDbSpline
 62
7
  6
CONTINUOUS
 70
0
 71
3
 72
15
 73
11
 74
0
 42
0.0000001
 43
0.0000001
 44
0.0000000001
 40
0.0
 40
0.0
 40
0.0
 40
0.0
 40
0.0999306421
 40
0.1948070245
 40
0.2917683788
 40
0.3980518733
 40
0.519298773
 40
0.6588891861
 40
0.8187659434
 40
1.0
 40
1.0
 40
1.0
 40
1.0
 10
2.6416943866
 20
6.4986059003
 30
0.0
 10
2.6417785022
 20
6.4986061604
 30
0.0
 10
2.6419435015
 20
6.4986245625
 30
0.0
 10
2.6421738422
 20
6.4987191498
 30
0.0
 10
2.6423705641
 20
6.4988805089
 30
0.0
 10
2.6425297218
 20
6.4991057016
 30
0.0
 10
2.6426520549
 20
6.4993912943
 30
0.0
 10
2.6427392141
 20
6.4997356452
 30
0.0
 10
2.6427911385
 20
6.5001376494
 30
0.0
 10
2.6428012702
 20
6.5004249811
 30
0.0
 10
2.6428012702
 20
6.5005775336
 30
0.0
  0
LINE
  5
346
100
AcDbEntity
  8
0
100
AcDbLine
 62
7
  6
CONTINUOUS
 10
2.639655654
 20
7.569365408
 11
2.6428012702
 21
7.5749925418
  0
SPLINE
  5
347
100
AcDbEntity
  8
0
100
AcDbSpline
 62
7
  6
CONTINUOUS
 70
0
 71
3
 72
12
 73
8
 74
0
 42
0.0000001
 43
0.0000001
 44
0.0000000001
 40
0.0
 40
0.0
 40
0.0
 40
0.0
 40
0.1381003023
 40
0.2744251027
 40
0.5345705306
 40
0.7759102238
 40
1.0
 40
1.0
 40
1.0
 40
1.0
 10
2.9295
 20
6.9970713636
 30
0.0
 10
2.9295
 20
6.9964611667
 30
0.0
 10
2.9295734813
 20
6.9952473054
 30
0.0
 10
2.9299902363
 20
6.992918134
 30
0.0
 10
2.9309680175
 20
6.9902457261
 30
0.0
 10
2.9327186388
 20
6.987532158
 30
0.0
 10
2.9341817111
 20
6.9860631212
 30
0.0
 10
2.9349483671
 20
6.9854365277
 30
0.0
  0
SPLINE
  5
348
100
AcDbEntity
  8
0
100
AcDbSpline
 62
7
  6
CONTINUOUS
 70
0
 71
3
 72
13
 73
9
 74
0
 42
0.0000001
 43
0.0000001
 44
0.0000000001
 40
0.0
 40
0.0
 40
0.0
 40
0.0
 40
0.102416572
 40
0.2124759665
 40
0.4539845499
 40
0.7198670217
 40
0.8591955698
 40
1.0
 40
1.0
 40
1.0
 40
1.0
 10
2.639655654
 20
6.9854365277
 30
0.0
 10
2.639896423
 20
6.9857773647
 30
0.0
 10
2.6403580623
 20
6.9865117421
 30
0.0
 10
2.6411951358
 20
6.9881635828
 30
0.0
 10
2.6420361162
 20
6.990546873
 30
0.0
 10
2.6425480391
 20
6.9931403991
 30
0.0
 10
2.6427636346
 20
6.9953558582
 30
0.0
 10
2.6428012702
 20
6.9964976505
 30
0.0
 10
2.6428012702
 20
6.9970713636
 30
0.0
  0
SPLINE
  5
349
100
AcDbEntity
  8
0
100
AcDbSpline
 62
7
  6
CONTINUOUS
 70
0
 71
3
 72
15
 73
11
 74
0
 42
0.0000001
 43
0.0000001
 44
0.0000000001
 40
0.0
 40
0.0
 40
0.0
 40
0.0
 40
0.1812340566
 40
0.3411108139
 40
0.480701227
 40
0.6019481267
 40
0.7082316212
 40
0.8051929755
 40
0.9000693579
 40
1.0
 40
1.0
 40
1.0
 40
1.0
 10
2.6428012702
 20
7.4994224664
 30
0.0
 10
2.6428012702
 20
7.4995750189
 30
0.0
 10
2.6427911385
 20
7.4998623506
 30
0.0
 10
2.6427392141
 20
7.5002643548
 30
0.0
 10
2.6426520549
 20
7.5006087057
 30
0.0
 10
2.6425297218
 20
7.5008942984
 30
0.0
 10
2.6423705641
 20
7.5011194911
 30
0.0
 10
2.6421738422
 20
7.5012808502
 30
0.0
 10
2.6419435015
 20
7.5013754375
 30
0.0
 10
2.6417785022
 20
7.5013938396
 30
0.0
 10
2.6416943866
 20
7.5013940997
 30
0.0
  0
SPLINE
  5
34A
100
AcDbEntity
  8
0
100
AcDbSpline
 62
7
  6
CONTINUOUS
 70
0
 71
3
 72
12
 73
8
 74
0
 42
0.0000001
 43
0.0000001
 44
0.0000000001
 40
0.0
 40
0.0
 40
0.0
 40
0.0
 40
0.1156272667
 40
0.2374689645
 40
0.4917491279
 40
0.7497125692
 40
1.0
 40
1.0
 40
1.0
 40
1.0
 10
2.6428012702
 20
6.7150400026
 30
0.0
 10
2.6428012702
 20
6.7155550711
 30
0.0
 10
2.6427600654
 20
6.716613146
 30
0.0
 10
2.6425337229
 20
6.7187930752
 30
0.0
 10
2.6419899612
 20
6.721571505
 30
0.0
 10
2.6409991006
 20
6.7248256054
 30
0.0
 10
2.6401330721
 20
6.726922102
 30
0.0
 10
2.639655654
 20
6.727929633
 30
0.0
  0
SPLINE
  5
34B
100
AcDbEntity
  8
0
100
AcDbSpline
 62
7
  6
CONTINUOUS
 70
0
 71
3
 72
13
 73
9
 74
0
 42
0.0000001
 43
0.0000001
 44
0.0000000001
 40
0.0
 40
0.0
 40
0.0
 40
0.0
 40
0.2509935021
 40
0.5079019951
 40
0.6361989286
 40
0.7623240372
 40
0.8843693282
 40
1.0
 40
1.0
 40
1.0
 40
1.0
 10
2.9349483671
 20
6.727929633
 30
0.0
 10
2.9341923247
 20
6.7270084519
 30
0.0
 10
2.9327707388
 20
6.7250525217
 30
0.0
 10
2.9313204495
 20
6.7223898813
 30
0.0
 10
2.9304183407
 20
6.7201331837
 30
0.0
 10
2.9299039236
 20
6.7184183263
 30
0.0
 10
2.9295809243
 20
6.7167182662
 30
0.0
 10
2.9295
 20
6.7155890142
 30
0.0
 10
2.9295
 20
6.7150400026
 30
0.0
  0
SPLINE
  5
34C
100
AcDbEntity
  8
0
100
AcDbSpline
 62
7
  6
CONTINUOUS
 70
0
 71
3
 72
15
 73
11
 74
0
 42
0.0000001
 43
0.0000001
 44
0.0000000001
 40
0.0
 40
0.0
 40
0.0
 40
0.0
 40
0.0401145428
 40
0.0844479842
 40
0.1851413145
 40
0.3002530212
 40
0.4270182823
 40
0.5626432069
 40
0.7047321807
 40
1.0
 40
1.0
 40
1.0
 40
1.0
 10
2.9295
 20
7.49649383
 30
0.0
 10
2.9295
 20
7.496331349
 30
0.0
 10
2.929521512
 20
7.4959891798
 30
0.0
 10
2.9296389007
 20
7.4952477492
 30
0.0
 10
2.9299259687
 20
7.4942303368
 30
0.0
 10
2.9304422727
 20
7.4929407683
 30
0.0
 10
2.9311182509
 20
7.4915679024
 30
0.0
 10
2.9319295708
 20
7.4901436798
 30
0.0
 10
2.9331750733
 20
7.4881846333
 30
0.0
 10
2.9342167282
 20
7.4867492293
 30
0.0
 10
2.9349483671
 20
7.4858031712
 30
0.0
  0
SPLINE
  5
34D
100
AcDbEntity
  8
0
100
AcDbSpline
 62
7
  6
CONTINUOUS
 70
0
 71
3
 72
15
 73
11
 74
0
 42
0.0000001
 43
0.0000001
 44
0.0000000001
 40
0.0
 40
0.0
 40
0.0
 40
0.0
 40
0.1536630989
 40
0.295539968
 40
0.425940256
 40
0.5473414398
 40
0.6626901584
 40
0.7750701687
 40
0.8868940702
 40
1.0
 40
1.0
 40
1.0
 40
1.0
 10
2.9295
 20
6.7099674556
 30
0.0
 10
2.9295
 20
6.7094589385
 30
0.0
 10
2.929566172
 20
6.7084790832
 30
0.0
 10
2.929878613
 20
6.7070979966
 30
0.0
 10
2.9303909904
 20
6.7058919748
 30
0.0
 10
2.9310729283
 20
6.7048771575
 30
0.0
 10
2.9318974636
 20
6.7040574447
 30
0.0
 10
2.9328344997
 20
6.7034259282
 30
0.0
 10
2.933859192
 20
6.7029708262
 30
0.0
 10
2.9345811376
 20
6.702777374
 30
0.0
 10
2.9349483671
 20
6.7027049591
 30
0.0
  0
SPLINE
  5
34E
100
AcDbEntity
  8
0
100
AcDbSpline
 62
7
  6
CONTINUOUS
 70
0
 71
3
 72
13
 73
9
 74
0
 42
0.0000001
 43
0.0000001
 44
0.0000000001
 40
0.0
 40
0.0
 40
0.0
 40
0.0
 40
0.2989896839
 40
0.5758925064
 40
0.7009336161
 40
0.8144531196
 40
0.9146715323
 40
1.0
 40
1.0
 40
1.0
 40
1.0
 10
2.639655654
 20
7.4858031712
 30
0.0
 10
2.6401109116
 20
7.4868227923
 30
0.0
 10
2.6409372729
 20
7.4888097319
 30
0.0
 10
2.6417949428
 20
7.4912857061
 30
0.0
 10
2.6423083438
 20
7.4931417348
 30
0.0
 10
2.6425825932
 20
7.49437769
 30
0.0
 10
2.6427534795
 20
7.4954822342
 30
0.0
 10
2.6428012702
 20
7.4961751526
 30
0.0
 10
2.6428012702
 20
7.49649383
 30
0.0
  0
SPLINE
  5
34F
100
AcDbEntity
  8
0
100
AcDbSpline
 62
7
  6
CONTINUOUS
 70
0
 71
3
 72
15
 73
11
 74
0
 42
0.0000001
 43
0.0000001
 44
0.0000000001
 40
0.0
 40
0.0
 40
0.0
 40
0.0
 40
0.0885937114
 40
0.1823176968
 40
0.2848498933
 40
0.399242137
 40
0.5274601445
 40
0.6707396592
 40
0.8288177552
 40
1.0
 40
1.0
 40
1.0
 40
1.0
 10
2.639655654
 20
6.7027049591
 30
0.0
 10
2.6398901571
 20
6.702785053
 30
0.0
 10
2.6403540595
 20
6.7030104556
 30
0.0
 10
2.6409744298
 20
6.7035204827
 30
0.0
 10
2.6415185454
 20
6.7042051714
 30
0.0
 10
2.6419760159
 20
6.7050600655
 30
0.0
 10
2.6423419187
 20
6.706078905
 30
0.0
 10
2.642607078
 20
6.7072533996
 30
0.0
 10
2.6427673786
 20
6.7085671578
 30
0.0
 10
2.6428012702
 20
6.7094886448
 30
0.0
 10
2.6428012702
 20
6.7099674556
 30
0.0
  0
SPLINE
  5
350
100
AcDbEntity
  8
0
100
AcDbSpline
 62
7
  6
CONTINUOUS
 70
0
 71
3
 72
13
 73
9
 74
0
 42
0.0000001
 43
0.0000001
 44
0.0000000001
 40
0.0
 40
0.0
 40
0.0
 40
0.0
 40
0.0853284677
 40
0.1855468804
 40
0.2990663839
 40
0.4241074936
 40
0.7010103161
 40
1.0
 40
1.0
 40
1.0
 40
1.0
 10
2.6428012702
 20
6.50350617
 30
0.0
 10
2.6428012702
 20
6.5038248474
 30
0.0
 10
2.6427534795
 20
6.5045177658
 30
0.0
 10
2.6425825932
 20
6.50562231
 30
0.0
 10
2.6423083438
 20
6.5068582652
 30
0.0
 10
2.6417949428
 20
6.5087142939
 30
0.0
 10
2.6409372729
 20
6.5111902681
 30
0.0
 10
2.6401109116
 20
6.5131772077
 30
0.0
 10
2.639655654
 20
6.5141968288
 30
0.0
  0
SPLINE
  5
351
100
AcDbEntity
  8
0
100
AcDbSpline
 62
7
  6
CONTINUOUS
 70
0
 71
3
 72
15
 73
11
 74
0
 42
0.0000001
 43
0.0000001
 44
0.0000000001
 40
0.0
 40
0.0
 40
0.0
 40
0.0
 40
0.2952678193
 40
0.4373567931
 40
0.5729817177
 40
0.6997469788
 40
0.8148586855
 40
0.9155520158
 40
0.9598854572
 40
1.0
 40
1.0
 40
1.0
 40
1.0
 10
2.9349483671
 20
6.5141968288
 30
0.0
 10
2.9342167282
 20
6.5132507707
 30
0.0
 10
2.9331750733
 20
6.5118153667
 30
0.0
 10
2.9319295708
 20
6.5098563202
 30
0.0
 10
2.9311182509
 20
6.5084320976
 30
0.0
 10
2.9304422727
 20
6.5070592317
 30
0.0
 10
2.9299259687
 20
6.5057696632
 30
0.0
 10
2.9296389007
 20
6.5047522508
 30
0.0
 10
2.929521512
 20
6.5040108202
 30
0.0
 10
2.9295
 20
6.503668651
 30
0.0
 10
2.9295
 20
6.50350617
 30
0.0
  0
SPLINE
  5
352
100
AcDbEntity
  8
0
100
AcDbSpline
 62
7
  6
CONTINUOUS
 70
0
 71
3
 72
15
 73
11
 74
0
 42
0.0000001
 43
0.0000001
 44
0.0000000001
 40
0.0
 40
0.0
 40
0.0
 40
0.0
 40
0.1495941511
 40
0.2830689972
 40
0.4038870551
 40
0.5168576991
 40
0.628075804
 40
0.743163338
 40
0.8662527667
 40
1.0
 40
1.0
 40
1.0
 40
1.0
 10
2.9295
 20
6.5005775336
 30
0.0
 10
2.9295
 20
6.5004208838
 30
0.0
 10
2.9295187015
 20
6.5001237887
 30
0.0
 10
2.9296146304
 20
6.4997095767
 30
0.0
 10
2.9297760176
 20
6.499356956
 30
0.0
 10
2.9300031722
 20
6.499071101
 30
0.0
 10
2.9302898018
 20
6.4988551868
 30
0.0
 10
2.9306273823
 20
6.4987069887
 30
0.0
 10
2.9310095324
 20
6.4986223219
 30
0.0
 10
2.9312790013
 20
6.4986060518
 30
0.0
 10
2.9314190567
 20
6.4986058947
 30
0.0
  0
LINE
  5
353
100
AcDbEntity
  8
0
100
AcDbLine
 62
7
  6
CONTINUOUS
 10
2.6428012702
 20
6.4250074582
 11
2.639655654
 21
6.430634592
  0
SPLINE
  5
354
100
AcDbEntity
  8
0
100
AcDbSpline
 62
7
  6
CONTINUOUS
 70
0
 71
3
 72
15
 73
11
 74
0
 42
0.0000001
 43
0.0000001
 44
0.0000000001
 40
0.0
 40
0.0
 40
0.0
 40
0.0
 40
0.1711822448
 40
0.3292603408
 40
0.4725398555
 40
0.600757863
 40
0.7151501067
 40
0.8176823032
 40
0.9114062886
 40
1.0
 40
1.0
 40
1.0
 40
1.0
 10
2.6428012702
 20
7.2900325444
 30
0.0
 10
2.6428012702
 20
7.2905113552
 30
0.0
 10
2.6427673786
 20
7.2914328422
 30
0.0
 10
2.642607078
 20
7.2927466004
 30
0.0
 10
2.6423419187
 20
7.293921095
 30
0.0
 10
2.6419760159
 20
7.2949399345
 30
0.0
 10
2.6415185454
 20
7.2957948286
 30
0.0
 10
2.6409744298
 20
7.2964795173
 30
0.0
 10
2.6403540595
 20
7.2969895444
 30
0.0
 10
2.6398901571
 20
7.297214947
 30
0.0
 10
2.639655654
 20
7.2972950409
 30
0.0
  0
LINE
  5
355
100
AcDbEntity
  8
0
100
AcDbLine
 62
7
  6
CONTINUOUS
 10
2.9349483671
 20
6.430634592
 11
2.9295
 21
6.4250074582
  0
SPLINE
  5
356
100
AcDbEntity
  8
0
100
AcDbSpline
 62
7
  6
CONTINUOUS
 70
0
 71
3
 72
31
 73
27
 74
0
 42
0.0000001
 43
0.0000001
 44
0.0000000001
 40
0.0
 40
0.0
 40
0.0
 40
0.0
 40
0.1086181497
 40
0.2128181867
 40
0.3120628665
 40
0.4058191789
 40
0.4935614885
 40
0.5747682525
 40
0.6489023144
 40
0.7154638868
 40
0.7457810956
 40
0.7740676344
 40
0.8002930908
 40
0.824446785
 40
0.8465433962
 40
0.8666167588
 40
0.8847273368
 40
0.9009806195
 40
0.9155488617
 40
0.9286735494
 40
0.9406826946
 40
0.9520010761
 40
0.9631248069
 40
0.9745539905
 40
0.9867298957
 40
1.0
 40
1.0
 40
1.0
 40
1.0
 10
2.639655654
 20
6.430634592
 30
0.0
 10
2.6379464063
 20
6.4336579548
 30
0.0
 10
2.6346139697
 20
6.4395910853
 30
0.0
 10
2.6297945939
 20
6.4483284387
 30
0.0
 10
2.6252886875
 20
6.4566955329
 30
0.0
 10
2.6211359148
 20
6.4646543785
 30
0.0
 10
2.6173772529
 20
6.472167132
 30
0.0
 10
2.6140538301
 20
6.4791943282
 30
0.0
 10
2.6112058316
 20
6.4856942481
 30
0.0
 10
2.6092034551
 20
6.4907848685
 30
0.0
 10
2.6078878969
 20
6.4945651721
 30
0.0
 10
2.6070748706
 20
6.4971533996
 30
0.0
 10
2.6064081099
 20
6.4995794342
 30
0.0
 10
2.6058907095
 20
6.5018392253
 30
0.0
 10
2.60552399
 20
6.5039291152
 30
0.0
 10
2.60530939
 20
6.5058461207
 30
0.0
 10
2.6052484915
 20
6.5075877905
 30
0.0
 10
2.6053431273
 20
6.5091524352
 30
0.0
 10
2.6055928509
 20
6.5105392952
 30
0.0
 10
2.6059985335
 20
6.5117479553
 30
0.0
 10
2.6065623265
 20
6.512776404
 30
0.0
 10
2.6072858624
 20
6.5136186132
 30
0.0
 10
2.608163179
 20
6.5142687927
 30
0.0
 10
2.6091841017
 20
6.5147254587
 30
0.0
 10
2.6103388515
 20
6.5149921707
 30
0.0
 10
2.6111542425
 20
6.5150442515
 30
0.0
 10
2.6115785552
 20
6.5150444725
 30
0.0
  0
SPLINE
  5
357
100
AcDbEntity
  8
0
100
AcDbSpline
 62
7
  6
CONTINUOUS
 70
0
 71
3
 72
15
 73
11
 74
0
 42
0.0000001
 43
0.0000001
 44
0.0000000001
 40
0.0
 40
0.0
 40
0.0
 40
0.0
 40
0.1131059298
 40
0.2249298313
 40
0.3373098416
 40
0.4526585602
 40
0.574059744
 40
0.704460032
 40
0.8463369011
 40
1.0
 40
1.0
 40
1.0
 40
1.0
 10
2.9349483671
 20
7.2972950409
 30
0.0
 10
2.9345811376
 20
7.297222626
 30
0.0
 10
2.933859192
 20
7.2970291738
 30
0.0
 10
2.9328344997
 20
7.2965740718
 30
0.0
 10
2.9318974636
 20
7.2959425553
 30
0.0
 10
2.9310729283
 20
7.2951228425
 30
0.0
 10
2.9303909904
 20
7.2941080252
 30
0.0
 10
2.929878613
 20
7.2929020034
 30
0.0
 10
2.929566172
 20
7.2915209168
 30
0.0
 10
2.9295
 20
7.2905410615
 30
0.0
 10
2.9295
 20
7.2900325444
 30
0.0
  0
SPLINE
  5
358
100
AcDbEntity
  8
0
100
AcDbSpline
 62
7
  6
CONTINUOUS
 70
0
 71
3
 72
9
 73
5
 74
0
 42
0.0000001
 43
0.0000001
 44
0.0000000001
 40
0.0
 40
0.0
 40
0.0
 40
0.0
 40
0.2531833368
 40
1.0
 40
1.0
 40
1.0
 40
1.0
 10
2.9349483671
 20
7.2972950409
 30
0.0
 10
2.9361962288
 20
7.29754111
 30
0.0
 10
2.9411090537
 20
7.2985903816
 30
0.0
 10
2.9459552786
 20
7.2999622155
 30
0.0
 10
2.9495
 20
7.3011911434
 30
0.0
  0
SPLINE
  5
359
100
AcDbEntity
  8
0
100
AcDbSpline
 62
7
  6
CONTINUOUS
 70
0
 71
3
 72
13
 73
9
 74
0
 42
0.0000001
 43
0.0000001
 44
0.0000000001
 40
0.0
 40
0.0
 40
0.0
 40
0.0
 40
0.1156301525
 40
0.2376744548
 40
0.3637997582
 40
0.4920970052
 40
0.7490061805
 40
1.0
 40
1.0
 40
1.0
 40
1.0
 10
2.9295
 20
7.2849599974
 30
0.0
 10
2.9295
 20
7.2844109883
 30
0.0
 10
2.9295809176
 20
7.2832817429
 30
0.0
 10
2.9299039219
 20
7.2815816898
 30
0.0
 10
2.9304183364
 20
7.2798668344
 30
0.0
 10
2.9313204418
 20
7.277610129
 30
0.0
 10
2.9327707359
 20
7.2749474838
 30
0.0
 10
2.9341923237
 20
7.2729915493
 30
0.0
 10
2.9349483671
 20
7.272070367
 30
0.0
  0
SPLINE
  5
35A
100
AcDbEntity
  8
0
100
AcDbSpline
 62
7
  6
CONTINUOUS
 70
0
 71
3
 72
12
 73
8
 74
0
 42
0.0000001
 43
0.0000001
 44
0.0000000001
 40
0.0
 40
0.0
 40
0.0
 40
0.0
 40
0.2502873842
 40
0.5082510257
 40
0.7625312299
 40
0.8843727989
 40
1.0
 40
1.0
 40
1.0
 40
1.0
 10
2.639655654
 20
7.272070367
 30
0.0
 10
2.640133072
 20
7.2730778978
 30
0.0
 10
2.6409991012
 20
7.2751743949
 30
0.0
 10
2.6419899608
 20
7.2784284965
 30
0.0
 10
2.6425337237
 20
7.2812069266
 30
0.0
 10
2.6427600658
 20
7.2833868551
 30
0.0
 10
2.6428012702
 20
7.2844449292
 30
0.0
 10
2.6428012702
 20
7.2849599974
 30
0.0
  0
SPLINE
  5
35B
100
AcDbEntity
  8
0
100
AcDbSpline
 62
7
  6
CONTINUOUS
 70
0
 71
3
 72
15
 73
11
 74
0
 42
0.0000001
 43
0.0000001
 44
0.0000000001
 40
0.0
 40
0.0
 40
0.0
 40
0.0
 40
0.0387172896
 40
0.1477845704
 40
0.3094931557
 40
0.4998526788
 40
0.6902922855
 40
0.8521207182
 40
0.961254598
 40
1.0
 40
1.0
 40
1.0
 40
1.0
 10
6.5385
 20
7.2175
 30
0.0
 10
6.5373051622
 20
7.217241704
 30
0.0
 10
6.5327368627
 20
7.2162902079
 30
0.0
 10
6.5231128653
 20
7.2145782814
 30
0.0
 10
6.5086457918
 20
7.2128365055
 30
0.0
 10
6.4915114529
 20
7.2121048741
 30
0.0
 10
6.4743732421
 20
7.2128349318
 30
0.0
 10
6.4598976612
 20
7.2145765979
 30
0.0
 10
6.4502669133
 20
7.2162893161
 30
0.0
 10
6.4456956976
 20
7.2172414798
 30
0.0
 10
6.4445
 20
7.2175
 30
0.0
  0
SPLINE
  5
35C
100
AcDbEntity
  8
0
100
AcDbSpline
 62
7
  6
CONTINUOUS
 70
0
 71
3
 72
16
 73
12
 74
0
 42
0.0000001
 43
0.0000001
 44
0.0000000001
 40
0.0
 40
0.0
 40
0.0
 40
0.0
 40
0.0334874033
 40
0.1286057867
 40
0.2719121487
 40
0.4452362654
 40
0.5364428835
 40
0.6267347066
 40
0.7929523456
 40
0.9229985416
 40
1.0
 40
1.0
 40
1.0
 40
1.0
 10
6.9235
 20
7.21
 30
0.0
 10
6.9224837473
 20
7.2097724347
 30
0.0
 10
6.9185750233
 20
7.208924322
 30
0.0
 10
6.9102654245
 20
7.2073446177
 30
0.0
 10
6.8975744104
 20
7.2055812537
 30
0.0
 10
6.8849060417
 20
7.2047178721
 30
0.0
 10
6.8738688671
 20
7.2046312527
 30
0.0
 10
6.8630585736
 20
7.2049951049
 30
0.0
 10
6.8510751635
 20
7.2060955663
 30
0.0
 10
6.8396024321
 20
7.2079007719
 30
0.0
 10
6.8332890738
 20
7.2091722267
 30
0.0
 10
6.830948939
 20
7.2096804692
 30
0.0
  0
LINE
  5
35D
100
AcDbEntity
  8
0
100
AcDbLine
 62
7
  6
CONTINUOUS
 10
6.830948939
 20
7.2096804692
 11
6.8295
 21
7.21
  0
LINE
  5
35E
100
AcDbEntity
  8
0
100
AcDbLine
 62
7
  6
CONTINUOUS
 10
7.1635
 20
7.21
 11
7.1622660061
 21
7.2097272689
  0
SPLINE
  5
35F
100
AcDbEntity
  8
0
100
AcDbSpline
 62
7
  6
CONTINUOUS
 70
0
 71
3
 72
14
 73
10
 74
0
 42
0.0000001
 43
0.0000001
 44
0.0000000001
 40
0.0
 40
0.0
 40
0.0
 40
0.0
 40
0.2027708219
 40
0.3686055515
 40
0.5506854947
 40
0.7253046697
 40
0.8699856745
 40
0.9661266817
 40
1.0
 40
1.0
 40
1.0
 40
1.0
 10
7.1622660061
 20
7.2097272689
 30
0.0
 10
7.1560909049
 20
7.2083799614
 30
0.0
 10
7.1447595628
 20
7.2063810947
 30
0.0
 10
7.127657033
 20
7.2047623761
 30
0.0
 10
7.1113519465
 20
7.2045106383
 30
0.0
 10
7.0957418565
 20
7.2055457051
 30
0.0
 10
7.0829053457
 20
7.2073143241
 30
0.0
 10
7.0744908963
 20
7.2089102467
 30
0.0
 10
7.0705303027
 20
7.2097692806
 30
0.0
 10
7.0695
 20
7.21
 30
0.0
  0
SPLINE
  5
360
100
AcDbEntity
  8
0
100
AcDbSpline
 62
7
  6
CONTINUOUS
 70
0
 71
3
 72
15
 73
11
 74
0
 42
0.0000001
 43
0.0000001
 44
0.0000000001
 40
0.0
 40
0.0
 40
0.0
 40
0.0
 40
0.0387293151
 40
0.1478241435
 40
0.3095766991
 40
0.4999666149
 40
0.6903738041
 40
0.8521526019
 40
0.9612635521
 40
1.0
 40
1.0
 40
1.0
 40
1.0
 10
6.4445
 20
6.7825
 30
0.0
 10
6.4456952045
 20
6.7827583988
 30
0.0
 10
6.450264721
 20
6.783710179
 30
0.0
 10
6.4598913587
 20
6.7854223248
 30
0.0
 10
6.4743616589
 20
6.7871643747
 30
0.0
 10
6.491497377
 20
6.787894695
 30
0.0
 10
6.5086339435
 20
6.7871647315
 30
0.0
 10
6.5231061476
 20
6.7854227157
 30
0.0
 10
6.532734347
 20
6.78371041
 30
0.0
 10
6.5373045779
 20
6.7827584588
 30
0.0
 10
6.5385
 20
6.7825
 30
0.0
  0
LINE
  5
361
100
AcDbEntity
  8
0
100
AcDbLine
 62
7
  6
CONTINUOUS
 10
6.8295
 20
6.79
 11
6.8308057395
 21
6.7902883755
  0
SPLINE
  5
362
100
AcDbEntity
  8
0
100
AcDbSpline
 62
7
  6
CONTINUOUS
 70
0
 71
3
 72
14
 73
10
 74
0
 42
0.0000001
 43
0.0000001
 44
0.0000000001
 40
0.0
 40
0.0
 40
0.0
 40
0.0
 40
0.2042406596
 40
0.3702176246
 40
0.5520891372
 40
0.7262602064
 40
0.8704663644
 40
0.9662581082
 40
1.0
 40
1.0
 40
1.0
 40
1.0
 10
6.8308057395
 20
6.7902883755
 30
0.0
 10
6.8370211458
 20
6.7916424214
 30
0.0
 10
6.8483945218
 20
6.7936420151
 30
0.0
 10
6.8655287364
 20
6.7952468725
 30
0.0
 10
6.8818051152
 20
6.795484582
 30
0.0
 10
6.8973669358
 20
6.7944419493
 30
0.0
 10
6.9101533294
 20
6.7926752754
 30
0.0
 10
6.9185316796
 20
6.7910849646
 30
0.0
 10
6.9224745019
 20
6.7902296495
 30
0.0
 10
6.9235
 20
6.79
 30
0.0
  0
SPLINE
  5
363
100
AcDbEntity
  8
0
100
AcDbSpline
 62
7
  6
CONTINUOUS
 70
0
 71
3
 72
14
 73
10
 74
0
 42
0.0000001
 43
0.0000001
 44
0.0000000001
 40
0.0
 40
0.0
 40
0.0
 40
0.0
 40
0.0336651558
 40
0.1292541548
 40
0.2731894814
 40
0.4471063893
 40
0.6288602304
 40
0.7949171497
 40
1.0
 40
1.0
 40
1.0
 40
1.0
 10
7.0695
 20
6.79
 30
0.0
 10
7.0705226956
 20
6.7902290157
 30
0.0
 10
7.0744551844
 20
6.7910821453
 30
0.0
 10
7.0828126848
 20
6.7926692543
 30
0.0
 10
7.0955702878
 20
6.7944348796
 30
0.0
 10
7.1111044945
 20
6.7954815066
 30
0.0
 10
7.1273643455
 20
6.7952522578
 30
0.0
 10
7.1445164953
 20
6.7936552373
 30
0.0
 10
7.1559137683
 20
6.791655398
 30
0.0
 10
7.1621521759
 20
6.7902975414
 30
0.0
  0
LINE
  5
364
100
AcDbEntity
  8
0
100
AcDbLine
 62
7
  6
CONTINUOUS
 10
7.1621521759
 20
6.7902975414
 11
7.1635
 21
6.79
  0
SPLINE
  5
365
100
AcDbEntity
  8
0
100
AcDbSpline
 62
7
  6
CONTINUOUS
 70
0
 71
3
 72
21
 73
17
 74
0
 42
0.0000001
 43
0.0000001
 44
0.0000000001
 40
0.0
 40
0.0
 40
0.0
 40
0.0
 40
0.0623597905
 40
0.1251524999
 40
0.1883280094
 40
0.2518635246
 40
0.2837339294
 40
0.3156287782
 40
0.3792828096
 40
0.4426829622
 40
0.5056888941
 40
0.5682997388
 40
0.630522621
 40
0.7540431628
 40
0.8770778099
 40
1.0
 40
1.0
 40
1.0
 40
1.0
 10
6.2425
 20
6.9227142584
 30
0.0
 10
6.2429568215
 20
6.9222999933
 30
0.0
 10
6.2439251838
 20
6.9215229186
 30
0.0
 10
6.2455287339
 20
6.9205632733
 30
0.0
 10
6.2472720444
 20
6.9198542026
 30
0.0
 10
6.2488114875
 20
6.9195129506
 30
0.0
 10
6.2500672558
 20
6.9194051078
 30
0.0
 10
6.2513287652
 20
6.9194106719
 30
0.0
 10
6.2528947103
 20
6.9196270966
 30
0.0
 10
6.2546918897
 20
6.9202062117
 30
0.0
 10
6.2563639156
 20
6.9210579575
 30
0.0
 10
6.2578845446
 20
6.9221350017
 30
0.0
 10
6.2596960028
 20
6.9238014608
 30
0.0
 10
6.2615802143
 20
6.9262329471
 30
0.0
 10
6.2632959696
 20
6.9294728884
 30
0.0
 10
6.2641401708
 20
6.9317611517
 30
0.0
 10
6.2645
 20
6.9329222714
 30
0.0
  0
SPLINE
  5
366
100
AcDbEntity
  8
0
100
AcDbSpline
 62
7
  6
CONTINUOUS
 70
0
 71
3
 72
21
 73
17
 74
0
 42
0.0000001
 43
0.0000001
 44
0.0000000001
 40
0.0
 40
0.0
 40
0.0
 40
0.0
 40
0.1229269435
 40
0.2459681644
 40
0.36948617
 40
0.431706467
 40
0.4943159417
 40
0.5573195644
 40
0.6207196468
 40
0.6843731546
 40
0.7162683977
 40
0.7481389862
 40
0.8116741589
 40
0.8748490148
 40
0.9376405978
 40
1.0
 40
1.0
 40
1.0
 40
1.0
 10
6.2645
 20
7.0670777286
 30
0.0
 10
6.2641401569
 20
7.0682388933
 30
0.0
 10
6.2632959366
 20
7.0705272682
 30
0.0
 10
6.261580105
 20
7.0737672797
 30
0.0
 10
6.2596957964
 20
7.0761986984
 30
0.0
 10
6.2578844089
 20
7.0778651427
 30
0.0
 10
6.2563637851
 20
7.0789420845
 30
0.0
 10
6.2546918154
 20
7.0797938592
 30
0.0
 10
6.2528946391
 20
7.0803728927
 30
0.0
 10
6.2513287
 20
7.0805893441
 30
0.0
 10
6.2500671903
 20
7.0805948656
 30
0.0
 10
6.2488114153
 20
7.0804870723
 30
0.0
 10
6.2472719923
 20
7.0801457535
 30
0.0
 10
6.2455286939
 20
7.0794367195
 30
0.0
 10
6.2439251707
 20
7.078477066
 30
0.0
 10
6.2429568187
 20
7.0777000041
 30
0.0
 10
6.2425
 20
7.0772857416
 30
0.0
  0
SPLINE
  5
367
100
AcDbEntity
  8
0
100
AcDbSpline
 62
7
  6
CONTINUOUS
 70
0
 71
3
 72
9
 73
5
 74
0
 42
0.0000001
 43
0.0000001
 44
0.0000000001
 40
0.0
 40
0.0
 40
0.0
 40
0.0
 40
0.2504192823
 40
1.0
 40
1.0
 40
1.0
 40
1.0
 10
6.2305
 20
6.9343971081
 30
0.0
 10
6.2314633222
 20
6.9333837402
 30
0.0
 10
6.2353530196
 20
6.9293778652
 30
0.0
 10
6.2393997557
 20
6.9255256911
 30
0.0
 10
6.2425
 20
6.9227142584
 30
0.0
  0
SPLINE
  5
368
100
AcDbEntity
  8
0
100
AcDbSpline
 62
7
  6
CONTINUOUS
 70
0
 71
3
 72
9
 73
5
 74
0
 42
0.0000001
 43
0.0000001
 44
0.0000000001
 40
0.0
 40
0.0
 40
0.0
 40
0.0
 40
0.2496282866
 40
1.0
 40
1.0
 40
1.0
 40
1.0
 10
6.2425
 20
7.0772857416
 30
0.0
 10
6.2414675566
 20
7.0763494782
 30
0.0
 10
6.2373621897
 20
7.0725654596
 30
0.0
 10
6.2333865242
 20
7.0686393743
 30
0.0
 10
6.2305
 20
7.0656028919
 30
0.0
  0
SPLINE
  5
369
100
AcDbEntity
  8
0
100
AcDbSpline
 62
7
  6
CONTINUOUS
 70
0
 71
3
 72
15
 73
11
 74
0
 42
0.0000001
 43
0.0000001
 44
0.0000000001
 40
0.0
 40
0.0
 40
0.0
 40
0.0
 40
0.1256209692
 40
0.2507583492
 40
0.3754947238
 40
0.5000000159
 40
0.6245053053
 40
0.7492416752
 40
0.8743790363
 40
1.0
 40
1.0
 40
1.0
 40
1.0
 10
5.5137457352
 20
6.6411429167
 30
0.0
 10
5.5180823175
 20
6.6550819699
 30
0.0
 10
5.52598933
 20
6.6831493992
 30
0.0
 10
5.5350371232
 20
6.7258734204
 30
0.0
 10
5.5407353775
 20
6.769054272
 30
0.0
 10
5.5426855561
 20
6.8125000052
 30
0.0
 10
5.5407353766
 20
6.8559457378
 30
0.0
 10
5.5350371218
 20
6.8991265864
 30
0.0
 10
5.5259893289
 20
6.9418506041
 30
0.0
 10
5.5180823173
 20
6.9699180308
 30
0.0
 10
5.5137457352
 20
6.9838570833
 30
0.0
  0
SPLINE
  5
36A
100
AcDbEntity
  8
0
100
AcDbSpline
 62
7
  6
CONTINUOUS
 70
0
 71
3
 72
15
 73
11
 74
0
 42
0.0000001
 43
0.0000001
 44
0.0000000001
 40
0.0
 40
0.0
 40
0.0
 40
0.0
 40
0.1256209692
 40
0.2507583492
 40
0.3754947238
 40
0.5000000159
 40
0.6245053053
 40
0.7492416752
 40
0.8743790363
 40
1.0
 40
1.0
 40
1.0
 40
1.0
 10
5.5137457352
 20
7.0161429167
 30
0.0
 10
5.5180823175
 20
7.0300819699
 30
0.0
 10
5.52598933
 20
7.0581493992
 30
0.0
 10
5.5350371232
 20
7.1008734204
 30
0.0
 10
5.5407353775
 20
7.144054272
 30
0.0
 10
5.5426855561
 20
7.1875000052
 30
0.0
 10
5.5407353766
 20
7.2309457378
 30
0.0
 10
5.5350371218
 20
7.2741265864
 30
0.0
 10
5.5259893289
 20
7.3168506041
 30
0.0
 10
5.5180823173
 20
7.3449180308
 30
0.0
 10
5.5137457352
 20
7.3588570833
 30
0.0
  0
SPLINE
  5
36B
100
AcDbEntity
  8
0
100
AcDbSpline
 62
7
  6
CONTINUOUS
 70
0
 71
3
 72
15
 73
11
 74
0
 42
0.0000001
 43
0.0000001
 44
0.0000000001
 40
0.0
 40
0.0
 40
0.0
 40
0.0
 40
0.1256209692
 40
0.2507583492
 40
0.3754947238
 40
0.5000000159
 40
0.6245053053
 40
0.7492416752
 40
0.8743790363
 40
1.0
 40
1.0
 40
1.0
 40
1.0
 10
4.9730995643
 20
7.0161429167
 30
0.0
 10
4.968762982
 20
7.0300819699
 30
0.0
 10
4.9608559694
 20
7.0581493992
 30
0.0
 10
4.9518081762
 20
7.1008734204
 30
0.0
 10
4.9461099219
 20
7.144054272
 30
0.0
 10
4.9441597433
 20
7.1875000052
 30
0.0
 10
4.9461099228
 20
7.2309457378
 30
0.0
 10
4.9518081776
 20
7.2741265864
 30
0.0
 10
4.9608559706
 20
7.3168506041
 30
0.0
 10
4.9687629822
 20
7.3449180308
 30
0.0
 10
4.9730995643
 20
7.3588570833
 30
0.0
  0
SPLINE
  5
36C
100
AcDbEntity
  8
0
100
AcDbSpline
 62
7
  6
CONTINUOUS
 70
0
 71
3
 72
15
 73
11
 74
0
 42
0.0000001
 43
0.0000001
 44
0.0000000001
 40
0.0
 40
0.0
 40
0.0
 40
0.0
 40
0.1256209692
 40
0.2507583492
 40
0.3754947238
 40
0.5000000159
 40
0.6245053053
 40
0.7492416752
 40
0.8743790363
 40
1.0
 40
1.0
 40
1.0
 40
1.0
 10
4.9730995643
 20
6.6411429167
 30
0.0
 10
4.968762982
 20
6.6550819699
 30
0.0
 10
4.9608559694
 20
6.6831493992
 30
0.0
 10
4.9518081762
 20
6.7258734204
 30
0.0
 10
4.9461099219
 20
6.769054272
 30
0.0
 10
4.9441597433
 20
6.8125000052
 30
0.0
 10
4.9461099228
 20
6.8559457378
 30
0.0
 10
4.9518081776
 20
6.8991265864
 30
0.0
 10
4.9608559706
 20
6.9418506041
 30
0.0
 10
4.9687629822
 20
6.9699180308
 30
0.0
 10
4.9730995643
 20
6.9838570833
 30
0.0
  0
ELLIPSE
  5
36D
100
AcDbEntity
  8
0
100
AcDbEllipse
 62
7
  6
CONTINUOUS
 10
7.2875
 20
6.7775
 30
0.0
 11
0.025
 21
-0.0
 31
0.0
 40
1.0
 41
-3.1415926536
 42
0.0
  0
ELLIPSE
  5
36E
100
AcDbEntity
  8
0
100
AcDbEllipse
 62
7
  6
CONTINUOUS
 10
7.2875
 20
7.2225
 30
0.0
 11
0.025
 21
0.0
 31
0.0
 40
1.0
 41
0.0
 42
3.1415926536
  0
ELLIPSE
  5
36F
100
AcDbEntity
  8
0
100
AcDbEllipse
 62
7
  6
CONTINUOUS
 10
6.6845
 20
6.7595
 30
0.0
 11
0.025
 21
-0.0
 31
0.0
 40
1.0
 41
-3.1415926536
 42
0.0
  0
ELLIPSE
  5
370
100
AcDbEntity
  8
0
100
AcDbEllipse
 62
7
  6
CONTINUOUS
 10
6.6845
 20
7.2405
 30
0.0
 11
0.025
 21
0.0
 31
0.0
 40
1.0
 41
0.0
 42
3.1415926536
  0
ELLIPSE
  5
371
100
AcDbEntity
  8
0
100
AcDbEllipse
 62
7
  6
CONTINUOUS
 10
5.8825
 20
6.6935
 30
0.0
 11
-0.0
 21
0.035
 31
0.0
 40
1.0
 41
-4.7123889804
 42
-1.5707963268
  0
ELLIPSE
  5
372
100
AcDbEntity
  8
0
100
AcDbEllipse
 62
7
  6
CONTINUOUS
 10
5.8825
 20
7.3065
 30
0.0
 11
0.035
 21
0.0
 31
0.0
 40
1.0
 41
0.0
 42
3.1415926536
  0
ELLIPSE
  5
373
100
AcDbEntity
  8
0
100
AcDbEllipse
 62
7
  6
CONTINUOUS
 10
2.9295
 20
6.6375
 30
0.0
 11
0.035
 21
0.0
 31
0.0
 40
1.0
 41
-0.9612970176
 42
0.0
  0
ELLIPSE
  5
374
100
AcDbEntity
  8
0
100
AcDbEllipse
 62
7
  6
CONTINUOUS
 10
2.9295
 20
7.3625
 30
0.0
 11
0.035
 21
0.0
 31
0.0
 40
1.0
 41
0.0
 42
0.9612970176
  0
ENDSEC
  0
SECTION
  2
OBJECTS
  0
DICTIONARY
  5
C
100
AcDbDictionary
280
0
281
1
  3
ACAD_GROUP
350
D
  3
ACAD_MLINESTYLE
350
17
  3
ACAD_LAYOUT
350
1A
  3
ACAD_PLOTSETTINGS
350
19
  3
ACAD_PLOTSTYLENAME
350
E
  0
DICTIONARY
  5
D
102
{ACAD_REACTORS
330
C
102
}
100
AcDbDictionary
280
0
281
1
  0
ACDBDICTIONARYWDFLT
  5
E
102
{ACAD_REACTORS
330
C
102
}
100
AcDbDictionary
281
1
  3
Normal
350
F
100
AcDbDictionaryWithDefault
340
F
  0
DICTIONARY
  5
17
102
{ACAD_REACTORS
330
C
102
}
100
AcDbDictionary
280
0
281
1
  3
Standard
350
18
  0
DICTIONARY
  5
19
102
{ACAD_REACTORS
330
C
102
}
100
AcDbDictionary
281
1
  0
DICTIONARY
  5
1A
102
{ACAD_REACTORS
330
C
102
}
100
AcDbDictionary
281
1
  3
Model
350
375
  3
Layout1
350
376
  0
ACDBPLACEHOLDER
  5
F
102
{ACAD_REACTORS
330
E
102
}
  0
MLINESTYLE
  5
18
102
{ACAD_REACTORS
330
17
102
}
100
AcDbMlineStyle
  2
STANDARD
 70
0
  3

 62
256
 51
90.0
 52
90.0
 71
2
 49
0.5
 62
256
  6
BYLAYER
 49
-0.5
 62
256
  6
BYLAYER
  0
LAYOUT
  5
375
102
{ACAD_REACTORS
330
1A
102
}
100
AcDbPlotSettings
  1

  2
none_device
  4
ANSI_B_(17.00_x_11.00_Inches)
  6

 40
0.0
 41
0.0
 42
0.0
 43
0.0
 44
431.8
 45
279.4
 46
0.0
 47
0.0
 48
0.0
 49
0.0
140
0.0
141
0.0
142
1.0
143
1.0
 70
1024
 72
0
 73
0
 74
0
  7

 75
0
147
1.0
148
0.0
149
0.0
100
AcDbLayout
  1
Model
 70
0
 71
0
 10
0.0
 20
0.0
 11
17.0
 21
11.0
 12
0.0
 22
0.0
 32
0.0
 14
0.0
 24
0.0
 34
0.0
 15
0.0
 25
0.0
 35
0.0
146
0.0
 13
0.0
 23
0.0
 33
0.0
 16
1.0
 26
0.0
 36
0.0
 17
0.0
 27
1.0
 37
0.0
 76
0
330
229
345
0
346
0
  0
LAYOUT
  5
376
102
{ACAD_REACTORS
330
1A
102
}
100
AcDbPlotSettings
  1

  2
none_device
  4
ANSI_B_(17.00_x_11.00_Inches)
  6

 40
0.0
 41
0.0
 42
0.0
 43
0.0
 44
431.8
 45
279.4
 46
0.0
 47
0.0
 48
0.0
 49
0.0
140
0.0
141
0.0
142
1.0
143
1.0
 70
0
 72
0
 73
0
 74
0
  7

 75
0
147
1.0
148
0.0
149
0.0
100
AcDbLayout
  1
Layout1
 70
0
 71
1
 10
0.0
 20
0.0
 11
17.0
 21
11.0
 12
0.0
 22
0.0
 32
0.0
 14
0.0
 24
0.0
 34
0.0
 15
0.0
 25
0.0
 35
0.0
146
0.0
 13
0.0
 23
0.0
 33
0.0
 16
1.0
 26
0.0
 36
0.0
 17
0.0
 27
1.0
 37
0.0
 76
0
330
22A
345
0
346
0
  0
ENDSEC
  0
EOF
