999
DXF file: CXHAXCN.dxf
999
Pro/ENGINEER 2016010 by Parametric Technology Corporation
  0
SECTION
  2
HEADER
  9
$ACADVER
  1
AC1021
  9
$DWGCODEPAGE
  3
ANSI_1252
  9
$EXTMAX
 10
17.0
 20
11.0
 30
0.0
  9
$EXTMIN
 10
0.0
 20
0.0
 30
0.0
  9
$LIMMIN
 10
0.0
 20
0.0
  9
$LIMMAX
 10
17.0
 20
11.0
  9
$VIEWCTR
 10
8.5
 20
5.5
  9
$VIEWSIZE
 40
11.0
  9
$CLAYER
  8
0
  9
$LTSCALE
 40
0.935
  9
$CELTYPE
  6
BYLAYER
  9
$DIMSCALE
 40
1.0
  9
$DIMASZ
 40
0.1875
  9
$DIMEXO
 40
0.0625
  9
$DIMDLI
 40
0.646
  9
$DIMEXE
 40
0.125
  9
$DIMCEN
 40
0.153
  9
$DIMLFAC
 40
1.0
  9
$DIMBLK
  1
_FILLED
  9
$DIMALT
 70
0
  9
$DIMALTF
 40
25.4
  9
$DIMTXT
 40
0.125
  9
$DIMTOL
 70
0
  9
$DIMLIM
 70
0
  9
$DIMTFAC
 40
1.0
  9
$DIMGAP
 40
0.09
  9
$DIMDSEP
 70
46
  9
$AUNITS
 70
0
  9
$PDMODE
 70
3
  9
$PDSIZE
 40
0.3125
  9
$HANDSEED
  5
2DF
  9
$TILEMODE
 70
1
  9
$MEASUREMENT
 70
0
  9
$INSUNITS
 70
1
  0
ENDSEC
  0
SECTION
  2
CLASSES
  0
CLASS
  1
ACDBDICTIONARYWDFLT
  2
AcDbDictionaryWithDefault
  3
AutoCAD 2000
 90
0
 91
1
280
0
281
0
  0
CLASS
  1
ACDBPLACEHOLDER
  2
AcDbPlaceHolder
  3
AutoCAD 2000
 90
0
 91
1
280
0
281
0
  0
CLASS
  1
LAYOUT
  2
AcDbLayout
  3
AutoCAD 2000
 90
0
 91
0
280
0
281
0
  0
ENDSEC
  0
SECTION
  2
TABLES
  0
TABLE
  2
VPORT
  5
8
100
AcDbSymbolTable
 70
2
  0
VPORT
  5
1F4
100
AcDbSymbolTableRecord
100
AcDbViewportTableRecord
  2
*ACTIVE
 70
0
 10
0.0
 20
0.0
 11
1.0
 21
1.0
 12
8.5
 22
5.5
 13
0.0
 23
0.0
 14
1.0
 24
1.0
 15
0.0
 25
0.0
 16
0.0
 26
0.0
 36
1.0
 17
0.0
 27
0.0
 37
0.0
 40
11.0
 41
1.5454545455
 42
50.0
 43
0.0
 44
0.0
 50
0.0
 51
0.0
 71
0
 72
100
 73
1
 74
1
 75
0
 76
0
 77
0
 78
0
  0
ENDTAB
  0
TABLE
  2
LTYPE
  5
5
100
AcDbSymbolTable
 70
6
  0
LTYPE
  5
14
100
AcDbSymbolTableRecord
100
AcDbLinetypeTableRecord
  2
BYBLOCK
 70
0
  3

 72
65
 73
0
 40
0.0
  0
LTYPE
  5
15
100
AcDbSymbolTableRecord
100
AcDbLinetypeTableRecord
  2
BYLAYER
 70
0
  3

 72
65
 73
0
 40
0.0
  0
LTYPE
  5
16
100
AcDbSymbolTableRecord
100
AcDbLinetypeTableRecord
  2
CONTINUOUS
 70
64
  3
Solid line
 72
65
 73
0
 40
0.0
  0
LTYPE
  5
1F5
100
AcDbSymbolTableRecord
100
AcDbLinetypeTableRecord
  2
CENTER
 70
64
  3
____ _ ____ _ ____ _ ____ _ ____ _ ____ _ ____
 72
65
 73
4
 40
0.6
 49
0.375
 74
0
 49
-0.075
 74
0
 49
0.075
 74
0
 49
-0.075
 74
0
  0
LTYPE
  5
1F6
100
AcDbSymbolTableRecord
100
AcDbLinetypeTableRecord
  2
HIDDEN
 70
64
  3
- - - - - - - - - - - - - - - - - - - -
 72
65
 73
2
 40
0.2
 49
0.1
 74
0
 49
-0.1
 74
0
  0
LTYPE
  5
1F7
100
AcDbSymbolTableRecord
100
AcDbLinetypeTableRecord
  2
PHANTOM
 70
64
  3
_____ _ _ _____ _ _ _____ _ _ _____
 72
65
 73
6
 40
0.8
 49
0.45
 74
0
 49
-0.05
 74
0
 49
0.1
 74
0
 49
-0.05
 74
0
 49
0.1
 74
0
 49
-0.05
 74
0
  0
LTYPE
  5
1F8
100
AcDbSymbolTableRecord
100
AcDbLinetypeTableRecord
  2
DOT
 70
64
  3
. . . . . . . . . . . . . . . . . . . .
 72
65
 73
2
 40
0.2
 49
0.1
 74
0
 49
-0.1
 74
0
  0
LTYPE
  5
1F9
100
AcDbSymbolTableRecord
100
AcDbLinetypeTableRecord
  2
DASHED
 70
64
  3
- - - - - - - - - - - - - - - - - - - -
 72
65
 73
2
 40
0.2
 49
0.1
 74
0
 49
-0.1
 74
0
  0
ENDTAB
  0
TABLE
  2
LAYER
  5
2
100
AcDbSymbolTable
 70
36
  0
LAYER
  5
10
100
AcDbSymbolTableRecord
100
AcDbLayerTableRecord
  2
0
 70
0
 62
7
  6
CONTINUOUS
370
-3
390
F
  0
LAYER
  5
1FA
100
AcDbSymbolTableRecord
100
AcDbLayerTableRecord
  2
DEFAULT_1
 70
0
 62
7
  6
CENTER
370
-3
390
F
  0
LAYER
  5
1FB
100
AcDbSymbolTableRecord
100
AcDbLayerTableRecord
  2
DEFAULT_2
 70
0
 62
8
  6
HIDDEN
370
-3
390
F
  0
LAYER
  5
1FC
100
AcDbSymbolTableRecord
100
AcDbLayerTableRecord
  2
DEFAULT_3
 70
0
 62
7
  6
PHANTOM
370
-3
390
F
  0
LAYER
  5
1FD
100
AcDbSymbolTableRecord
100
AcDbLayerTableRecord
  2
01_ALL_DTM_PLN
 70
0
 62
7
  6
CONTINUOUS
370
-3
390
F
  0
LAYER
  5
1FE
100
AcDbSymbolTableRecord
100
AcDbLayerTableRecord
  2
01__ASM_ALL_DTM_PLN
 70
0
 62
7
  6
CONTINUOUS
370
-3
390
F
  0
LAYER
  5
1FF
100
AcDbSymbolTableRecord
100
AcDbLayerTableRecord
  2
01__ASM_DEF_DTM_PLN
 70
0
 62
7
  6
CONTINUOUS
370
-3
390
F
  0
LAYER
  5
200
100
AcDbSymbolTableRecord
100
AcDbLayerTableRecord
  2
01___PRT_ALL_DTM_PLN
 70
0
 62
7
  6
CONTINUOUS
370
-3
390
F
  0
LAYER
  5
201
100
AcDbSymbolTableRecord
100
AcDbLayerTableRecord
  2
01___PRT_DEF_DTM_PLN
 70
0
 62
7
  6
CONTINUOUS
370
-3
390
F
  0
LAYER
  5
202
100
AcDbSymbolTableRecord
100
AcDbLayerTableRecord
  2
02_ALL_AXES
 70
0
 62
7
  6
CONTINUOUS
370
-3
390
F
  0
LAYER
  5
203
100
AcDbSymbolTableRecord
100
AcDbLayerTableRecord
  2
02__ASM_ALL_AXES
 70
0
 62
7
  6
CONTINUOUS
370
-3
390
F
  0
LAYER
  5
204
100
AcDbSymbolTableRecord
100
AcDbLayerTableRecord
  2
02___PRT_ALL_AXES
 70
0
 62
7
  6
CONTINUOUS
370
-3
390
F
  0
LAYER
  5
205
100
AcDbSymbolTableRecord
100
AcDbLayerTableRecord
  2
03_ALL_CURVES
 70
0
 62
7
  6
CONTINUOUS
370
-3
390
F
  0
LAYER
  5
206
100
AcDbSymbolTableRecord
100
AcDbLayerTableRecord
  2
03__ASM_ALL_CURVES
 70
0
 62
7
  6
CONTINUOUS
370
-3
390
F
  0
LAYER
  5
207
100
AcDbSymbolTableRecord
100
AcDbLayerTableRecord
  2
03___PRT_ALL_CURVES
 70
0
 62
7
  6
CONTINUOUS
370
-3
390
F
  0
LAYER
  5
208
100
AcDbSymbolTableRecord
100
AcDbLayerTableRecord
  2
04_ALL_DTM_PNT
 70
0
 62
7
  6
CONTINUOUS
370
-3
390
F
  0
LAYER
  5
209
100
AcDbSymbolTableRecord
100
AcDbLayerTableRecord
  2
04__ASM_ALL_DTM_PNT
 70
0
 62
7
  6
CONTINUOUS
370
-3
390
F
  0
LAYER
  5
20A
100
AcDbSymbolTableRecord
100
AcDbLayerTableRecord
  2
04___PRT_ALL_DTM_PNT
 70
0
 62
7
  6
CONTINUOUS
370
-3
390
F
  0
LAYER
  5
20B
100
AcDbSymbolTableRecord
100
AcDbLayerTableRecord
  2
05_ALL_DTM_CSYS
 70
0
 62
7
  6
CONTINUOUS
370
-3
390
F
  0
LAYER
  5
20C
100
AcDbSymbolTableRecord
100
AcDbLayerTableRecord
  2
05__ASM_ALL_DTM_CSYS
 70
0
 62
7
  6
CONTINUOUS
370
-3
390
F
  0
LAYER
  5
20D
100
AcDbSymbolTableRecord
100
AcDbLayerTableRecord
  2
05__ASM_DEF_DTM_CSYS
 70
0
 62
7
  6
CONTINUOUS
370
-3
390
F
  0
LAYER
  5
20E
100
AcDbSymbolTableRecord
100
AcDbLayerTableRecord
  2
05___PRT_ALL_DTM_CSYS
 70
0
 62
7
  6
CONTINUOUS
370
-3
390
F
  0
LAYER
  5
20F
100
AcDbSymbolTableRecord
100
AcDbLayerTableRecord
  2
05___PRT_DEF_DTM_CSYS
 70
0
 62
7
  6
CONTINUOUS
370
-3
390
F
  0
LAYER
  5
210
100
AcDbSymbolTableRecord
100
AcDbLayerTableRecord
  2
06_ALL_SURFS
 70
0
 62
7
  6
CONTINUOUS
370
-3
390
F
  0
LAYER
  5
211
100
AcDbSymbolTableRecord
100
AcDbLayerTableRecord
  2
06__ASM_ALL_SURFS
 70
0
 62
7
  6
CONTINUOUS
370
-3
390
F
  0
LAYER
  5
212
100
AcDbSymbolTableRecord
100
AcDbLayerTableRecord
  2
06___PRT_ALL_SURFS
 70
0
 62
7
  6
CONTINUOUS
370
-3
390
F
  0
LAYER
  5
213
100
AcDbSymbolTableRecord
100
AcDbLayerTableRecord
  2
07__ASM_ALL_SKELETONS
 70
0
 62
7
  6
CONTINUOUS
370
-3
390
F
  0
LAYER
  5
214
100
AcDbSymbolTableRecord
100
AcDbLayerTableRecord
  2
128-002_FEATURES
 70
0
 62
7
  6
CONTINUOUS
370
-3
390
F
  0
LAYER
  5
215
100
AcDbSymbolTableRecord
100
AcDbLayerTableRecord
  2
128-002_REF_GEOMETRY
 70
0
 62
7
  6
CONTINUOUS
370
-3
390
F
  0
LAYER
  5
216
100
AcDbSymbolTableRecord
100
AcDbLayerTableRecord
  2
128-003_FEATURES
 70
0
 62
7
  6
CONTINUOUS
370
-3
390
F
  0
LAYER
  5
217
100
AcDbSymbolTableRecord
100
AcDbLayerTableRecord
  2
128-003_REF_GEOMETRY
 70
0
 62
7
  6
CONTINUOUS
370
-3
390
F
  0
LAYER
  5
218
100
AcDbSymbolTableRecord
100
AcDbLayerTableRecord
  2
128-016_FEATURES
 70
0
 62
7
  6
CONTINUOUS
370
-3
390
F
  0
LAYER
  5
219
100
AcDbSymbolTableRecord
100
AcDbLayerTableRecord
  2
128-016_REF_GEOMETRY
 70
0
 62
7
  6
CONTINUOUS
370
-3
390
F
  0
LAYER
  5
21A
100
AcDbSymbolTableRecord
100
AcDbLayerTableRecord
  2
128-100_FEATURES
 70
0
 62
7
  6
CONTINUOUS
370
-3
390
F
  0
LAYER
  5
21B
100
AcDbSymbolTableRecord
100
AcDbLayerTableRecord
  2
128-100_REF_GEOMETRY
 70
0
 62
7
  6
CONTINUOUS
370
-3
390
F
  0
LAYER
  5
21C
100
AcDbSymbolTableRecord
100
AcDbLayerTableRecord
  2
128-101_FEATURES
 70
0
 62
7
  6
CONTINUOUS
370
-3
390
F
  0
LAYER
  5
21D
100
AcDbSymbolTableRecord
100
AcDbLayerTableRecord
  2
128-101_REF_GEOMETRY
 70
0
 62
7
  6
CONTINUOUS
370
-3
390
F
  0
LAYER
  5
21E
100
AcDbSymbolTableRecord
100
AcDbLayerTableRecord
  2
128-102_FEATURES
 70
0
 62
7
  6
CONTINUOUS
370
-3
390
F
  0
LAYER
  5
21F
100
AcDbSymbolTableRecord
100
AcDbLayerTableRecord
  2
128-102_REF_GEOMETRY
 70
0
 62
7
  6
CONTINUOUS
370
-3
390
F
  0
LAYER
  5
220
100
AcDbSymbolTableRecord
100
AcDbLayerTableRecord
  2
128-103_FEATURES
 70
0
 62
7
  6
CONTINUOUS
370
-3
390
F
  0
LAYER
  5
221
100
AcDbSymbolTableRecord
100
AcDbLayerTableRecord
  2
128-103_REF_GEOMETRY
 70
0
 62
7
  6
CONTINUOUS
370
-3
390
F
  0
LAYER
  5
222
100
AcDbSymbolTableRecord
100
AcDbLayerTableRecord
  2
128-104_FEATURES
 70
0
 62
7
  6
CONTINUOUS
370
-3
390
F
  0
LAYER
  5
223
100
AcDbSymbolTableRecord
100
AcDbLayerTableRecord
  2
128-104_REF_GEOMETRY
 70
0
 62
7
  6
CONTINUOUS
370
-3
390
F
  0
LAYER
  5
224
100
AcDbSymbolTableRecord
100
AcDbLayerTableRecord
  2
COPY_GEO_FET
 70
0
 62
7
  6
CONTINUOUS
370
-3
390
F
  0
LAYER
  5
225
100
AcDbSymbolTableRecord
100
AcDbLayerTableRecord
  2
COSMETIC
 70
0
 62
7
  6
CONTINUOUS
370
-3
390
F
  0
LAYER
  5
226
100
AcDbSymbolTableRecord
100
AcDbLayerTableRecord
  2
CURVES
 70
0
 62
7
  6
CONTINUOUS
370
-3
390
F
  0
LAYER
  5
227
100
AcDbSymbolTableRecord
100
AcDbLayerTableRecord
  2
CUT_REF_SURF
 70
0
 62
7
  6
CONTINUOUS
370
-3
390
F
  0
LAYER
  5
228
100
AcDbSymbolTableRecord
100
AcDbLayerTableRecord
  2
DATUM
 70
0
 62
7
  6
CONTINUOUS
370
-3
390
F
  0
LAYER
  5
229
100
AcDbSymbolTableRecord
100
AcDbLayerTableRecord
  2
DATUMCURVES
 70
0
 62
7
  6
CONTINUOUS
370
-3
390
F
  0
LAYER
  5
22A
100
AcDbSymbolTableRecord
100
AcDbLayerTableRecord
  2
DIMENSIONS
 70
0
 62
7
  6
CONTINUOUS
370
-3
390
F
  0
LAYER
  5
22B
100
AcDbSymbolTableRecord
100
AcDbLayerTableRecord
  2
DTM
 70
0
 62
7
  6
CONTINUOUS
370
-3
390
F
  0
LAYER
  5
22C
100
AcDbSymbolTableRecord
100
AcDbLayerTableRecord
  2
DTM230
 70
0
 62
7
  6
CONTINUOUS
370
-3
390
F
  0
LAYER
  5
22D
100
AcDbSymbolTableRecord
100
AcDbLayerTableRecord
  2
DTM_500001
 70
0
 62
7
  6
CONTINUOUS
370
-3
390
F
  0
LAYER
  5
22E
100
AcDbSymbolTableRecord
100
AcDbLayerTableRecord
  2
DTM_500002
 70
0
 62
7
  6
CONTINUOUS
370
-3
390
F
  0
LAYER
  5
22F
100
AcDbSymbolTableRecord
100
AcDbLayerTableRecord
  2
DTM_515002
 70
0
 62
7
  6
CONTINUOUS
370
-3
390
F
  0
LAYER
  5
230
100
AcDbSymbolTableRecord
100
AcDbLayerTableRecord
  2
DTM_SPRING_RH
 70
0
 62
7
  6
CONTINUOUS
370
-3
390
F
  0
LAYER
  5
231
100
AcDbSymbolTableRecord
100
AcDbLayerTableRecord
  2
DTM_SP_RH_CONSTR
 70
0
 62
7
  6
CONTINUOUS
370
-3
390
F
  0
LAYER
  5
232
100
AcDbSymbolTableRecord
100
AcDbLayerTableRecord
  2
GEOMETRICTOLERANCES
 70
0
 62
7
  6
CONTINUOUS
370
-3
390
F
  0
LAYER
  5
233
100
AcDbSymbolTableRecord
100
AcDbLayerTableRecord
  2
HIDDEN
 70
0
 62
7
  6
CONTINUOUS
370
-3
390
F
  0
LAYER
  5
234
100
AcDbSymbolTableRecord
100
AcDbLayerTableRecord
  2
HIDDEN_DRW
 70
0
 62
7
  6
CONTINUOUS
370
-3
390
F
  0
LAYER
  5
235
100
AcDbSymbolTableRecord
100
AcDbLayerTableRecord
  2
PARAMETERDIMENSIONS
 70
0
 62
7
  6
CONTINUOUS
370
-3
390
F
  0
LAYER
  5
236
100
AcDbSymbolTableRecord
100
AcDbLayerTableRecord
  2
PLANE
 70
0
 62
7
  6
CONTINUOUS
370
-3
390
F
  0
LAYER
  5
237
100
AcDbSymbolTableRecord
100
AcDbLayerTableRecord
  2
T-8A_CAVITY-INCH
 70
0
 62
7
  6
CONTINUOUS
370
-3
390
F
  0
LAYER
  5
238
100
AcDbSymbolTableRecord
100
AcDbLayerTableRecord
  2
T-8A_CAVITY_REF_GEOMETRY
 70
0
 62
7
  6
CONTINUOUS
370
-3
390
F
  0
LAYER
  5
239
100
AcDbSymbolTableRecord
100
AcDbLayerTableRecord
  2
TEXT
 70
0
 62
7
  6
CONTINUOUS
370
-3
390
F
  0
LAYER
  5
23A
100
AcDbSymbolTableRecord
100
AcDbLayerTableRecord
  2
THREAD
 70
0
 62
7
  6
CONTINUOUS
370
-3
390
F
  0
ENDTAB
  0
TABLE
  2
STYLE
  5
3
100
AcDbSymbolTable
 70
1
  0
STYLE
  5
11
100
AcDbSymbolTableRecord
100
AcDbTextStyleTableRecord
  2
STANDARD
 70
0
 40
0.0
 41
0.8
 50
0.0
 71
0
 42
0.2
  3
txt
  4

  0
STYLE
  5
23B
100
AcDbSymbolTableRecord
100
AcDbTextStyleTableRecord
  2
TEXTSTYLE_1
 70
0
 40
0.0
 41
0.8
 50
0.0
 71
0
 42
0.2
  3
gdt
  4

  0
ENDTAB
  0
TABLE
  2
VIEW
  5
6
100
AcDbSymbolTable
 70
0
  0
ENDTAB
  0
TABLE
  2
UCS
  5
7
100
AcDbSymbolTable
 70
0
  0
ENDTAB
  0
TABLE
  2
APPID
  5
9
100
AcDbSymbolTable
 70
1
  0
APPID
  5
23C
100
AcDbSymbolTableRecord
100
AcDbRegAppTableRecord
  2
ACAD
 70
0
  0
ENDTAB
  0
TABLE
  2
BLOCK_RECORD
  5
1
100
AcDbSymbolTable
 70
0
  0
BLOCK_RECORD
  5
23D
100
AcDbSymbolTableRecord
100
AcDbBlockTableRecord
  2
*Model_Space
  0
BLOCK_RECORD
  5
23E
100
AcDbSymbolTableRecord
100
AcDbBlockTableRecord
  2
*Paper_Space
  0
BLOCK_RECORD
  5
23F
100
AcDbSymbolTableRecord
100
AcDbBlockTableRecord
  2
_FILLED
  0
BLOCK_RECORD
  5
240
100
AcDbSymbolTableRecord
100
AcDbBlockTableRecord
  2
*D0
  0
ENDTAB
  0
TABLE
  2
DIMSTYLE
  5
A
100
AcDbSymbolTable
 70
1
100
AcDbDimStyleTable
 71
0
  0
DIMSTYLE
105
241
100
AcDbSymbolTableRecord
100
AcDbDimStyleTableRecord
  2
STANDARD
 70
0
  3

  4

 40
1.0
 41
0.1875
 42
0.0625
 43
0.38
 44
0.125
 45
0.0
 46
0.0
 47
0.001
 48
0.001
140
0.125
141
0.09
142
0.0
143
25.4
144
1.0
145
0.0
146
1.0
147
0.09
 71
0.0
 72
0.0
 73
1
 74
1
 75
0
 76
0
 77
0
 78
4
170
0
171
2
172
0
173
0
174
0
175
0
176
0
177
0
178
0
270
2
271
3
272
3
273
2
274
2
275
0
280
0
281
0
282
0
283
1
284
4
285
0
286
0
287
3
288
0
340
11
278
46
341
23F
342
23F
343
23F
344
23F
  0
DIMSTYLE
105
242
100
AcDbSymbolTableRecord
100
AcDbDimStyleTableRecord
  2
DIMSTYLE_1
 70
0
  3

  4

 40
1.0
 41
0.1875
 42
0.0625
 43
0.38
 44
0.125
 45
0.0
 46
0.0
 47
0.0
 48
0.0
140
0.125
141
0.09
142
0.0
143
25.4
144
1.0
145
0.0
146
1.0
147
0.0625
 71
0.0
 72
0.0
 73
1
 74
1
 75
0
 76
0
 77
0
 78
4
170
0
171
2
172
0
173
0
174
0
175
0
176
0
177
0
178
0
270
2
271
2
272
2
273
2
274
2
275
0
280
0
281
0
282
0
283
1
284
4
285
0
286
0
287
3
288
0
340
11
278
46
341
23F
342
23F
343
23F
344
23F
  0
ENDTAB
  0
ENDSEC
  0
SECTION
  2
BLOCKS
  0
BLOCK
  5
20
100
AcDbEntity
  8
0
100
AcDbBlockBegin
  2
*Model_Space
 70
0
 10
0.0
 20
0.0
 30
0.0
  3
*Model_Space
  1

  0
ENDBLK
  5
21
100
AcDbEntity
  8
0
100
AcDbBlockEnd
  0
BLOCK
  5
1C
100
AcDbEntity
  8
0
100
AcDbBlockBegin
  2
*Paper_Space
 70
0
 10
0.0
 20
0.0
 30
0.0
  3
*Paper_Space
  1

  0
ENDBLK
  5
1D
100
AcDbEntity
  8
0
100
AcDbBlockEnd
  0
BLOCK
  5
243
100
AcDbEntity
  8
0
100
AcDbBlockBegin
  2
_FILLED
 70
64
 10
0.0
 20
0.0
  3
_FILLED
  1

  0
SOLID
  5
244
100
AcDbEntity
  8
0
  6
BYBLOCK
 62
0
100
AcDbTrace
 10
0.0
 20
0.0
 11
-1.0
 21
0.1666666667
 12
-1.0
 22
-0.1666666667
 13
-1.0
 23
-0.1666666667
  0
ENDBLK
  5
245
100
AcDbEntity
  8
0
  6
BYBLOCK
 62
0
100
AcDbBlockEnd
  0
BLOCK
  5
246
100
AcDbEntity
  8
0
100
AcDbBlockBegin
 62
6
  6
CONTINUOUS
  2
*D0
 70
65
 10
0.0
 20
0.0
  3
*D0
  1

  0
MTEXT
  5
247
100
AcDbEntity
  8
0
100
AcDbMText
 62
6
  6
CONTINUOUS
  7
STANDARD
 71
1
 72
1
 10
4.5155
 20
8.2165307778
 30
0.0
 11
1.0
 21
0.0
 31
0.0
 44
0.9
  1
.97 in (24,6 mm)
 40
0.125
 41
1.6
  0
LINE
  5
248
100
AcDbEntity
  8
0
100
AcDbLine
 62
6
  6
CONTINUOUS
 10
4.2655
 20
7.8415307778
 11
4.2655
 21
8.2790307778
  0
LINE
  5
249
100
AcDbEntity
  8
0
100
AcDbLine
 62
6
  6
CONTINUOUS
 10
3.2965000181
 20
7.0620307778
 11
3.2965000181
 21
8.2790307778
  0
LINE
  5
24A
100
AcDbEntity
  8
0
100
AcDbLine
 62
6
  6
CONTINUOUS
 10
4.2655
 20
8.1540307778
 11
3.7810000091
 21
8.1540307778
  0
LINE
  5
24B
100
AcDbEntity
  8
0
100
AcDbLine
 62
6
  6
CONTINUOUS
 10
3.7810000091
 20
8.1540307778
 11
4.453
 21
8.1540307778
  0
LINE
  5
24C
100
AcDbEntity
  8
0
100
AcDbLine
 62
6
  6
CONTINUOUS
 10
3.2965000181
 20
8.1540307778
 11
3.7810000091
 21
8.1540307778
  0
INSERT
  5
24D
100
AcDbEntity
  8
0
100
AcDbBlockReference
 62
6
  6
CONTINUOUS
  2
_FILLED
 10
4.2655
 20
8.1540307778
 41
0.1875
 42
0.1875
 43
0.1875
  0
INSERT
  5
24E
100
AcDbEntity
  8
0
100
AcDbBlockReference
 62
6
  6
CONTINUOUS
  2
_FILLED
 10
3.2965000181
 20
8.1540307778
 41
0.1875
 42
0.1875
 43
0.1875
 50
180.0
  0
ENDBLK
  5
24F
100
AcDbEntity
  8
0
  6
BYBLOCK
 62
0
100
AcDbBlockEnd
  0
ENDSEC
  0
SECTION
  2
ENTITIES
  0
DIMENSION
  5
250
100
AcDbEntity
  8
0
100
AcDbDimension
 62
6
  6
CONTINUOUS
  2
*D0
 10
3.2965000181
 20
8.1540307778
 11
5.3155
 21
8.1540307778
 70
160
 71
1
 42
0.9689999819
  1
<> in (24,6 mm)
  3
DIMSTYLE_1
100
AcDbAlignedDimension
 13
4.2655
 23
7.7790307778
 14
3.2965000181
 24
6.9995307778
 50
180.0
100
AcDbRotatedDimension
  0
MTEXT
  5
251
100
AcDbEntity
  8
0
100
AcDbMText
 62
2
  6
CONTINUOUS
  7
STANDARD
 71
1
 72
1
 10
6.9635
 20
7.0620307778
 30
0.0
 11
1.0
 21
0.0
 31
0.0
 44
0.6
  1
Port 1\PInlet
 40
0.125
 41
0.6
  0
MTEXT
  5
252
100
AcDbEntity
  8
0
100
AcDbMText
 62
2
  6
CONTINUOUS
  7
STANDARD
 71
1
 72
1
 10
5.5775
 20
6.0310307778
 30
0.0
 11
1.0
 21
0.0
 31
0.0
 44
0.6
  1
Port 2\POutlet
 40
0.125
 41
0.6
  0
MTEXT
  5
253
100
AcDbEntity
  8
0
100
AcDbMText
 62
2
  6
CONTINUOUS
  7
STANDARD
 71
1
 72
1
 10
4.5155
 20
7.967
 30
0.0
 11
1.0
 21
0.0
 31
0.0
 44
0.6
  1
 LOCATING SHOULDER
 40
0.125
 41
1.8
  0
LINE
  5
254
100
AcDbEntity
  8
0
100
AcDbLine
 62
7
  6
CONTINUOUS
 10
3.2993940775
 20
7.6250126892
 11
3.2965
 21
7.62
  0
LINE
  5
255
100
AcDbEntity
  8
0
100
AcDbLine
 62
7
  6
CONTINUOUS
 10
3.2993940775
 20
6.3749873108
 11
3.2965
 21
6.38
  0
LINE
  5
256
100
AcDbEntity
  8
0
100
AcDbLine
 62
7
  6
CONTINUOUS
 10
3.2965
 20
6.38
 11
3.2965
 21
7.62
  0
LINE
  5
257
100
AcDbEntity
  8
0
100
AcDbLine
 62
7
  6
CONTINUOUS
 10
3.347884174
 20
6.3749894661
 11
3.347884174
 21
6.3976117836
  0
LINE
  5
258
100
AcDbEntity
  8
0
100
AcDbLine
 62
7
  6
CONTINUOUS
 10
3.347884174
 20
6.9773776825
 11
3.347884174
 21
7.0226223175
  0
LINE
  5
259
100
AcDbEntity
  8
0
100
AcDbLine
 62
7
  6
CONTINUOUS
 10
3.347884174
 20
7.6023882164
 11
3.347884174
 21
7.6250105339
  0
LINE
  5
25A
100
AcDbEntity
  8
0
100
AcDbLine
 62
7
  6
CONTINUOUS
 10
4.0825
 20
7.7795
 11
4.041796806
 21
7.709
  0
LINE
  5
25B
100
AcDbEntity
  8
0
100
AcDbLine
 62
7
  6
CONTINUOUS
 10
4.0825
 20
6.2205
 11
4.041796806
 21
6.291
  0
LINE
  5
25C
100
AcDbEntity
  8
0
100
AcDbLine
 62
7
  6
CONTINUOUS
 10
4.041796806
 20
6.291006623
 11
4.041796806
 21
7.708993377
  0
LINE
  5
25D
100
AcDbEntity
  8
0
100
AcDbLine
 62
7
  6
CONTINUOUS
 10
4.0825
 20
6.2205
 11
4.0825
 21
7.7795
  0
LINE
  5
25E
100
AcDbEntity
  8
0
100
AcDbLine
 62
7
  6
CONTINUOUS
 10
4.2655
 20
6.2205091336
 11
4.2655
 21
7.7794908664
  0
LINE
  5
25F
100
AcDbEntity
  8
THREAD
100
AcDbLine
 62
7
  6
CONTINUOUS
 10
4.5132128129
 20
7.7015
 11
4.4854999985
 21
7.6534999973
  0
LINE
  5
260
100
AcDbEntity
  8
0
100
AcDbLine
 62
7
  6
CONTINUOUS
 10
4.2655
 20
6.2205
 11
4.0825
 21
6.2205
  0
LINE
  5
261
100
AcDbEntity
  8
THREAD
100
AcDbLine
 62
7
  6
CONTINUOUS
 10
4.5132128129
 20
6.2985
 11
4.4854999984
 21
6.3465000027
  0
LINE
  5
262
100
AcDbEntity
  8
THREAD
100
AcDbLine
 62
7
  6
CONTINUOUS
 10
4.3125
 20
6.2825
 11
4.3125
 21
7.7175
  0
LINE
  5
263
100
AcDbEntity
  8
0
100
AcDbLine
 62
7
  6
CONTINUOUS
 10
4.4155
 20
6.282
 11
4.4655
 21
6.282
  0
LINE
  5
264
100
AcDbEntity
  8
THREAD
100
AcDbLine
 62
7
  6
CONTINUOUS
 10
4.3125
 20
6.2825
 11
4.2655
 21
6.2825
  0
LINE
  5
265
100
AcDbEntity
  8
THREAD
100
AcDbLine
 62
7
  6
CONTINUOUS
 10
4.8245
 20
6.2985
 11
4.5132128129
 21
6.2985
  0
LINE
  5
266
100
AcDbEntity
  8
THREAD
100
AcDbLine
 62
7
  6
CONTINUOUS
 10
5.2835
 20
6.3485
 11
4.8745
 21
6.3485
  0
LINE
  5
267
100
AcDbEntity
  8
0
100
AcDbLine
 62
7
  6
CONTINUOUS
 10
3.2993928332
 20
6.3749894661
 11
4.041796806
 21
6.3749894661
  0
LINE
  5
268
100
AcDbEntity
  8
0
100
AcDbLine
 62
7
  6
CONTINUOUS
 10
6.316
 20
6.3765
 11
6.4515
 21
6.3765
  0
LINE
  5
269
100
AcDbEntity
  8
0
100
AcDbLine
 62
7
  6
CONTINUOUS
 10
6.5545
 20
6.3765
 11
6.6045
 21
6.3765
  0
LINE
  5
26A
100
AcDbEntity
  8
0
100
AcDbLine
 62
7
  6
CONTINUOUS
 10
6.6255
 20
6.3765
 11
6.6725
 21
6.3765
  0
LINE
  5
26B
100
AcDbEntity
  8
0
100
AcDbLine
 62
7
  6
CONTINUOUS
 10
4.4155
 20
7.718
 11
4.4155
 21
6.282
  0
LINE
  5
26C
100
AcDbEntity
  8
0
100
AcDbLine
 62
7
  6
CONTINUOUS
 10
4.4655
 20
7.718
 11
4.4655
 21
6.282
  0
LINE
  5
26D
100
AcDbEntity
  8
0
100
AcDbLine
 62
7
  6
CONTINUOUS
 10
4.4854999984
 20
6.3465000027
 11
4.4854999985
 21
7.6534999973
  0
LINE
  5
26E
100
AcDbEntity
  8
THREAD
100
AcDbLine
 62
7
  6
CONTINUOUS
 10
4.5132128129
 20
6.2985
 11
4.5132128129
 21
7.7015
  0
LINE
  5
26F
100
AcDbEntity
  8
0
100
AcDbLine
 62
7
  6
CONTINUOUS
 10
4.041796806
 20
6.3976117836
 11
3.347884174
 21
6.3976117836
  0
LINE
  5
270
100
AcDbEntity
  8
0
100
AcDbLine
 62
7
  6
CONTINUOUS
 10
6.6255
 20
6.464
 11
6.6045
 21
6.464
  0
LINE
  5
271
100
AcDbEntity
  8
0
100
AcDbLine
 62
7
  6
CONTINUOUS
 10
6.3085
 20
6.4705
 11
6.282
 21
6.4705
  0
LINE
  5
272
100
AcDbEntity
  8
0
100
AcDbLine
 62
7
  6
CONTINUOUS
 10
6.063
 20
6.4705
 11
5.9785
 21
6.4705
  0
LINE
  5
273
100
AcDbEntity
  8
0
100
AcDbLine
 62
7
  6
CONTINUOUS
 10
5.9585
 20
6.4705
 11
5.9475
 21
6.4705
  0
LINE
  5
274
100
AcDbEntity
  8
0
100
AcDbLine
 62
7
  6
CONTINUOUS
 10
5.9275
 20
6.4705
 11
5.844
 21
6.4705
  0
LINE
  5
275
100
AcDbEntity
  8
0
100
AcDbLine
 62
7
  6
CONTINUOUS
 10
5.625
 20
6.4705
 11
5.5323274483
 21
6.4705
  0
LINE
  5
276
100
AcDbEntity
  8
0
100
AcDbLine
 62
7
  6
CONTINUOUS
 10
5.4886725517
 20
6.4705
 11
5.2965
 21
6.4705
  0
LINE
  5
277
100
AcDbEntity
  8
THREAD
100
AcDbLine
 62
7
  6
CONTINUOUS
 10
4.8245
 20
6.2985
 11
4.8245
 21
7.7015
  0
LINE
  5
278
100
AcDbEntity
  8
THREAD
100
AcDbLine
 62
7
  6
CONTINUOUS
 10
4.8745
 20
6.3485
 11
4.8745
 21
7.6515
  0
LINE
  5
279
100
AcDbEntity
  8
0
100
AcDbLine
 62
7
  6
CONTINUOUS
 10
4.041796806
 20
6.9773776825
 11
3.347884174
 21
6.9773776825
  0
LINE
  5
27A
100
AcDbEntity
  8
0
100
AcDbLine
 62
7
  6
CONTINUOUS
 10
4.041796806
 20
7.0226223175
 11
3.347884174
 21
7.0226223175
  0
LINE
  5
27B
100
AcDbEntity
  8
0
100
AcDbLine
 62
7
  6
CONTINUOUS
 10
5.1885
 20
7.6346919075
 11
5.1885
 21
7.6514919156
  0
LINE
  5
27C
100
AcDbEntity
  8
0
100
AcDbLine
 62
7
  6
CONTINUOUS
 10
5.2285
 20
7.6346919075
 11
5.2285
 21
7.6514919156
  0
LINE
  5
27D
100
AcDbEntity
  8
0
100
AcDbLine
 62
7
  6
CONTINUOUS
 10
5.2835
 20
6.3485
 11
5.2835
 21
7.6515
  0
LINE
  5
27E
100
AcDbEntity
  8
0
100
AcDbLine
 62
7
  6
CONTINUOUS
 10
5.2965
 20
6.3615111601
 11
5.2965
 21
7.6384888399
  0
LINE
  5
27F
100
AcDbEntity
  8
0
100
AcDbLine
 62
7
  6
CONTINUOUS
 10
5.9475
 20
7.5295
 11
5.9392071068
 21
7.5212071068
  0
LINE
  5
280
100
AcDbEntity
  8
0
100
AcDbLine
 62
7
  6
CONTINUOUS
 10
5.9785
 20
7.5295
 11
5.9702071068
 21
7.5212071068
  0
LINE
  5
281
100
AcDbEntity
  8
THREAD
100
AcDbLine
 62
7
  6
CONTINUOUS
 10
4.8745
 20
6.3485
 11
4.8245
 21
6.2985
  0
LINE
  5
282
100
AcDbEntity
  8
0
100
AcDbLine
 62
7
  6
CONTINUOUS
 10
5.9475
 20
6.4705
 11
5.9392071068
 21
6.4787928932
  0
LINE
  5
283
100
AcDbEntity
  8
0
100
AcDbLine
 62
7
  6
CONTINUOUS
 10
5.9785
 20
6.4705
 11
5.9702071068
 21
6.4787928932
  0
LINE
  5
284
100
AcDbEntity
  8
THREAD
100
AcDbLine
 62
7
  6
CONTINUOUS
 10
4.8745
 20
7.6515
 11
4.8245
 21
7.7015
  0
LINE
  5
285
100
AcDbEntity
  8
0
100
AcDbLine
 62
7
  6
CONTINUOUS
 10
5.4886725517
 20
6.4705
 11
5.4886725517
 21
7.5295
  0
LINE
  5
286
100
AcDbEntity
  8
0
100
AcDbLine
 62
7
  6
CONTINUOUS
 10
6.3085
 20
7.616
 11
6.316
 21
7.6235
  0
LINE
  5
287
100
AcDbEntity
  8
0
100
AcDbLine
 62
7
  6
CONTINUOUS
 10
6.3085
 20
6.384
 11
6.316
 21
6.3765
  0
LINE
  5
288
100
AcDbEntity
  8
0
100
AcDbLine
 62
7
  6
CONTINUOUS
 10
5.5323274483
 20
6.4705
 11
5.5323274483
 21
7.5295
  0
LINE
  5
289
100
AcDbEntity
  8
0
100
AcDbLine
 62
7
  6
CONTINUOUS
 10
6.3085
 20
7.5295
 11
6.282
 21
7.5295
  0
LINE
  5
28A
100
AcDbEntity
  8
0
100
AcDbLine
 62
7
  6
CONTINUOUS
 10
6.063
 20
7.5295
 11
5.9785
 21
7.5295
  0
LINE
  5
28B
100
AcDbEntity
  8
0
100
AcDbLine
 62
7
  6
CONTINUOUS
 10
5.9585
 20
7.5295
 11
5.9475
 21
7.5295
  0
LINE
  5
28C
100
AcDbEntity
  8
0
100
AcDbLine
 62
7
  6
CONTINUOUS
 10
5.9275
 20
7.5295
 11
5.844
 21
7.5295
  0
LINE
  5
28D
100
AcDbEntity
  8
0
100
AcDbLine
 62
7
  6
CONTINUOUS
 10
5.625
 20
7.5295
 11
5.5323274483
 21
7.5295
  0
LINE
  5
28E
100
AcDbEntity
  8
0
100
AcDbLine
 62
7
  6
CONTINUOUS
 10
5.4886725517
 20
7.5295
 11
5.2965
 21
7.5295
  0
LINE
  5
28F
100
AcDbEntity
  8
0
100
AcDbLine
 62
7
  6
CONTINUOUS
 10
6.6255
 20
7.536
 11
6.6045
 21
7.536
  0
LINE
  5
290
100
AcDbEntity
  8
0
100
AcDbLine
 62
7
  6
CONTINUOUS
 10
4.041796806
 20
7.6023882164
 11
3.347884174
 21
7.6023882164
  0
LINE
  5
291
100
AcDbEntity
  8
0
100
AcDbLine
 62
7
  6
CONTINUOUS
 10
6.316
 20
7.6235
 11
6.4515
 21
7.6235
  0
LINE
  5
292
100
AcDbEntity
  8
0
100
AcDbLine
 62
7
  6
CONTINUOUS
 10
6.5545
 20
7.6235
 11
6.6045
 21
7.6235
  0
LINE
  5
293
100
AcDbEntity
  8
0
100
AcDbLine
 62
7
  6
CONTINUOUS
 10
6.6255
 20
7.6235
 11
6.6725
 21
7.6235
  0
LINE
  5
294
100
AcDbEntity
  8
0
100
AcDbLine
 62
7
  6
CONTINUOUS
 10
4.041796806
 20
7.6250105339
 11
3.2993928332
 21
7.6250105339
  0
LINE
  5
295
100
AcDbEntity
  8
0
100
AcDbLine
 62
7
  6
CONTINUOUS
 10
5.2285
 20
7.6346919075
 11
5.2146465383
 21
7.6346919075
  0
LINE
  5
296
100
AcDbEntity
  8
0
100
AcDbLine
 62
7
  6
CONTINUOUS
 10
5.2023534617
 20
7.6346919075
 11
5.1885
 21
7.6346919075
  0
LINE
  5
297
100
AcDbEntity
  8
0
100
AcDbLine
 62
7
  6
CONTINUOUS
 10
5.6827310908
 20
7.0958919413
 11
5.6827310908
 21
6.9041086859
  0
LINE
  5
298
100
AcDbEntity
  8
0
100
AcDbLine
 62
7
  6
CONTINUOUS
 10
5.6927310908
 20
6.8988087746
 11
5.6927310908
 21
7.1011953466
  0
LINE
  5
299
100
AcDbEntity
  8
0
100
AcDbLine
 62
7
  6
CONTINUOUS
 10
5.7027310908
 20
7.1042369516
 11
5.7027310908
 21
6.895763504
  0
LINE
  5
29A
100
AcDbEntity
  8
0
100
AcDbLine
 62
7
  6
CONTINUOUS
 10
5.7137310908
 20
7.1074486166
 11
5.7137310908
 21
6.8925544031
  0
LINE
  5
29B
100
AcDbEntity
  8
0
100
AcDbLine
 62
7
  6
CONTINUOUS
 10
5.7237310908
 20
6.8915645573
 11
5.7237310908
 21
7.1084356626
  0
LINE
  5
29C
100
AcDbEntity
  8
0
100
AcDbLine
 62
7
  6
CONTINUOUS
 10
5.7337310908
 20
7.1094227086
 11
5.7337310908
 21
6.8905747115
  0
LINE
  5
29D
100
AcDbEntity
  8
0
100
AcDbLine
 62
7
  6
CONTINUOUS
 10
5.2965
 20
6.3615
 11
5.2835
 21
6.3485
  0
LINE
  5
29E
100
AcDbEntity
  8
THREAD
100
AcDbLine
 62
7
  6
CONTINUOUS
 10
5.2835
 20
7.6515
 11
5.2285
 21
7.6515
  0
LINE
  5
29F
100
AcDbEntity
  8
THREAD
100
AcDbLine
 62
7
  6
CONTINUOUS
 10
5.1885
 20
7.6515
 11
4.8745
 21
7.6515
  0
LINE
  5
2A0
100
AcDbEntity
  8
THREAD
100
AcDbLine
 62
7
  6
CONTINUOUS
 10
4.8245
 20
7.7015
 11
4.5132128129
 21
7.7015
  0
LINE
  5
2A1
100
AcDbEntity
  8
THREAD
100
AcDbLine
 62
7
  6
CONTINUOUS
 10
4.3125
 20
7.7175
 11
4.2655
 21
7.7175
  0
LINE
  5
2A2
100
AcDbEntity
  8
0
100
AcDbLine
 62
7
  6
CONTINUOUS
 10
4.4155
 20
7.718
 11
4.4655
 21
7.718
  0
LINE
  5
2A3
100
AcDbEntity
  8
0
100
AcDbLine
 62
7
  6
CONTINUOUS
 10
5.2965
 20
7.6385
 11
5.2835
 21
7.6515
  0
LINE
  5
2A4
100
AcDbEntity
  8
0
100
AcDbLine
 62
7
  6
CONTINUOUS
 10
4.2655
 20
7.7795
 11
4.0825
 21
7.7795
  0
LINE
  5
2A5
100
AcDbEntity
  8
0
100
AcDbLine
 62
7
  6
CONTINUOUS
 10
5.9275
 20
6.4705
 11
5.9275
 21
7.5295
  0
LINE
  5
2A6
100
AcDbEntity
  8
0
100
AcDbLine
 62
7
  6
CONTINUOUS
 10
5.9357928932
 20
6.4787928932
 11
5.9357928932
 21
7.5212071068
  0
LINE
  5
2A7
100
AcDbEntity
  8
0
100
AcDbLine
 62
7
  6
CONTINUOUS
 10
5.9392071068
 20
6.4787928932
 11
5.9392071068
 21
7.5212071068
  0
LINE
  5
2A8
100
AcDbEntity
  8
0
100
AcDbLine
 62
7
  6
CONTINUOUS
 10
5.9475
 20
6.4705
 11
5.9475
 21
7.5295
  0
LINE
  5
2A9
100
AcDbEntity
  8
0
100
AcDbLine
 62
7
  6
CONTINUOUS
 10
5.9585
 20
6.4705
 11
5.9585
 21
7.5295
  0
LINE
  5
2AA
100
AcDbEntity
  8
0
100
AcDbLine
 62
7
  6
CONTINUOUS
 10
5.9667928932
 20
6.4787928932
 11
5.9667928932
 21
7.5212071068
  0
LINE
  5
2AB
100
AcDbEntity
  8
0
100
AcDbLine
 62
7
  6
CONTINUOUS
 10
5.9702071068
 20
6.4787928932
 11
5.9702071068
 21
7.5212071068
  0
LINE
  5
2AC
100
AcDbEntity
  8
0
100
AcDbLine
 62
7
  6
CONTINUOUS
 10
5.9785
 20
6.4705
 11
5.9785
 21
7.5295
  0
LINE
  5
2AD
100
AcDbEntity
  8
0
100
AcDbLine
 62
7
  6
CONTINUOUS
 10
6.12974663
 20
6.6504003603
 11
6.12974663
 21
6.7036465736
  0
LINE
  5
2AE
100
AcDbEntity
  8
0
100
AcDbLine
 62
7
  6
CONTINUOUS
 10
6.12974663
 20
6.8992746057
 11
6.12974663
 21
7.1007212246
  0
LINE
  5
2AF
100
AcDbEntity
  8
0
100
AcDbLine
 62
7
  6
CONTINUOUS
 10
6.12974663
 20
7.2963500344
 11
6.12974663
 21
7.3495951212
  0
LINE
  5
2B0
100
AcDbEntity
  8
0
100
AcDbLine
 62
7
  6
CONTINUOUS
 10
5.9357928932
 20
6.4787928932
 11
5.9275
 21
6.4705
  0
LINE
  5
2B1
100
AcDbEntity
  8
0
100
AcDbLine
 62
7
  6
CONTINUOUS
 10
5.9667928932
 20
6.4787928932
 11
5.9585
 21
6.4705
  0
LINE
  5
2B2
100
AcDbEntity
  8
0
100
AcDbLine
 62
7
  6
CONTINUOUS
 10
5.9357928932
 20
7.5212071068
 11
5.9275
 21
7.5295
  0
LINE
  5
2B3
100
AcDbEntity
  8
0
100
AcDbLine
 62
7
  6
CONTINUOUS
 10
5.9667928932
 20
7.5212071068
 11
5.9585
 21
7.5295
  0
LINE
  5
2B4
100
AcDbEntity
  8
0
100
AcDbLine
 62
7
  6
CONTINUOUS
 10
6.1477310908
 20
6.6472682845
 11
6.1477310908
 21
6.7084350218
  0
LINE
  5
2B5
100
AcDbEntity
  8
0
100
AcDbLine
 62
7
  6
CONTINUOUS
 10
6.1477310908
 20
6.8936318147
 11
6.1477310908
 21
7.1063660751
  0
LINE
  5
2B6
100
AcDbEntity
  8
0
100
AcDbLine
 62
7
  6
CONTINUOUS
 10
6.1477310908
 20
7.2915631988
 11
6.1477310908
 21
7.3526867826
  0
LINE
  5
2B7
100
AcDbEntity
  8
0
100
AcDbLine
 62
7
  6
CONTINUOUS
 10
6.3085
 20
7.616
 11
6.3085
 21
6.384
  0
LINE
  5
2B8
100
AcDbEntity
  8
0
100
AcDbLine
 62
7
  6
CONTINUOUS
 10
6.316
 20
7.6235
 11
6.316
 21
6.3765
  0
LINE
  5
2B9
100
AcDbEntity
  8
0
100
AcDbLine
 62
7
  6
CONTINUOUS
 10
6.4015
 20
7.6235
 11
6.4015
 21
6.3765
  0
LINE
  5
2BA
100
AcDbEntity
  8
0
100
AcDbLine
 62
7
  6
CONTINUOUS
 10
6.4515
 20
7.6235
 11
6.4515
 21
6.3765
  0
LINE
  5
2BB
100
AcDbEntity
  8
0
100
AcDbLine
 62
7
  6
CONTINUOUS
 10
6.5545
 20
7.6235
 11
6.5545
 21
6.3765
  0
LINE
  5
2BC
100
AcDbEntity
  8
0
100
AcDbLine
 62
7
  6
CONTINUOUS
 10
6.6045
 20
7.6235
 11
6.6045
 21
6.3765
  0
LINE
  5
2BD
100
AcDbEntity
  8
0
100
AcDbLine
 62
7
  6
CONTINUOUS
 10
6.6255
 20
7.6235
 11
6.6255
 21
6.3765
  0
LINE
  5
2BE
100
AcDbEntity
  8
0
100
AcDbLine
 62
7
  6
CONTINUOUS
 10
6.6725
 20
6.3765
 11
6.7035
 21
6.4075
  0
LINE
  5
2BF
100
AcDbEntity
  8
0
100
AcDbLine
 62
7
  6
CONTINUOUS
 10
6.6725
 20
7.6235
 11
6.7035
 21
7.5925
  0
LINE
  5
2C0
100
AcDbEntity
  8
0
100
AcDbLine
 62
7
  6
CONTINUOUS
 10
6.6725
 20
7.6235
 11
6.6725
 21
6.3765
  0
LINE
  5
2C1
100
AcDbEntity
  8
0
100
AcDbLine
 62
7
  6
CONTINUOUS
 10
6.7035
 20
7.5925
 11
6.7035
 21
6.4075
  0
CIRCLE
  5
2C2
100
AcDbEntity
  8
0
100
AcDbCircle
 62
7
  6
CONTINUOUS
 10
5.7345
 20
7.0
 40
0.1095
  0
CIRCLE
  5
2C3
100
AcDbEntity
  8
0
100
AcDbCircle
 62
7
  6
CONTINUOUS
 10
6.1725
 20
7.0
 40
0.1095
  0
ARC
  5
2C4
100
AcDbEntity
  8
0
100
AcDbCircle
 62
7
  6
CONTINUOUS
 10
4.4578639717
 20
7.658
 40
0.028
100
AcDbArc
 50
285.8342878307
 51
350.751636104
  0
ARC
  5
2C5
100
AcDbEntity
  8
0
100
AcDbCircle
 62
7
  6
CONTINUOUS
 10
4.4578639717
 20
6.342
 40
0.028
100
AcDbArc
 50
9.2483639698
 51
74.1657121387
  0
ARC
  5
2C6
100
AcDbEntity
  8
0
100
AcDbCircle
 62
7
  6
CONTINUOUS
 10
5.5105
 20
6.46775
 40
0.022
100
AcDbArc
 50
7.1807557815
 51
172.8192442185
  0
ARC
  5
2C7
100
AcDbEntity
  8
0
100
AcDbCircle
 62
7
  6
CONTINUOUS
 10
5.5105
 20
7.53225
 40
0.022
100
AcDbArc
 50
187.1807557815
 51
352.8192442185
  0
ARC
  5
2C8
100
AcDbEntity
  8
0
100
AcDbCircle
 62
7
  6
CONTINUOUS
 10
5.9375
 20
6.4770857864
 40
0.0024142136
100
AcDbArc
 50
45.0
 51
135.0
  0
ARC
  5
2C9
100
AcDbEntity
  8
0
100
AcDbCircle
 62
7
  6
CONTINUOUS
 10
5.9375
 20
7.5229142136
 40
0.0024142136
100
AcDbArc
 50
225.0
 51
315.0
  0
ARC
  5
2CA
100
AcDbEntity
  8
0
100
AcDbCircle
 62
7
  6
CONTINUOUS
 10
5.9685
 20
6.4770857864
 40
0.0024142136
100
AcDbArc
 50
45.0
 51
135.0
  0
ARC
  5
2CB
100
AcDbEntity
  8
0
100
AcDbCircle
 62
7
  6
CONTINUOUS
 10
5.9685
 20
7.5229142136
 40
0.0024142136
100
AcDbArc
 50
225.0
 51
315.0
  0
SPLINE
  5
2CC
100
AcDbEntity
  8
0
100
AcDbSpline
 62
7
  6
CONTINUOUS
 70
0
 71
3
 72
17
 73
13
 74
0
 42
0.0000001
 43
0.0000001
 44
0.0000000001
 40
0.0
 40
0.0
 40
0.0
 40
0.0
 40
0.0386706255
 40
0.1477071518
 40
0.3095053879
 40
0.402891525
 40
0.5000098896
 40
0.5971282666
 40
0.690513161
 40
0.8523028104
 40
0.9613321509
 40
1.0
 40
1.0
 40
1.0
 40
1.0
 10
6.282
 20
7.5295
 30
0.0
 10
6.2792159212
 20
7.5289242391
 30
0.0
 10
6.2685656743
 20
7.5268021073
 30
0.0
 10
6.2461273538
 20
7.5229845013
 30
0.0
 10
6.2195033497
 20
7.5199247244
 30
0.0
 10
6.1936451217
 20
7.5183439114
 30
0.0
 10
6.1724978177
 20
7.5179062408
 30
0.0
 10
6.1513506092
 20
7.5183441053
 30
0.0
 10
6.1254931155
 20
7.5199250927
 30
0.0
 10
6.0988703738
 20
7.5229848642
 30
0.0
 10
6.0764334073
 20
7.5268022913
 30
0.0
 10
6.0657838791
 20
7.5289242817
 30
0.0
 10
6.063
 20
7.5295
 30
0.0
  0
SPLINE
  5
2CD
100
AcDbEntity
  8
0
100
AcDbSpline
 62
7
  6
CONTINUOUS
 70
0
 71
3
 72
17
 73
13
 74
0
 42
0.0000001
 43
0.0000001
 44
0.0000000001
 40
0.0
 40
0.0
 40
0.0
 40
0.0
 40
0.0386706255
 40
0.1477071518
 40
0.3095053879
 40
0.402891525
 40
0.5000098896
 40
0.5971282666
 40
0.690513161
 40
0.8523028104
 40
0.9613321509
 40
1.0
 40
1.0
 40
1.0
 40
1.0
 10
5.844
 20
7.5295
 30
0.0
 10
5.8412159212
 20
7.5289242391
 30
0.0
 10
5.8305656743
 20
7.5268021073
 30
0.0
 10
5.8081273538
 20
7.5229845013
 30
0.0
 10
5.7815033497
 20
7.5199247244
 30
0.0
 10
5.7556451217
 20
7.5183439114
 30
0.0
 10
5.7344978177
 20
7.5179062408
 30
0.0
 10
5.7133506092
 20
7.5183441053
 30
0.0
 10
5.6874931155
 20
7.5199250927
 30
0.0
 10
5.6608703738
 20
7.5229848642
 30
0.0
 10
5.6384334073
 20
7.5268022913
 30
0.0
 10
5.6277838791
 20
7.5289242817
 30
0.0
 10
5.625
 20
7.5295
 30
0.0
  0
SPLINE
  5
2CE
100
AcDbEntity
  8
0
100
AcDbSpline
 62
7
  6
CONTINUOUS
 70
0
 71
3
 72
23
 73
19
 74
0
 42
0.0000001
 43
0.0000001
 44
0.0000000001
 40
0.0
 40
0.0
 40
0.0
 40
0.0
 40
0.0530732888
 40
0.1090543309
 40
0.1681149989
 40
0.2301780855
 40
0.2949563861
 40
0.3619660808
 40
0.4305715206
 40
0.5000049613
 40
0.5694392003
 40
0.6380432627
 40
0.705054405
 40
0.7698305638
 40
0.8318923722
 40
0.8909513683
 40
0.9469293622
 40
1.0
 40
1.0
 40
1.0
 40
1.0
 10
6.0822076285
 20
6.6719358882
 30
0.0
 10
6.0847651889
 20
6.6697062726
 30
0.0
 10
6.0903649412
 20
6.6655102731
 30
0.0
 10
6.099726756
 20
6.6601855833
 30
0.0
 10
6.1101342289
 20
6.6556775368
 30
0.0
 10
6.1214479403
 20
6.6519894705
 30
0.0
 10
6.1335172518
 20
6.649122399
 30
0.0
 10
6.146174114
 20
6.6470748386
 30
0.0
 10
6.1592343322
 20
6.6458466187
 30
0.0
 10
6.1725002806
 20
6.6454372322
 30
0.0
 10
6.1857661444
 20
6.6458466149
 30
0.0
 10
6.1988264051
 20
6.6470749549
 30
0.0
 10
6.2114831448
 20
6.6491224403
 30
0.0
 10
6.2235523178
 20
6.6519895632
 30
0.0
 10
6.2348657009
 20
6.6556775613
 30
0.0
 10
6.2452728858
 20
6.6601853184
 30
0.0
 10
6.254634247
 20
6.6655098421
 30
0.0
 10
6.2602338022
 20
6.6697054884
 30
0.0
 10
6.2627912578
 20
6.6719349663
 30
0.0
  0
SPLINE
  5
2CF
100
AcDbEntity
  8
0
100
AcDbSpline
 62
7
  6
CONTINUOUS
 70
0
 71
3
 72
23
 73
19
 74
0
 42
0.0000001
 43
0.0000001
 44
0.0000000001
 40
0.0
 40
0.0
 40
0.0
 40
0.0
 40
0.0530740259
 40
0.1090555293
 40
0.1681163261
 40
0.2301795155
 40
0.294957768
 40
0.3619672277
 40
0.4305723724
 40
0.5000054348
 40
0.5694392494
 40
0.6380429832
 40
0.7050537413
 40
0.7698297882
 40
0.8318915038
 40
0.8909505159
 40
0.9469287696
 40
1.0
 40
1.0
 40
1.0
 40
1.0
 10
6.262792021
 20
7.3280644217
 30
0.0
 10
6.2602344119
 20
7.3302940446
 30
0.0
 10
6.2546345812
 20
7.3344900487
 30
0.0
 10
6.2452726645
 20
7.3398146941
 30
0.0
 10
6.2348651501
 20
7.3443227071
 30
0.0
 10
6.2235514232
 20
7.3480107008
 30
0.0
 10
6.211482134
 20
7.3508777233
 30
0.0
 10
6.1988253224
 20
7.3529252319
 30
0.0
 10
6.1857651808
 20
7.3541534091
 30
0.0
 10
6.1724993239
 20
7.3545627666
 30
0.0
 10
6.1592335555
 20
7.3541533634
 30
0.0
 10
6.1461733902
 20
7.3529250198
 30
0.0
 10
6.1335167263
 20
7.3508775303
 30
0.0
 10
6.1214476108
 20
7.3480104191
 30
0.0
 10
6.1101342594
 20
7.344322425
 30
0.0
 10
6.0997270862
 20
7.339814661
 30
0.0
 10
6.0903656855
 20
7.3344901287
 30
0.0
 10
6.0847661092
 20
7.3302944385
 30
0.0
 10
6.0822086303
 20
7.3280649381
 30
0.0
  0
SPLINE
  5
2D0
100
AcDbEntity
  8
0
100
AcDbSpline
 62
7
  6
CONTINUOUS
 70
0
 71
3
 72
39
 73
35
 74
0
 42
0.0000001
 43
0.0000001
 44
0.0000000001
 40
0.0
 40
0.0
 40
0.0
 40
0.0
 40
0.0252340737
 40
0.0512025751
 40
0.0780208219
 40
0.1057793862
 40
0.1345278358
 40
0.1642595249
 40
0.1949365776
 40
0.226497057
 40
0.2588649569
 40
0.2919507341
 40
0.3256605007
 40
0.359893379
 40
0.3945489734
 40
0.4295217493
 40
0.4647078165
 40
0.5000001519
 40
0.5352924966
 40
0.5704785981
 40
0.6054514111
 40
0.640107053
 40
0.6743399709
 40
0.7080497699
 40
0.7411355565
 40
0.7735034483
 40
0.8050638977
 40
0.835740902
 40
0.8654725257
 40
0.89422092
 40
0.9219794213
 40
0.9487975682
 40
0.9747659682
 40
1.0
 40
1.0
 40
1.0
 40
1.0
 10
6.063
 20
6.6255869594
 30
0.0
 10
6.063
 20
6.628154143
 30
0.0
 10
6.0633699909
 20
6.6333692365
 30
0.0
 10
6.0649748667
 20
6.6411638455
 30
0.0
 10
6.0676222228
 20
6.6489400915
 30
0.0
 10
6.0712750517
 20
6.6566094751
 30
0.0
 10
6.0758954307
 20
6.6640868733
 30
0.0
 10
6.0814333061
 20
6.6712892685
 30
0.0
 10
6.0878375062
 20
6.6781296638
 30
0.0
 10
6.0950453924
 20
6.6845277371
 30
0.0
 10
6.1029929889
 20
6.690401344
 30
0.0
 10
6.1116066378
 20
6.6956770706
 30
0.0
 10
6.1208104209
 20
6.7002798054
 30
0.0
 10
6.1305182829
 20
6.704148305
 30
0.0
 10
6.1406413106
 20
6.7072199989
 30
0.0
 10
6.1510810423
 20
6.7094531072
 30
0.0
 10
6.1617363713
 20
6.7108049923
 30
0.0
 10
6.1725000477
 20
6.7112607248
 30
0.0
 10
6.1832637271
 20
6.7108049833
 30
0.0
 10
6.1939190632
 20
6.7094530893
 30
0.0
 10
6.2043588049
 20
6.7072199691
 30
0.0
 10
6.2144818414
 20
6.7041482607
 30
0.0
 10
6.2241897109
 20
6.700279747
 30
0.0
 10
6.233393495
 20
6.6956769956
 30
0.0
 10
6.2420071414
 20
6.6904012582
 30
0.0
 10
6.2499547256
 20
6.6845276396
 30
0.0
 10
6.2571625973
 20
6.6781295633
 30
0.0
 10
6.2635667775
 20
6.6712891695
 30
0.0
 10
6.2691046352
 20
6.6640867823
 30
0.0
 10
6.2737249908
 20
6.6566093917
 30
0.0
 10
6.277377802
 20
6.6489400244
 30
0.0
 10
6.2800251449
 20
6.6411638028
 30
0.0
 10
6.2816300171
 20
6.6333692181
 30
0.0
 10
6.282
 20
6.6281541387
 30
0.0
 10
6.282
 20
6.6255869594
 30
0.0
  0
SPLINE
  5
2D1
100
AcDbEntity
  8
0
100
AcDbSpline
 62
7
  6
CONTINUOUS
 70
0
 71
3
 72
17
 73
13
 74
0
 42
0.0000001
 43
0.0000001
 44
0.0000000001
 40
0.0
 40
0.0
 40
0.0
 40
0.0
 40
0.03867044
 40
0.1477064951
 40
0.3095041166
 40
0.4028899756
 40
0.500008043
 40
0.5971261298
 40
0.690511001
 40
0.8523016721
 40
0.9613318456
 40
1.0
 40
1.0
 40
1.0
 40
1.0
 10
6.063
 20
6.4705
 30
0.0
 10
6.0657840654
 20
6.471075758
 30
0.0
 10
6.076434265
 20
6.4731978804
 30
0.0
 10
6.0988724928
 20
6.4770154741
 30
0.0
 10
6.1254963958
 20
6.4800752498
 30
0.0
 10
6.1513545355
 20
6.481656074
 30
0.0
 10
6.1725017755
 20
6.4820937602
 30
0.0
 10
6.1936489395
 20
6.4816559168
 30
0.0
 10
6.2195064868
 20
6.4800749503
 30
0.0
 10
6.2461293643
 20
6.4770151774
 30
0.0
 10
6.2685664885
 20
6.4731977293
 30
0.0
 10
6.2792160989
 20
6.471075723
 30
0.0
 10
6.282
 20
6.4705
 30
0.0
  0
SPLINE
  5
2D2
100
AcDbEntity
  8
0
100
AcDbSpline
 62
7
  6
CONTINUOUS
 70
0
 71
3
 72
17
 73
13
 74
0
 42
0.0000001
 43
0.0000001
 44
0.0000000001
 40
0.0
 40
0.0
 40
0.0
 40
0.0
 40
0.03867044
 40
0.1477064951
 40
0.3095041166
 40
0.4028899756
 40
0.500008043
 40
0.5971261298
 40
0.690511001
 40
0.8523016721
 40
0.9613318456
 40
1.0
 40
1.0
 40
1.0
 40
1.0
 10
5.625
 20
6.4705
 30
0.0
 10
5.6277840654
 20
6.471075758
 30
0.0
 10
5.638434265
 20
6.4731978804
 30
0.0
 10
5.6608724928
 20
6.4770154741
 30
0.0
 10
5.6874963958
 20
6.4800752498
 30
0.0
 10
5.7133545355
 20
6.481656074
 30
0.0
 10
5.7345017755
 20
6.4820937602
 30
0.0
 10
5.7556489395
 20
6.4816559168
 30
0.0
 10
5.7815064868
 20
6.4800749503
 30
0.0
 10
5.8081293643
 20
6.4770151774
 30
0.0
 10
5.8305664885
 20
6.4731977293
 30
0.0
 10
5.8412160989
 20
6.471075723
 30
0.0
 10
5.844
 20
6.4705
 30
0.0
  0
SPLINE
  5
2D3
100
AcDbEntity
  8
0
100
AcDbSpline
 62
7
  6
CONTINUOUS
 70
0
 71
3
 72
39
 73
35
 74
0
 42
0.0000001
 43
0.0000001
 44
0.0000000001
 40
0.0
 40
0.0
 40
0.0
 40
0.0
 40
0.0252340737
 40
0.0512025751
 40
0.0780208219
 40
0.1057793862
 40
0.1345278358
 40
0.1642595249
 40
0.1949365776
 40
0.226497057
 40
0.2588649569
 40
0.2919507341
 40
0.3256605007
 40
0.359893379
 40
0.3945489734
 40
0.4295217493
 40
0.4647078165
 40
0.5000001519
 40
0.5352924966
 40
0.5704785981
 40
0.6054514111
 40
0.640107053
 40
0.6743399709
 40
0.7080497699
 40
0.7411355565
 40
0.7735034483
 40
0.8050638977
 40
0.835740902
 40
0.8654725257
 40
0.89422092
 40
0.9219794213
 40
0.9487975682
 40
0.9747659682
 40
1.0
 40
1.0
 40
1.0
 40
1.0
 10
6.282
 20
7.3744130406
 30
0.0
 10
6.282
 20
7.371845857
 30
0.0
 10
6.2816300091
 20
7.3666307635
 30
0.0
 10
6.2800251333
 20
7.3588361545
 30
0.0
 10
6.2773777772
 20
7.3510599085
 30
0.0
 10
6.2737249483
 20
7.3433905249
 30
0.0
 10
6.2691045693
 20
7.3359131267
 30
0.0
 10
6.2635666939
 20
7.3287107315
 30
0.0
 10
6.2571624938
 20
7.3218703362
 30
0.0
 10
6.2499546076
 20
7.3154722629
 30
0.0
 10
6.2420070111
 20
7.309598656
 30
0.0
 10
6.2333933622
 20
7.3043229294
 30
0.0
 10
6.2241895791
 20
7.2997201946
 30
0.0
 10
6.2144817171
 20
7.295851695
 30
0.0
 10
6.2043586894
 20
7.2927800011
 30
0.0
 10
6.1939189577
 20
7.2905468928
 30
0.0
 10
6.1832636287
 20
7.2891950077
 30
0.0
 10
6.1724999523
 20
7.2887392752
 30
0.0
 10
6.1617362729
 20
7.2891950167
 30
0.0
 10
6.1510809368
 20
7.2905469107
 30
0.0
 10
6.1406411951
 20
7.2927800309
 30
0.0
 10
6.1305181586
 20
7.2958517393
 30
0.0
 10
6.1208102891
 20
7.299720253
 30
0.0
 10
6.111606505
 20
7.3043230044
 30
0.0
 10
6.1029928586
 20
7.3095987418
 30
0.0
 10
6.0950452744
 20
7.3154723604
 30
0.0
 10
6.0878374027
 20
7.3218704367
 30
0.0
 10
6.0814332225
 20
7.3287108305
 30
0.0
 10
6.0758953648
 20
7.3359132177
 30
0.0
 10
6.0712750092
 20
7.3433906083
 30
0.0
 10
6.067622198
 20
7.3510599756
 30
0.0
 10
6.0649748551
 20
7.3588361972
 30
0.0
 10
6.0633699829
 20
7.3666307819
 30
0.0
 10
6.063
 20
7.3718458613
 30
0.0
 10
6.063
 20
7.3744130406
 30
0.0
  0
SPLINE
  5
2D4
100
AcDbEntity
  8
0
100
AcDbSpline
 62
7
  6
CONTINUOUS
 70
0
 71
3
 72
39
 73
35
 74
0
 42
0.0000001
 43
0.0000001
 44
0.0000000001
 40
0.0
 40
0.0
 40
0.0
 40
0.0
 40
0.0263080111
 40
0.052379944
 40
0.0784749608
 40
0.1049058869
 40
0.1319693928
 40
0.1599150094
 40
0.188930971
 40
0.2191450629
 40
0.2506231149
 40
0.2833680544
 40
0.3173286623
 40
0.3523946074
 40
0.3884080989
 40
0.4251723752
 40
0.4624523664
 40
0.4999979068
 40
0.5375435572
 40
0.5748240165
 40
0.6115890439
 40
0.647603294
 40
0.6826702151
 40
0.7166316754
 40
0.7493772803
 40
0.7808557415
 40
0.8110698985
 40
0.8400856498
 40
0.8680308834
 40
0.8950940178
 40
0.9215247057
 40
0.9476197478
 40
0.9736918898
 40
1.0
 40
1.0
 40
1.0
 40
1.0
 10
6.063
 20
7.3744130406
 30
0.0
 10
6.063
 20
7.3769281304
 30
0.0
 10
6.0633492514
 20
7.3819433248
 30
0.0
 10
6.0649399119
 20
7.3893008576
 30
0.0
 10
6.0675863204
 20
7.3963617463
 30
0.0
 10
6.0712495747
 20
7.4030587012
 30
0.0
 10
6.0758897445
 20
7.4093385121
 30
0.0
 10
6.0814504427
 20
7.4151626459
 30
0.0
 10
6.0878758401
 20
7.420496768
 30
0.0
 10
6.0951010275
 20
7.4253179125
 30
0.0
 10
6.1030589156
 20
7.4296072845
 30
0.0
 10
6.111677331
 20
7.4333514483
 30
0.0
 10
6.1208792938
 20
7.4365381251
 30
0.0
 10
6.1305810708
 20
7.4391585446
 30
0.0
 10
6.1406927163
 20
7.4412048621
 30
0.0
 10
6.15111788
 20
7.4426703935
 30
0.0
 10
6.1617551595
 20
7.4435520364
 30
0.0
 10
6.1724994091
 20
7.4438457272
 30
0.0
 10
6.1832437061
 20
7.4435521063
 30
0.0
 10
6.1938811152
 20
7.4426704942
 30
0.0
 10
6.2043064788
 20
7.4412050211
 30
0.0
 10
6.2144183589
 20
7.4391586628
 30
0.0
 10
6.2241203888
 20
7.4365382318
 30
0.0
 10
6.2333225813
 20
7.4333514853
 30
0.0
 10
6.241941162
 20
7.4296072406
 30
0.0
 10
6.2498991497
 20
7.4253178206
 30
0.0
 10
6.2571243302
 20
7.4204966207
 30
0.0
 10
6.2635496933
 20
7.4151625382
 30
0.0
 10
6.2691103144
 20
7.4093384561
 30
0.0
 10
6.2737504064
 20
7.4030587088
 30
0.0
 10
6.2774136644
 20
7.3963618202
 30
0.0
 10
6.2800600594
 20
7.3893009248
 30
0.0
 10
6.2816507258
 20
7.3819433628
 30
0.0
 10
6.282
 20
7.3769281399
 30
0.0
 10
6.282
 20
7.3744130406
 30
0.0
  0
SPLINE
  5
2D5
100
AcDbEntity
  8
0
100
AcDbSpline
 62
7
  6
CONTINUOUS
 70
0
 71
3
 72
39
 73
35
 74
0
 42
0.0000001
 43
0.0000001
 44
0.0000000001
 40
0.0
 40
0.0
 40
0.0
 40
0.0
 40
0.0263080127
 40
0.0523799257
 40
0.0784748666
 40
0.104905684
 40
0.131969087
 40
0.1599146264
 40
0.1889305752
 40
0.2191446949
 40
0.2506227523
 40
0.2833676625
 40
0.3173282542
 40
0.3523941845
 40
0.3884077261
 40
0.4251720905
 40
0.4624522053
 40
0.4999979007
 40
0.537543707
 40
0.5748242928
 40
0.6115894111
 40
0.6476037085
 40
0.6826706103
 40
0.7166320564
 40
0.7493776402
 40
0.7808561094
 40
0.8110702878
 40
0.8400860257
 40
0.8680311926
 40
0.8950942359
 40
0.9215248202
 40
0.947619781
 40
0.9736918924
 40
1.0
 40
1.0
 40
1.0
 40
1.0
 10
6.282
 20
6.6255869594
 30
0.0
 10
6.282
 20
6.6230718694
 30
0.0
 10
6.2816507475
 20
6.6180566767
 30
0.0
 10
6.2800600899
 20
6.6106991529
 30
0.0
 10
6.2774136947
 20
6.6036382801
 30
0.0
 10
6.2737504558
 20
6.5969413481
 30
0.0
 10
6.2691103092
 20
6.5906615554
 30
0.0
 10
6.26354964
 20
6.5848374187
 30
0.0
 10
6.2571242434
 20
6.5795033046
 30
0.0
 10
6.2498990668
 20
6.5746821412
 30
0.0
 10
6.2419411811
 20
6.5703927629
 30
0.0
 10
6.233322774
 20
6.5666485896
 30
0.0
 10
6.2241208175
 20
6.5634619122
 30
0.0
 10
6.2144190423
 20
6.5608414791
 30
0.0
 10
6.2043073855
 20
6.558795157
 30
0.0
 10
6.1938821981
 20
6.5573296146
 30
0.0
 10
6.1832448838
 20
6.5564479652
 30
0.0
 10
6.1725005926
 20
6.556154273
 30
0.0
 10
6.1617562536
 20
6.556447895
 30
0.0
 10
6.1511188091
 20
6.5573295139
 30
0.0
 10
6.1406934215
 20
6.5587949978
 30
0.0
 10
6.1305815304
 20
6.5608413601
 30
0.0
 10
6.1208795027
 20
6.5634618043
 30
0.0
 10
6.111677316
 20
6.5666485519
 30
0.0
 10
6.1030587426
 20
6.5703928068
 30
0.0
 10
6.0951007566
 20
6.5746822323
 30
0.0
 10
6.0878755869
 20
6.5795034506
 30
0.0
 10
6.081450225
 20
6.5848375262
 30
0.0
 10
6.0758896317
 20
6.5906616127
 30
0.0
 10
6.0712495606
 20
6.5969413433
 30
0.0
 10
6.0675863189
 20
6.6036382111
 30
0.0
 10
6.0649399375
 20
6.6106990893
 30
0.0
 10
6.0633492742
 20
6.6180566406
 30
0.0
 10
6.063
 20
6.6230718603
 30
0.0
 10
6.063
 20
6.6255869594
 30
0.0
  0
SPLINE
  5
2D6
100
AcDbEntity
  8
0
100
AcDbSpline
 62
7
  6
CONTINUOUS
 70
0
 71
3
 72
11
 73
7
 74
0
 42
0.0000001
 43
0.0000001
 44
0.0000000001
 40
0.0
 40
0.0
 40
0.0
 40
0.0
 40
0.2465618278
 40
0.49999668
 40
0.753434863
 40
1.0
 40
1.0
 40
1.0
 40
1.0
 10
5.2146465383
 20
7.6346919075
 30
0.0
 10
5.2136381724
 20
7.6346164658
 30
0.0
 10
5.2115901024
 20
7.6345045188
 30
0.0
 10
5.2085000272
 20
7.634447834
 30
0.0
 10
5.2054099388
 20
7.6345045243
 30
0.0
 10
5.2033618411
 20
7.6346164648
 30
0.0
 10
5.2023534617
 20
7.6346919075
 30
0.0
  0
SPLINE
  5
2D7
100
AcDbEntity
  8
0
100
AcDbSpline
 62
7
  6
CONTINUOUS
 70
0
 71
3
 72
15
 73
11
 74
0
 42
0.0000001
 43
0.0000001
 44
0.0000000001
 40
0.0
 40
0.0
 40
0.0
 40
0.0
 40
0.1256344711
 40
0.2507761758
 40
0.3755069661
 40
0.5000000172
 40
0.6244930656
 40
0.7492238507
 40
0.8743655347
 40
1.0
 40
1.0
 40
1.0
 40
1.0
 10
3.347884174
 20
6.3976117836
 30
0.0
 10
3.3404660441
 20
6.4211807147
 30
0.0
 10
3.3269288595
 20
6.4686426983
 30
0.0
 10
3.3114132634
 20
6.5409102539
 30
0.0
 10
3.3016280131
 20
6.6139713291
 30
0.0
 10
3.2982763088
 20
6.6874947427
 30
0.0
 10
3.3016280148
 20
6.7610181551
 30
0.0
 10
3.311413266
 20
6.8340792245
 30
0.0
 10
3.3269288617
 20
6.9063467737
 30
0.0
 10
3.3404660444
 20
6.9538087525
 30
0.0
 10
3.347884174
 20
6.9773776825
 30
0.0
  0
SPLINE
  5
2D8
100
AcDbEntity
  8
0
100
AcDbSpline
 62
7
  6
CONTINUOUS
 70
0
 71
3
 72
15
 73
11
 74
0
 42
0.0000001
 43
0.0000001
 44
0.0000000001
 40
0.0
 40
0.0
 40
0.0
 40
0.0
 40
0.1256344711
 40
0.2507761758
 40
0.3755069661
 40
0.5000000172
 40
0.6244930656
 40
0.7492238507
 40
0.8743655347
 40
1.0
 40
1.0
 40
1.0
 40
1.0
 10
3.347884174
 20
7.0226223175
 30
0.0
 10
3.3404660441
 20
7.0461912486
 30
0.0
 10
3.3269288595
 20
7.0936532323
 30
0.0
 10
3.3114132634
 20
7.1659207878
 30
0.0
 10
3.3016280131
 20
7.238981863
 30
0.0
 10
3.2982763088
 20
7.3125052766
 30
0.0
 10
3.3016280148
 20
7.386028689
 30
0.0
 10
3.311413266
 20
7.4590897584
 30
0.0
 10
3.3269288617
 20
7.5313573076
 30
0.0
 10
3.3404660444
 20
7.5788192864
 30
0.0
 10
3.347884174
 20
7.6023882164
 30
0.0
  0
ELLIPSE
  5
2D9
100
AcDbEntity
  8
0
100
AcDbEllipse
 62
7
  6
CONTINUOUS
 10
6.503
 20
6.413
 30
0.0
 11
0.0515
 21
0.0
 31
0.0
 40
1.0
 41
3.1415926536
 42
6.2831853072
  0
ELLIPSE
  5
2DA
100
AcDbEntity
  8
0
100
AcDbEllipse
 62
7
  6
CONTINUOUS
 10
6.503
 20
7.587
 30
0.0
 11
0.0515
 21
-0.0
 31
0.0
 40
1.0
 41
0.0
 42
3.1415926536
  0
ELLIPSE
  5
2DB
100
AcDbEntity
  8
0
100
AcDbEllipse
 62
7
  6
CONTINUOUS
 10
4.364
 20
6.3185
 30
0.0
 11
0.0515
 21
-0.0
 31
0.0
 40
1.0
 41
-3.1415926536
 42
0.0
  0
ELLIPSE
  5
2DC
100
AcDbEntity
  8
0
100
AcDbEllipse
 62
7
  6
CONTINUOUS
 10
4.364
 20
7.6815
 30
0.0
 11
0.0515
 21
0.0
 31
0.0
 40
1.0
 41
0.0
 42
3.1415926536
  0
ENDSEC
  0
SECTION
  2
OBJECTS
  0
DICTIONARY
  5
C
100
AcDbDictionary
280
0
281
1
  3
ACAD_GROUP
350
D
  3
ACAD_MLINESTYLE
350
17
  3
ACAD_LAYOUT
350
1A
  3
ACAD_PLOTSETTINGS
350
19
  3
ACAD_PLOTSTYLENAME
350
E
  0
DICTIONARY
  5
D
102
{ACAD_REACTORS
330
C
102
}
100
AcDbDictionary
280
0
281
1
  0
ACDBDICTIONARYWDFLT
  5
E
102
{ACAD_REACTORS
330
C
102
}
100
AcDbDictionary
281
1
  3
Normal
350
F
100
AcDbDictionaryWithDefault
340
F
  0
DICTIONARY
  5
17
102
{ACAD_REACTORS
330
C
102
}
100
AcDbDictionary
280
0
281
1
  3
Standard
350
18
  0
DICTIONARY
  5
19
102
{ACAD_REACTORS
330
C
102
}
100
AcDbDictionary
281
1
  0
DICTIONARY
  5
1A
102
{ACAD_REACTORS
330
C
102
}
100
AcDbDictionary
281
1
  3
Model
350
2DD
  3
Layout1
350
2DE
  0
ACDBPLACEHOLDER
  5
F
102
{ACAD_REACTORS
330
E
102
}
  0
MLINESTYLE
  5
18
102
{ACAD_REACTORS
330
17
102
}
100
AcDbMlineStyle
  2
STANDARD
 70
0
  3

 62
256
 51
90.0
 52
90.0
 71
2
 49
0.5
 62
256
  6
BYLAYER
 49
-0.5
 62
256
  6
BYLAYER
  0
LAYOUT
  5
2DD
102
{ACAD_REACTORS
330
1A
102
}
100
AcDbPlotSettings
  1

  2
none_device
  4
ANSI_B_(17.00_x_11.00_Inches)
  6

 40
0.0
 41
0.0
 42
0.0
 43
0.0
 44
431.8
 45
279.4
 46
0.0
 47
0.0
 48
0.0
 49
0.0
140
0.0
141
0.0
142
1.0
143
1.0
 70
1024
 72
0
 73
0
 74
0
  7

 75
0
147
1.0
148
0.0
149
0.0
100
AcDbLayout
  1
Model
 70
0
 71
0
 10
0.0
 20
0.0
 11
17.0
 21
11.0
 12
0.0
 22
0.0
 32
0.0
 14
0.0
 24
0.0
 34
0.0
 15
0.0
 25
0.0
 35
0.0
146
0.0
 13
0.0
 23
0.0
 33
0.0
 16
1.0
 26
0.0
 36
0.0
 17
0.0
 27
1.0
 37
0.0
 76
0
330
23D
345
0
346
0
  0
LAYOUT
  5
2DE
102
{ACAD_REACTORS
330
1A
102
}
100
AcDbPlotSettings
  1

  2
none_device
  4
ANSI_B_(17.00_x_11.00_Inches)
  6

 40
0.0
 41
0.0
 42
0.0
 43
0.0
 44
431.8
 45
279.4
 46
0.0
 47
0.0
 48
0.0
 49
0.0
140
0.0
141
0.0
142
1.0
143
1.0
 70
0
 72
0
 73
0
 74
0
  7

 75
0
147
1.0
148
0.0
149
0.0
100
AcDbLayout
  1
Layout1
 70
0
 71
1
 10
0.0
 20
0.0
 11
17.0
 21
11.0
 12
0.0
 22
0.0
 32
0.0
 14
0.0
 24
0.0
 34
0.0
 15
0.0
 25
0.0
 35
0.0
146
0.0
 13
0.0
 23
0.0
 33
0.0
 16
1.0
 26
0.0
 36
0.0
 17
0.0
 27
1.0
 37
0.0
 76
0
330
23E
345
0
346
0
  0
ENDSEC
  0
EOF
