999
DXF file: CXGDXCN.dxf
999
Pro/ENGINEER 2016010 by Parametric Technology Corporation
  0
SECTION
  2
HEADER
  9
$ACADVER
  1
AC1021
  9
$DWGCODEPAGE
  3
ANSI_1252
  9
$EXTMAX
 10
17.0
 20
11.0
 30
0.0
  9
$EXTMIN
 10
0.0
 20
0.0
 30
0.0
  9
$LIMMIN
 10
0.0
 20
0.0
  9
$LIMMAX
 10
17.0
 20
11.0
  9
$VIEWCTR
 10
8.5
 20
5.5
  9
$VIEWSIZE
 40
11.0
  9
$CLAYER
  8
0
  9
$LTSCALE
 40
0.935
  9
$CELTYPE
  6
BYLAYER
  9
$DIMSCALE
 40
1.0
  9
$DIMASZ
 40
0.1875
  9
$DIMEXO
 40
0.0625
  9
$DIMDLI
 40
0.646
  9
$DIMEXE
 40
0.125
  9
$DIMCEN
 40
0.153
  9
$DIMLFAC
 40
1.0
  9
$DIMBLK
  1
_FILLED
  9
$DIMALT
 70
0
  9
$DIMALTF
 40
25.4
  9
$DIMTXT
 40
0.125
  9
$DIMTOL
 70
0
  9
$DIMLIM
 70
0
  9
$DIMTFAC
 40
1.0
  9
$DIMGAP
 40
0.09
  9
$DIMDSEP
 70
46
  9
$AUNITS
 70
0
  9
$PDMODE
 70
3
  9
$PDSIZE
 40
0.3125
  9
$HANDSEED
  5
2C7
  9
$TILEMODE
 70
1
  9
$MEASUREMENT
 70
0
  9
$INSUNITS
 70
1
  0
ENDSEC
  0
SECTION
  2
CLASSES
  0
CLASS
  1
ACDBDICTIONARYWDFLT
  2
AcDbDictionaryWithDefault
  3
AutoCAD 2000
 90
0
 91
1
280
0
281
0
  0
CLASS
  1
ACDBPLACEHOLDER
  2
AcDbPlaceHolder
  3
AutoCAD 2000
 90
0
 91
1
280
0
281
0
  0
CLASS
  1
LAYOUT
  2
AcDbLayout
  3
AutoCAD 2000
 90
0
 91
0
280
0
281
0
  0
ENDSEC
  0
SECTION
  2
TABLES
  0
TABLE
  2
VPORT
  5
8
100
AcDbSymbolTable
 70
2
  0
VPORT
  5
1F4
100
AcDbSymbolTableRecord
100
AcDbViewportTableRecord
  2
*ACTIVE
 70
0
 10
0.0
 20
0.0
 11
1.0
 21
1.0
 12
8.5
 22
5.5
 13
0.0
 23
0.0
 14
1.0
 24
1.0
 15
0.0
 25
0.0
 16
0.0
 26
0.0
 36
1.0
 17
0.0
 27
0.0
 37
0.0
 40
11.0
 41
1.5454545455
 42
50.0
 43
0.0
 44
0.0
 50
0.0
 51
0.0
 71
0
 72
100
 73
1
 74
1
 75
0
 76
0
 77
0
 78
0
  0
ENDTAB
  0
TABLE
  2
LTYPE
  5
5
100
AcDbSymbolTable
 70
6
  0
LTYPE
  5
14
100
AcDbSymbolTableRecord
100
AcDbLinetypeTableRecord
  2
BYBLOCK
 70
0
  3

 72
65
 73
0
 40
0.0
  0
LTYPE
  5
15
100
AcDbSymbolTableRecord
100
AcDbLinetypeTableRecord
  2
BYLAYER
 70
0
  3

 72
65
 73
0
 40
0.0
  0
LTYPE
  5
16
100
AcDbSymbolTableRecord
100
AcDbLinetypeTableRecord
  2
CONTINUOUS
 70
64
  3
Solid line
 72
65
 73
0
 40
0.0
  0
LTYPE
  5
1F5
100
AcDbSymbolTableRecord
100
AcDbLinetypeTableRecord
  2
CENTER
 70
64
  3
____ _ ____ _ ____ _ ____ _ ____ _ ____ _ ____
 72
65
 73
4
 40
0.6
 49
0.375
 74
0
 49
-0.075
 74
0
 49
0.075
 74
0
 49
-0.075
 74
0
  0
LTYPE
  5
1F6
100
AcDbSymbolTableRecord
100
AcDbLinetypeTableRecord
  2
HIDDEN
 70
64
  3
- - - - - - - - - - - - - - - - - - - -
 72
65
 73
2
 40
0.2
 49
0.1
 74
0
 49
-0.1
 74
0
  0
LTYPE
  5
1F7
100
AcDbSymbolTableRecord
100
AcDbLinetypeTableRecord
  2
PHANTOM
 70
64
  3
_____ _ _ _____ _ _ _____ _ _ _____
 72
65
 73
6
 40
0.8
 49
0.45
 74
0
 49
-0.05
 74
0
 49
0.1
 74
0
 49
-0.05
 74
0
 49
0.1
 74
0
 49
-0.05
 74
0
  0
LTYPE
  5
1F8
100
AcDbSymbolTableRecord
100
AcDbLinetypeTableRecord
  2
DOT
 70
64
  3
. . . . . . . . . . . . . . . . . . . .
 72
65
 73
2
 40
0.2
 49
0.1
 74
0
 49
-0.1
 74
0
  0
LTYPE
  5
1F9
100
AcDbSymbolTableRecord
100
AcDbLinetypeTableRecord
  2
DASHED
 70
64
  3
- - - - - - - - - - - - - - - - - - - -
 72
65
 73
2
 40
0.2
 49
0.1
 74
0
 49
-0.1
 74
0
  0
ENDTAB
  0
TABLE
  2
LAYER
  5
2
100
AcDbSymbolTable
 70
36
  0
LAYER
  5
10
100
AcDbSymbolTableRecord
100
AcDbLayerTableRecord
  2
0
 70
0
 62
7
  6
CONTINUOUS
370
-3
390
F
  0
LAYER
  5
1FA
100
AcDbSymbolTableRecord
100
AcDbLayerTableRecord
  2
DEFAULT_1
 70
0
 62
7
  6
CENTER
370
-3
390
F
  0
LAYER
  5
1FB
100
AcDbSymbolTableRecord
100
AcDbLayerTableRecord
  2
DEFAULT_2
 70
0
 62
8
  6
HIDDEN
370
-3
390
F
  0
LAYER
  5
1FC
100
AcDbSymbolTableRecord
100
AcDbLayerTableRecord
  2
DEFAULT_3
 70
0
 62
7
  6
PHANTOM
370
-3
390
F
  0
LAYER
  5
1FD
100
AcDbSymbolTableRecord
100
AcDbLayerTableRecord
  2
01_ALL_DTM_PLN
 70
0
 62
7
  6
CONTINUOUS
370
-3
390
F
  0
LAYER
  5
1FE
100
AcDbSymbolTableRecord
100
AcDbLayerTableRecord
  2
01__ASM_ALL_DTM_PLN
 70
0
 62
7
  6
CONTINUOUS
370
-3
390
F
  0
LAYER
  5
1FF
100
AcDbSymbolTableRecord
100
AcDbLayerTableRecord
  2
01__ASM_DEF_DTM_PLN
 70
0
 62
7
  6
CONTINUOUS
370
-3
390
F
  0
LAYER
  5
200
100
AcDbSymbolTableRecord
100
AcDbLayerTableRecord
  2
01___PRT_ALL_DTM_PLN
 70
0
 62
7
  6
CONTINUOUS
370
-3
390
F
  0
LAYER
  5
201
100
AcDbSymbolTableRecord
100
AcDbLayerTableRecord
  2
01___PRT_DEF_DTM_PLN
 70
0
 62
7
  6
CONTINUOUS
370
-3
390
F
  0
LAYER
  5
202
100
AcDbSymbolTableRecord
100
AcDbLayerTableRecord
  2
02_ALL_AXES
 70
0
 62
7
  6
CONTINUOUS
370
-3
390
F
  0
LAYER
  5
203
100
AcDbSymbolTableRecord
100
AcDbLayerTableRecord
  2
02__ASM_ALL_AXES
 70
0
 62
7
  6
CONTINUOUS
370
-3
390
F
  0
LAYER
  5
204
100
AcDbSymbolTableRecord
100
AcDbLayerTableRecord
  2
02___PRT_ALL_AXES
 70
0
 62
7
  6
CONTINUOUS
370
-3
390
F
  0
LAYER
  5
205
100
AcDbSymbolTableRecord
100
AcDbLayerTableRecord
  2
03_ALL_CURVES
 70
0
 62
7
  6
CONTINUOUS
370
-3
390
F
  0
LAYER
  5
206
100
AcDbSymbolTableRecord
100
AcDbLayerTableRecord
  2
03__ASM_ALL_CURVES
 70
0
 62
7
  6
CONTINUOUS
370
-3
390
F
  0
LAYER
  5
207
100
AcDbSymbolTableRecord
100
AcDbLayerTableRecord
  2
03___PRT_ALL_CURVES
 70
0
 62
7
  6
CONTINUOUS
370
-3
390
F
  0
LAYER
  5
208
100
AcDbSymbolTableRecord
100
AcDbLayerTableRecord
  2
04_ALL_DTM_PNT
 70
0
 62
7
  6
CONTINUOUS
370
-3
390
F
  0
LAYER
  5
209
100
AcDbSymbolTableRecord
100
AcDbLayerTableRecord
  2
04__ASM_ALL_DTM_PNT
 70
0
 62
7
  6
CONTINUOUS
370
-3
390
F
  0
LAYER
  5
20A
100
AcDbSymbolTableRecord
100
AcDbLayerTableRecord
  2
04___PRT_ALL_DTM_PNT
 70
0
 62
7
  6
CONTINUOUS
370
-3
390
F
  0
LAYER
  5
20B
100
AcDbSymbolTableRecord
100
AcDbLayerTableRecord
  2
05_ALL_DTM_CSYS
 70
0
 62
7
  6
CONTINUOUS
370
-3
390
F
  0
LAYER
  5
20C
100
AcDbSymbolTableRecord
100
AcDbLayerTableRecord
  2
05__ASM_ALL_DTM_CSYS
 70
0
 62
7
  6
CONTINUOUS
370
-3
390
F
  0
LAYER
  5
20D
100
AcDbSymbolTableRecord
100
AcDbLayerTableRecord
  2
05__ASM_DEF_DTM_CSYS
 70
0
 62
7
  6
CONTINUOUS
370
-3
390
F
  0
LAYER
  5
20E
100
AcDbSymbolTableRecord
100
AcDbLayerTableRecord
  2
05___PRT_ALL_DTM_CSYS
 70
0
 62
7
  6
CONTINUOUS
370
-3
390
F
  0
LAYER
  5
20F
100
AcDbSymbolTableRecord
100
AcDbLayerTableRecord
  2
05___PRT_DEF_DTM_CSYS
 70
0
 62
7
  6
CONTINUOUS
370
-3
390
F
  0
LAYER
  5
210
100
AcDbSymbolTableRecord
100
AcDbLayerTableRecord
  2
06_ALL_SURFS
 70
0
 62
7
  6
CONTINUOUS
370
-3
390
F
  0
LAYER
  5
211
100
AcDbSymbolTableRecord
100
AcDbLayerTableRecord
  2
06__ASM_ALL_SURFS
 70
0
 62
7
  6
CONTINUOUS
370
-3
390
F
  0
LAYER
  5
212
100
AcDbSymbolTableRecord
100
AcDbLayerTableRecord
  2
06___PRT_ALL_SURFS
 70
0
 62
7
  6
CONTINUOUS
370
-3
390
F
  0
LAYER
  5
213
100
AcDbSymbolTableRecord
100
AcDbLayerTableRecord
  2
07__ASM_ALL_SKELETONS
 70
0
 62
7
  6
CONTINUOUS
370
-3
390
F
  0
LAYER
  5
214
100
AcDbSymbolTableRecord
100
AcDbLayerTableRecord
  2
128-002_FEATURES
 70
0
 62
7
  6
CONTINUOUS
370
-3
390
F
  0
LAYER
  5
215
100
AcDbSymbolTableRecord
100
AcDbLayerTableRecord
  2
128-002_REF_GEOMETRY
 70
0
 62
7
  6
CONTINUOUS
370
-3
390
F
  0
LAYER
  5
216
100
AcDbSymbolTableRecord
100
AcDbLayerTableRecord
  2
128-003_FEATURES
 70
0
 62
7
  6
CONTINUOUS
370
-3
390
F
  0
LAYER
  5
217
100
AcDbSymbolTableRecord
100
AcDbLayerTableRecord
  2
128-003_REF_GEOMETRY
 70
0
 62
7
  6
CONTINUOUS
370
-3
390
F
  0
LAYER
  5
218
100
AcDbSymbolTableRecord
100
AcDbLayerTableRecord
  2
128-016_FEATURES
 70
0
 62
7
  6
CONTINUOUS
370
-3
390
F
  0
LAYER
  5
219
100
AcDbSymbolTableRecord
100
AcDbLayerTableRecord
  2
128-016_REF_GEOMETRY
 70
0
 62
7
  6
CONTINUOUS
370
-3
390
F
  0
LAYER
  5
21A
100
AcDbSymbolTableRecord
100
AcDbLayerTableRecord
  2
128-100_FEATURES
 70
0
 62
7
  6
CONTINUOUS
370
-3
390
F
  0
LAYER
  5
21B
100
AcDbSymbolTableRecord
100
AcDbLayerTableRecord
  2
128-100_REF_GEOMETRY
 70
0
 62
7
  6
CONTINUOUS
370
-3
390
F
  0
LAYER
  5
21C
100
AcDbSymbolTableRecord
100
AcDbLayerTableRecord
  2
128-101_FEATURES
 70
0
 62
7
  6
CONTINUOUS
370
-3
390
F
  0
LAYER
  5
21D
100
AcDbSymbolTableRecord
100
AcDbLayerTableRecord
  2
128-101_REF_GEOMETRY
 70
0
 62
7
  6
CONTINUOUS
370
-3
390
F
  0
LAYER
  5
21E
100
AcDbSymbolTableRecord
100
AcDbLayerTableRecord
  2
128-102_FEATURES
 70
0
 62
7
  6
CONTINUOUS
370
-3
390
F
  0
LAYER
  5
21F
100
AcDbSymbolTableRecord
100
AcDbLayerTableRecord
  2
128-102_REF_GEOMETRY
 70
0
 62
7
  6
CONTINUOUS
370
-3
390
F
  0
LAYER
  5
220
100
AcDbSymbolTableRecord
100
AcDbLayerTableRecord
  2
128-103_FEATURES
 70
0
 62
7
  6
CONTINUOUS
370
-3
390
F
  0
LAYER
  5
221
100
AcDbSymbolTableRecord
100
AcDbLayerTableRecord
  2
128-103_REF_GEOMETRY
 70
0
 62
7
  6
CONTINUOUS
370
-3
390
F
  0
LAYER
  5
222
100
AcDbSymbolTableRecord
100
AcDbLayerTableRecord
  2
128-104_FEATURES
 70
0
 62
7
  6
CONTINUOUS
370
-3
390
F
  0
LAYER
  5
223
100
AcDbSymbolTableRecord
100
AcDbLayerTableRecord
  2
128-104_REF_GEOMETRY
 70
0
 62
7
  6
CONTINUOUS
370
-3
390
F
  0
LAYER
  5
224
100
AcDbSymbolTableRecord
100
AcDbLayerTableRecord
  2
COPY_GEO_FET
 70
0
 62
7
  6
CONTINUOUS
370
-3
390
F
  0
LAYER
  5
225
100
AcDbSymbolTableRecord
100
AcDbLayerTableRecord
  2
COSMETIC
 70
0
 62
7
  6
CONTINUOUS
370
-3
390
F
  0
LAYER
  5
226
100
AcDbSymbolTableRecord
100
AcDbLayerTableRecord
  2
CROSS_HOLE_DATUMS
 70
0
 62
7
  6
CONTINUOUS
370
-3
390
F
  0
LAYER
  5
227
100
AcDbSymbolTableRecord
100
AcDbLayerTableRecord
  2
CURVES
 70
0
 62
7
  6
CONTINUOUS
370
-3
390
F
  0
LAYER
  5
228
100
AcDbSymbolTableRecord
100
AcDbLayerTableRecord
  2
CUT_REF_SURF
 70
0
 62
7
  6
CONTINUOUS
370
-3
390
F
  0
LAYER
  5
229
100
AcDbSymbolTableRecord
100
AcDbLayerTableRecord
  2
DATUM
 70
0
 62
7
  6
CONTINUOUS
370
-3
390
F
  0
LAYER
  5
22A
100
AcDbSymbolTableRecord
100
AcDbLayerTableRecord
  2
DATUMCURVES
 70
0
 62
7
  6
CONTINUOUS
370
-3
390
F
  0
LAYER
  5
22B
100
AcDbSymbolTableRecord
100
AcDbLayerTableRecord
  2
DIMENSIONS
 70
0
 62
7
  6
CONTINUOUS
370
-3
390
F
  0
LAYER
  5
22C
100
AcDbSymbolTableRecord
100
AcDbLayerTableRecord
  2
DRAWINGNOTES
 70
0
 62
7
  6
CONTINUOUS
370
-3
390
F
  0
LAYER
  5
22D
100
AcDbSymbolTableRecord
100
AcDbLayerTableRecord
  2
DTM
 70
0
 62
7
  6
CONTINUOUS
370
-3
390
F
  0
LAYER
  5
22E
100
AcDbSymbolTableRecord
100
AcDbLayerTableRecord
  2
DTM230
 70
0
 62
7
  6
CONTINUOUS
370
-3
390
F
  0
LAYER
  5
22F
100
AcDbSymbolTableRecord
100
AcDbLayerTableRecord
  2
DTM_500001
 70
0
 62
7
  6
CONTINUOUS
370
-3
390
F
  0
LAYER
  5
230
100
AcDbSymbolTableRecord
100
AcDbLayerTableRecord
  2
DTM_500002
 70
0
 62
7
  6
CONTINUOUS
370
-3
390
F
  0
LAYER
  5
231
100
AcDbSymbolTableRecord
100
AcDbLayerTableRecord
  2
DTM_515002
 70
0
 62
7
  6
CONTINUOUS
370
-3
390
F
  0
LAYER
  5
232
100
AcDbSymbolTableRecord
100
AcDbLayerTableRecord
  2
DTM_SPRING_RH
 70
0
 62
7
  6
CONTINUOUS
370
-3
390
F
  0
LAYER
  5
233
100
AcDbSymbolTableRecord
100
AcDbLayerTableRecord
  2
DTM_SP_RH_CONSTR
 70
0
 62
7
  6
CONTINUOUS
370
-3
390
F
  0
LAYER
  5
234
100
AcDbSymbolTableRecord
100
AcDbLayerTableRecord
  2
FLUTE_DATUMS
 70
0
 62
7
  6
CONTINUOUS
370
-3
390
F
  0
LAYER
  5
235
100
AcDbSymbolTableRecord
100
AcDbLayerTableRecord
  2
GEOMETRICTOLERANCES
 70
0
 62
7
  6
CONTINUOUS
370
-3
390
F
  0
LAYER
  5
236
100
AcDbSymbolTableRecord
100
AcDbLayerTableRecord
  2
HIDDEN
 70
0
 62
7
  6
CONTINUOUS
370
-3
390
F
  0
LAYER
  5
237
100
AcDbSymbolTableRecord
100
AcDbLayerTableRecord
  2
HIDDEN_DRW
 70
0
 62
7
  6
CONTINUOUS
370
-3
390
F
  0
LAYER
  5
238
100
AcDbSymbolTableRecord
100
AcDbLayerTableRecord
  2
PARAMETERDIMENSIONS
 70
0
 62
7
  6
CONTINUOUS
370
-3
390
F
  0
LAYER
  5
239
100
AcDbSymbolTableRecord
100
AcDbLayerTableRecord
  2
PLANE
 70
0
 62
7
  6
CONTINUOUS
370
-3
390
F
  0
LAYER
  5
23A
100
AcDbSymbolTableRecord
100
AcDbLayerTableRecord
  2
T-8A_CAVITY-INCH
 70
0
 62
7
  6
CONTINUOUS
370
-3
390
F
  0
LAYER
  5
23B
100
AcDbSymbolTableRecord
100
AcDbLayerTableRecord
  2
T-8A_CAVITY_REF_GEOMETRY
 70
0
 62
7
  6
CONTINUOUS
370
-3
390
F
  0
LAYER
  5
23C
100
AcDbSymbolTableRecord
100
AcDbLayerTableRecord
  2
TEXT
 70
0
 62
7
  6
CONTINUOUS
370
-3
390
F
  0
LAYER
  5
23D
100
AcDbSymbolTableRecord
100
AcDbLayerTableRecord
  2
THREAD
 70
0
 62
7
  6
CONTINUOUS
370
-3
390
F
  0
ENDTAB
  0
TABLE
  2
STYLE
  5
3
100
AcDbSymbolTable
 70
1
  0
STYLE
  5
11
100
AcDbSymbolTableRecord
100
AcDbTextStyleTableRecord
  2
STANDARD
 70
0
 40
0.0
 41
0.8
 50
0.0
 71
0
 42
0.2
  3
txt
  4

  0
STYLE
  5
23E
100
AcDbSymbolTableRecord
100
AcDbTextStyleTableRecord
  2
TEXTSTYLE_1
 70
0
 40
0.0
 41
0.8
 50
0.0
 71
0
 42
0.2
  3
gdt
  4

  0
ENDTAB
  0
TABLE
  2
VIEW
  5
6
100
AcDbSymbolTable
 70
0
  0
ENDTAB
  0
TABLE
  2
UCS
  5
7
100
AcDbSymbolTable
 70
0
  0
ENDTAB
  0
TABLE
  2
APPID
  5
9
100
AcDbSymbolTable
 70
1
  0
APPID
  5
23F
100
AcDbSymbolTableRecord
100
AcDbRegAppTableRecord
  2
ACAD
 70
0
  0
ENDTAB
  0
TABLE
  2
BLOCK_RECORD
  5
1
100
AcDbSymbolTable
 70
0
  0
BLOCK_RECORD
  5
240
100
AcDbSymbolTableRecord
100
AcDbBlockTableRecord
  2
*Model_Space
  0
BLOCK_RECORD
  5
241
100
AcDbSymbolTableRecord
100
AcDbBlockTableRecord
  2
*Paper_Space
  0
BLOCK_RECORD
  5
242
100
AcDbSymbolTableRecord
100
AcDbBlockTableRecord
  2
_FILLED
  0
BLOCK_RECORD
  5
243
100
AcDbSymbolTableRecord
100
AcDbBlockTableRecord
  2
*D0
  0
ENDTAB
  0
TABLE
  2
DIMSTYLE
  5
A
100
AcDbSymbolTable
 70
1
100
AcDbDimStyleTable
 71
0
  0
DIMSTYLE
105
244
100
AcDbSymbolTableRecord
100
AcDbDimStyleTableRecord
  2
STANDARD
 70
0
  3

  4

 40
1.0
 41
0.1875
 42
0.0625
 43
0.38
 44
0.125
 45
0.0
 46
0.0
 47
0.001
 48
0.001
140
0.125
141
0.09
142
0.0
143
25.4
144
1.0
145
0.0
146
1.0
147
0.09
 71
0.0
 72
0.0
 73
1
 74
1
 75
0
 76
0
 77
0
 78
4
170
0
171
2
172
0
173
0
174
0
175
0
176
0
177
0
178
0
270
2
271
3
272
3
273
2
274
2
275
0
280
0
281
0
282
0
283
1
284
4
285
0
286
0
287
3
288
0
340
11
278
46
341
242
342
242
343
242
344
242
  0
DIMSTYLE
105
245
100
AcDbSymbolTableRecord
100
AcDbDimStyleTableRecord
  2
DIMSTYLE_1
 70
0
  3

  4

 40
1.0
 41
0.1875
 42
0.0625
 43
0.38
 44
0.125
 45
0.0
 46
0.0
 47
0.0
 48
0.0
140
0.125
141
0.09
142
0.0
143
25.4
144
1.0
145
0.0
146
1.0
147
0.0625
 71
0.0
 72
0.0
 73
1
 74
1
 75
0
 76
0
 77
0
 78
4
170
0
171
2
172
0
173
0
174
0
175
0
176
0
177
0
178
0
270
2
271
2
272
2
273
2
274
2
275
0
280
0
281
0
282
0
283
1
284
4
285
0
286
0
287
3
288
0
340
11
278
46
341
242
342
242
343
242
344
242
  0
ENDTAB
  0
ENDSEC
  0
SECTION
  2
BLOCKS
  0
BLOCK
  5
20
100
AcDbEntity
  8
0
100
AcDbBlockBegin
  2
*Model_Space
 70
0
 10
0.0
 20
0.0
 30
0.0
  3
*Model_Space
  1

  0
ENDBLK
  5
21
100
AcDbEntity
  8
0
100
AcDbBlockEnd
  0
BLOCK
  5
1C
100
AcDbEntity
  8
0
100
AcDbBlockBegin
  2
*Paper_Space
 70
0
 10
0.0
 20
0.0
 30
0.0
  3
*Paper_Space
  1

  0
ENDBLK
  5
1D
100
AcDbEntity
  8
0
100
AcDbBlockEnd
  0
BLOCK
  5
246
100
AcDbEntity
  8
0
100
AcDbBlockBegin
  2
_FILLED
 70
64
 10
0.0
 20
0.0
  3
_FILLED
  1

  0
SOLID
  5
247
100
AcDbEntity
  8
0
  6
BYBLOCK
 62
0
100
AcDbTrace
 10
0.0
 20
0.0
 11
-1.0
 21
0.1666666667
 12
-1.0
 22
-0.1666666667
 13
-1.0
 23
-0.1666666667
  0
ENDBLK
  5
248
100
AcDbEntity
  8
0
  6
BYBLOCK
 62
0
100
AcDbBlockEnd
  0
BLOCK
  5
249
100
AcDbEntity
  8
0
100
AcDbBlockBegin
 62
6
  6
CONTINUOUS
  2
*D0
 70
65
 10
0.0
 20
0.0
  3
*D0
  1

  0
MTEXT
  5
24A
100
AcDbEntity
  8
0
100
AcDbMText
 62
6
  6
CONTINUOUS
  7
STANDARD
 71
1
 72
1
 10
4.5155
 20
8.2165307778
 30
0.0
 11
1.0
 21
0.0
 31
0.0
 44
0.9
  1
.97 in (24,6 mm)
 40
0.125
 41
1.6
  0
LINE
  5
24B
100
AcDbEntity
  8
0
100
AcDbLine
 62
6
  6
CONTINUOUS
 10
4.2655
 20
7.8415307778
 11
4.2655
 21
8.2790307778
  0
LINE
  5
24C
100
AcDbEntity
  8
0
100
AcDbLine
 62
6
  6
CONTINUOUS
 10
3.2965000181
 20
7.0620307778
 11
3.2965000181
 21
8.2790307778
  0
LINE
  5
24D
100
AcDbEntity
  8
0
100
AcDbLine
 62
6
  6
CONTINUOUS
 10
4.2655
 20
8.1540307778
 11
3.7810000091
 21
8.1540307778
  0
LINE
  5
24E
100
AcDbEntity
  8
0
100
AcDbLine
 62
6
  6
CONTINUOUS
 10
3.7810000091
 20
8.1540307778
 11
4.453
 21
8.1540307778
  0
LINE
  5
24F
100
AcDbEntity
  8
0
100
AcDbLine
 62
6
  6
CONTINUOUS
 10
3.2965000181
 20
8.1540307778
 11
3.7810000091
 21
8.1540307778
  0
INSERT
  5
250
100
AcDbEntity
  8
0
100
AcDbBlockReference
 62
6
  6
CONTINUOUS
  2
_FILLED
 10
4.2655
 20
8.1540307778
 41
0.1875
 42
0.1875
 43
0.1875
  0
INSERT
  5
251
100
AcDbEntity
  8
0
100
AcDbBlockReference
 62
6
  6
CONTINUOUS
  2
_FILLED
 10
3.2965000181
 20
8.1540307778
 41
0.1875
 42
0.1875
 43
0.1875
 50
180.0
  0
ENDBLK
  5
252
100
AcDbEntity
  8
0
  6
BYBLOCK
 62
0
100
AcDbBlockEnd
  0
ENDSEC
  0
SECTION
  2
ENTITIES
  0
DIMENSION
  5
253
100
AcDbEntity
  8
0
100
AcDbDimension
 62
6
  6
CONTINUOUS
  2
*D0
 10
3.2965000181
 20
8.1540307778
 11
5.3155
 21
8.1540307778
 70
160
 71
1
 42
0.9689999819
  1
<> in (24,6 mm)
  3
DIMSTYLE_1
100
AcDbAlignedDimension
 13
4.2655
 23
7.7790307778
 14
3.2965000181
 24
6.9995307778
 50
180.0
100
AcDbRotatedDimension
  0
MTEXT
  5
254
100
AcDbEntity
  8
0
100
AcDbMText
 62
2
  6
CONTINUOUS
  7
STANDARD
 71
1
 72
1
 10
6.9635
 20
7.0620307778
 30
0.0
 11
1.0
 21
0.0
 31
0.0
 44
0.6
  1
Port 1\POutlet
 40
0.125
 41
0.6
  0
MTEXT
  5
255
100
AcDbEntity
  8
0
100
AcDbMText
 62
2
  6
CONTINUOUS
  7
STANDARD
 71
1
 72
1
 10
5.5775
 20
6.0310307778
 30
0.0
 11
1.0
 21
0.0
 31
0.0
 44
0.6
  1
Port 2\PInlet
 40
0.125
 41
0.6
  0
MTEXT
  5
256
100
AcDbEntity
  8
0
100
AcDbMText
 62
2
  6
CONTINUOUS
  7
STANDARD
 71
1
 72
1
 10
4.5155
 20
7.967
 30
0.0
 11
1.0
 21
0.0
 31
0.0
 44
0.6
  1
 LOCATING SHOULDER
 40
0.125
 41
1.8
  0
LINE
  5
257
100
AcDbEntity
  8
0
100
AcDbLine
 62
7
  6
CONTINUOUS
 10
3.2993940775
 20
7.6250126892
 11
3.2965
 21
7.62
  0
LINE
  5
258
100
AcDbEntity
  8
0
100
AcDbLine
 62
7
  6
CONTINUOUS
 10
3.2993940775
 20
6.3749873108
 11
3.2965
 21
6.38
  0
LINE
  5
259
100
AcDbEntity
  8
0
100
AcDbLine
 62
7
  6
CONTINUOUS
 10
3.2965
 20
6.38
 11
3.2965
 21
7.62
  0
LINE
  5
25A
100
AcDbEntity
  8
0
100
AcDbLine
 62
7
  6
CONTINUOUS
 10
3.347884174
 20
6.3749894661
 11
3.347884174
 21
6.3976117836
  0
LINE
  5
25B
100
AcDbEntity
  8
0
100
AcDbLine
 62
7
  6
CONTINUOUS
 10
3.347884174
 20
6.9773776825
 11
3.347884174
 21
7.0226223175
  0
LINE
  5
25C
100
AcDbEntity
  8
0
100
AcDbLine
 62
7
  6
CONTINUOUS
 10
3.347884174
 20
7.6023882164
 11
3.347884174
 21
7.6250105339
  0
LINE
  5
25D
100
AcDbEntity
  8
0
100
AcDbLine
 62
7
  6
CONTINUOUS
 10
4.0825
 20
7.7795
 11
4.041796806
 21
7.709
  0
LINE
  5
25E
100
AcDbEntity
  8
0
100
AcDbLine
 62
7
  6
CONTINUOUS
 10
4.0825
 20
6.2205
 11
4.041796806
 21
6.291
  0
LINE
  5
25F
100
AcDbEntity
  8
0
100
AcDbLine
 62
7
  6
CONTINUOUS
 10
4.041796806
 20
6.291006623
 11
4.041796806
 21
7.708993377
  0
LINE
  5
260
100
AcDbEntity
  8
0
100
AcDbLine
 62
7
  6
CONTINUOUS
 10
4.0825
 20
6.2205
 11
4.0825
 21
7.7795
  0
LINE
  5
261
100
AcDbEntity
  8
0
100
AcDbLine
 62
7
  6
CONTINUOUS
 10
4.2655
 20
6.2205091336
 11
4.2655
 21
7.7794908664
  0
LINE
  5
262
100
AcDbEntity
  8
THREAD
100
AcDbLine
 62
7
  6
CONTINUOUS
 10
4.5132128129
 20
7.7015
 11
4.4854999985
 21
7.6534999973
  0
LINE
  5
263
100
AcDbEntity
  8
0
100
AcDbLine
 62
7
  6
CONTINUOUS
 10
4.2655
 20
6.2205
 11
4.0825
 21
6.2205
  0
LINE
  5
264
100
AcDbEntity
  8
THREAD
100
AcDbLine
 62
7
  6
CONTINUOUS
 10
4.5132128129
 20
6.2985
 11
4.4854999984
 21
6.3465000027
  0
LINE
  5
265
100
AcDbEntity
  8
THREAD
100
AcDbLine
 62
7
  6
CONTINUOUS
 10
4.3125
 20
6.2825
 11
4.3125
 21
7.7175
  0
LINE
  5
266
100
AcDbEntity
  8
0
100
AcDbLine
 62
7
  6
CONTINUOUS
 10
4.4155
 20
6.282
 11
4.4655
 21
6.282
  0
LINE
  5
267
100
AcDbEntity
  8
THREAD
100
AcDbLine
 62
7
  6
CONTINUOUS
 10
4.3125
 20
6.2825
 11
4.2655
 21
6.2825
  0
LINE
  5
268
100
AcDbEntity
  8
THREAD
100
AcDbLine
 62
7
  6
CONTINUOUS
 10
4.8245
 20
6.2985
 11
4.5132128129
 21
6.2985
  0
LINE
  5
269
100
AcDbEntity
  8
THREAD
100
AcDbLine
 62
7
  6
CONTINUOUS
 10
5.2835
 20
6.3485
 11
4.8745
 21
6.3485
  0
LINE
  5
26A
100
AcDbEntity
  8
0
100
AcDbLine
 62
7
  6
CONTINUOUS
 10
3.2993928332
 20
6.3749894661
 11
4.041796806
 21
6.3749894661
  0
LINE
  5
26B
100
AcDbEntity
  8
0
100
AcDbLine
 62
7
  6
CONTINUOUS
 10
6.4015
 20
6.37625
 11
6.4515
 21
6.37625
  0
LINE
  5
26C
100
AcDbEntity
  8
0
100
AcDbLine
 62
7
  6
CONTINUOUS
 10
6.5545
 20
6.37625
 11
6.6045
 21
6.37625
  0
LINE
  5
26D
100
AcDbEntity
  8
0
100
AcDbLine
 62
7
  6
CONTINUOUS
 10
6.3215
 20
6.3765
 11
6.4015
 21
6.3765
  0
LINE
  5
26E
100
AcDbEntity
  8
0
100
AcDbLine
 62
7
  6
CONTINUOUS
 10
6.6255
 20
6.3765
 11
6.6725
 21
6.3765
  0
LINE
  5
26F
100
AcDbEntity
  8
0
100
AcDbLine
 62
7
  6
CONTINUOUS
 10
4.4155
 20
7.718
 11
4.4155
 21
6.282
  0
LINE
  5
270
100
AcDbEntity
  8
0
100
AcDbLine
 62
7
  6
CONTINUOUS
 10
4.4655
 20
7.718
 11
4.4655
 21
6.282
  0
LINE
  5
271
100
AcDbEntity
  8
0
100
AcDbLine
 62
7
  6
CONTINUOUS
 10
4.4854999984
 20
6.3465000027
 11
4.4854999985
 21
7.6534999973
  0
LINE
  5
272
100
AcDbEntity
  8
THREAD
100
AcDbLine
 62
7
  6
CONTINUOUS
 10
4.5132128129
 20
6.2985
 11
4.5132128129
 21
7.7015
  0
LINE
  5
273
100
AcDbEntity
  8
0
100
AcDbLine
 62
7
  6
CONTINUOUS
 10
4.041796806
 20
6.3976117836
 11
3.347884174
 21
6.3976117836
  0
LINE
  5
274
100
AcDbEntity
  8
0
100
AcDbLine
 62
7
  6
CONTINUOUS
 10
5.6095
 20
6.422
 11
5.6744985119
 21
6.422
  0
LINE
  5
275
100
AcDbEntity
  8
0
100
AcDbLine
 62
7
  6
CONTINUOUS
 10
6.6255
 20
6.46375
 11
6.6045
 21
6.46375
  0
LINE
  5
276
100
AcDbEntity
  8
0
100
AcDbLine
 62
7
  6
CONTINUOUS
 10
6.3085
 20
6.4705
 11
5.7025
 21
6.4705
  0
LINE
  5
277
100
AcDbEntity
  8
0
100
AcDbLine
 62
7
  6
CONTINUOUS
 10
5.6095
 20
6.4705
 11
5.5322944947
 21
6.4705
  0
LINE
  5
278
100
AcDbEntity
  8
0
100
AcDbLine
 62
7
  6
CONTINUOUS
 10
5.4887055053
 20
6.4705
 11
5.2965
 21
6.4705
  0
LINE
  5
279
100
AcDbEntity
  8
THREAD
100
AcDbLine
 62
7
  6
CONTINUOUS
 10
4.8245
 20
6.2985
 11
4.8245
 21
7.7015
  0
LINE
  5
27A
100
AcDbEntity
  8
THREAD
100
AcDbLine
 62
7
  6
CONTINUOUS
 10
4.8745
 20
6.3485
 11
4.8745
 21
7.6515
  0
LINE
  5
27B
100
AcDbEntity
  8
0
100
AcDbLine
 62
7
  6
CONTINUOUS
 10
4.041796806
 20
6.9773776825
 11
3.347884174
 21
6.9773776825
  0
LINE
  5
27C
100
AcDbEntity
  8
0
100
AcDbLine
 62
7
  6
CONTINUOUS
 10
4.041796806
 20
7.0226223175
 11
3.347884174
 21
7.0226223175
  0
LINE
  5
27D
100
AcDbEntity
  8
0
100
AcDbLine
 62
7
  6
CONTINUOUS
 10
5.1885
 20
7.6346919075
 11
5.1885
 21
7.6514919156
  0
LINE
  5
27E
100
AcDbEntity
  8
0
100
AcDbLine
 62
7
  6
CONTINUOUS
 10
5.2285
 20
7.6346919075
 11
5.2285
 21
7.6514919156
  0
LINE
  5
27F
100
AcDbEntity
  8
0
100
AcDbLine
 62
7
  6
CONTINUOUS
 10
5.2835
 20
6.3485
 11
5.2835
 21
7.6515
  0
LINE
  5
280
100
AcDbEntity
  8
0
100
AcDbLine
 62
7
  6
CONTINUOUS
 10
5.2965
 20
6.3615111601
 11
5.2965
 21
7.6384888399
  0
LINE
  5
281
100
AcDbEntity
  8
THREAD
100
AcDbLine
 62
7
  6
CONTINUOUS
 10
4.8745
 20
6.3485
 11
4.8245
 21
6.2985
  0
LINE
  5
282
100
AcDbEntity
  8
THREAD
100
AcDbLine
 62
7
  6
CONTINUOUS
 10
4.8745
 20
7.6515
 11
4.8245
 21
7.7015
  0
LINE
  5
283
100
AcDbEntity
  8
0
100
AcDbLine
 62
7
  6
CONTINUOUS
 10
5.4887055053
 20
6.4705
 11
5.4887055053
 21
7.5295
  0
LINE
  5
284
100
AcDbEntity
  8
0
100
AcDbLine
 62
7
  6
CONTINUOUS
 10
6.3085
 20
7.6105
 11
6.3215
 21
7.6235
  0
LINE
  5
285
100
AcDbEntity
  8
0
100
AcDbLine
 62
7
  6
CONTINUOUS
 10
6.3085
 20
6.3895
 11
6.3215
 21
6.3765
  0
LINE
  5
286
100
AcDbEntity
  8
0
100
AcDbLine
 62
7
  6
CONTINUOUS
 10
5.5322944947
 20
6.4705
 11
5.5322944947
 21
7.5295
  0
LINE
  5
287
100
AcDbEntity
  8
0
100
AcDbLine
 62
7
  6
CONTINUOUS
 10
5.6095
 20
7.578
 11
5.6095
 21
6.422
  0
LINE
  5
288
100
AcDbEntity
  8
0
100
AcDbLine
 62
7
  6
CONTINUOUS
 10
6.3085
 20
7.5295
 11
5.7025
 21
7.5295
  0
LINE
  5
289
100
AcDbEntity
  8
0
100
AcDbLine
 62
7
  6
CONTINUOUS
 10
5.6095
 20
7.5295
 11
5.5322944947
 21
7.5295
  0
LINE
  5
28A
100
AcDbEntity
  8
0
100
AcDbLine
 62
7
  6
CONTINUOUS
 10
5.4887055053
 20
7.5295
 11
5.2965
 21
7.5295
  0
LINE
  5
28B
100
AcDbEntity
  8
0
100
AcDbLine
 62
7
  6
CONTINUOUS
 10
6.6255
 20
7.53625
 11
6.6045
 21
7.53625
  0
LINE
  5
28C
100
AcDbEntity
  8
0
100
AcDbLine
 62
7
  6
CONTINUOUS
 10
5.6095
 20
7.578
 11
5.6744985119
 21
7.578
  0
LINE
  5
28D
100
AcDbEntity
  8
0
100
AcDbLine
 62
7
  6
CONTINUOUS
 10
4.041796806
 20
7.6023882164
 11
3.347884174
 21
7.6023882164
  0
LINE
  5
28E
100
AcDbEntity
  8
0
100
AcDbLine
 62
7
  6
CONTINUOUS
 10
6.3215
 20
7.6235
 11
6.4015
 21
7.6235
  0
LINE
  5
28F
100
AcDbEntity
  8
0
100
AcDbLine
 62
7
  6
CONTINUOUS
 10
6.6255
 20
7.6235
 11
6.6725
 21
7.6235
  0
LINE
  5
290
100
AcDbEntity
  8
0
100
AcDbLine
 62
7
  6
CONTINUOUS
 10
6.4015
 20
7.62375
 11
6.4515
 21
7.62375
  0
LINE
  5
291
100
AcDbEntity
  8
0
100
AcDbLine
 62
7
  6
CONTINUOUS
 10
6.5545
 20
7.62375
 11
6.6045
 21
7.62375
  0
LINE
  5
292
100
AcDbEntity
  8
0
100
AcDbLine
 62
7
  6
CONTINUOUS
 10
4.041796806
 20
7.6250105339
 11
3.2993928332
 21
7.6250105339
  0
LINE
  5
293
100
AcDbEntity
  8
0
100
AcDbLine
 62
7
  6
CONTINUOUS
 10
5.2285
 20
7.6346919075
 11
5.2146465383
 21
7.6346919075
  0
LINE
  5
294
100
AcDbEntity
  8
0
100
AcDbLine
 62
7
  6
CONTINUOUS
 10
5.2023534617
 20
7.6346919075
 11
5.1885
 21
7.6346919075
  0
LINE
  5
295
100
AcDbEntity
  8
0
100
AcDbLine
 62
7
  6
CONTINUOUS
 10
5.6744985119
 20
7.578
 11
5.6744985119
 21
6.422
  0
LINE
  5
296
100
AcDbEntity
  8
0
100
AcDbLine
 62
7
  6
CONTINUOUS
 10
5.7025
 20
6.4705
 11
5.7025
 21
7.5295
  0
LINE
  5
297
100
AcDbEntity
  8
0
100
AcDbLine
 62
7
  6
CONTINUOUS
 10
5.2965
 20
6.3615
 11
5.2835
 21
6.3485
  0
LINE
  5
298
100
AcDbEntity
  8
THREAD
100
AcDbLine
 62
7
  6
CONTINUOUS
 10
5.2835
 20
7.6515
 11
5.2285
 21
7.6515
  0
LINE
  5
299
100
AcDbEntity
  8
THREAD
100
AcDbLine
 62
7
  6
CONTINUOUS
 10
5.1885
 20
7.6515
 11
4.8745
 21
7.6515
  0
LINE
  5
29A
100
AcDbEntity
  8
THREAD
100
AcDbLine
 62
7
  6
CONTINUOUS
 10
4.8245
 20
7.7015
 11
4.5132128129
 21
7.7015
  0
LINE
  5
29B
100
AcDbEntity
  8
THREAD
100
AcDbLine
 62
7
  6
CONTINUOUS
 10
4.3125
 20
7.7175
 11
4.2655
 21
7.7175
  0
LINE
  5
29C
100
AcDbEntity
  8
0
100
AcDbLine
 62
7
  6
CONTINUOUS
 10
4.4155
 20
7.718
 11
4.4655
 21
7.718
  0
LINE
  5
29D
100
AcDbEntity
  8
0
100
AcDbLine
 62
7
  6
CONTINUOUS
 10
5.2965
 20
7.6385
 11
5.2835
 21
7.6515
  0
LINE
  5
29E
100
AcDbEntity
  8
0
100
AcDbLine
 62
7
  6
CONTINUOUS
 10
5.6744985119
 20
6.422
 11
5.7025
 21
6.4705
  0
LINE
  5
29F
100
AcDbEntity
  8
0
100
AcDbLine
 62
7
  6
CONTINUOUS
 10
4.2655
 20
7.7795
 11
4.0825
 21
7.7795
  0
LINE
  5
2A0
100
AcDbEntity
  8
0
100
AcDbLine
 62
7
  6
CONTINUOUS
 10
5.6744985119
 20
7.578
 11
5.7025
 21
7.5295
  0
LINE
  5
2A1
100
AcDbEntity
  8
0
100
AcDbLine
 62
7
  6
CONTINUOUS
 10
6.3085
 20
7.6105
 11
6.3085
 21
6.3895
  0
LINE
  5
2A2
100
AcDbEntity
  8
0
100
AcDbLine
 62
7
  6
CONTINUOUS
 10
6.3215
 20
7.6235
 11
6.3215
 21
6.3765
  0
LINE
  5
2A3
100
AcDbEntity
  8
0
100
AcDbLine
 62
7
  6
CONTINUOUS
 10
6.4015
 20
7.62375
 11
6.4015
 21
6.37625
  0
LINE
  5
2A4
100
AcDbEntity
  8
0
100
AcDbLine
 62
7
  6
CONTINUOUS
 10
6.4515
 20
7.62375
 11
6.4515
 21
6.37625
  0
LINE
  5
2A5
100
AcDbEntity
  8
0
100
AcDbLine
 62
7
  6
CONTINUOUS
 10
6.5545
 20
7.62375
 11
6.5545
 21
6.37625
  0
LINE
  5
2A6
100
AcDbEntity
  8
0
100
AcDbLine
 62
7
  6
CONTINUOUS
 10
6.6045
 20
7.62375
 11
6.6045
 21
6.37625
  0
LINE
  5
2A7
100
AcDbEntity
  8
0
100
AcDbLine
 62
7
  6
CONTINUOUS
 10
6.6255
 20
7.6235
 11
6.6255
 21
6.3765
  0
LINE
  5
2A8
100
AcDbEntity
  8
0
100
AcDbLine
 62
7
  6
CONTINUOUS
 10
6.6725
 20
6.3765
 11
6.7035
 21
6.4075
  0
LINE
  5
2A9
100
AcDbEntity
  8
0
100
AcDbLine
 62
7
  6
CONTINUOUS
 10
6.6725
 20
7.6235
 11
6.7035
 21
7.5925
  0
LINE
  5
2AA
100
AcDbEntity
  8
0
100
AcDbLine
 62
7
  6
CONTINUOUS
 10
6.6725
 20
7.6235
 11
6.6725
 21
6.3765
  0
LINE
  5
2AB
100
AcDbEntity
  8
0
100
AcDbLine
 62
7
  6
CONTINUOUS
 10
6.7035
 20
7.5925
 11
6.7035
 21
6.4075
  0
ARC
  5
2AC
100
AcDbEntity
  8
0
100
AcDbCircle
 62
7
  6
CONTINUOUS
 10
4.4578639717
 20
7.658
 40
0.028
100
AcDbArc
 50
285.8342878307
 51
350.751636104
  0
ARC
  5
2AD
100
AcDbEntity
  8
0
100
AcDbCircle
 62
7
  6
CONTINUOUS
 10
4.4578639717
 20
6.342
 40
0.028
100
AcDbArc
 50
9.2483639698
 51
74.1657121387
  0
ARC
  5
2AE
100
AcDbEntity
  8
0
100
AcDbCircle
 62
7
  6
CONTINUOUS
 10
5.5105
 20
6.4675
 40
0.022
100
AcDbArc
 50
7.8374797631
 51
172.1625202369
  0
ARC
  5
2AF
100
AcDbEntity
  8
0
100
AcDbCircle
 62
7
  6
CONTINUOUS
 10
5.5105
 20
7.5325
 40
0.022
100
AcDbArc
 50
187.8374797631
 51
352.1625202369
  0
SPLINE
  5
2B0
100
AcDbEntity
  8
0
100
AcDbSpline
 62
7
  6
CONTINUOUS
 70
0
 71
3
 72
11
 73
7
 74
0
 42
0.0000001
 43
0.0000001
 44
0.0000000001
 40
0.0
 40
0.0
 40
0.0
 40
0.0
 40
0.2548685795
 40
0.5037140891
 40
0.7507100366
 40
1.0
 40
1.0
 40
1.0
 40
1.0
 10
5.9898665523
 20
7.4739352491
 30
0.0
 10
5.9906359328
 20
7.4727825252
 30
0.0
 10
5.992006493
 20
7.4703986043
 30
0.0
 10
5.9935046678
 20
7.4665852817
 30
0.0
 10
5.9944044796
 20
7.462619279
 30
0.0
 10
5.994599963
 20
7.4599160164
 30
0.0
 10
5.994599963
 20
7.4585604513
 30
0.0
  0
SPLINE
  5
2B1
100
AcDbEntity
  8
0
100
AcDbSpline
 62
7
  6
CONTINUOUS
 70
0
 71
3
 72
15
 73
11
 74
0
 42
0.0000001
 43
0.0000001
 44
0.0000000001
 40
0.0
 40
0.0
 40
0.0
 40
0.0
 40
0.1253536163
 40
0.2505522545
 40
0.375490519
 40
0.5001913345
 40
0.6248209611
 40
0.749611127
 40
0.8746905293
 40
1.0
 40
1.0
 40
1.0
 40
1.0
 10
5.8670183903
 20
7.116999932
 30
0.0
 10
5.8750714879
 20
7.1170018787
 30
0.0
 10
5.8912003199
 20
7.1157572791
 30
0.0
 10
5.9147251699
 20
7.1099182389
 30
0.0
 10
5.9368061837
 20
7.0999564206
 30
0.0
 10
5.9565231204
 20
7.0859128012
 30
0.0
 10
5.9729475786
 20
7.0681234622
 30
0.0
 10
5.9852648451
 20
7.0472403432
 30
0.0
 10
5.9928831657
 20
7.024188486
 30
0.0
 10
5.994599963
 20
7.0080502618
 30
0.0
 10
5.994599963
 20
7.0
 30
0.0
  0
SPLINE
  5
2B2
100
AcDbEntity
  8
0
100
AcDbSpline
 62
7
  6
CONTINUOUS
 70
0
 71
3
 72
17
 73
13
 74
0
 42
0.0000001
 43
0.0000001
 44
0.0000000001
 40
0.0
 40
0.0
 40
0.0
 40
0.0
 40
0.1239815129
 40
0.2478973622
 40
0.3719710257
 40
0.4963875401
 40
0.6213328586
 40
0.7469390646
 40
0.8100342428
 40
0.8733105616
 40
0.936685607
 40
1.0
 40
1.0
 40
1.0
 40
1.0
 10
5.9476903227
 20
7.0911709958
 30
0.0
 10
5.9436393791
 20
7.0887370731
 30
0.0
 10
5.9357358295
 20
7.0835329246
 30
0.0
 10
5.924629132
 20
7.0746873641
 30
0.0
 10
5.9144292299
 20
7.0647775819
 30
0.0
 10
5.9053636329
 20
7.0537602741
 30
0.0
 10
5.8977075682
 20
7.0416421051
 30
0.0
 10
5.8928070532
 20
7.0306818881
 30
0.0
 10
5.8899490237
 20
7.0215024689
 30
0.0
 10
5.8883847117
 20
7.0144315091
 30
0.0
 10
5.887430514
 20
7.0072451032
 30
0.0
 10
5.8872128129
 20
7.0024134037
 30
0.0
 10
5.8872128129
 20
7.0
 30
0.0
  0
SPLINE
  5
2B3
100
AcDbEntity
  8
0
100
AcDbSpline
 62
7
  6
CONTINUOUS
 70
0
 71
3
 72
33
 73
29
 74
0
 42
0.0000001
 43
0.0000001
 44
0.0000000001
 40
0.0
 40
0.0
 40
0.0
 40
0.0
 40
0.0240133152
 40
0.0499984805
 40
0.0778180076
 40
0.1072613106
 40
0.1381313766
 40
0.1702203986
 40
0.2033531845
 40
0.2373711379
 40
0.2721284862
 40
0.3075071174
 40
0.3796599387
 40
0.4530396049
 40
0.5268457835
 40
0.6001795782
 40
0.6719549144
 40
0.7408605738
 40
0.7737994211
 40
0.8054623314
 40
0.8356744455
 40
0.8642783948
 40
0.8911532315
 40
0.9162266463
 40
0.93949604
 40
0.9610618725
 40
0.9811241956
 40
1.0
 40
1.0
 40
1.0
 40
1.0
 10
5.7302750021
 20
6.5585261757
 30
0.0
 10
5.731644101
 20
6.5605794079
 30
0.0
 10
5.7348241869
 20
6.5646387139
 30
0.0
 10
5.7404752325
 20
6.570316594
 30
0.0
 10
5.7470752968
 20
6.5757782242
 30
0.0
 10
5.7545069506
 20
6.5809704809
 30
0.0
 10
5.7626610569
 20
6.5858509299
 30
0.0
 10
5.7714398931
 20
6.5903861482
 30
0.0
 10
5.780758015
 20
6.5945446446
 30
0.0
 10
5.7905392985
 20
6.5983005885
 30
0.0
 10
5.8007169872
 20
6.6016299285
 30
0.0
 10
5.8148253662
 20
6.6054928112
 30
0.0
 10
5.8330947462
 20
6.6091037477
 30
0.0
 10
5.8555576417
 20
6.6113549804
 30
0.0
 10
5.8782590429
 20
6.6113861679
 30
0.0
 10
5.9006818765
 20
6.6090706355
 30
0.0
 10
5.9222166793
 20
6.6043690424
 30
0.0
 10
5.9391088087
 20
6.5984536239
 30
0.0
 10
5.951531499
 20
6.5926055331
 30
0.0
 10
5.9600326839
 20
6.5878246062
 30
0.0
 10
5.9677669989
 20
6.5826449875
 30
0.0
 10
5.9746549049
 20
6.577139331
 30
0.0
 10
5.9806213459
 20
6.5713816166
 30
0.0
 10
5.9856071449
 20
6.5654536255
 30
0.0
 10
5.9895575352
 20
6.5594298038
 30
0.0
 10
5.9924305776
 20
6.5533834933
 30
0.0
 10
5.9941842923
 20
6.5473888577
 30
0.0
 10
5.994599963
 20
6.5433794021
 30
0.0
 10
5.994599963
 20
6.5414395487
 30
0.0
  0
SPLINE
  5
2B4
100
AcDbEntity
  8
0
100
AcDbSpline
 62
7
  6
CONTINUOUS
 70
0
 71
3
 72
11
 73
7
 74
0
 42
0.0000001
 43
0.0000001
 44
0.0000000001
 40
0.0
 40
0.0
 40
0.0
 40
0.0
 40
0.2492939095
 40
0.4962910989
 40
0.7451344346
 40
1.0
 40
1.0
 40
1.0
 40
1.0
 10
5.994599963
 20
6.5414395487
 30
0.0
 10
5.994599963
 20
6.5400841448
 30
0.0
 10
5.9944045416
 20
6.5373812199
 30
0.0
 10
5.9935049892
 20
6.5334157052
 30
0.0
 10
5.9920071709
 20
6.5296028609
 30
0.0
 10
5.9906369553
 20
6.5272192068
 30
0.0
 10
5.9898677714
 20
6.5260665959
 30
0.0
  0
SPLINE
  5
2B5
100
AcDbEntity
  8
0
100
AcDbSpline
 62
7
  6
CONTINUOUS
 70
0
 71
3
 72
15
 73
11
 74
0
 42
0.0000001
 43
0.0000001
 44
0.0000000001
 40
0.0
 40
0.0
 40
0.0
 40
0.0
 40
0.1253085961
 40
0.2503876593
 40
0.3751784124
 40
0.4998088533
 40
0.6245100438
 40
0.7494481299
 40
0.8746462724
 40
1.0
 40
1.0
 40
1.0
 40
1.0
 10
5.994599963
 20
7.0
 30
0.0
 10
5.994599963
 20
6.9919501018
 30
0.0
 10
5.9928833387
 20
6.9758125729
 30
0.0
 10
5.9852656101
 20
6.9527615546
 30
0.0
 10
5.9729492673
 20
6.9318789026
 30
0.0
 10
5.9565258664
 20
6.9140897017
 30
0.0
 10
5.9368101282
 20
6.9000458967
 30
0.0
 10
5.914730375
 20
6.8900836001
 30
0.0
 10
5.8912067156
 20
6.8842437586
 30
0.0
 10
5.875078582
 20
6.8829985193
 30
0.0
 10
5.8670257846
 20
6.8830000681
 30
0.0
  0
SPLINE
  5
2B6
100
AcDbEntity
  8
0
100
AcDbSpline
 62
7
  6
CONTINUOUS
 70
0
 71
3
 72
33
 73
29
 74
0
 42
0.0000001
 43
0.0000001
 44
0.0000000001
 40
0.0
 40
0.0
 40
0.0
 40
0.0
 40
0.0188758854
 40
0.038938387
 40
0.060504461
 40
0.0837740944
 40
0.1088476744
 40
0.1357227509
 40
0.1643269721
 40
0.1945394295
 40
0.2262025866
 40
0.2591415651
 40
0.3280471354
 40
0.3998221946
 40
0.4731558848
 40
0.5469621679
 40
0.6203420579
 40
0.6924950275
 40
0.7278736726
 40
0.7626309134
 40
0.7966485547
 40
0.8297809995
 40
0.8618696853
 40
0.8927394163
 40
0.9221824953
 40
0.9500018214
 40
0.9759867919
 40
1.0
 40
1.0
 40
1.0
 40
1.0
 10
5.994599963
 20
7.4585604513
 30
0.0
 10
5.994599963
 20
7.4566205813
 30
0.0
 10
5.9941842754
 20
7.4526110824
 30
0.0
 10
5.9924305251
 20
7.4466163761
 30
0.0
 10
5.9895574229
 20
7.440569986
 30
0.0
 10
5.9856069452
 20
7.434546105
 30
0.0
 10
5.9806210552
 20
7.4286180598
 30
0.0
 10
5.9746544931
 20
7.42286032
 30
0.0
 10
5.9677664687
 20
7.4173546094
 30
0.0
 10
5.9600319934
 20
7.4121750003
 30
0.0
 10
5.9515307057
 20
7.4073940194
 30
0.0
 10
5.9391078627
 20
7.4015460427
 30
0.0
 10
5.9222156753
 20
7.3956306471
 30
0.0
 10
5.900680791
 20
7.3909291939
 30
0.0
 10
5.8782578803
 20
7.3886137698
 30
0.0
 10
5.8555563583
 20
7.3886450816
 30
0.0
 10
5.8330933307
 20
7.3908964569
 30
0.0
 10
5.8148238561
 20
7.3945075343
 30
0.0
 10
5.8007154395
 20
7.3983705374
 30
0.0
 10
5.7905377707
 20
7.4016999517
 30
0.0
 10
5.7807565494
 20
7.4054559647
 30
0.0
 10
5.7714385151
 20
7.4096145149
 30
0.0
 10
5.7626597739
 20
7.4141497826
 30
0.0
 10
5.7545057605
 20
7.4190302877
 30
0.0
 10
5.7470742019
 20
7.4242226118
 30
0.0
 10
5.7404742227
 20
7.4296843031
 30
0.0
 10
5.7348232937
 20
7.4353622786
 30
0.0
 10
5.731643326
 20
7.4394216673
 30
0.0
 10
5.7302742847
 20
7.4414749374
 30
0.0
  0
SPLINE
  5
2B7
100
AcDbEntity
  8
0
100
AcDbSpline
 62
7
  6
CONTINUOUS
 70
0
 71
3
 72
18
 73
14
 74
0
 42
0.0000001
 43
0.0000001
 44
0.0000000001
 40
0.0
 40
0.0
 40
0.0
 40
0.0
 40
0.063307275
 40
0.1266765336
 40
0.1899490835
 40
0.2530405476
 40
0.3159763275
 40
0.3787317644
 40
0.5036640235
 40
0.6280717369
 40
0.7521301492
 40
0.8760338135
 40
1.0
 40
1.0
 40
1.0
 40
1.0
 10
5.8872128129
 20
7.0
 30
0.0
 10
5.8872128129
 20
6.9975867734
 30
0.0
 10
5.887430506
 20
6.9927553915
 30
0.0
 10
5.8883847177
 20
6.9855692761
 30
0.0
 10
5.889948606
 20
6.9784987347
 30
0.0
 10
5.8920963621
 20
6.9716014387
 30
0.0
 10
5.8947754898
 20
6.9649145961
 30
0.0
 10
5.8989886069
 20
6.9563317627
 30
0.0
 10
5.9053629834
 20
6.946239928
 30
0.0
 10
5.9144273232
 20
6.9352248492
 30
0.0
 10
5.9246264263
 20
6.9253148246
 30
0.0
 10
5.9357321401
 20
6.9164699521
 30
0.0
 10
5.9436347973
 20
6.9112656321
 30
0.0
 10
5.9476854208
 20
6.9088319527
 30
0.0
  0
SPLINE
  5
2B8
100
AcDbEntity
  8
0
100
AcDbSpline
 62
7
  6
CONTINUOUS
 70
0
 71
3
 72
11
 73
7
 74
0
 42
0.0000001
 43
0.0000001
 44
0.0000000001
 40
0.0
 40
0.0
 40
0.0
 40
0.0
 40
0.2298243193
 40
0.4710933071
 40
0.7271003198
 40
1.0
 40
1.0
 40
1.0
 40
1.0
 10
5.724400037
 20
6.5414395487
 30
0.0
 10
5.724400037
 20
6.5428426359
 30
0.0
 10
5.7246720626
 20
6.5457236094
 30
0.0
 10
5.7258224095
 20
6.5500286828
 30
0.0
 10
5.7276961467
 20
6.5543572307
 30
0.0
 10
5.7293507064
 20
6.557140013
 30
0.0
 10
5.7302750021
 20
6.5585261757
 30
0.0
  0
SPLINE
  5
2B9
100
AcDbEntity
  8
0
100
AcDbSpline
 62
7
  6
CONTINUOUS
 70
0
 71
3
 72
24
 73
20
 74
0
 42
0.0000001
 43
0.0000001
 44
0.0000000001
 40
0.0
 40
0.0
 40
0.0
 40
0.0
 40
0.0626538392
 40
0.0940372858
 40
0.1253952998
 40
0.1879812814
 40
0.2192586088
 40
0.2505107032
 40
0.312948615
 40
0.3753323799
 40
0.4376857484
 40
0.500028884
 40
0.5623886726
 40
0.624779242
 40
0.749604245
 40
0.81214137
 40
0.8747289268
 40
0.9373528726
 40
1.0
 40
1.0
 40
1.0
 40
1.0
 10
5.724400037
 20
7.0
 30
0.0
 10
5.724400037
 20
7.0042507322
 30
0.0
 10
5.7248547296
 20
7.0106415568
 30
0.0
 10
5.7263232997
 20
7.019025868
 30
0.0
 10
5.7283576251
 20
7.0272876853
 30
0.0
 10
5.7312161807
 20
7.0353178659
 30
0.0
 10
5.7348009016
 20
7.0430165813
 30
0.0
 10
5.7388422467
 20
7.0504751481
 30
0.0
 10
5.7446964651
 20
7.0593278483
 30
0.0
 10
5.7528193027
 20
7.069118086
 30
0.0
 10
5.7618797871
 20
7.0780352941
 30
0.0
 10
5.7717303662
 20
7.0860638265
 30
0.0
 10
5.7822522193
 20
7.093193192
 30
0.0
 10
5.7970270644
 20
7.1014943625
 30
0.0
 10
5.8127691563
 20
7.1079866936
 30
0.0
 10
5.8290989542
 20
7.1126030479
 30
0.0
 10
5.8416005089
 20
7.1151158564
 30
0.0
 10
5.8542653308
 20
7.1166497573
 30
0.0
 10
5.8627681135
 20
7.1169989045
 30
0.0
 10
5.8670183903
 20
7.116999932
 30
0.0
  0
SPLINE
  5
2BA
100
AcDbEntity
  8
0
100
AcDbSpline
 62
7
  6
CONTINUOUS
 70
0
 71
3
 72
43
 73
39
 74
0
 42
0.0000001
 43
0.0000001
 44
0.0000000001
 40
0.0
 40
0.0
 40
0.0
 40
0.0
 40
0.0097130113
 40
0.01937753
 40
0.0291062955
 40
0.0390041138
 40
0.0491672089
 40
0.0596816891
 40
0.0706122255
 40
0.0820025157
 40
0.1062465338
 40
0.1325096478
 40
0.1607152774
 40
0.1907386247
 40
0.2224062949
 40
0.2555538026
 40
0.2900088433
 40
0.3256083039
 40
0.3621974448
 40
0.3996187
 40
0.4377200779
 40
0.4763443053
 40
0.5153217093
 40
0.5544774578
 40
0.5936157448
 40
0.6325252799
 40
0.6709813709
 40
0.7087325797
 40
0.7455266988
 40
0.7810976012
 40
0.815188688
 40
0.8475650116
 40
0.8780245344
 40
0.9064280618
 40
0.932715603
 40
0.9569314569
 40
0.9792507869
 40
1.0
 40
1.0
 40
1.0
 40
1.0
 10
5.724400037
 20
7.4585604513
 30
0.0
 10
5.724400037
 20
7.4595021085
 30
0.0
 10
5.7245191807
 20
7.4613830122
 30
0.0
 10
5.7250578833
 20
7.4641603504
 30
0.0
 10
5.7259477786
 20
7.466864835
 30
0.0
 10
5.7271810106
 20
7.4694839477
 30
0.0
 10
5.728749607
 20
7.4720063385
 30
0.0
 10
5.7306355496
 20
7.4744279776
 30
0.0
 10
5.7328222462
 20
7.4767472398
 30
0.0
 10
5.7361875871
 20
7.4797629118
 30
0.0
 10
5.7410992507
 20
7.4832448789
 30
0.0
 10
5.7477997384
 20
7.4869214935
 30
0.0
 10
5.7553154829
 20
7.4902018164
 30
0.0
 10
5.7635388735
 20
7.4931061239
 30
0.0
 10
5.7723757063
 20
7.4956606923
 30
0.0
 10
5.7817423671
 20
7.497884988
 30
0.0
 10
5.7915645075
 20
7.4998023542
 30
0.0
 10
5.8017762864
 20
7.5014300897
 30
0.0
 10
5.8123176144
 20
7.5027837546
 30
0.0
 10
5.8231326644
 20
7.5038774831
 30
0.0
 10
5.8341680648
 20
7.5047178281
 30
0.0
 10
5.8453703665
 20
7.5053132956
 30
0.0
 10
5.8566852655
 20
7.5056630618
 30
0.0
 10
5.868054924
 20
7.5057670534
 30
0.0
 10
5.8794175883
 20
7.5056192424
 30
0.0
 10
5.8907060544
 20
7.5052094925
 30
0.0
 10
5.9018468036
 20
7.5045272237
 30
0.0
 10
5.9127603722
 20
7.5035545096
 30
0.0
 10
5.9233609872
 20
7.5022752206
 30
0.0
 10
5.9335586485
 20
7.5006693483
 30
0.0
 10
5.9432598836
 20
7.4987161744
 30
0.0
 10
5.9523713996
 20
7.4963986095
 30
0.0
 10
5.9608014311
 20
7.4936979552
 30
0.0
 10
5.9684637477
 20
7.490601493
 30
0.0
 10
5.975279211
 20
7.4870994897
 30
0.0
 10
5.9811758201
 20
7.4831841601
 30
0.0
 10
5.9860904721
 20
7.4788610867
 30
0.0
 10
5.9887498181
 20
7.4756083956
 30
0.0
 10
5.9898665523
 20
7.4739352491
 30
0.0
  0
SPLINE
  5
2BB
100
AcDbEntity
  8
0
100
AcDbSpline
 62
7
  6
CONTINUOUS
 70
0
 71
3
 72
24
 73
20
 74
0
 42
0.0000001
 43
0.0000001
 44
0.0000000001
 40
0.0
 40
0.0
 40
0.0
 40
0.0
 40
0.0626465648
 40
0.1252705267
 40
0.1878580251
 40
0.2503952223
 40
0.3752202717
 40
0.4376108456
 40
0.499970263
 40
0.5623132372
 40
0.6246660679
 40
0.6870497762
 40
0.7494871861
 40
0.7807393832
 40
0.8120169212
 40
0.8746034469
 40
0.9059621355
 40
0.9373460563
 40
1.0
 40
1.0
 40
1.0
 40
1.0
 10
5.8670257846
 20
6.8830000681
 30
0.0
 10
5.862775392
 20
6.8830008856
 30
0.0
 10
5.8542723195
 20
6.883349649
 30
0.0
 10
5.8416070206
 20
6.884883112
 30
0.0
 10
5.8291049005
 20
6.8873954691
 30
0.0
 10
5.8127743573
 20
6.8920114737
 30
0.0
 10
5.7970314736
 20
6.8985035222
 30
0.0
 10
5.7822558553
 20
6.9068045314
 30
0.0
 10
5.7717334692
 20
6.913933868
 30
0.0
 10
5.7618823653
 20
6.9219623699
 30
0.0
 10
5.7528213698
 20
6.9308796458
 30
0.0
 10
5.7446980755
 20
6.9406700038
 30
0.0
 10
5.7388434166
 20
6.9495228396
 30
0.0
 10
5.7348018255
 20
6.9569816095
 30
0.0
 10
5.7312167961
 20
6.9646805823
 30
0.0
 10
5.7283579335
 20
6.9727110937
 30
0.0
 10
5.7263235333
 20
6.9809733295
 30
0.0
 10
5.7248548191
 20
6.9893580121
 30
0.0
 10
5.724400037
 20
6.9957491066
 30
0.0
 10
5.724400037
 20
7.0
 30
0.0
  0
SPLINE
  5
2BC
100
AcDbEntity
  8
0
100
AcDbSpline
 62
7
  6
CONTINUOUS
 70
0
 71
3
 72
43
 73
39
 74
0
 42
0.0000001
 43
0.0000001
 44
0.0000000001
 40
0.0
 40
0.0
 40
0.0
 40
0.0
 40
0.0207486288
 40
0.0430673251
 40
0.0672824354
 40
0.0935693318
 40
0.1219721903
 40
0.1524311551
 40
0.1848068704
 40
0.2188973562
 40
0.2544677234
 40
0.291261191
 40
0.3290118769
 40
0.3674675058
 40
0.4063766216
 40
0.4455150033
 40
0.4846707741
 40
0.5236485892
 40
0.5622733434
 40
0.600375233
 40
0.6377971246
 40
0.6743868977
 40
0.7099868511
 40
0.7444424737
 40
0.7775903377
 40
0.809258461
 40
0.8392821261
 40
0.8674881227
 40
0.8937516073
 40
0.9179959516
 40
0.9293864914
 40
0.9403172597
 40
0.9508319585
 40
0.9609952942
 40
0.970893365
 40
0.9806223157
 40
0.9902869418
 40
1.0
 40
1.0
 40
1.0
 40
1.0
 10
5.9898677714
 20
6.5260665959
 30
0.0
 10
5.988751182
 20
6.5243934027
 30
0.0
 10
5.9860921182
 20
6.5211405871
 30
0.0
 10
5.9811777864
 20
6.5168173608
 30
0.0
 10
5.9752815043
 20
6.5129017914
 30
0.0
 10
5.9684662501
 20
6.5093996841
 30
0.0
 10
5.9608041552
 20
6.506302994
 30
0.0
 10
5.9523742732
 20
6.5036022284
 30
0.0
 10
5.9432629042
 20
6.5012844961
 30
0.0
 10
5.9335617867
 20
6.4993312092
 30
0.0
 10
5.9233642379
 20
6.4977252392
 30
0.0
 10
5.9127637233
 20
6.4964458262
 30
0.0
 10
5.9018502369
 20
6.4954730419
 30
0.0
 10
5.8907095454
 20
6.4947906901
 30
0.0
 10
5.8794210741
 20
6.4943808176
 30
0.0
 10
5.8680583538
 20
6.4942329929
 30
0.0
 10
5.856688557
 20
6.4943368315
 30
0.0
 10
5.8453734788
 20
6.4946865928
 30
0.0
 10
5.8341709478
 20
6.4952819766
 30
0.0
 10
5.8231352961
 20
6.4961222686
 30
0.0
 10
5.8123199903
 20
6.4972159933
 30
0.0
 10
5.8017783989
 20
6.498569579
 30
0.0
 10
5.7915663763
 20
6.5001973326
 30
0.0
 10
5.7817440066
 20
6.5021146411
 30
0.0
 10
5.7723771324
 20
6.5043389385
 30
0.0
 10
5.7635401068
 20
6.5068934797
 30
0.0
 10
5.7553165201
 20
6.5097977642
 30
0.0
 10
5.7478006055
 20
6.5130781042
 30
0.0
 10
5.7410999147
 20
6.5167546823
 30
0.0
 10
5.7361881029
 20
6.5202366806
 30
0.0
 10
5.7328226443
 20
6.5232523884
 30
0.0
 10
5.7306358365
 20
6.5255716714
 30
0.0
 10
5.7287497941
 20
6.5279933491
 30
0.0
 10
5.7271811532
 20
6.5305158221
 30
0.0
 10
5.7259478965
 20
6.5331350188
 30
0.0
 10
5.7250579454
 20
6.535839562
 30
0.0
 10
5.724519196
 20
6.5386169469
 30
0.0
 10
5.724400037
 20
6.5404978799
 30
0.0
 10
5.724400037
 20
6.5414395487
 30
0.0
  0
SPLINE
  5
2BD
100
AcDbEntity
  8
0
100
AcDbSpline
 62
7
  6
CONTINUOUS
 70
0
 71
3
 72
11
 73
7
 74
0
 42
0.0000001
 43
0.0000001
 44
0.0000000001
 40
0.0
 40
0.0
 40
0.0
 40
0.0
 40
0.2729002334
 40
0.5289066693
 40
0.7701748404
 40
1.0
 40
1.0
 40
1.0
 40
1.0
 10
5.7302742847
 20
7.4414749374
 30
0.0
 10
5.7293500923
 20
7.4428610289
 30
0.0
 10
5.7276957212
 20
7.4456436502
 30
0.0
 10
5.7258221859
 20
7.4499719098
 30
0.0
 10
5.7246720086
 20
7.4542766938
 30
0.0
 10
5.724400037
 20
7.4571574599
 30
0.0
 10
5.724400037
 20
7.4585604513
 30
0.0
  0
SPLINE
  5
2BE
100
AcDbEntity
  8
0
100
AcDbSpline
 62
7
  6
CONTINUOUS
 70
0
 71
3
 72
11
 73
7
 74
0
 42
0.0000001
 43
0.0000001
 44
0.0000000001
 40
0.0
 40
0.0
 40
0.0
 40
0.0
 40
0.2465618278
 40
0.49999668
 40
0.753434863
 40
1.0
 40
1.0
 40
1.0
 40
1.0
 10
5.2146465383
 20
7.6346919075
 30
0.0
 10
5.2136381724
 20
7.6346164658
 30
0.0
 10
5.2115901024
 20
7.6345045188
 30
0.0
 10
5.2085000272
 20
7.634447834
 30
0.0
 10
5.2054099388
 20
7.6345045243
 30
0.0
 10
5.2033618411
 20
7.6346164648
 30
0.0
 10
5.2023534617
 20
7.6346919075
 30
0.0
  0
SPLINE
  5
2BF
100
AcDbEntity
  8
0
100
AcDbSpline
 62
7
  6
CONTINUOUS
 70
0
 71
3
 72
15
 73
11
 74
0
 42
0.0000001
 43
0.0000001
 44
0.0000000001
 40
0.0
 40
0.0
 40
0.0
 40
0.0
 40
0.1256344711
 40
0.2507761758
 40
0.3755069661
 40
0.5000000172
 40
0.6244930656
 40
0.7492238507
 40
0.8743655347
 40
1.0
 40
1.0
 40
1.0
 40
1.0
 10
3.347884174
 20
6.3976117836
 30
0.0
 10
3.3404660441
 20
6.4211807147
 30
0.0
 10
3.3269288595
 20
6.4686426983
 30
0.0
 10
3.3114132634
 20
6.5409102539
 30
0.0
 10
3.3016280131
 20
6.6139713291
 30
0.0
 10
3.2982763088
 20
6.6874947427
 30
0.0
 10
3.3016280148
 20
6.7610181551
 30
0.0
 10
3.311413266
 20
6.8340792245
 30
0.0
 10
3.3269288617
 20
6.9063467737
 30
0.0
 10
3.3404660444
 20
6.9538087525
 30
0.0
 10
3.347884174
 20
6.9773776825
 30
0.0
  0
SPLINE
  5
2C0
100
AcDbEntity
  8
0
100
AcDbSpline
 62
7
  6
CONTINUOUS
 70
0
 71
3
 72
15
 73
11
 74
0
 42
0.0000001
 43
0.0000001
 44
0.0000000001
 40
0.0
 40
0.0
 40
0.0
 40
0.0
 40
0.1256344711
 40
0.2507761758
 40
0.3755069661
 40
0.5000000172
 40
0.6244930656
 40
0.7492238507
 40
0.8743655347
 40
1.0
 40
1.0
 40
1.0
 40
1.0
 10
3.347884174
 20
7.0226223175
 30
0.0
 10
3.3404660441
 20
7.0461912486
 30
0.0
 10
3.3269288595
 20
7.0936532323
 30
0.0
 10
3.3114132634
 20
7.1659207878
 30
0.0
 10
3.3016280131
 20
7.238981863
 30
0.0
 10
3.2982763088
 20
7.3125052766
 30
0.0
 10
3.3016280148
 20
7.386028689
 30
0.0
 10
3.311413266
 20
7.4590897584
 30
0.0
 10
3.3269288617
 20
7.5313573076
 30
0.0
 10
3.3404660444
 20
7.5788192864
 30
0.0
 10
3.347884174
 20
7.6023882164
 30
0.0
  0
ELLIPSE
  5
2C1
100
AcDbEntity
  8
0
100
AcDbEllipse
 62
7
  6
CONTINUOUS
 10
6.503
 20
6.41275
 30
0.0
 11
0.0515
 21
0.0
 31
0.0
 40
1.0
 41
3.1415926536
 42
6.2831853072
  0
ELLIPSE
  5
2C2
100
AcDbEntity
  8
0
100
AcDbEllipse
 62
7
  6
CONTINUOUS
 10
6.503
 20
7.58725
 30
0.0
 11
0.0515
 21
-0.0
 31
0.0
 40
1.0
 41
0.0
 42
3.1415926536
  0
ELLIPSE
  5
2C3
100
AcDbEntity
  8
0
100
AcDbEllipse
 62
7
  6
CONTINUOUS
 10
4.364
 20
6.3185
 30
0.0
 11
0.0515
 21
-0.0
 31
0.0
 40
1.0
 41
-3.1415926536
 42
0.0
  0
ELLIPSE
  5
2C4
100
AcDbEntity
  8
0
100
AcDbEllipse
 62
7
  6
CONTINUOUS
 10
4.364
 20
7.6815
 30
0.0
 11
0.0515
 21
0.0
 31
0.0
 40
1.0
 41
0.0
 42
3.1415926536
  0
ENDSEC
  0
SECTION
  2
OBJECTS
  0
DICTIONARY
  5
C
100
AcDbDictionary
280
0
281
1
  3
ACAD_GROUP
350
D
  3
ACAD_MLINESTYLE
350
17
  3
ACAD_LAYOUT
350
1A
  3
ACAD_PLOTSETTINGS
350
19
  3
ACAD_PLOTSTYLENAME
350
E
  0
DICTIONARY
  5
D
102
{ACAD_REACTORS
330
C
102
}
100
AcDbDictionary
280
0
281
1
  0
ACDBDICTIONARYWDFLT
  5
E
102
{ACAD_REACTORS
330
C
102
}
100
AcDbDictionary
281
1
  3
Normal
350
F
100
AcDbDictionaryWithDefault
340
F
  0
DICTIONARY
  5
17
102
{ACAD_REACTORS
330
C
102
}
100
AcDbDictionary
280
0
281
1
  3
Standard
350
18
  0
DICTIONARY
  5
19
102
{ACAD_REACTORS
330
C
102
}
100
AcDbDictionary
281
1
  0
DICTIONARY
  5
1A
102
{ACAD_REACTORS
330
C
102
}
100
AcDbDictionary
281
1
  3
Model
350
2C5
  3
Layout1
350
2C6
  0
ACDBPLACEHOLDER
  5
F
102
{ACAD_REACTORS
330
E
102
}
  0
MLINESTYLE
  5
18
102
{ACAD_REACTORS
330
17
102
}
100
AcDbMlineStyle
  2
STANDARD
 70
0
  3

 62
256
 51
90.0
 52
90.0
 71
2
 49
0.5
 62
256
  6
BYLAYER
 49
-0.5
 62
256
  6
BYLAYER
  0
LAYOUT
  5
2C5
102
{ACAD_REACTORS
330
1A
102
}
100
AcDbPlotSettings
  1

  2
none_device
  4
ANSI_B_(17.00_x_11.00_Inches)
  6

 40
0.0
 41
0.0
 42
0.0
 43
0.0
 44
431.8
 45
279.4
 46
0.0
 47
0.0
 48
0.0
 49
0.0
140
0.0
141
0.0
142
1.0
143
1.0
 70
1024
 72
0
 73
0
 74
0
  7

 75
0
147
1.0
148
0.0
149
0.0
100
AcDbLayout
  1
Model
 70
0
 71
0
 10
0.0
 20
0.0
 11
17.0
 21
11.0
 12
0.0
 22
0.0
 32
0.0
 14
0.0
 24
0.0
 34
0.0
 15
0.0
 25
0.0
 35
0.0
146
0.0
 13
0.0
 23
0.0
 33
0.0
 16
1.0
 26
0.0
 36
0.0
 17
0.0
 27
1.0
 37
0.0
 76
0
330
240
345
0
346
0
  0
LAYOUT
  5
2C6
102
{ACAD_REACTORS
330
1A
102
}
100
AcDbPlotSettings
  1

  2
none_device
  4
ANSI_B_(17.00_x_11.00_Inches)
  6

 40
0.0
 41
0.0
 42
0.0
 43
0.0
 44
431.8
 45
279.4
 46
0.0
 47
0.0
 48
0.0
 49
0.0
140
0.0
141
0.0
142
1.0
143
1.0
 70
0
 72
0
 73
0
 74
0
  7

 75
0
147
1.0
148
0.0
149
0.0
100
AcDbLayout
  1
Layout1
 70
0
 71
1
 10
0.0
 20
0.0
 11
17.0
 21
11.0
 12
0.0
 22
0.0
 32
0.0
 14
0.0
 24
0.0
 34
0.0
 15
0.0
 25
0.0
 35
0.0
146
0.0
 13
0.0
 23
0.0
 33
0.0
 16
1.0
 26
0.0
 36
0.0
 17
0.0
 27
1.0
 37
0.0
 76
0
330
241
345
0
346
0
  0
ENDSEC
  0
EOF
