999
DXF file: CXCDXAN.dxf
999
Pro/ENGINEER 2016010 by Parametric Technology Corporation
  0
SECTION
  2
HEADER
  9
$ACADVER
  1
AC1021
  9
$DWGCODEPAGE
  3
ANSI_1252
  9
$EXTMAX
 10
17.0
 20
11.0
 30
0.0
  9
$EXTMIN
 10
0.0
 20
0.0
 30
0.0
  9
$LIMMIN
 10
0.0
 20
0.0
  9
$LIMMAX
 10
17.0
 20
11.0
  9
$VIEWCTR
 10
8.5
 20
5.5
  9
$VIEWSIZE
 40
11.0
  9
$CLAYER
  8
0
  9
$LTSCALE
 40
0.935
  9
$CELTYPE
  6
BYLAYER
  9
$DIMSCALE
 40
1.0
  9
$DIMASZ
 40
0.1875
  9
$DIMEXO
 40
0.0625
  9
$DIMDLI
 40
0.646
  9
$DIMEXE
 40
0.125
  9
$DIMCEN
 40
0.153
  9
$DIMLFAC
 40
1.0
  9
$DIMBLK
  1
_FILLED
  9
$DIMALT
 70
0
  9
$DIMALTF
 40
25.4
  9
$DIMTXT
 40
0.125
  9
$DIMTOL
 70
0
  9
$DIMLIM
 70
0
  9
$DIMTFAC
 40
1.0
  9
$DIMGAP
 40
0.09
  9
$DIMDSEP
 70
46
  9
$AUNITS
 70
0
  9
$PDMODE
 70
3
  9
$PDSIZE
 40
0.3125
  9
$HANDSEED
  5
2F2
  9
$TILEMODE
 70
1
  9
$MEASUREMENT
 70
0
  9
$INSUNITS
 70
1
  0
ENDSEC
  0
SECTION
  2
CLASSES
  0
CLASS
  1
ACDBDICTIONARYWDFLT
  2
AcDbDictionaryWithDefault
  3
AutoCAD 2000
 90
0
 91
1
280
0
281
0
  0
CLASS
  1
ACDBPLACEHOLDER
  2
AcDbPlaceHolder
  3
AutoCAD 2000
 90
0
 91
1
280
0
281
0
  0
CLASS
  1
LAYOUT
  2
AcDbLayout
  3
AutoCAD 2000
 90
0
 91
0
280
0
281
0
  0
ENDSEC
  0
SECTION
  2
TABLES
  0
TABLE
  2
VPORT
  5
8
100
AcDbSymbolTable
 70
2
  0
VPORT
  5
1F4
100
AcDbSymbolTableRecord
100
AcDbViewportTableRecord
  2
*ACTIVE
 70
0
 10
0.0
 20
0.0
 11
1.0
 21
1.0
 12
8.5
 22
5.5
 13
0.0
 23
0.0
 14
1.0
 24
1.0
 15
0.0
 25
0.0
 16
0.0
 26
0.0
 36
1.0
 17
0.0
 27
0.0
 37
0.0
 40
11.0
 41
1.5454545455
 42
50.0
 43
0.0
 44
0.0
 50
0.0
 51
0.0
 71
0
 72
100
 73
1
 74
1
 75
0
 76
0
 77
0
 78
0
  0
ENDTAB
  0
TABLE
  2
LTYPE
  5
5
100
AcDbSymbolTable
 70
6
  0
LTYPE
  5
14
100
AcDbSymbolTableRecord
100
AcDbLinetypeTableRecord
  2
BYBLOCK
 70
0
  3

 72
65
 73
0
 40
0.0
  0
LTYPE
  5
15
100
AcDbSymbolTableRecord
100
AcDbLinetypeTableRecord
  2
BYLAYER
 70
0
  3

 72
65
 73
0
 40
0.0
  0
LTYPE
  5
16
100
AcDbSymbolTableRecord
100
AcDbLinetypeTableRecord
  2
CONTINUOUS
 70
64
  3
Solid line
 72
65
 73
0
 40
0.0
  0
LTYPE
  5
1F5
100
AcDbSymbolTableRecord
100
AcDbLinetypeTableRecord
  2
CENTER
 70
64
  3
____ _ ____ _ ____ _ ____ _ ____ _ ____ _ ____
 72
65
 73
4
 40
0.6
 49
0.375
 74
0
 49
-0.075
 74
0
 49
0.075
 74
0
 49
-0.075
 74
0
  0
LTYPE
  5
1F6
100
AcDbSymbolTableRecord
100
AcDbLinetypeTableRecord
  2
HIDDEN
 70
64
  3
- - - - - - - - - - - - - - - - - - - -
 72
65
 73
2
 40
0.2
 49
0.1
 74
0
 49
-0.1
 74
0
  0
LTYPE
  5
1F7
100
AcDbSymbolTableRecord
100
AcDbLinetypeTableRecord
  2
PHANTOM
 70
64
  3
_____ _ _ _____ _ _ _____ _ _ _____
 72
65
 73
6
 40
0.8
 49
0.45
 74
0
 49
-0.05
 74
0
 49
0.1
 74
0
 49
-0.05
 74
0
 49
0.1
 74
0
 49
-0.05
 74
0
  0
LTYPE
  5
1F8
100
AcDbSymbolTableRecord
100
AcDbLinetypeTableRecord
  2
DOT
 70
64
  3
. . . . . . . . . . . . . . . . . . . .
 72
65
 73
2
 40
0.2
 49
0.1
 74
0
 49
-0.1
 74
0
  0
LTYPE
  5
1F9
100
AcDbSymbolTableRecord
100
AcDbLinetypeTableRecord
  2
DASHED
 70
64
  3
- - - - - - - - - - - - - - - - - - - -
 72
65
 73
2
 40
0.2
 49
0.1
 74
0
 49
-0.1
 74
0
  0
ENDTAB
  0
TABLE
  2
LAYER
  5
2
100
AcDbSymbolTable
 70
36
  0
LAYER
  5
10
100
AcDbSymbolTableRecord
100
AcDbLayerTableRecord
  2
0
 70
0
 62
7
  6
CONTINUOUS
370
-3
390
F
  0
LAYER
  5
1FA
100
AcDbSymbolTableRecord
100
AcDbLayerTableRecord
  2
DEFAULT_1
 70
0
 62
7
  6
CENTER
370
-3
390
F
  0
LAYER
  5
1FB
100
AcDbSymbolTableRecord
100
AcDbLayerTableRecord
  2
DEFAULT_2
 70
0
 62
8
  6
HIDDEN
370
-3
390
F
  0
LAYER
  5
1FC
100
AcDbSymbolTableRecord
100
AcDbLayerTableRecord
  2
DEFAULT_3
 70
0
 62
7
  6
PHANTOM
370
-3
390
F
  0
LAYER
  5
1FD
100
AcDbSymbolTableRecord
100
AcDbLayerTableRecord
  2
01_ALL_DTM_PLN
 70
0
 62
7
  6
CONTINUOUS
370
-3
390
F
  0
LAYER
  5
1FE
100
AcDbSymbolTableRecord
100
AcDbLayerTableRecord
  2
01__ASM_ALL_DTM_PLN
 70
0
 62
7
  6
CONTINUOUS
370
-3
390
F
  0
LAYER
  5
1FF
100
AcDbSymbolTableRecord
100
AcDbLayerTableRecord
  2
01__ASM_DEF_DTM_PLN
 70
0
 62
7
  6
CONTINUOUS
370
-3
390
F
  0
LAYER
  5
200
100
AcDbSymbolTableRecord
100
AcDbLayerTableRecord
  2
01___PRT_ALL_DTM_PLN
 70
0
 62
7
  6
CONTINUOUS
370
-3
390
F
  0
LAYER
  5
201
100
AcDbSymbolTableRecord
100
AcDbLayerTableRecord
  2
01___PRT_DEF_DTM_PLN
 70
0
 62
7
  6
CONTINUOUS
370
-3
390
F
  0
LAYER
  5
202
100
AcDbSymbolTableRecord
100
AcDbLayerTableRecord
  2
02_ALL_AXES
 70
0
 62
7
  6
CONTINUOUS
370
-3
390
F
  0
LAYER
  5
203
100
AcDbSymbolTableRecord
100
AcDbLayerTableRecord
  2
02__ASM_ALL_AXES
 70
0
 62
7
  6
CONTINUOUS
370
-3
390
F
  0
LAYER
  5
204
100
AcDbSymbolTableRecord
100
AcDbLayerTableRecord
  2
02___PRT_ALL_AXES
 70
0
 62
7
  6
CONTINUOUS
370
-3
390
F
  0
LAYER
  5
205
100
AcDbSymbolTableRecord
100
AcDbLayerTableRecord
  2
03_ALL_CURVES
 70
0
 62
7
  6
CONTINUOUS
370
-3
390
F
  0
LAYER
  5
206
100
AcDbSymbolTableRecord
100
AcDbLayerTableRecord
  2
03__ASM_ALL_CURVES
 70
0
 62
7
  6
CONTINUOUS
370
-3
390
F
  0
LAYER
  5
207
100
AcDbSymbolTableRecord
100
AcDbLayerTableRecord
  2
03___PRT_ALL_CURVES
 70
0
 62
7
  6
CONTINUOUS
370
-3
390
F
  0
LAYER
  5
208
100
AcDbSymbolTableRecord
100
AcDbLayerTableRecord
  2
04_ALL_DTM_PNT
 70
0
 62
7
  6
CONTINUOUS
370
-3
390
F
  0
LAYER
  5
209
100
AcDbSymbolTableRecord
100
AcDbLayerTableRecord
  2
04__ASM_ALL_DTM_PNT
 70
0
 62
7
  6
CONTINUOUS
370
-3
390
F
  0
LAYER
  5
20A
100
AcDbSymbolTableRecord
100
AcDbLayerTableRecord
  2
04___PRT_ALL_DTM_PNT
 70
0
 62
7
  6
CONTINUOUS
370
-3
390
F
  0
LAYER
  5
20B
100
AcDbSymbolTableRecord
100
AcDbLayerTableRecord
  2
05_ALL_DTM_CSYS
 70
0
 62
7
  6
CONTINUOUS
370
-3
390
F
  0
LAYER
  5
20C
100
AcDbSymbolTableRecord
100
AcDbLayerTableRecord
  2
05__ASM_ALL_DTM_CSYS
 70
0
 62
7
  6
CONTINUOUS
370
-3
390
F
  0
LAYER
  5
20D
100
AcDbSymbolTableRecord
100
AcDbLayerTableRecord
  2
05__ASM_DEF_DTM_CSYS
 70
0
 62
7
  6
CONTINUOUS
370
-3
390
F
  0
LAYER
  5
20E
100
AcDbSymbolTableRecord
100
AcDbLayerTableRecord
  2
05___PRT_ALL_DTM_CSYS
 70
0
 62
7
  6
CONTINUOUS
370
-3
390
F
  0
LAYER
  5
20F
100
AcDbSymbolTableRecord
100
AcDbLayerTableRecord
  2
05___PRT_DEF_DTM_CSYS
 70
0
 62
7
  6
CONTINUOUS
370
-3
390
F
  0
LAYER
  5
210
100
AcDbSymbolTableRecord
100
AcDbLayerTableRecord
  2
06_ALL_SURFS
 70
0
 62
7
  6
CONTINUOUS
370
-3
390
F
  0
LAYER
  5
211
100
AcDbSymbolTableRecord
100
AcDbLayerTableRecord
  2
06__ASM_ALL_SURFS
 70
0
 62
7
  6
CONTINUOUS
370
-3
390
F
  0
LAYER
  5
212
100
AcDbSymbolTableRecord
100
AcDbLayerTableRecord
  2
06___PRT_ALL_SURFS
 70
0
 62
7
  6
CONTINUOUS
370
-3
390
F
  0
LAYER
  5
213
100
AcDbSymbolTableRecord
100
AcDbLayerTableRecord
  2
07__ASM_ALL_SKELETONS
 70
0
 62
7
  6
CONTINUOUS
370
-3
390
F
  0
LAYER
  5
214
100
AcDbSymbolTableRecord
100
AcDbLayerTableRecord
  2
126-002_HEX_FEATURES
 70
0
 62
7
  6
CONTINUOUS
370
-3
390
F
  0
LAYER
  5
215
100
AcDbSymbolTableRecord
100
AcDbLayerTableRecord
  2
126-002_REF_GEOMETRY
 70
0
 62
7
  6
CONTINUOUS
370
-3
390
F
  0
LAYER
  5
216
100
AcDbSymbolTableRecord
100
AcDbLayerTableRecord
  2
126-100_HEX_FEATURES
 70
0
 62
7
  6
CONTINUOUS
370
-3
390
F
  0
LAYER
  5
217
100
AcDbSymbolTableRecord
100
AcDbLayerTableRecord
  2
126-100_REF_GEOMETRY
 70
0
 62
7
  6
CONTINUOUS
370
-3
390
F
  0
LAYER
  5
218
100
AcDbSymbolTableRecord
100
AcDbLayerTableRecord
  2
126-101_HEX_FEATURES
 70
0
 62
7
  6
CONTINUOUS
370
-3
390
F
  0
LAYER
  5
219
100
AcDbSymbolTableRecord
100
AcDbLayerTableRecord
  2
126-101_REF_GEOMETRY
 70
0
 62
7
  6
CONTINUOUS
370
-3
390
F
  0
LAYER
  5
21A
100
AcDbSymbolTableRecord
100
AcDbLayerTableRecord
  2
126-102_HEX_FEATURES
 70
0
 62
7
  6
CONTINUOUS
370
-3
390
F
  0
LAYER
  5
21B
100
AcDbSymbolTableRecord
100
AcDbLayerTableRecord
  2
126-102_REF_GEOMETRY
 70
0
 62
7
  6
CONTINUOUS
370
-3
390
F
  0
LAYER
  5
21C
100
AcDbSymbolTableRecord
100
AcDbLayerTableRecord
  2
126-103_HEX_FEATURES
 70
0
 62
7
  6
CONTINUOUS
370
-3
390
F
  0
LAYER
  5
21D
100
AcDbSymbolTableRecord
100
AcDbLayerTableRecord
  2
126-103_REF_GEOMETRY
 70
0
 62
7
  6
CONTINUOUS
370
-3
390
F
  0
LAYER
  5
21E
100
AcDbSymbolTableRecord
100
AcDbLayerTableRecord
  2
126-104_HEX_FEATURES
 70
0
 62
7
  6
CONTINUOUS
370
-3
390
F
  0
LAYER
  5
21F
100
AcDbSymbolTableRecord
100
AcDbLayerTableRecord
  2
126-104_REF_GEOMETRY
 70
0
 62
7
  6
CONTINUOUS
370
-3
390
F
  0
LAYER
  5
220
100
AcDbSymbolTableRecord
100
AcDbLayerTableRecord
  2
250-19_BSPP_PORT_PER_S-186
 70
0
 62
7
  6
CONTINUOUS
370
-3
390
F
  0
LAYER
  5
221
100
AcDbSymbolTableRecord
100
AcDbLayerTableRecord
  2
COPY_GEO_FET
 70
0
 62
7
  6
CONTINUOUS
370
-3
390
F
  0
LAYER
  5
222
100
AcDbSymbolTableRecord
100
AcDbLayerTableRecord
  2
COSMESTIC
 70
0
 62
7
  6
CONTINUOUS
370
-3
390
F
  0
LAYER
  5
223
100
AcDbSymbolTableRecord
100
AcDbLayerTableRecord
  2
COSMETIC
 70
0
 62
7
  6
CONTINUOUS
370
-3
390
F
  0
LAYER
  5
224
100
AcDbSymbolTableRecord
100
AcDbLayerTableRecord
  2
CROSS_HOLE_DATUMS
 70
0
 62
7
  6
CONTINUOUS
370
-3
390
F
  0
LAYER
  5
225
100
AcDbSymbolTableRecord
100
AcDbLayerTableRecord
  2
CUT_REF_SURF
 70
0
 62
7
  6
CONTINUOUS
370
-3
390
F
  0
LAYER
  5
226
100
AcDbSymbolTableRecord
100
AcDbLayerTableRecord
  2
DATUM
 70
0
 62
7
  6
CONTINUOUS
370
-3
390
F
  0
LAYER
  5
227
100
AcDbSymbolTableRecord
100
AcDbLayerTableRecord
  2
DATUMCURVES
 70
0
 62
7
  6
CONTINUOUS
370
-3
390
F
  0
LAYER
  5
228
100
AcDbSymbolTableRecord
100
AcDbLayerTableRecord
  2
DIMENSIONS
 70
0
 62
7
  6
CONTINUOUS
370
-3
390
F
  0
LAYER
  5
229
100
AcDbSymbolTableRecord
100
AcDbLayerTableRecord
  2
DRAWINGNOTES
 70
0
 62
7
  6
CONTINUOUS
370
-3
390
F
  0
LAYER
  5
22A
100
AcDbSymbolTableRecord
100
AcDbLayerTableRecord
  2
DTM
 70
0
 62
7
  6
CONTINUOUS
370
-3
390
F
  0
LAYER
  5
22B
100
AcDbSymbolTableRecord
100
AcDbLayerTableRecord
  2
DTM230
 70
0
 62
7
  6
CONTINUOUS
370
-3
390
F
  0
LAYER
  5
22C
100
AcDbSymbolTableRecord
100
AcDbLayerTableRecord
  2
DTM_500002
 70
0
 62
7
  6
CONTINUOUS
370
-3
390
F
  0
LAYER
  5
22D
100
AcDbSymbolTableRecord
100
AcDbLayerTableRecord
  2
DTM_515002
 70
0
 62
7
  6
CONTINUOUS
370
-3
390
F
  0
LAYER
  5
22E
100
AcDbSymbolTableRecord
100
AcDbLayerTableRecord
  2
DTM_SPRING_RH
 70
0
 62
7
  6
CONTINUOUS
370
-3
390
F
  0
LAYER
  5
22F
100
AcDbSymbolTableRecord
100
AcDbLayerTableRecord
  2
DTM_SP_RH_CONSTR
 70
0
 62
7
  6
CONTINUOUS
370
-3
390
F
  0
LAYER
  5
230
100
AcDbSymbolTableRecord
100
AcDbLayerTableRecord
  2
FLUTE_DATUMS
 70
0
 62
7
  6
CONTINUOUS
370
-3
390
F
  0
LAYER
  5
231
100
AcDbSymbolTableRecord
100
AcDbLayerTableRecord
  2
GEOMETRICTOLERANCES
 70
0
 62
7
  6
CONTINUOUS
370
-3
390
F
  0
LAYER
  5
232
100
AcDbSymbolTableRecord
100
AcDbLayerTableRecord
  2
HIDDEN
 70
0
 62
7
  6
CONTINUOUS
370
-3
390
F
  0
LAYER
  5
233
100
AcDbSymbolTableRecord
100
AcDbLayerTableRecord
  2
HIDDEN_DRW
 70
0
 62
7
  6
CONTINUOUS
370
-3
390
F
  0
LAYER
  5
234
100
AcDbSymbolTableRecord
100
AcDbLayerTableRecord
  2
PARAMETERDIMENSIONS
 70
0
 62
7
  6
CONTINUOUS
370
-3
390
F
  0
LAYER
  5
235
100
AcDbSymbolTableRecord
100
AcDbLayerTableRecord
  2
PLANE
 70
0
 62
7
  6
CONTINUOUS
370
-3
390
F
  0
LAYER
  5
236
100
AcDbSymbolTableRecord
100
AcDbLayerTableRecord
  2
STD_SAE-4_PORT
 70
0
 62
7
  6
CONTINUOUS
370
-3
390
F
  0
LAYER
  5
237
100
AcDbSymbolTableRecord
100
AcDbLayerTableRecord
  2
STD_SAE-6_PORT
 70
0
 62
7
  6
CONTINUOUS
370
-3
390
F
  0
LAYER
  5
238
100
AcDbSymbolTableRecord
100
AcDbLayerTableRecord
  2
T-8A_CAVITY
 70
0
 62
7
  6
CONTINUOUS
370
-3
390
F
  0
LAYER
  5
239
100
AcDbSymbolTableRecord
100
AcDbLayerTableRecord
  2
T-8A_CAVITY_REF_GEOMETRY
 70
0
 62
7
  6
CONTINUOUS
370
-3
390
F
  0
LAYER
  5
23A
100
AcDbSymbolTableRecord
100
AcDbLayerTableRecord
  2
TEXT
 70
0
 62
7
  6
CONTINUOUS
370
-3
390
F
  0
LAYER
  5
23B
100
AcDbSymbolTableRecord
100
AcDbLayerTableRecord
  2
THREAD
 70
0
 62
7
  6
CONTINUOUS
370
-3
390
F
  0
LAYER
  5
23C
100
AcDbSymbolTableRecord
100
AcDbLayerTableRecord
  2
XSEC_DATUMS
 70
0
 62
7
  6
CONTINUOUS
370
-3
390
F
  0
ENDTAB
  0
TABLE
  2
STYLE
  5
3
100
AcDbSymbolTable
 70
1
  0
STYLE
  5
11
100
AcDbSymbolTableRecord
100
AcDbTextStyleTableRecord
  2
STANDARD
 70
0
 40
0.0
 41
0.8
 50
0.0
 71
0
 42
0.2
  3
txt
  4

  0
STYLE
  5
23D
100
AcDbSymbolTableRecord
100
AcDbTextStyleTableRecord
  2
TEXTSTYLE_1
 70
0
 40
0.0
 41
0.8
 50
0.0
 71
0
 42
0.2
  3
gdt
  4

  0
ENDTAB
  0
TABLE
  2
VIEW
  5
6
100
AcDbSymbolTable
 70
0
  0
ENDTAB
  0
TABLE
  2
UCS
  5
7
100
AcDbSymbolTable
 70
0
  0
ENDTAB
  0
TABLE
  2
APPID
  5
9
100
AcDbSymbolTable
 70
1
  0
APPID
  5
23E
100
AcDbSymbolTableRecord
100
AcDbRegAppTableRecord
  2
ACAD
 70
0
  0
ENDTAB
  0
TABLE
  2
BLOCK_RECORD
  5
1
100
AcDbSymbolTable
 70
0
  0
BLOCK_RECORD
  5
23F
100
AcDbSymbolTableRecord
100
AcDbBlockTableRecord
  2
*Model_Space
  0
BLOCK_RECORD
  5
240
100
AcDbSymbolTableRecord
100
AcDbBlockTableRecord
  2
*Paper_Space
  0
BLOCK_RECORD
  5
241
100
AcDbSymbolTableRecord
100
AcDbBlockTableRecord
  2
_FILLED
  0
BLOCK_RECORD
  5
242
100
AcDbSymbolTableRecord
100
AcDbBlockTableRecord
  2
*D0
  0
ENDTAB
  0
TABLE
  2
DIMSTYLE
  5
A
100
AcDbSymbolTable
 70
1
100
AcDbDimStyleTable
 71
0
  0
DIMSTYLE
105
243
100
AcDbSymbolTableRecord
100
AcDbDimStyleTableRecord
  2
STANDARD
 70
0
  3

  4

 40
1.0
 41
0.1875
 42
0.0625
 43
0.38
 44
0.125
 45
0.0
 46
0.0
 47
0.001
 48
0.001
140
0.125
141
0.09
142
0.0
143
25.4
144
1.0
145
0.0
146
1.0
147
0.09
 71
0.0
 72
0.0
 73
1
 74
1
 75
0
 76
0
 77
0
 78
4
170
0
171
2
172
0
173
0
174
0
175
0
176
0
177
0
178
0
270
2
271
3
272
3
273
2
274
2
275
0
280
0
281
0
282
0
283
1
284
4
285
0
286
0
287
3
288
0
340
11
278
46
341
241
342
241
343
241
344
241
  0
DIMSTYLE
105
244
100
AcDbSymbolTableRecord
100
AcDbDimStyleTableRecord
  2
DIMSTYLE_1
 70
0
  3

  4

 40
1.0
 41
0.1875
 42
0.0625
 43
0.38
 44
0.125
 45
0.0
 46
0.0
 47
0.0
 48
0.0
140
0.125
141
0.09
142
0.0
143
25.4
144
1.0
145
0.0
146
1.0
147
0.0625
 71
0.0
 72
0.0
 73
1
 74
1
 75
0
 76
0
 77
0
 78
4
170
0
171
2
172
0
173
0
174
0
175
0
176
0
177
0
178
0
270
2
271
2
272
2
273
2
274
2
275
0
280
0
281
0
282
0
283
1
284
4
285
0
286
0
287
3
288
0
340
11
278
46
341
241
342
241
343
241
344
241
  0
ENDTAB
  0
ENDSEC
  0
SECTION
  2
BLOCKS
  0
BLOCK
  5
20
100
AcDbEntity
  8
0
100
AcDbBlockBegin
  2
*Model_Space
 70
0
 10
0.0
 20
0.0
 30
0.0
  3
*Model_Space
  1

  0
ENDBLK
  5
21
100
AcDbEntity
  8
0
100
AcDbBlockEnd
  0
BLOCK
  5
1C
100
AcDbEntity
  8
0
100
AcDbBlockBegin
  2
*Paper_Space
 70
0
 10
0.0
 20
0.0
 30
0.0
  3
*Paper_Space
  1

  0
ENDBLK
  5
1D
100
AcDbEntity
  8
0
100
AcDbBlockEnd
  0
BLOCK
  5
245
100
AcDbEntity
  8
0
100
AcDbBlockBegin
  2
_FILLED
 70
64
 10
0.0
 20
0.0
  3
_FILLED
  1

  0
SOLID
  5
246
100
AcDbEntity
  8
0
  6
BYBLOCK
 62
0
100
AcDbTrace
 10
0.0
 20
0.0
 11
-1.0
 21
0.1666666667
 12
-1.0
 22
-0.1666666667
 13
-1.0
 23
-0.1666666667
  0
ENDBLK
  5
247
100
AcDbEntity
  8
0
  6
BYBLOCK
 62
0
100
AcDbBlockEnd
  0
BLOCK
  5
248
100
AcDbEntity
  8
0
100
AcDbBlockBegin
 62
6
  6
CONTINUOUS
  2
*D0
 70
65
 10
0.0
 20
0.0
  3
*D0
  1

  0
MTEXT
  5
249
100
AcDbEntity
  8
0
100
AcDbMText
 62
6
  6
CONTINUOUS
  7
STANDARD
 71
1
 72
1
 10
4.9395
 20
7.865
 30
0.0
 11
1.0
 21
0.0
 31
0.0
 44
0.9
  1
.75 in (19,0 mm)
 40
0.125
 41
1.6
  0
LINE
  5
24A
100
AcDbEntity
  8
0
100
AcDbLine
 62
6
  6
CONTINUOUS
 10
4.6895
 20
7.49
 11
4.6895
 21
7.9275
  0
LINE
  5
24B
100
AcDbEntity
  8
0
100
AcDbLine
 62
6
  6
CONTINUOUS
 10
3.9395
 20
7.0625
 11
3.9395
 21
7.9275
  0
LINE
  5
24C
100
AcDbEntity
  8
0
100
AcDbLine
 62
6
  6
CONTINUOUS
 10
4.6895
 20
7.8025
 11
4.3145
 21
7.8025
  0
LINE
  5
24D
100
AcDbEntity
  8
0
100
AcDbLine
 62
6
  6
CONTINUOUS
 10
4.3145
 20
7.8025
 11
4.877
 21
7.8025
  0
LINE
  5
24E
100
AcDbEntity
  8
0
100
AcDbLine
 62
6
  6
CONTINUOUS
 10
3.9395
 20
7.8025
 11
4.3145
 21
7.8025
  0
INSERT
  5
24F
100
AcDbEntity
  8
0
100
AcDbBlockReference
 62
6
  6
CONTINUOUS
  2
_FILLED
 10
4.6895
 20
7.8025
 41
0.1875
 42
0.1875
 43
0.1875
  0
INSERT
  5
250
100
AcDbEntity
  8
0
100
AcDbBlockReference
 62
6
  6
CONTINUOUS
  2
_FILLED
 10
3.9395
 20
7.8025
 41
0.1875
 42
0.1875
 43
0.1875
 50
180.0
  0
ENDBLK
  5
251
100
AcDbEntity
  8
0
  6
BYBLOCK
 62
0
100
AcDbBlockEnd
  0
ENDSEC
  0
SECTION
  2
ENTITIES
  0
DIMENSION
  5
252
100
AcDbEntity
  8
0
100
AcDbDimension
 62
6
  6
CONTINUOUS
  2
*D0
 10
3.9395
 20
7.8025
 11
5.7395
 21
7.8025
 70
160
 71
1
 42
0.75
  1
<> in (19,0 mm)
  3
DIMSTYLE_1
100
AcDbAlignedDimension
 13
4.6895
 23
7.4275
 14
3.9395
 24
7.0
 50
180.0
100
AcDbRotatedDimension
  0
MTEXT
  5
253
100
AcDbEntity
  8
0
100
AcDbMText
 62
2
  6
CONTINUOUS
  7
STANDARD
 71
1
 72
1
 10
6.3245
 20
7.0625
 30
0.0
 11
1.0
 21
0.0
 31
0.0
 44
0.6
  1
Port 1\POutlet
 40
0.125
 41
0.6
  0
MTEXT
  5
254
100
AcDbEntity
  8
0
100
AcDbMText
 62
2
  6
CONTINUOUS
  7
STANDARD
 71
1
 72
1
 10
5.4085
 20
6.5005
 30
0.0
 11
1.0
 21
0.0
 31
0.0
 44
0.6
  1
Port 2\PInlet
 40
0.125
 41
0.6
  0
MTEXT
  5
255
100
AcDbEntity
  8
0
100
AcDbMText
 62
2
  6
CONTINUOUS
  7
STANDARD
 71
1
 72
1
 10
4.9395
 20
7.615
 30
0.0
 11
1.0
 21
0.0
 31
0.0
 44
0.6
  1
 LOCATING SHOULDER
 40
0.125
 41
1.8
  0
LINE
  5
256
100
AcDbEntity
  8
THREAD
100
AcDbLine
 62
7
  6
CONTINUOUS
 10
3.9395
 20
6.5700050384
 11
3.9395
 21
7.4299949616
  0
LINE
  5
257
100
AcDbEntity
  8
THREAD
100
AcDbLine
 62
7
  6
CONTINUOUS
 10
3.943839952
 20
7.4375170173
 11
3.9395
 21
7.43
  0
LINE
  5
258
100
AcDbEntity
  8
THREAD
100
AcDbLine
 62
7
  6
CONTINUOUS
 10
3.943839952
 20
6.5624829827
 11
3.9395
 21
6.57
  0
LINE
  5
259
100
AcDbEntity
  8
THREAD
100
AcDbLine
 62
7
  6
CONTINUOUS
 10
3.9735636659
 20
6.562483966
 11
3.9735636659
 21
6.5920977523
  0
LINE
  5
25A
100
AcDbEntity
  8
THREAD
100
AcDbLine
 62
7
  6
CONTINUOUS
 10
3.9735636659
 20
6.9703862137
 11
3.9735636659
 21
7.0296137863
  0
LINE
  5
25B
100
AcDbEntity
  8
THREAD
100
AcDbLine
 62
7
  6
CONTINUOUS
 10
3.9735636659
 20
7.4079022477
 11
3.9735636659
 21
7.437516034
  0
LINE
  5
25C
100
AcDbEntity
  8
THREAD
100
AcDbLine
 62
7
  6
CONTINUOUS
 10
4.409
 20
7.437516034
 11
4.409
 21
7.4079022477
  0
LINE
  5
25D
100
AcDbEntity
  8
THREAD
100
AcDbLine
 62
7
  6
CONTINUOUS
 10
4.409
 20
6.562483966
 11
4.409
 21
6.5920977523
  0
LINE
  5
25E
100
AcDbEntity
  8
THREAD
100
AcDbLine
 62
7
  6
CONTINUOUS
 10
4.409
 20
6.9703862137
 11
4.409
 21
7.0296137863
  0
LINE
  5
25F
100
AcDbEntity
  8
THREAD
100
AcDbLine
 62
7
  6
CONTINUOUS
 10
4.4705
 20
6.5725
 11
4.4705
 21
7.4275
  0
LINE
  5
260
100
AcDbEntity
  8
0
100
AcDbLine
 62
7
  6
CONTINUOUS
 10
4.6365
 20
7.4275
 11
4.627977962
 21
7.4181525475
  0
LINE
  5
261
100
AcDbEntity
  8
0
100
AcDbLine
 62
7
  6
CONTINUOUS
 10
4.6365
 20
6.5725
 11
4.627977962
 21
6.5818474525
  0
LINE
  5
262
100
AcDbEntity
  8
0
100
AcDbLine
 62
7
  6
CONTINUOUS
 10
4.6165
 20
6.5725
 11
4.6165
 21
7.4275
  0
LINE
  5
263
100
AcDbEntity
  8
0
100
AcDbLine
 62
7
  6
CONTINUOUS
 10
4.625022038
 20
7.4181525475
 11
4.625022038
 21
6.5818474525
  0
LINE
  5
264
100
AcDbEntity
  8
THREAD
100
AcDbLine
 62
7
  6
CONTINUOUS
 10
3.9438393843
 20
6.562483966
 11
4.4604839658
 21
6.562483966
  0
LINE
  5
265
100
AcDbEntity
  8
THREAD
100
AcDbLine
 62
7
  6
CONTINUOUS
 10
4.6865
 20
6.5725
 11
4.6365
 21
6.5725
  0
LINE
  5
266
100
AcDbEntity
  8
THREAD
100
AcDbLine
 62
7
  6
CONTINUOUS
 10
4.6165
 20
6.5725
 11
4.4705
 21
6.5725
  0
LINE
  5
267
100
AcDbEntity
  8
THREAD
100
AcDbLine
 62
7
  6
CONTINUOUS
 10
4.409
 20
6.5920977523
 11
3.9735636659
 21
6.5920977523
  0
LINE
  5
268
100
AcDbEntity
  8
0
100
AcDbLine
 62
7
  6
CONTINUOUS
 10
4.7365
 20
6.595
 11
4.7142224319
 21
6.595
  0
LINE
  5
269
100
AcDbEntity
  8
0
100
AcDbLine
 62
7
  6
CONTINUOUS
 10
4.8065
 20
6.5955
 11
4.8565
 21
6.5955
  0
LINE
  5
26A
100
AcDbEntity
  8
0
100
AcDbLine
 62
7
  6
CONTINUOUS
 10
5.145
 20
6.6125
 11
4.89786196
 21
6.6125
  0
LINE
  5
26B
100
AcDbEntity
  8
0
100
AcDbLine
 62
7
  6
CONTINUOUS
 10
4.627977962
 20
7.4181525475
 11
4.627977962
 21
6.5818474525
  0
LINE
  5
26C
100
AcDbEntity
  8
0
100
AcDbLine
 62
7
  6
CONTINUOUS
 10
4.6365
 20
6.5725
 11
4.6365
 21
7.4275
  0
LINE
  5
26D
100
AcDbEntity
  8
0
100
AcDbLine
 62
7
  6
CONTINUOUS
 10
4.6865
 20
7.4275
 11
4.6865
 21
6.5725
  0
LINE
  5
26E
100
AcDbEntity
  8
0
100
AcDbLine
 62
7
  6
CONTINUOUS
 10
4.6895
 20
7.4244999999
 11
4.6895
 21
6.5755000001
  0
LINE
  5
26F
100
AcDbEntity
  8
0
100
AcDbLine
 62
7
  6
CONTINUOUS
 10
4.692
 20
6.5829433757
 11
4.692
 21
7.4170566243
  0
LINE
  5
270
100
AcDbEntity
  8
0
100
AcDbLine
 62
7
  6
CONTINUOUS
 10
4.8689944465
 20
6.6495
 11
4.8565
 21
6.6495
  0
LINE
  5
271
100
AcDbEntity
  8
0
100
AcDbLine
 62
7
  6
CONTINUOUS
 10
5.3675
 20
6.657
 11
5.1895
 21
6.657
  0
LINE
  5
272
100
AcDbEntity
  8
0
100
AcDbLine
 62
7
  6
CONTINUOUS
 10
5.7945
 20
6.6575
 11
5.8525
 21
6.6575
  0
LINE
  5
273
100
AcDbEntity
  8
0
100
AcDbLine
 62
7
  6
CONTINUOUS
 10
5.9935
 20
6.6575
 11
6.0455
 21
6.6575
  0
LINE
  5
274
100
AcDbEntity
  8
0
100
AcDbLine
 62
7
  6
CONTINUOUS
 10
5.8525
 20
6.6585
 11
5.9025
 21
6.6585
  0
LINE
  5
275
100
AcDbEntity
  8
0
100
AcDbLine
 62
7
  6
CONTINUOUS
 10
4.7117224319
 20
6.594330127
 11
4.7117224319
 21
7.405669873
  0
LINE
  5
276
100
AcDbEntity
  8
0
100
AcDbLine
 62
7
  6
CONTINUOUS
 10
4.7142224319
 20
6.595
 11
4.7142224319
 21
7.405
  0
LINE
  5
277
100
AcDbEntity
  8
0
100
AcDbLine
 62
7
  6
CONTINUOUS
 10
4.7365
 20
6.5950070788
 11
4.7365
 21
7.4049929212
  0
LINE
  5
278
100
AcDbEntity
  8
0
100
AcDbLine
 62
7
  6
CONTINUOUS
 10
4.89786196
 20
7.3875
 11
4.8802527766
 21
7.3569999998
  0
LINE
  5
279
100
AcDbEntity
  8
0
100
AcDbLine
 62
7
  6
CONTINUOUS
 10
5.9935
 20
6.712
 11
5.9725
 21
6.712
  0
LINE
  5
27A
100
AcDbEntity
  8
0
100
AcDbLine
 62
7
  6
CONTINUOUS
 10
5.7795
 20
6.7195
 11
5.7275
 21
6.7195
  0
LINE
  5
27B
100
AcDbEntity
  8
0
100
AcDbLine
 62
7
  6
CONTINUOUS
 10
5.7075
 20
6.7195
 11
5.6965
 21
6.7195
  0
LINE
  5
27C
100
AcDbEntity
  8
0
100
AcDbLine
 62
7
  6
CONTINUOUS
 10
5.6765
 20
6.7195
 11
5.3775
 21
6.7195
  0
LINE
  5
27D
100
AcDbEntity
  8
0
100
AcDbLine
 62
7
  6
CONTINUOUS
 10
4.89786196
 20
6.6125
 11
4.8802527766
 21
6.6430000002
  0
LINE
  5
27E
100
AcDbEntity
  8
0
100
AcDbLine
 62
7
  6
CONTINUOUS
 10
4.8065
 20
7.4045
 11
4.8065
 21
6.5955
  0
LINE
  5
27F
100
AcDbEntity
  8
0
100
AcDbLine
 62
7
  6
CONTINUOUS
 10
4.8565
 20
7.4045
 11
4.8565
 21
6.5955
  0
LINE
  5
280
100
AcDbEntity
  8
0
100
AcDbLine
 62
7
  6
CONTINUOUS
 10
4.8689944465
 20
6.6495000001
 11
4.8689944465
 21
7.3504999999
  0
LINE
  5
281
100
AcDbEntity
  8
0
100
AcDbLine
 62
7
  6
CONTINUOUS
 10
4.8802527767
 20
6.6430000001
 11
4.8802527767
 21
7.3569999999
  0
LINE
  5
282
100
AcDbEntity
  8
0
100
AcDbLine
 62
7
  6
CONTINUOUS
 10
4.89786196
 20
6.6125
 11
4.89786196
 21
7.3875
  0
LINE
  5
283
100
AcDbEntity
  8
THREAD
100
AcDbLine
 62
7
  6
CONTINUOUS
 10
4.4705
 20
6.5725
 11
4.4604821994
 21
6.5624821994
  0
LINE
  5
284
100
AcDbEntity
  8
THREAD
100
AcDbLine
 62
7
  6
CONTINUOUS
 10
4.4705
 20
7.4275
 11
4.4604821994
 21
7.4375178006
  0
LINE
  5
285
100
AcDbEntity
  8
0
100
AcDbLine
 62
7
  6
CONTINUOUS
 10
4.625022038
 20
6.5818474525
 11
4.6165
 21
6.5725
  0
LINE
  5
286
100
AcDbEntity
  8
126-101_HEX_FEATURES
100
AcDbLine
 62
7
  6
CONTINUOUS
 10
5.1895
 20
6.9690237727
 11
5.1886135247
 21
6.9690000006
  0
LINE
  5
287
100
AcDbEntity
  8
THREAD
100
AcDbLine
 62
7
  6
CONTINUOUS
 10
4.409
 20
6.9703862137
 11
3.9735636659
 21
6.9703862137
  0
LINE
  5
288
100
AcDbEntity
  8
0
100
AcDbLine
 62
7
  6
CONTINUOUS
 10
4.625022038
 20
7.4181525475
 11
4.6165
 21
7.4275
  0
LINE
  5
289
100
AcDbEntity
  8
THREAD
100
AcDbLine
 62
7
  6
CONTINUOUS
 10
4.409
 20
7.0296137863
 11
3.9735636659
 21
7.0296137863
  0
LINE
  5
28A
100
AcDbEntity
  8
126-101_HEX_FEATURES
100
AcDbLine
 62
7
  6
CONTINUOUS
 10
5.1886127596
 20
7.0309999996
 11
5.1895
 21
7.0309762273
  0
LINE
  5
28B
100
AcDbEntity
  8
0
100
AcDbLine
 62
7
  6
CONTINUOUS
 10
5.145
 20
6.6125
 11
5.145
 21
7.3875
  0
LINE
  5
28C
100
AcDbEntity
  8
0
100
AcDbLine
 62
7
  6
CONTINUOUS
 10
5.1895
 20
7.343
 11
5.1895
 21
7.0309762273
  0
LINE
  5
28D
100
AcDbEntity
  8
0
100
AcDbLine
 62
7
  6
CONTINUOUS
 10
5.1895
 20
6.657
 11
5.1895
 21
6.9690237727
  0
LINE
  5
28E
100
AcDbEntity
  8
0
100
AcDbLine
 62
7
  6
CONTINUOUS
 10
4.7117224319
 20
6.594330127
 11
4.692
 21
6.5829433757
  0
LINE
  5
28F
100
AcDbEntity
  8
0
100
AcDbLine
 62
7
  6
CONTINUOUS
 10
4.7117224319
 20
7.405669873
 11
4.692
 21
7.4170566243
  0
LINE
  5
290
100
AcDbEntity
  8
0
100
AcDbLine
 62
7
  6
CONTINUOUS
 10
5.2795
 20
7.3229149841
 11
5.2795
 21
7.3429969788
  0
LINE
  5
291
100
AcDbEntity
  8
0
100
AcDbLine
 62
7
  6
CONTINUOUS
 10
5.3135
 20
7.3229149841
 11
5.3135
 21
7.3429969788
  0
LINE
  5
292
100
AcDbEntity
  8
0
100
AcDbLine
 62
7
  6
CONTINUOUS
 10
5.6865
 20
7.2705
 11
5.6965
 21
7.2805
  0
LINE
  5
293
100
AcDbEntity
  8
0
100
AcDbLine
 62
7
  6
CONTINUOUS
 10
5.7175
 20
7.2705
 11
5.7275
 21
7.2805
  0
LINE
  5
294
100
AcDbEntity
  8
0
100
AcDbLine
 62
7
  6
CONTINUOUS
 10
5.7795
 20
7.2805
 11
5.7275
 21
7.2805
  0
LINE
  5
295
100
AcDbEntity
  8
0
100
AcDbLine
 62
7
  6
CONTINUOUS
 10
5.7075
 20
7.2805
 11
5.6965
 21
7.2805
  0
LINE
  5
296
100
AcDbEntity
  8
0
100
AcDbLine
 62
7
  6
CONTINUOUS
 10
5.6765
 20
7.2805
 11
5.3775
 21
7.2805
  0
LINE
  5
297
100
AcDbEntity
  8
0
100
AcDbLine
 62
7
  6
CONTINUOUS
 10
5.9935
 20
7.288
 11
5.9725
 21
7.288
  0
LINE
  5
298
100
AcDbEntity
  8
0
100
AcDbLine
 62
7
  6
CONTINUOUS
 10
5.6865
 20
6.7295
 11
5.6965
 21
6.7195
  0
LINE
  5
299
100
AcDbEntity
  8
0
100
AcDbLine
 62
7
  6
CONTINUOUS
 10
5.7175
 20
6.7295
 11
5.7275
 21
6.7195
  0
LINE
  5
29A
100
AcDbEntity
  8
0
100
AcDbLine
 62
7
  6
CONTINUOUS
 10
5.3675
 20
6.657
 11
5.3675
 21
7.343
  0
LINE
  5
29B
100
AcDbEntity
  8
0
100
AcDbLine
 62
7
  6
CONTINUOUS
 10
5.3775
 20
6.667
 11
5.3775
 21
7.333
  0
LINE
  5
29C
100
AcDbEntity
  8
0
100
AcDbLine
 62
7
  6
CONTINUOUS
 10
5.7795
 20
7.3275
 11
5.7945
 21
7.3425
  0
LINE
  5
29D
100
AcDbEntity
  8
0
100
AcDbLine
 62
7
  6
CONTINUOUS
 10
5.1895
 20
6.657
 11
5.145
 21
6.6125
  0
LINE
  5
29E
100
AcDbEntity
  8
0
100
AcDbLine
 62
7
  6
CONTINUOUS
 10
5.3135
 20
7.3229149841
 11
5.2795
 21
7.3229149841
  0
LINE
  5
29F
100
AcDbEntity
  8
0
100
AcDbLine
 62
7
  6
CONTINUOUS
 10
5.8525
 20
7.3415
 11
5.9025
 21
7.3415
  0
LINE
  5
2A0
100
AcDbEntity
  8
0
100
AcDbLine
 62
7
  6
CONTINUOUS
 10
5.7945
 20
7.3425
 11
5.8525
 21
7.3425
  0
LINE
  5
2A1
100
AcDbEntity
  8
0
100
AcDbLine
 62
7
  6
CONTINUOUS
 10
5.9935
 20
7.3425
 11
6.0455
 21
7.3425
  0
LINE
  5
2A2
100
AcDbEntity
  8
0
100
AcDbLine
 62
7
  6
CONTINUOUS
 10
5.3675
 20
7.343
 11
5.3135
 21
7.343
  0
LINE
  5
2A3
100
AcDbEntity
  8
0
100
AcDbLine
 62
7
  6
CONTINUOUS
 10
5.2795
 20
7.343
 11
5.1895
 21
7.343
  0
LINE
  5
2A4
100
AcDbEntity
  8
0
100
AcDbLine
 62
7
  6
CONTINUOUS
 10
4.8689944465
 20
7.3505
 11
4.8565
 21
7.3505
  0
LINE
  5
2A5
100
AcDbEntity
  8
0
100
AcDbLine
 62
7
  6
CONTINUOUS
 10
5.145
 20
7.3875
 11
4.89786196
 21
7.3875
  0
LINE
  5
2A6
100
AcDbEntity
  8
0
100
AcDbLine
 62
7
  6
CONTINUOUS
 10
5.7795
 20
6.6725
 11
5.7945
 21
6.6575
  0
LINE
  5
2A7
100
AcDbEntity
  8
0
100
AcDbLine
 62
7
  6
CONTINUOUS
 10
5.1895
 20
7.343
 11
5.145
 21
7.3875
  0
LINE
  5
2A8
100
AcDbEntity
  8
0
100
AcDbLine
 62
7
  6
CONTINUOUS
 10
4.8065
 20
7.4045
 11
4.8565
 21
7.4045
  0
LINE
  5
2A9
100
AcDbEntity
  8
0
100
AcDbLine
 62
7
  6
CONTINUOUS
 10
4.7365
 20
7.405
 11
4.7142224319
 21
7.405
  0
LINE
  5
2AA
100
AcDbEntity
  8
THREAD
100
AcDbLine
 62
7
  6
CONTINUOUS
 10
4.409
 20
7.4079022477
 11
3.9735636659
 21
7.4079022477
  0
LINE
  5
2AB
100
AcDbEntity
  8
THREAD
100
AcDbLine
 62
7
  6
CONTINUOUS
 10
4.6865
 20
7.4275
 11
4.6365
 21
7.4275
  0
LINE
  5
2AC
100
AcDbEntity
  8
THREAD
100
AcDbLine
 62
7
  6
CONTINUOUS
 10
4.6165
 20
7.4275
 11
4.4705
 21
7.4275
  0
LINE
  5
2AD
100
AcDbEntity
  8
THREAD
100
AcDbLine
 62
7
  6
CONTINUOUS
 10
3.9438393843
 20
7.437516034
 11
4.4604839658
 21
7.437516034
  0
LINE
  5
2AE
100
AcDbEntity
  8
0
100
AcDbLine
 62
7
  6
CONTINUOUS
 10
5.3775
 20
6.667
 11
5.3675
 21
6.657
  0
LINE
  5
2AF
100
AcDbEntity
  8
0
100
AcDbLine
 62
7
  6
CONTINUOUS
 10
5.3775
 20
7.333
 11
5.3675
 21
7.343
  0
LINE
  5
2B0
100
AcDbEntity
  8
0
100
AcDbLine
 62
7
  6
CONTINUOUS
 10
5.6765
 20
6.7195
 11
5.6765
 21
7.2805
  0
LINE
  5
2B1
100
AcDbEntity
  8
0
100
AcDbLine
 62
7
  6
CONTINUOUS
 10
5.6865
 20
6.7295
 11
5.6865
 21
7.2705
  0
LINE
  5
2B2
100
AcDbEntity
  8
0
100
AcDbLine
 62
7
  6
CONTINUOUS
 10
5.6965
 20
6.7195
 11
5.6965
 21
7.2805
  0
LINE
  5
2B3
100
AcDbEntity
  8
0
100
AcDbLine
 62
7
  6
CONTINUOUS
 10
5.6765
 20
6.7195
 11
5.6865
 21
6.7295
  0
LINE
  5
2B4
100
AcDbEntity
  8
0
100
AcDbLine
 62
7
  6
CONTINUOUS
 10
5.6765
 20
7.2805
 11
5.6865
 21
7.2705
  0
LINE
  5
2B5
100
AcDbEntity
  8
0
100
AcDbLine
 62
7
  6
CONTINUOUS
 10
5.7075
 20
6.7195
 11
5.7075
 21
7.2805
  0
LINE
  5
2B6
100
AcDbEntity
  8
0
100
AcDbLine
 62
7
  6
CONTINUOUS
 10
5.7175
 20
6.7295
 11
5.7175
 21
7.2705
  0
LINE
  5
2B7
100
AcDbEntity
  8
0
100
AcDbLine
 62
7
  6
CONTINUOUS
 10
5.7275
 20
6.7195
 11
5.7275
 21
7.2805
  0
LINE
  5
2B8
100
AcDbEntity
  8
0
100
AcDbLine
 62
7
  6
CONTINUOUS
 10
5.7075
 20
6.7195
 11
5.7175
 21
6.7295
  0
LINE
  5
2B9
100
AcDbEntity
  8
0
100
AcDbLine
 62
7
  6
CONTINUOUS
 10
5.7075
 20
7.2805
 11
5.7175
 21
7.2705
  0
LINE
  5
2BA
100
AcDbEntity
  8
0
100
AcDbLine
 62
7
  6
CONTINUOUS
 10
5.7795
 20
7.3275
 11
5.7795
 21
6.6725
  0
LINE
  5
2BB
100
AcDbEntity
  8
0
100
AcDbLine
 62
7
  6
CONTINUOUS
 10
5.7945
 20
7.3425
 11
5.7945
 21
6.6575
  0
LINE
  5
2BC
100
AcDbEntity
  8
0
100
AcDbLine
 62
7
  6
CONTINUOUS
 10
5.8525
 20
7.3425
 11
5.8525
 21
6.6575
  0
LINE
  5
2BD
100
AcDbEntity
  8
0
100
AcDbLine
 62
7
  6
CONTINUOUS
 10
5.9025
 20
7.3415
 11
5.9025
 21
6.6585
  0
LINE
  5
2BE
100
AcDbEntity
  8
0
100
AcDbLine
 62
7
  6
CONTINUOUS
 10
5.9725
 20
7.3225
 11
5.9725
 21
6.6775
  0
LINE
  5
2BF
100
AcDbEntity
  8
0
100
AcDbLine
 62
7
  6
CONTINUOUS
 10
5.9935
 20
7.3425
 11
5.9935
 21
6.6575
  0
LINE
  5
2C0
100
AcDbEntity
  8
0
100
AcDbLine
 62
7
  6
CONTINUOUS
 10
6.0455
 20
6.6575
 11
6.0605
 21
6.6725
  0
LINE
  5
2C1
100
AcDbEntity
  8
0
100
AcDbLine
 62
7
  6
CONTINUOUS
 10
6.0455
 20
7.3425
 11
6.0605
 21
7.3275
  0
LINE
  5
2C2
100
AcDbEntity
  8
0
100
AcDbLine
 62
7
  6
CONTINUOUS
 10
6.0455
 20
7.3425
 11
6.0455
 21
6.6575
  0
LINE
  5
2C3
100
AcDbEntity
  8
0
100
AcDbLine
 62
7
  6
CONTINUOUS
 10
6.0605
 20
7.3275
 11
6.0605
 21
6.6725
  0
ARC
  5
2C4
100
AcDbEntity
  8
0
100
AcDbCircle
 62
7
  6
CONTINUOUS
 10
4.8689944465
 20
7.3635
 40
0.013
100
AcDbArc
 50
270.0
 51
329.9999988053
  0
ARC
  5
2C5
100
AcDbEntity
  8
0
100
AcDbCircle
 62
7
  6
CONTINUOUS
 10
4.8689944465
 20
6.6365
 40
0.013
100
AcDbArc
 50
30.0000011947
 51
90.0
  0
ARC
  5
2C6
100
AcDbEntity
  8
0
100
AcDbCircle
 62
7
  6
CONTINUOUS
 10
4.6945
 20
6.5786132487
 40
0.005
100
AcDbArc
 50
119.9999999027
 51
179.9999998052
  0
ARC
  5
2C7
100
AcDbEntity
  8
0
100
AcDbCircle
 62
7
  6
CONTINUOUS
 10
4.7142224319
 20
6.59
 40
0.005
100
AcDbArc
 50
90.0
 51
119.9999999833
  0
ARC
  5
2C8
100
AcDbEntity
  8
0
100
AcDbCircle
 62
7
  6
CONTINUOUS
 10
4.6945
 20
7.4213867513
 40
0.005
100
AcDbArc
 50
180.0000001948
 51
240.0000000973
  0
ARC
  5
2C9
100
AcDbEntity
  8
0
100
AcDbCircle
 62
7
  6
CONTINUOUS
 10
4.7142224319
 20
7.41
 40
0.005
100
AcDbArc
 50
240.0000000167
 51
270.0
  0
ARC
  5
2CA
100
AcDbEntity
  8
0
100
AcDbCircle
 62
7
  6
CONTINUOUS
 10
4.6865
 20
6.5755
 40
0.003
100
AcDbArc
 50
270.0
 51
0.0000047502
  0
ARC
  5
2CB
100
AcDbEntity
  8
0
100
AcDbCircle
 62
7
  6
CONTINUOUS
 10
4.6865
 20
7.4245
 40
0.003
100
AcDbArc
 50
359.9999952498
 51
90.0
  0
ARC
  5
2CC
100
AcDbEntity
  8
0
100
AcDbCircle
 62
7
  6
CONTINUOUS
 10
4.6265
 20
6.5805
 40
0.002
100
AcDbArc
 50
42.3553148142
 51
137.6446851858
  0
ARC
  5
2CD
100
AcDbEntity
  8
0
100
AcDbCircle
 62
7
  6
CONTINUOUS
 10
4.6265
 20
7.4195
 40
0.002
100
AcDbArc
 50
222.3553148142
 51
317.6446851858
  0
SPLINE
  5
2CE
100
AcDbEntity
  8
0
100
AcDbSpline
 62
7
  6
CONTINUOUS
 70
0
 71
3
 72
11
 73
7
 74
0
 42
0.0000001
 43
0.0000001
 44
0.0000000001
 40
0.0
 40
0.0
 40
0.0
 40
0.0
 40
0.2547765865
 40
0.5035881755
 40
0.750614489
 40
1.0
 40
1.0
 40
1.0
 40
1.0
 10
5.5681429185
 20
7.2511291602
 30
0.0
 10
5.5685535387
 20
7.2505139375
 30
0.0
 10
5.5692849949
 20
7.2492414039
 30
0.0
 10
5.5700844215
 20
7.2472055814
 30
0.0
 10
5.5705645191
 20
7.2450877832
 30
0.0
 10
5.5706687836
 20
7.2436441418
 30
0.0
 10
5.5706687836
 20
7.2429201258
 30
0.0
  0
SPLINE
  5
2CF
100
AcDbEntity
  8
0
100
AcDbSpline
 62
7
  6
CONTINUOUS
 70
0
 71
3
 72
15
 73
11
 74
0
 42
0.0000001
 43
0.0000001
 44
0.0000000001
 40
0.0
 40
0.0
 40
0.0
 40
0.0
 40
0.1253593922
 40
0.2505611007
 40
0.375497682
 40
0.5001927215
 40
0.6248159257
 40
0.7496030645
 40
0.8746847162
 40
1.0
 40
1.0
 40
1.0
 40
1.0
 10
5.5025501541
 20
7.0624999634
 30
0.0
 10
5.5068512599
 20
7.0625010461
 30
0.0
 10
5.5154654882
 20
7.061836525
 30
0.0
 10
5.5280295906
 20
7.0587176191
 30
0.0
 10
5.5398214833
 20
7.0533954125
 30
0.0
 10
5.5503489223
 20
7.0458918636
 30
0.0
 10
5.5591160154
 20
7.0363874129
 30
0.0
 10
5.5656887727
 20
7.0252314905
 30
0.0
 10
5.5697530311
 20
7.0129187289
 30
0.0
 10
5.5706687836
 20
7.0042995925
 30
0.0
 10
5.5706687836
 20
7.0
 30
0.0
  0
SPLINE
  5
2D0
100
AcDbEntity
  8
0
100
AcDbSpline
 62
7
  6
CONTINUOUS
 70
0
 71
3
 72
19
 73
15
 74
0
 42
0.0000001
 43
0.0000001
 44
0.0000000001
 40
0.0
 40
0.0
 40
0.0
 40
0.0
 40
0.1238046046
 40
0.2475877879
 40
0.3715653844
 40
0.4337068773
 40
0.4960003157
 40
0.6209527551
 40
0.683738102
 40
0.746712943
 40
0.8098551615
 40
0.8731897743
 40
0.9366248776
 40
1.0
 40
1.0
 40
1.0
 40
1.0
 10
5.5467887941
 20
7.0478908286
 30
0.0
 10
5.5446937111
 20
7.0465932137
 30
0.0
 10
5.5406068218
 20
7.0438264911
 30
0.0
 10
5.5348650794
 20
7.0391490169
 30
0.0
 10
5.5304735987
 20
7.0347994975
 30
0.0
 10
5.5272572634
 20
7.0310403656
 30
0.0
 10
5.5242529269
 20
7.0270860742
 30
0.0
 10
5.5216141473
 20
7.0228456449
 30
0.0
 10
5.5194378644
 20
7.0183505808
 30
0.0
 10
5.5180538258
 20
7.0148503166
 30
0.0
 10
5.516944583
 20
7.0112417694
 30
0.0
 10
5.5161371338
 20
7.0075440669
 30
0.0
 10
5.5156442818
 20
7.0037870286
 30
0.0
 10
5.5155318329
 20
7.001261508
 30
0.0
 10
5.5155318329
 20
7.0
 30
0.0
  0
SPLINE
  5
2D1
100
AcDbEntity
  8
0
100
AcDbSpline
 62
7
  6
CONTINUOUS
 70
0
 71
3
 72
11
 73
7
 74
0
 42
0.0000001
 43
0.0000001
 44
0.0000000001
 40
0.0
 40
0.0
 40
0.0
 40
0.0
 40
0.2493894511
 40
0.4964170135
 40
0.7452264348
 40
1.0
 40
1.0
 40
1.0
 40
1.0
 10
5.5706687836
 20
6.7570798742
 30
0.0
 10
5.5706687836
 20
6.7563559459
 30
0.0
 10
5.5705645527
 20
6.754912488
 30
0.0
 10
5.5700845955
 20
6.7527949548
 30
0.0
 10
5.5692853627
 20
6.7507593913
 30
0.0
 10
5.5685540933
 20
6.7494870022
 30
0.0
 10
5.5681435798
 20
6.7488718407
 30
0.0
  0
SPLINE
  5
2D2
100
AcDbEntity
  8
0
100
AcDbSpline
 62
7
  6
CONTINUOUS
 70
0
 71
3
 72
15
 73
11
 74
0
 42
0.0000001
 43
0.0000001
 44
0.0000000001
 40
0.0
 40
0.0
 40
0.0
 40
0.0
 40
0.1253144203
 40
0.250395738
 40
0.3751834687
 40
0.4998074893
 40
0.6245029018
 40
0.7494392991
 40
0.8746404977
 40
1.0
 40
1.0
 40
1.0
 40
1.0
 10
5.5706687836
 20
7.0
 30
0.0
 10
5.5706687836
 20
6.9957006084
 30
0.0
 10
5.5697531264
 20
6.987081857
 30
0.0
 10
5.5656891963
 20
6.9747695614
 30
0.0
 10
5.5591169526
 20
6.9636139012
 30
0.0
 10
5.5503504498
 20
6.9541095299
 30
0.0
 10
5.5398236801
 20
6.9466058785
 30
0.0
 10
5.52803249
 20
6.9412834054
 30
0.0
 10
5.5154690507
 20
6.938164053
 30
0.0
 10
5.5068552113
 20
6.9374991756
 30
0.0
 10
5.5025542731
 20
6.9375000367
 30
0.0
  0
SPLINE
  5
2D3
100
AcDbEntity
  8
0
100
AcDbSpline
 62
7
  6
CONTINUOUS
 70
0
 71
3
 72
33
 73
29
 74
0
 42
0.0000001
 43
0.0000001
 44
0.0000000001
 40
0.0
 40
0.0
 40
0.0
 40
0.0
 40
0.0188741735
 40
0.0389389932
 40
0.060509771
 40
0.0837850533
 40
0.1088642527
 40
0.1357443112
 40
0.1643524958
 40
0.1945677211
 40
0.2262323292
 40
0.2591714128
 40
0.3280728449
 40
0.3998382365
 40
0.4731574504
 40
0.5469462015
 40
0.6203082606
 40
0.6924463807
 40
0.7278197826
 40
0.762573752
 40
0.7965904265
 40
0.8297245117
 40
0.8618176072
 40
0.8926945472
 40
0.9221472693
 40
0.9499781186
 40
0.9759753418
 40
1.0
 40
1.0
 40
1.0
 40
1.0
 10
5.5706687836
 20
7.2429201258
 30
0.0
 10
5.5706687836
 20
7.2418836639
 30
0.0
 10
5.5704468687
 20
7.2397412011
 30
0.0
 10
5.56951089
 20
7.2365373923
 30
0.0
 10
5.5679774828
 20
7.2333049603
 30
0.0
 10
5.5658688809
 20
7.230083613
 30
0.0
 10
5.5632073462
 20
7.2269126401
 30
0.0
 10
5.5600219439
 20
7.2238320036
 30
0.0
 10
5.5563441522
 20
7.2208855649
 30
0.0
 10
5.5522139057
 20
7.2181131555
 30
0.0
 10
5.54767367
 20
7.2155537572
 30
0.0
 10
5.5410385436
 20
7.2124230037
 30
0.0
 10
5.5320151341
 20
7.2092560139
 30
0.0
 10
5.5205104547
 20
7.2067397394
 30
0.0
 10
5.5085311603
 20
7.2055019601
 30
0.0
 10
5.4964034063
 20
7.2055212688
 30
0.0
 10
5.4844036394
 20
7.2067291332
 30
0.0
 10
5.474644591
 20
7.2086638658
 30
0.0
 10
5.4671083824
 20
7.2107323939
 30
0.0
 10
5.4616716529
 20
7.2125147689
 30
0.0
 10
5.4564465463
 20
7.2145250614
 30
0.0
 10
5.4514686481
 20
7.2167503561
 30
0.0
 10
5.4467785599
 20
7.2191768094
 30
0.0
 10
5.442421887
 20
7.2217875441
 30
0.0
 10
5.4384508436
 20
7.2245646679
 30
0.0
 10
5.4349237701
 20
7.2274854324
 30
0.0
 10
5.4319035232
 20
7.2305214152
 30
0.0
 10
5.4302036797
 20
7.232691645
 30
0.0
 10
5.4294717901
 20
7.2337893163
 30
0.0
  0
SPLINE
  5
2D4
100
AcDbEntity
  8
0
100
AcDbSpline
 62
7
  6
CONTINUOUS
 70
0
 71
3
 72
33
 73
29
 74
0
 42
0.0000001
 43
0.0000001
 44
0.0000000001
 40
0.0
 40
0.0
 40
0.0
 40
0.0
 40
0.0240248744
 40
0.0500223593
 40
0.0778534738
 40
0.1073064722
 40
0.1381837551
 40
0.1702772123
 40
0.2034116079
 40
0.2374285702
 40
0.2721826088
 40
0.3075559468
 40
0.3796938244
 40
0.4530555708
 40
0.5268441599
 40
0.6001634559
 40
0.6719291065
 40
0.7408305991
 40
0.7737695337
 40
0.8054338768
 40
0.8356487478
 40
0.8642566508
 40
0.8911364841
 40
0.9162155207
 40
0.9394905937
 40
0.9610611804
 40
0.9811258812
 40
1.0
 40
1.0
 40
1.0
 40
1.0
 10
5.4294722392
 20
6.7662113786
 30
0.0
 10
5.4302041683
 20
6.76730903
 30
0.0
 10
5.4319040893
 20
6.7694792136
 30
0.0
 10
5.4349244141
 20
6.7725151442
 30
0.0
 10
5.4384515486
 20
6.7754358678
 30
0.0
 10
5.4424226504
 20
6.7782129505
 30
0.0
 10
5.4467793795
 20
6.7808236463
 30
0.0
 10
5.4514695196
 20
6.7832500629
 30
0.0
 10
5.4564474623
 20
6.7854753203
 30
0.0
 10
5.4616725966
 20
6.7874855649
 30
0.0
 10
5.4671093288
 20
6.7892678911
 30
0.0
 10
5.4746455041
 20
6.7913363435
 30
0.0
 10
5.4844044839
 20
6.7932709886
 30
0.0
 10
5.4964041589
 20
6.7944787675
 30
0.0
 10
5.5085318303
 20
6.7944980044
 30
0.0
 10
5.5205110687
 20
6.7932601633
 30
0.0
 10
5.5320156921
 20
6.7907438142
 30
0.0
 10
5.5410390581
 20
6.7875768096
 30
0.0
 10
5.5476740974
 20
6.7844460044
 30
0.0
 10
5.55221427
 20
6.7818866335
 30
0.0
 10
5.5563444292
 20
6.7791142268
 30
0.0
 10
5.5600221522
 20
6.7761678165
 30
0.0
 10
5.5632074908
 20
6.7730871988
 30
0.0
 10
5.5658689776
 20
6.7699162559
 30
0.0
 10
5.5679775371
 20
6.766694941
 30
0.0
 10
5.569510913
 20
6.763462546
 30
0.0
 10
5.5704468743
 20
6.7602587706
 30
0.0
 10
5.5706687836
 20
6.7581163279
 30
0.0
 10
5.5706687836
 20
6.7570798742
 30
0.0
  0
SPLINE
  5
2D5
100
AcDbEntity
  8
0
100
AcDbSpline
 62
7
  6
CONTINUOUS
 70
0
 71
3
 72
23
 73
19
 74
0
 42
0.0000001
 43
0.0000001
 44
0.0000000001
 40
0.0
 40
0.0
 40
0.0
 40
0.0
 40
0.0412289147
 40
0.0860388065
 40
0.1343288328
 40
0.1858783767
 40
0.2404253191
 40
0.2977350061
 40
0.3576189254
 40
0.4199447087
 40
0.5515707707
 40
0.6209558417
 40
0.6927082962
 40
0.766799738
 40
0.8430358145
 40
0.8818613079
 40
0.9210635385
 40
1.0
 40
1.0
 40
1.0
 40
1.0
 10
5.4892391198
 20
6.969
 30
0.0
 10
5.4886227732
 20
6.969
 30
0.0
 10
5.4873356749
 20
6.9691141846
 30
0.0
 10
5.4853721248
 20
6.9695537638
 30
0.0
 10
5.4833202696
 20
6.9702472836
 30
0.0
 10
5.4812056314
 20
6.9711784361
 30
0.0
 10
5.4790521721
 20
6.9723366187
 30
0.0
 10
5.4768840872
 20
6.9737157512
 30
0.0
 10
5.4747254297
 20
6.9753143562
 30
0.0
 10
5.4718427016
 20
6.9777854799
 30
0.0
 10
5.469146828
 20
6.9806810693
 30
0.0
 10
5.4667583861
 20
6.9839913013
 30
0.0
 10
5.4651231558
 20
6.9867685335
 30
0.0
 10
5.4637373319
 20
6.9897922073
 30
0.0
 10
5.4628536136
 20
6.9924857836
 30
0.0
 10
5.4623359545
 20
6.9947345181
 30
0.0
 10
5.461955663
 20
6.9970511274
 30
0.0
 10
5.4618382579
 20
6.9988199491
 30
0.0
 10
5.4618382579
 20
7.0
 30
0.0
  0
SPLINE
  5
2D6
100
AcDbEntity
  8
0
100
AcDbSpline
 62
7
  6
CONTINUOUS
 70
0
 71
3
 72
20
 73
16
 74
0
 42
0.0000001
 43
0.0000001
 44
0.0000000001
 40
0.0
 40
0.0
 40
0.0
 40
0.0
 40
0.0633716122
 40
0.12680447
 40
0.1901387673
 40
0.2532807579
 40
0.3162561538
 40
0.3790438838
 40
0.5039903604
 40
0.5662828458
 40
0.6284234328
 40
0.7523921841
 40
0.8143149631
 40
0.8762040146
 40
1.0
 40
1.0
 40
1.0
 40
1.0
 10
5.5155318329
 20
7.0
 30
0.0
 10
5.5155318329
 20
6.9987382812
 30
0.0
 10
5.5156443364
 20
6.9962123122
 30
0.0
 10
5.5161374079
 20
6.9924545749
 30
0.0
 10
5.5169451038
 20
6.9887561199
 30
0.0
 10
5.5180548197
 20
6.9851468334
 30
0.0
 10
5.5194395046
 20
6.9816458674
 30
0.0
 10
5.5216165153
 20
6.9771499889
 30
0.0
 10
5.5242561804
 20
6.9729089037
 30
0.0
 10
5.527261673
 20
6.9689542608
 30
0.0
 10
5.5304789139
 20
6.9651948976
 30
0.0
 10
5.5339950922
 20
6.9617125991
 30
0.0
 10
5.5377451736
 20
6.9585052689
 30
0.0
 10
5.5416362774
 20
6.9554760421
 30
0.0
 10
5.5447028046
 20
6.9534006644
 30
0.0
 10
5.5467984002
 20
6.9521031615
 30
0.0
  0
SPLINE
  5
2D7
100
AcDbEntity
  8
0
100
AcDbSpline
 62
7
  6
CONTINUOUS
 70
0
 71
3
 72
24
 73
20
 74
0
 42
0.0000001
 43
0.0000001
 44
0.0000000001
 40
0.0
 40
0.0
 40
0.0
 40
0.0
 40
0.0789394297
 40
0.1181645281
 40
0.1570002161
 40
0.2332482196
 40
0.3073294821
 40
0.3790797173
 40
0.4484562068
 40
0.5154757782
 40
0.5801534657
 40
0.6424643019
 40
0.7023321505
 40
0.7596273807
 40
0.8141617417
 40
0.8656978407
 40
0.9139773802
 40
0.9587802993
 40
1.0
 40
1.0
 40
1.0
 40
1.0
 10
5.4618382579
 20
7.0
 30
0.0
 10
5.4618382579
 20
7.0011802152
 30
0.0
 10
5.4619564189
 20
7.0029495333
 30
0.0
 10
5.4623361429
 20
7.0052670125
 30
0.0
 10
5.4628541644
 20
7.0075166122
 30
0.0
 10
5.4637383216
 20
7.0102105266
 30
0.0
 10
5.4651248182
 20
7.013234308
 30
0.0
 10
5.4667599043
 20
7.0160113897
 30
0.0
 10
5.4685836227
 20
7.0185379996
 30
0.0
 10
5.4705451663
 20
7.0208204676
 30
0.0
 10
5.4726041507
 20
7.0228674605
 30
0.0
 10
5.4747271787
 20
7.0246870575
 30
0.0
 10
5.4768854776
 20
7.0262851231
 30
0.0
 10
5.4790532875
 20
7.0276640601
 30
0.0
 10
5.4812064612
 20
7.0288220014
 30
0.0
 10
5.483320867
 20
7.0297529072
 30
0.0
 10
5.4853724852
 20
7.0304463682
 30
0.0
 10
5.4873358645
 20
7.0308858226
 30
0.0
 10
5.4886228483
 20
7.031
 30
0.0
 10
5.4892391198
 20
7.031
 30
0.0
  0
SPLINE
  5
2D8
100
AcDbEntity
  8
0
100
AcDbSpline
 62
7
  6
CONTINUOUS
 70
0
 71
3
 72
25
 73
21
 74
0
 42
0.0000001
 43
0.0000001
 44
0.0000000001
 40
0.0
 40
0.0
 40
0.0
 40
0.0
 40
0.0428366305
 40
0.0830933605
 40
0.1026794773
 40
0.1221799732
 40
0.1418533974
 40
0.1619692323
 40
0.2044945999
 40
0.2515677365
 40
0.3042827826
 40
0.3630868961
 40
0.4279276068
 40
0.4984169703
 40
0.5739591465
 40
0.6538328572
 40
0.7372374891
 40
0.8233183412
 40
0.9112183533
 40
1.0
 40
1.0
 40
1.0
 40
1.0
 10
5.4892391198
 20
7.031
 30
0.0
 10
5.4897420445
 20
7.031
 30
0.0
 10
5.4907201477
 20
7.0309293267
 30
0.0
 10
5.4918937741
 20
7.0306152319
 30
0.0
 10
5.4927417972
 20
7.0302251673
 30
0.0
 10
5.4933318848
 20
7.0298645871
 30
0.0
 10
5.4938794473
 20
7.0294321129
 30
0.0
 10
5.4945641502
 20
7.0287472763
 30
0.0
 10
5.4953113038
 20
7.0276854339
 30
0.0
 10
5.4960083847
 20
7.0261595797
 30
0.0
 10
5.4965433818
 20
7.0243716764
 30
0.0
 10
5.4969384624
 20
7.0223368405
 30
0.0
 10
5.4972174194
 20
7.0200735084
 30
0.0
 10
5.4974036331
 20
7.0176041703
 30
0.0
 10
5.4975193726
 20
7.0149541732
 30
0.0
 10
5.4975847069
 20
7.0121509428
 30
0.0
 10
5.4976169592
 20
7.0092234733
 30
0.0
 10
5.4976299647
 20
7.0062016497
 30
0.0
 10
5.4976336285
 20
7.0031166797
 30
0.0
 10
5.4976339746
 20
7.0010423435
 30
0.0
 10
5.4976339746
 20
7.0
 30
0.0
  0
SPLINE
  5
2D9
100
AcDbEntity
  8
0
100
AcDbSpline
 62
7
  6
CONTINUOUS
 70
0
 71
3
 72
11
 73
7
 74
0
 42
0.0000001
 43
0.0000001
 44
0.0000000001
 40
0.0
 40
0.0
 40
0.0
 40
0.0
 40
0.2297539801
 40
0.4710045157
 40
0.7270385062
 40
1.0
 40
1.0
 40
1.0
 40
1.0
 10
5.4263312164
 20
6.7570798742
 30
0.0
 10
5.4263312164
 20
6.7578295195
 30
0.0
 10
5.4264767263
 20
6.7593689533
 30
0.0
 10
5.4270918301
 20
6.7616694921
 30
0.0
 10
5.4280936297
 20
6.7639829457
 30
0.0
 10
5.4289781346
 20
6.7654703854
 30
0.0
 10
5.4294722392
 20
6.7662113786
 30
0.0
  0
SPLINE
  5
2DA
100
AcDbEntity
  8
0
100
AcDbSpline
 62
7
  6
CONTINUOUS
 70
0
 71
3
 72
24
 73
20
 74
0
 42
0.0000001
 43
0.0000001
 44
0.0000000001
 40
0.0
 40
0.0
 40
0.0
 40
0.0
 40
0.0626566522
 40
0.0940415814
 40
0.1254008367
 40
0.1879881031
 40
0.219265663
 40
0.2505176327
 40
0.3129543719
 40
0.3753362782
 40
0.4376871714
 40
0.5000278081
 40
0.5623852331
 40
0.6247739861
 40
0.7495976858
 40
0.8121353833
 40
0.8747243509
 40
0.9373503508
 40
1.0
 40
1.0
 40
1.0
 40
1.0
 10
5.4263312164
 20
7.0
 30
0.0
 10
5.4263312164
 20
7.0022713043
 30
0.0
 10
5.4265744664
 20
7.0056861428
 30
0.0
 10
5.4273600018
 20
7.0101660073
 30
0.0
 10
5.4284480846
 20
7.0145802456
 30
0.0
 10
5.4299769309
 20
7.018870437
 30
0.0
 10
5.431893905
 20
7.0229832243
 30
0.0
 10
5.4340548546
 20
7.0269674779
 30
0.0
 10
5.4371848188
 20
7.0316960899
 30
0.0
 10
5.4415270209
 20
7.0369250855
 30
0.0
 10
5.4463698151
 20
7.0416875301
 30
0.0
 10
5.451634323
 20
7.0459752562
 30
0.0
 10
5.4572571035
 20
7.0497828045
 30
0.0
 10
5.4651522092
 20
7.0542163664
 30
0.0
 10
5.4735636105
 20
7.0576842046
 30
0.0
 10
5.4822888813
 20
7.0601503995
 30
0.0
 10
5.4889687105
 20
7.0614930185
 30
0.0
 10
5.4957358311
 20
7.0623127418
 30
0.0
 10
5.5002791038
 20
7.0624993918
 30
0.0
 10
5.5025501541
 20
7.0624999634
 30
0.0
  0
SPLINE
  5
2DB
100
AcDbEntity
  8
0
100
AcDbSpline
 62
7
  6
CONTINUOUS
 70
0
 71
3
 72
43
 73
39
 74
0
 42
0.0000001
 43
0.0000001
 44
0.0000000001
 40
0.0
 40
0.0
 40
0.0
 40
0.0
 40
0.0097148379
 40
0.0193799133
 40
0.0291083021
 40
0.0390051367
 40
0.0491669444
 40
0.0596801222
 40
0.0706095344
 40
0.081998967
 40
0.106242107
 40
0.1325054751
 40
0.1607120845
 40
0.1907369116
 40
0.2224064159
 40
0.2555560808
 40
0.2900137636
 40
0.3256164775
 40
0.3622097216
 40
0.3996361264
 40
0.4377438433
 40
0.4763757137
 40
0.5153620044
 40
0.5545277464
 40
0.5936767688
 40
0.6325972555
 40
0.6710638087
 40
0.7088240829
 40
0.7456249227
 40
0.7811992673
 40
0.8152896892
 40
0.8476607736
 40
0.8781103485
 40
0.9064996624
 40
0.9327697205
 40
0.9569663746
 40
0.9792668721
 40
1.0
 40
1.0
 40
1.0
 40
1.0
 10
5.4263312164
 20
7.2429201258
 30
0.0
 10
5.4263312164
 20
7.2434231396
 30
0.0
 10
5.426394914
 20
7.2444278176
 30
0.0
 10
5.4266829575
 20
7.2459111872
 30
0.0
 10
5.4271587727
 20
7.2473553852
 30
0.0
 10
5.4278181398
 20
7.2487537172
 30
0.0
 10
5.4286567827
 20
7.2501001128
 30
0.0
 10
5.4296650385
 20
7.2513924337
 30
0.0
 10
5.4308340061
 20
7.2526298377
 30
0.0
 10
5.4326329527
 20
7.2542384533
 30
0.0
 10
5.4352582098
 20
7.2560951001
 30
0.0
 10
5.4388390569
 20
7.2580546138
 30
0.0
 10
5.4428551163
 20
7.2598021795
 30
0.0
 10
5.4472488801
 20
7.2613487837
 30
0.0
 10
5.4519700268
 20
7.2627086439
 30
0.0
 10
5.4569739298
 20
7.2638922876
 30
0.0
 10
5.4622209277
 20
7.2649123016
 30
0.0
 10
5.4676759153
 20
7.2657780366
 30
0.0
 10
5.4733068635
 20
7.2664978807
 30
0.0
 10
5.4790840172
 20
7.2670794687
 30
0.0
 10
5.4849789267
 20
7.2675263546
 30
0.0
 10
5.4909630867
 20
7.2678431397
 30
0.0
 10
5.4970075212
 20
7.268029412
 30
0.0
 10
5.5030813427
 20
7.2680851625
 30
0.0
 10
5.5091515498
 20
7.2680071673
 30
0.0
 10
5.5151822021
 20
7.2677899968
 30
0.0
 10
5.5211339607
 20
7.2674279666
 30
0.0
 10
5.5269642895
 20
7.2669114242
 30
0.0
 10
5.5326272728
 20
7.2662316844
 30
0.0
 10
5.5380747361
 20
7.2653779373
 30
0.0
 10
5.5432566714
 20
7.2643389935
 30
0.0
 10
5.548123197
 20
7.2631055896
 30
0.0
 10
5.5526252913
 20
7.2616675731
 30
0.0
 10
5.5567169467
 20
7.2600180127
 30
0.0
 10
5.5603559794
 20
7.2581515341
 30
0.0
 10
5.5635040644
 20
7.2560638352
 30
0.0
 10
5.56612762
 20
7.2537577395
 30
0.0
 10
5.5675469642
 20
7.2520220648
 30
0.0
 10
5.5681429185
 20
7.2511291602
 30
0.0
  0
SPLINE
  5
2DC
100
AcDbEntity
  8
0
100
AcDbSpline
 62
7
  6
CONTINUOUS
 70
0
 71
3
 72
24
 73
20
 74
0
 42
0.0000001
 43
0.0000001
 44
0.0000000001
 40
0.0
 40
0.0
 40
0.0
 40
0.0
 40
0.0626490695
 40
0.1252750897
 40
0.1878640012
 40
0.2504017796
 40
0.3752255452
 40
0.437614313
 40
0.4999713712
 40
0.56231185
 40
0.6246622024
 40
0.6870440467
 40
0.7494802718
 40
0.7807323428
 40
0.8120101089
 40
0.8745979131
 40
0.9059578453
 40
0.9373432491
 40
1.0
 40
1.0
 40
1.0
 40
1.0
 10
5.5025542731
 20
6.9375000367
 30
0.0
 10
5.5002831579
 20
6.9375004914
 30
0.0
 10
5.4957397234
 20
6.9376869272
 30
0.0
 10
5.4889723365
 20
6.938506407
 30
0.0
 10
5.482292192
 20
6.9398487749
 30
0.0
 10
5.4735665051
 20
6.9423147754
 30
0.0
 10
5.4651546618
 20
6.9457824572
 30
0.0
 10
5.4572591243
 20
6.9502159309
 30
0.0
 10
5.4516360461
 20
6.9540234642
 30
0.0
 10
5.446371245
 20
6.9583111751
 30
0.0
 10
5.4415281664
 20
6.963073659
 30
0.0
 10
5.4371857092
 20
6.9683027223
 30
0.0
 10
5.4340555018
 20
6.9730314113
 30
0.0
 10
5.4318944152
 20
6.9770157774
 30
0.0
 10
5.4299772703
 20
6.9811287069
 30
0.0
 10
5.4284482557
 20
6.9854190806
 30
0.0
 10
5.4273601303
 20
6.989833549
 30
0.0
 10
5.4265745154
 20
6.9943136185
 30
0.0
 10
5.4263312164
 20
6.9977286063
 30
0.0
 10
5.4263312164
 20
7.0
 30
0.0
  0
SPLINE
  5
2DD
100
AcDbEntity
  8
0
100
AcDbSpline
 62
7
  6
CONTINUOUS
 70
0
 71
3
 72
43
 73
39
 74
0
 42
0.0000001
 43
0.0000001
 44
0.0000000001
 40
0.0
 40
0.0
 40
0.0
 40
0.0
 40
0.0207325408
 40
0.0430323974
 40
0.0672282989
 40
0.0934977007
 40
0.1218863329
 40
0.1523353343
 40
0.1847057936
 40
0.218795601
 40
0.2543693992
 40
0.2911695825
 40
0.3289293317
 40
0.367395421
 40
0.4063154823
 40
0.4454645842
 40
0.4846303249
 40
0.5236169979
 40
0.562249359
 40
0.6003575522
 40
0.6377845643
 40
0.6743784102
 40
0.7099815892
 40
0.7444398498
 40
0.7775898478
 40
0.8092598251
 40
0.8392849709
 40
0.867491978
 40
0.8937557558
 40
0.9179992567
 40
0.9293889731
 40
0.9403186475
 40
0.9508320737
 40
0.9609941628
 40
0.9708912994
 40
0.9806199098
 40
0.9902851114
 40
1.0
 40
1.0
 40
1.0
 40
1.0
 10
5.5681435798
 20
6.7488718407
 30
0.0
 10
5.5675477038
 20
6.7479789104
 30
0.0
 10
5.5661285126
 20
6.7462431679
 30
0.0
 10
5.5635051306
 20
6.7439369883
 30
0.0
 10
5.5603572223
 20
6.7418491598
 30
0.0
 10
5.5567183036
 20
6.7399826238
 30
0.0
 10
5.5526267686
 20
6.7383329407
 30
0.0
 10
5.5481247564
 20
6.7368948633
 30
0.0
 10
5.5432583113
 20
6.7356613693
 30
0.0
 10
5.5380764407
 20
6.7346223641
 30
0.0
 10
5.5326290384
 20
6.7337685641
 30
0.0
 10
5.5269661091
 20
6.7330887572
 30
0.0
 10
5.521135824
 20
6.7325721766
 30
0.0
 10
5.5151840962
 20
6.7322101016
 30
0.0
 10
5.5091534416
 20
6.731992865
 30
0.0
 10
5.5030832063
 20
6.7319148622
 30
0.0
 10
5.4970093137
 20
6.7319705303
 30
0.0
 10
5.4909647874
 20
6.7321567997
 30
0.0
 10
5.4849805094
 20
6.7324735386
 30
0.0
 10
5.4790854703
 20
6.7329203954
 30
0.0
 10
5.4733081842
 20
6.7335019801
 30
0.0
 10
5.4676770987
 20
6.7342217785
 30
0.0
 10
5.4622219838
 20
6.7350875234
 30
0.0
 10
5.4569748646
 20
6.736107501
 30
0.0
 10
5.4519708475
 20
6.7372911455
 30
0.0
 10
5.4472495963
 20
6.7386509867
 30
0.0
 10
5.4428557231
 20
6.7401975752
 30
0.0
 10
5.4388395689
 20
6.7419451509
 30
0.0
 10
5.4352586037
 20
6.7439046395
 30
0.0
 10
5.4326332611
 20
6.7457613044
 30
0.0
 10
5.430834245
 20
6.7473699396
 30
0.0
 10
5.4296652102
 20
6.7486073542
 30
0.0
 10
5.4286568943
 20
6.7498996975
 30
0.0
 10
5.4278182272
 20
6.7512461445
 30
0.0
 10
5.4271588474
 20
6.7526445288
 30
0.0
 10
5.4266829974
 20
6.7540887621
 30
0.0
 10
5.426394924
 20
6.755572159
 30
0.0
 10
5.4263312164
 20
6.7565768539
 30
0.0
 10
5.4263312164
 20
6.7570798742
 30
0.0
  0
SPLINE
  5
2DE
100
AcDbEntity
  8
0
100
AcDbSpline
 62
7
  6
CONTINUOUS
 70
0
 71
3
 72
11
 73
7
 74
0
 42
0.0000001
 43
0.0000001
 44
0.0000000001
 40
0.0
 40
0.0
 40
0.0
 40
0.0
 40
0.272961765
 40
0.5289949285
 40
0.7702446321
 40
1.0
 40
1.0
 40
1.0
 40
1.0
 10
5.4294717901
 20
7.2337893163
 30
0.0
 10
5.4289777512
 20
7.2345302644
 30
0.0
 10
5.4280933661
 20
7.2360176025
 30
0.0
 10
5.4270916888
 20
7.238330873
 30
0.0
 10
5.4264766918
 20
7.2406312329
 30
0.0
 10
5.4263312164
 20
7.242170539
 30
0.0
 10
5.4263312164
 20
7.2429201258
 30
0.0
  0
SPLINE
  5
2DF
100
AcDbEntity
  8
0
100
AcDbSpline
 62
7
  6
CONTINUOUS
 70
0
 71
3
 72
26
 73
22
 74
0
 42
0.0000001
 43
0.0000001
 44
0.0000000001
 40
0.0
 40
0.0
 40
0.0
 40
0.0
 40
0.1766781301
 40
0.262761108
 40
0.3461578677
 40
0.426030556
 40
0.5015676235
 40
0.5720487168
 40
0.6368800073
 40
0.6956732261
 40
0.748379469
 40
0.7725816237
 40
0.7954833606
 40
0.8172407424
 40
0.8380568223
 40
0.858169082
 40
0.8778391703
 40
0.897337711
 40
0.9169208581
 40
0.9571759569
 40
1.0
 40
1.0
 40
1.0
 40
1.0
 10
5.4976339746
 20
7.0
 30
0.0
 10
5.4976339746
 20
6.9979255124
 30
0.0
 10
5.4976342396
 20
6.9948402646
 30
0.0
 10
5.4976170373
 20
6.9907758345
 30
0.0
 10
5.4975847656
 20
6.9878481705
 30
0.0
 10
5.4975192825
 20
6.9850448507
 30
0.0
 10
5.4974036363
 20
6.9823947634
 30
0.0
 10
5.4972172877
 20
6.9799254988
 30
0.0
 10
5.4969383632
 20
6.9776622029
 30
0.0
 10
5.4965431291
 20
6.9756278148
 30
0.0
 10
5.4960852899
 20
6.9740971146
 30
0.0
 10
5.4956311878
 20
6.9730155935
 30
0.0
 10
5.4952588476
 20
6.9722967474
 30
0.0
 10
5.4948430165
 20
6.9716486675
 30
0.0
 10
5.4943831118
 20
6.9710722096
 30
0.0
 10
5.4938793157
 20
6.9705675434
 30
0.0
 10
5.4933316789
 20
6.9701352248
 30
0.0
 10
5.492741495
 20
6.9697748822
 30
0.0
 10
5.4918935589
 20
6.9693846195
 30
0.0
 10
5.4907199499
 20
6.9690707166
 30
0.0
 10
5.4897419434
 20
6.969
 30
0.0
 10
5.4892391198
 20
6.969
 30
0.0
  0
SPLINE
  5
2E0
100
AcDbEntity
  8
0
100
AcDbSpline
 62
7
  6
CONTINUOUS
 70
0
 71
3
 72
25
 73
21
 74
0
 42
0.0000001
 43
0.0000001
 44
0.0000000001
 40
0.0
 40
0.0
 40
0.0
 40
0.0
 40
0.0255717581
 40
0.0515908124
 40
0.0782145897
 40
0.1055814177
 40
0.1629099078
 40
0.2242184081
 40
0.357313449
 40
0.4280478872
 40
0.4999986467
 40
0.5719472182
 40
0.6426808826
 40
0.7757784106
 40
0.8370853241
 40
0.8944153549
 40
0.921783407
 40
0.9484082533
 40
0.9744280047
 40
1.0
 40
1.0
 40
1.0
 40
1.0
 10
5.2415
 20
7.2425376259
 30
0.0
 10
5.2415
 20
7.2420740344
 30
0.0
 10
5.2414336413
 20
7.2411375482
 30
0.0
 10
5.2411422435
 20
7.2397458572
 30
0.0
 10
5.2406617016
 20
7.2383728784
 30
0.0
 10
5.2397592788
 20
7.2365628125
 30
0.0
 10
5.2381608457
 20
7.234422328
 30
0.0
 10
5.2347197526
 20
7.2313881344
 30
0.0
 10
5.2302847627
 20
7.2292696442
 30
0.0
 10
5.2253959588
 20
7.2281735127
 30
0.0
 10
5.2215001173
 20
7.2278867082
 30
0.0
 10
5.2176042689
 20
7.2281733986
 30
0.0
 10
5.2127155129
 20
7.2292696658
 30
0.0
 10
5.2082804116
 20
7.231387929
 30
0.0
 10
5.204839316
 20
7.2344221934
 30
0.0
 10
5.2032408168
 20
7.2365626512
 30
0.0
 10
5.2023383502
 20
7.2383727751
 30
0.0
 10
5.201857788
 20
7.239745804
 30
0.0
 10
5.2015663666
 20
7.2411375268
 30
0.0
 10
5.2015
 20
7.2420740301
 30
0.0
 10
5.2015
 20
7.2425376259
 30
0.0
  0
SPLINE
  5
2E1
100
AcDbEntity
  8
126-101_HEX_FEATURES
100
AcDbSpline
 62
7
  6
CONTINUOUS
 70
0
 71
3
 72
18
 73
14
 74
0
 42
0.0000001
 43
0.0000001
 44
0.0000000001
 40
0.0
 40
0.0
 40
0.0
 40
0.0
 40
0.051904153
 40
0.1040062452
 40
0.1567208545
 40
0.2105013454
 40
0.265768285
 40
0.3228511042
 40
0.443160313
 40
0.5723607859
 40
0.7096876503
 40
0.853214282
 40
1.0
 40
1.0
 40
1.0
 40
1.0
 10
5.1886160761
 20
6.969000121
 30
0.0
 10
5.187891748
 20
6.9690001188
 30
0.0
 10
5.1864384878
 20
6.9690960318
 30
0.0
 10
5.1842884454
 20
6.9695291112
 30
0.0
 10
5.1821896285
 20
6.9702514841
 30
0.0
 10
5.1801614443
 20
6.9712560629
 30
0.0
 10
5.1782218648
 20
6.9725364167
 30
0.0
 10
5.1757332518
 20
6.974631409
 30
0.0
 10
5.1729409177
 20
6.977916911
 30
0.0
 10
5.1702673674
 20
6.982637091
 30
0.0
 10
5.1682905075
 20
6.988032095
 30
0.0
 10
5.1670782443
 20
6.993894744
 30
0.0
 10
5.166806425
 20
6.9979515894
 30
0.0
 10
5.166806425
 20
7.0
 30
0.0
  0
SPLINE
  5
2E2
100
AcDbEntity
  8
0
100
AcDbSpline
 62
7
  6
CONTINUOUS
 70
0
 71
3
 72
25
 73
21
 74
0
 42
0.0000001
 43
0.0000001
 44
0.0000000001
 40
0.0
 40
0.0
 40
0.0
 40
0.0
 40
0.0255717581
 40
0.0515908124
 40
0.0782145897
 40
0.1055814177
 40
0.1629099078
 40
0.2242184081
 40
0.357313449
 40
0.4280478872
 40
0.4999986467
 40
0.5719472182
 40
0.6426808826
 40
0.7757784106
 40
0.8370853241
 40
0.8944153549
 40
0.921783407
 40
0.9484082533
 40
0.9744280047
 40
1.0
 40
1.0
 40
1.0
 40
1.0
 10
5.2015
 20
6.7574623741
 30
0.0
 10
5.2015
 20
6.7579259656
 30
0.0
 10
5.2015663587
 20
6.7588624518
 30
0.0
 10
5.2018577565
 20
6.7602541428
 30
0.0
 10
5.2023382984
 20
6.7616271216
 30
0.0
 10
5.2032407212
 20
6.7634371875
 30
0.0
 10
5.2048391543
 20
6.765577672
 30
0.0
 10
5.2082802474
 20
6.7686118656
 30
0.0
 10
5.2127152373
 20
6.7707303558
 30
0.0
 10
5.2176040412
 20
6.7718264873
 30
0.0
 10
5.2214998827
 20
6.7721132918
 30
0.0
 10
5.2253957311
 20
6.7718266014
 30
0.0
 10
5.2302844871
 20
6.7707303342
 30
0.0
 10
5.2347195884
 20
6.768612071
 30
0.0
 10
5.238160684
 20
6.7655778066
 30
0.0
 10
5.2397591832
 20
6.7634373488
 30
0.0
 10
5.2406616498
 20
6.7616272249
 30
0.0
 10
5.241142212
 20
6.760254196
 30
0.0
 10
5.2414336334
 20
6.7588624732
 30
0.0
 10
5.2415
 20
6.7579259699
 30
0.0
 10
5.2415
 20
6.7574623741
 30
0.0
  0
SPLINE
  5
2E3
100
AcDbEntity
  8
126-101_HEX_FEATURES
100
AcDbSpline
 62
7
  6
CONTINUOUS
 70
0
 71
3
 72
18
 73
14
 74
0
 42
0.0000001
 43
0.0000001
 44
0.0000000001
 40
0.0
 40
0.0
 40
0.0
 40
0.0
 40
0.146784017
 40
0.2903063264
 40
0.4276316628
 40
0.5568299863
 40
0.6771376892
 40
0.7342217852
 40
0.7894899713
 40
0.8432725723
 40
0.8959899875
 40
0.9480946757
 40
1.0
 40
1.0
 40
1.0
 40
1.0
 10
5.166806425
 20
7.0
 30
0.0
 10
5.166806425
 20
7.0020483503
 30
0.0
 10
5.1670782244
 20
7.0061050381
 30
0.0
 10
5.1682903915
 20
7.01196749
 30
0.0
 10
5.170267117
 20
7.0173623077
 30
0.0
 10
5.1729404336
 20
7.0220824296
 30
0.0
 10
5.1757326366
 20
7.025367885
 30
0.0
 10
5.1782210746
 20
7.0274630159
 30
0.0
 10
5.180160626
 20
7.0287434563
 30
0.0
 10
5.1821887909
 20
7.0297481738
 30
0.0
 10
5.1842876372
 20
7.0304706692
 30
0.0
 10
5.1864377139
 20
7.0309038403
 30
0.0
 10
5.1878909944
 20
7.0309998412
 30
0.0
 10
5.1886153259
 20
7.0309998761
 30
0.0
  0
SPLINE
  5
2E4
100
AcDbEntity
  8
THREAD
100
AcDbSpline
 62
7
  6
CONTINUOUS
 70
0
 71
3
 72
15
 73
11
 74
0
 42
0.0000001
 43
0.0000001
 44
0.0000000001
 40
0.0
 40
0.0
 40
0.0
 40
0.0
 40
0.1255722257
 40
0.2506945728
 40
0.3754512036
 40
0.5000000116
 40
0.6245488177
 40
0.7493054452
 40
0.8744277787
 40
1.0
 40
1.0
 40
1.0
 40
1.0
 10
3.9735636659
 20
6.5920977523
 30
0.0
 10
3.9689741757
 20
6.6075112819
 30
0.0
 10
3.9606317584
 20
6.6385375548
 30
0.0
 10
3.951141119
 20
6.6857146096
 30
0.0
 10
3.9451929945
 20
6.7333481633
 30
0.0
 10
3.9431631432
 20
6.7812419872
 30
0.0
 10
3.9451929952
 20
6.8291358106
 30
0.0
 10
3.9511411201
 20
6.8767693618
 30
0.0
 10
3.9606317593
 20
6.923946414
 30
0.0
 10
3.9689741758
 20
6.9549726847
 30
0.0
 10
3.9735636659
 20
6.9703862137
 30
0.0
  0
SPLINE
  5
2E5
100
AcDbEntity
  8
THREAD
100
AcDbSpline
 62
7
  6
CONTINUOUS
 70
0
 71
3
 72
21
 73
17
 74
0
 42
0.0000001
 43
0.0000001
 44
0.0000000001
 40
0.0
 40
0.0
 40
0.0
 40
0.0
 40
0.1264560126
 40
0.1892875349
 40
0.2518383053
 40
0.3141389815
 40
0.3762244014
 40
0.4381542655
 40
0.5000000641
 40
0.5618458488
 40
0.6237757087
 40
0.6858611075
 40
0.7481617721
 40
0.8107125085
 40
0.8735439971
 40
1.0
 40
1.0
 40
1.0
 40
1.0
 10
4.409
 20
6.5920977523
 30
0.0
 10
4.4166471373
 20
6.6069255248
 30
0.0
 10
4.4272575359
 20
6.6295796895
 30
0.0
 10
4.4390954699
 20
6.6606378847
 30
0.0
 10
4.4466354262
 20
6.6842385146
 30
0.0
 10
4.4526966695
 20
6.7081620015
 30
0.0
 10
4.4571517738
 20
6.7323556969
 30
0.0
 10
4.45986939
 20
6.7567472195
 30
0.0
 10
4.4607910459
 20
6.7812420067
 30
0.0
 10
4.4598693877
 20
6.8057367933
 30
0.0
 10
4.4571517688
 20
6.8301283104
 30
0.0
 10
4.4526966631
 20
6.8543220006
 30
0.0
 10
4.446635417
 20
6.8782454777
 30
0.0
 10
4.4390954668
 20
6.9018460985
 30
0.0
 10
4.4272575302
 20
6.9329042818
 30
0.0
 10
4.4166471367
 20
6.9555584424
 30
0.0
 10
4.409
 20
6.9703862137
 30
0.0
  0
SPLINE
  5
2E6
100
AcDbEntity
  8
0
100
AcDbSpline
 62
7
  6
CONTINUOUS
 70
0
 71
3
 72
29
 73
25
 74
0
 42
0.0000001
 43
0.0000001
 44
0.0000000001
 40
0.0
 40
0.0
 40
0.0
 40
0.0
 40
0.0258441352
 40
0.0518631985
 40
0.0782576183
 40
0.1052204635
 40
0.1615014435
 40
0.2218980005
 40
0.2866477099
 40
0.3205645723
 40
0.3553479255
 40
0.4269004017
 40
0.4999986445
 40
0.5730946911
 40
0.6446463267
 40
0.6794311439
 40
0.7133494282
 40
0.7780988975
 40
0.8384938987
 40
0.8947763458
 40
0.9217404439
 40
0.9481359437
 40
0.9741556591
 40
1.0
 40
1.0
 40
1.0
 40
1.0
 10
5.2415
 20
6.7574623741
 30
0.0
 10
5.2415
 20
6.7570014587
 30
0.0
 10
5.2414347129
 20
6.756075229
 30
0.0
 10
5.2411439625
 20
6.7547059398
 30
0.0
 10
5.2406635436
 20
6.7533695865
 30
0.0
 10
5.2397615096
 20
6.7516291918
 30
0.0
 10
5.2381573863
 20
6.7495982634
 30
0.0
 10
5.2356345341
 20
6.7475399226
 30
0.0
 10
5.2331327261
 20
6.7461711556
 30
0.0
 10
5.2309220577
 20
6.7452846913
 30
0.0
 10
5.2285349405
 20
6.7445303385
 30
0.0
 10
5.2253860407
 20
6.7439007827
 30
0.0
 10
5.2215001155
 20
6.7436480806
 30
0.0
 10
5.2176141921
 20
6.7439006889
 30
0.0
 10
5.214465333
 20
6.7445303063
 30
0.0
 10
5.2120781743
 20
6.7452846444
 30
0.0
 10
5.2098674442
 20
6.746171078
 30
0.0
 10
5.207365597
 20
6.7475397722
 30
0.0
 10
5.204842778
 20
6.7495981402
 30
0.0
 10
5.2032385839
 20
6.7516290364
 30
0.0
 10
5.2023365085
 20
6.7533694886
 30
0.0
 10
5.2018560694
 20
6.7547058907
 30
0.0
 10
5.2015652948
 20
6.7560752099
 30
0.0
 10
5.2015
 20
6.7570014551
 30
0.0
 10
5.2015
 20
6.7574623741
 30
0.0
  0
SPLINE
  5
2E7
100
AcDbEntity
  8
0
100
AcDbSpline
 62
7
  6
CONTINUOUS
 70
0
 71
3
 72
29
 73
25
 74
0
 42
0.0000001
 43
0.0000001
 44
0.0000000001
 40
0.0
 40
0.0
 40
0.0
 40
0.0
 40
0.0258441352
 40
0.0518631985
 40
0.0782576183
 40
0.1052204635
 40
0.1615014435
 40
0.2218980005
 40
0.2866477099
 40
0.3205645723
 40
0.3553479255
 40
0.4269004017
 40
0.4999986445
 40
0.5730946911
 40
0.6446463267
 40
0.6794311439
 40
0.7133494282
 40
0.7780988975
 40
0.8384938987
 40
0.8947763458
 40
0.9217404439
 40
0.9481359437
 40
0.9741556591
 40
1.0
 40
1.0
 40
1.0
 40
1.0
 10
5.2015
 20
7.2425376259
 30
0.0
 10
5.2015
 20
7.2429985413
 30
0.0
 10
5.2015652871
 20
7.243924771
 30
0.0
 10
5.2018560375
 20
7.2452940602
 30
0.0
 10
5.2023364564
 20
7.2466304135
 30
0.0
 10
5.2032384904
 20
7.2483708082
 30
0.0
 10
5.2048426137
 20
7.2504017366
 30
0.0
 10
5.2073654659
 20
7.2524600774
 30
0.0
 10
5.2098672739
 20
7.2538288444
 30
0.0
 10
5.2120779423
 20
7.2547153087
 30
0.0
 10
5.2144650595
 20
7.2554696615
 30
0.0
 10
5.2176139593
 20
7.2560992173
 30
0.0
 10
5.2214998845
 20
7.2563519194
 30
0.0
 10
5.2253858079
 20
7.2560993111
 30
0.0
 10
5.228534667
 20
7.2554696937
 30
0.0
 10
5.2309218257
 20
7.2547153556
 30
0.0
 10
5.2331325558
 20
7.253828922
 30
0.0
 10
5.235634403
 20
7.2524602278
 30
0.0
 10
5.238157222
 20
7.2504018598
 30
0.0
 10
5.2397614161
 20
7.2483709636
 30
0.0
 10
5.2406634915
 20
7.2466305114
 30
0.0
 10
5.2411439306
 20
7.2452941093
 30
0.0
 10
5.2414347052
 20
7.2439247901
 30
0.0
 10
5.2415
 20
7.2429985449
 30
0.0
 10
5.2415
 20
7.2425376259
 30
0.0
  0
SPLINE
  5
2E8
100
AcDbEntity
  8
126-101_HEX_FEATURES
100
AcDbSpline
 62
7
  6
CONTINUOUS
 70
0
 71
3
 72
24
 73
20
 74
0
 42
0.0000001
 43
0.0000001
 44
0.0000000001
 40
0.0
 40
0.0
 40
0.0
 40
0.0
 40
0.1249279148
 40
0.2498445
 40
0.3747467186
 40
0.4372081297
 40
0.4996668246
 40
0.5621253698
 40
0.6245889491
 40
0.6870545509
 40
0.7495319674
 40
0.7807935363
 40
0.8120729362
 40
0.8433427954
 40
0.8746464608
 40
0.9059594939
 40
0.9372966921
 40
0.9687060572
 40
1.0
 40
1.0
 40
1.0
 40
1.0
 10
5.1895
 20
7.0309762273
 30
0.0
 10
5.1926081742
 20
7.0309155167
 30
0.0
 10
5.1988222528
 20
7.0305628439
 30
0.0
 10
5.2080753857
 20
7.0293402277
 30
0.0
 10
5.2156846797
 20
7.0277134885
 30
0.0
 10
5.2216644407
 20
7.0260062316
 30
0.0
 10
5.226081172
 20
7.0245046274
 30
0.0
 10
5.2304082398
 20
7.0227600163
 30
0.0
 10
5.2346165103
 20
7.0207425111
 30
0.0
 10
5.2386604694
 20
7.0184099634
 30
0.0
 10
5.2418402518
 20
7.0161599755
 30
0.0
 10
5.2442089068
 20
7.0141400886
 30
0.0
 10
5.2458796263
 20
7.0125065706
 30
0.0
 10
5.2474139715
 20
7.0107419284
 30
0.0
 10
5.2487785281
 20
7.0088407423
 30
0.0
 10
5.2499307525
 20
7.0068001441
 30
0.0
 10
5.2508116307
 20
7.0046232759
 30
0.0
 10
5.2513667202
 20
7.0023414515
 30
0.0
 10
5.2515
 20
7.0007787337
 30
0.0
 10
5.2515
 20
7.0
 30
0.0
  0
SPLINE
  5
2E9
100
AcDbEntity
  8
THREAD
100
AcDbSpline
 62
7
  6
CONTINUOUS
 70
0
 71
3
 72
15
 73
11
 74
0
 42
0.0000001
 43
0.0000001
 44
0.0000000001
 40
0.0
 40
0.0
 40
0.0
 40
0.0
 40
0.1255722257
 40
0.2506945728
 40
0.3754512036
 40
0.5000000116
 40
0.6245488177
 40
0.7493054452
 40
0.8744277787
 40
1.0
 40
1.0
 40
1.0
 40
1.0
 10
3.9735636659
 20
7.0296137863
 30
0.0
 10
3.9689741757
 20
7.0450273158
 30
0.0
 10
3.9606317584
 20
7.0760535888
 30
0.0
 10
3.951141119
 20
7.1232306436
 30
0.0
 10
3.9451929945
 20
7.1708641973
 30
0.0
 10
3.9431631432
 20
7.2187580212
 30
0.0
 10
3.9451929952
 20
7.2666518446
 30
0.0
 10
3.9511411201
 20
7.3142853958
 30
0.0
 10
3.9606317593
 20
7.361462448
 30
0.0
 10
3.9689741758
 20
7.3924887187
 30
0.0
 10
3.9735636659
 20
7.4079022477
 30
0.0
  0
SPLINE
  5
2EA
100
AcDbEntity
  8
THREAD
100
AcDbSpline
 62
7
  6
CONTINUOUS
 70
0
 71
3
 72
21
 73
17
 74
0
 42
0.0000001
 43
0.0000001
 44
0.0000000001
 40
0.0
 40
0.0
 40
0.0
 40
0.0
 40
0.1264560126
 40
0.1892875349
 40
0.2518383053
 40
0.3141389815
 40
0.3762244014
 40
0.4381542655
 40
0.5000000641
 40
0.5618458488
 40
0.6237757087
 40
0.6858611075
 40
0.7481617721
 40
0.8107125085
 40
0.8735439971
 40
1.0
 40
1.0
 40
1.0
 40
1.0
 10
4.409
 20
7.0296137863
 30
0.0
 10
4.4166471373
 20
7.0444415588
 30
0.0
 10
4.4272575359
 20
7.0670957235
 30
0.0
 10
4.4390954699
 20
7.0981539187
 30
0.0
 10
4.4466354262
 20
7.1217545486
 30
0.0
 10
4.4526966695
 20
7.1456780355
 30
0.0
 10
4.4571517738
 20
7.1698717309
 30
0.0
 10
4.45986939
 20
7.1942632535
 30
0.0
 10
4.4607910459
 20
7.2187580407
 30
0.0
 10
4.4598693877
 20
7.2432528272
 30
0.0
 10
4.4571517688
 20
7.2676443444
 30
0.0
 10
4.4526966631
 20
7.2918380346
 30
0.0
 10
4.446635417
 20
7.3157615116
 30
0.0
 10
4.4390954668
 20
7.3393621325
 30
0.0
 10
4.4272575302
 20
7.3704203158
 30
0.0
 10
4.4166471367
 20
7.3930744763
 30
0.0
 10
4.409
 20
7.4079022477
 30
0.0
  0
SPLINE
  5
2EB
100
AcDbEntity
  8
126-101_HEX_FEATURES
100
AcDbSpline
 62
7
  6
CONTINUOUS
 70
0
 71
3
 72
23
 73
19
 74
0
 42
0.0000001
 43
0.0000001
 44
0.0000000001
 40
0.0
 40
0.0
 40
0.0
 40
0.0
 40
0.0312934047
 40
0.0627010808
 40
0.0940372697
 40
0.1253517348
 40
0.1566564582
 40
0.1879252354
 40
0.2192011564
 40
0.250458566
 40
0.3129321367
 40
0.375395502
 40
0.437861693
 40
0.5003266042
 40
0.6252232873
 40
0.7501394439
 40
0.875067104
 40
1.0
 40
1.0
 40
1.0
 40
1.0
 10
5.2515
 20
7.0
 30
0.0
 10
5.2515
 20
6.9992213099
 30
0.0
 10
5.2513667904
 20
6.9976587072
 30
0.0
 10
5.2508118073
 20
6.9953770257
 30
0.0
 10
5.2499309038
 20
6.9932003014
 30
0.0
 10
5.2487787946
 20
6.9911597065
 30
0.0
 10
5.2474143367
 20
6.9892585133
 30
0.0
 10
5.2458801168
 20
6.987493999
 30
0.0
 10
5.2442096817
 20
6.9858606314
 30
0.0
 10
5.2418413772
 20
6.9838409594
 30
0.0
 10
5.2386619879
 20
6.9815911159
 30
0.0
 10
5.2346183906
 20
6.9792585215
 30
0.0
 10
5.2304102305
 20
6.9772406587
 30
0.0
 10
5.2246415261
 20
6.9749150589
 30
0.0
 10
5.2172050673
 20
6.9726119733
 30
0.0
 10
5.208076393
 20
6.9706598999
 30
0.0
 10
5.1988222806
 20
6.9694371716
 30
0.0
 10
5.1926081777
 20
6.9690844833
 30
0.0
 10
5.1895
 20
6.9690237727
 30
0.0
  0
ELLIPSE
  5
2EC
100
AcDbEntity
  8
0
100
AcDbEllipse
 62
7
  6
CONTINUOUS
 10
5.9375
 20
6.6775
 30
0.0
 11
-0.0
 21
0.035
 31
0.0
 40
1.0
 41
-4.7123889804
 42
-1.5707963268
  0
ELLIPSE
  5
2ED
100
AcDbEntity
  8
0
100
AcDbEllipse
 62
7
  6
CONTINUOUS
 10
5.9375
 20
7.3225
 30
0.0
 11
0.035
 21
-0.0
 31
0.0
 40
1.0
 41
0.0
 42
3.1415926536
  0
ELLIPSE
  5
2EE
100
AcDbEntity
  8
0
100
AcDbEllipse
 62
7
  6
CONTINUOUS
 10
4.7715
 20
6.6145
 30
0.0
 11
-0.0
 21
0.035
 31
0.0
 40
1.0
 41
-4.7123889804
 42
-1.5707963268
  0
ELLIPSE
  5
2EF
100
AcDbEntity
  8
0
100
AcDbEllipse
 62
7
  6
CONTINUOUS
 10
4.7715
 20
7.3855
 30
0.0
 11
0.035
 21
0.0
 31
0.0
 40
1.0
 41
0.0
 42
3.1415926536
  0
ENDSEC
  0
SECTION
  2
OBJECTS
  0
DICTIONARY
  5
C
100
AcDbDictionary
280
0
281
1
  3
ACAD_GROUP
350
D
  3
ACAD_MLINESTYLE
350
17
  3
ACAD_LAYOUT
350
1A
  3
ACAD_PLOTSETTINGS
350
19
  3
ACAD_PLOTSTYLENAME
350
E
  0
DICTIONARY
  5
D
102
{ACAD_REACTORS
330
C
102
}
100
AcDbDictionary
280
0
281
1
  0
ACDBDICTIONARYWDFLT
  5
E
102
{ACAD_REACTORS
330
C
102
}
100
AcDbDictionary
281
1
  3
Normal
350
F
100
AcDbDictionaryWithDefault
340
F
  0
DICTIONARY
  5
17
102
{ACAD_REACTORS
330
C
102
}
100
AcDbDictionary
280
0
281
1
  3
Standard
350
18
  0
DICTIONARY
  5
19
102
{ACAD_REACTORS
330
C
102
}
100
AcDbDictionary
281
1
  0
DICTIONARY
  5
1A
102
{ACAD_REACTORS
330
C
102
}
100
AcDbDictionary
281
1
  3
Model
350
2F0
  3
Layout1
350
2F1
  0
ACDBPLACEHOLDER
  5
F
102
{ACAD_REACTORS
330
E
102
}
  0
MLINESTYLE
  5
18
102
{ACAD_REACTORS
330
17
102
}
100
AcDbMlineStyle
  2
STANDARD
 70
0
  3

 62
256
 51
90.0
 52
90.0
 71
2
 49
0.5
 62
256
  6
BYLAYER
 49
-0.5
 62
256
  6
BYLAYER
  0
LAYOUT
  5
2F0
102
{ACAD_REACTORS
330
1A
102
}
100
AcDbPlotSettings
  1

  2
none_device
  4
ANSI_B_(17.00_x_11.00_Inches)
  6

 40
0.0
 41
0.0
 42
0.0
 43
0.0
 44
431.8
 45
279.4
 46
0.0
 47
0.0
 48
0.0
 49
0.0
140
0.0
141
0.0
142
1.0
143
1.0
 70
1024
 72
0
 73
0
 74
0
  7

 75
0
147
1.0
148
0.0
149
0.0
100
AcDbLayout
  1
Model
 70
0
 71
0
 10
0.0
 20
0.0
 11
17.0
 21
11.0
 12
0.0
 22
0.0
 32
0.0
 14
0.0
 24
0.0
 34
0.0
 15
0.0
 25
0.0
 35
0.0
146
0.0
 13
0.0
 23
0.0
 33
0.0
 16
1.0
 26
0.0
 36
0.0
 17
0.0
 27
1.0
 37
0.0
 76
0
330
23F
345
0
346
0
  0
LAYOUT
  5
2F1
102
{ACAD_REACTORS
330
1A
102
}
100
AcDbPlotSettings
  1

  2
none_device
  4
ANSI_B_(17.00_x_11.00_Inches)
  6

 40
0.0
 41
0.0
 42
0.0
 43
0.0
 44
431.8
 45
279.4
 46
0.0
 47
0.0
 48
0.0
 49
0.0
140
0.0
141
0.0
142
1.0
143
1.0
 70
0
 72
0
 73
0
 74
0
  7

 75
0
147
1.0
148
0.0
149
0.0
100
AcDbLayout
  1
Layout1
 70
0
 71
1
 10
0.0
 20
0.0
 11
17.0
 21
11.0
 12
0.0
 22
0.0
 32
0.0
 14
0.0
 24
0.0
 34
0.0
 15
0.0
 25
0.0
 35
0.0
146
0.0
 13
0.0
 23
0.0
 33
0.0
 16
1.0
 26
0.0
 36
0.0
 17
0.0
 27
1.0
 37
0.0
 76
0
330
240
345
0
346
0
  0
ENDSEC
  0
EOF
