999
DXF file: CODAXCN.dxf
999
Pro/ENGINEER 2016010 by Parametric Technology Corporation
  0
SECTION
  2
HEADER
  9
$ACADVER
  1
AC1021
  9
$DWGCODEPAGE
  3
ANSI_1252
  9
$EXTMAX
 10
17.0
 20
11.0
 30
0.0
  9
$EXTMIN
 10
0.0
 20
0.0
 30
0.0
  9
$LIMMIN
 10
0.0
 20
0.0
  9
$LIMMAX
 10
17.0
 20
11.0
  9
$VIEWCTR
 10
8.5
 20
5.5
  9
$VIEWSIZE
 40
11.0
  9
$CLAYER
  8
0
  9
$LTSCALE
 40
0.935
  9
$CELTYPE
  6
BYLAYER
  9
$DIMSCALE
 40
1.0
  9
$DIMASZ
 40
0.1875
  9
$DIMEXO
 40
0.0625
  9
$DIMDLI
 40
0.646
  9
$DIMEXE
 40
0.125
  9
$DIMCEN
 40
0.153
  9
$DIMLFAC
 40
1.0
  9
$DIMBLK
  1
_FILLED
  9
$DIMALT
 70
0
  9
$DIMALTF
 40
25.4
  9
$DIMTXT
 40
0.125
  9
$DIMTOL
 70
0
  9
$DIMLIM
 70
0
  9
$DIMTFAC
 40
1.0
  9
$DIMGAP
 40
0.09
  9
$DIMDSEP
 70
46
  9
$AUNITS
 70
0
  9
$PDMODE
 70
3
  9
$PDSIZE
 40
0.3125
  9
$HANDSEED
  5
2E3
  9
$TILEMODE
 70
1
  9
$MEASUREMENT
 70
0
  9
$INSUNITS
 70
1
  0
ENDSEC
  0
SECTION
  2
CLASSES
  0
CLASS
  1
ACDBDICTIONARYWDFLT
  2
AcDbDictionaryWithDefault
  3
AutoCAD 2000
 90
0
 91
1
280
0
281
0
  0
CLASS
  1
ACDBPLACEHOLDER
  2
AcDbPlaceHolder
  3
AutoCAD 2000
 90
0
 91
1
280
0
281
0
  0
CLASS
  1
LAYOUT
  2
AcDbLayout
  3
AutoCAD 2000
 90
0
 91
0
280
0
281
0
  0
ENDSEC
  0
SECTION
  2
TABLES
  0
TABLE
  2
VPORT
  5
8
100
AcDbSymbolTable
 70
2
  0
VPORT
  5
1F4
100
AcDbSymbolTableRecord
100
AcDbViewportTableRecord
  2
*ACTIVE
 70
0
 10
0.0
 20
0.0
 11
1.0
 21
1.0
 12
8.5
 22
5.5
 13
0.0
 23
0.0
 14
1.0
 24
1.0
 15
0.0
 25
0.0
 16
0.0
 26
0.0
 36
1.0
 17
0.0
 27
0.0
 37
0.0
 40
11.0
 41
1.5454545455
 42
50.0
 43
0.0
 44
0.0
 50
0.0
 51
0.0
 71
0
 72
100
 73
1
 74
1
 75
0
 76
0
 77
0
 78
0
  0
ENDTAB
  0
TABLE
  2
LTYPE
  5
5
100
AcDbSymbolTable
 70
6
  0
LTYPE
  5
14
100
AcDbSymbolTableRecord
100
AcDbLinetypeTableRecord
  2
BYBLOCK
 70
0
  3

 72
65
 73
0
 40
0.0
  0
LTYPE
  5
15
100
AcDbSymbolTableRecord
100
AcDbLinetypeTableRecord
  2
BYLAYER
 70
0
  3

 72
65
 73
0
 40
0.0
  0
LTYPE
  5
16
100
AcDbSymbolTableRecord
100
AcDbLinetypeTableRecord
  2
CONTINUOUS
 70
64
  3
Solid line
 72
65
 73
0
 40
0.0
  0
LTYPE
  5
1F5
100
AcDbSymbolTableRecord
100
AcDbLinetypeTableRecord
  2
CENTER
 70
64
  3
____ _ ____ _ ____ _ ____ _ ____ _ ____ _ ____
 72
65
 73
4
 40
0.6
 49
0.375
 74
0
 49
-0.075
 74
0
 49
0.075
 74
0
 49
-0.075
 74
0
  0
LTYPE
  5
1F6
100
AcDbSymbolTableRecord
100
AcDbLinetypeTableRecord
  2
HIDDEN
 70
64
  3
- - - - - - - - - - - - - - - - - - - -
 72
65
 73
2
 40
0.2
 49
0.1
 74
0
 49
-0.1
 74
0
  0
LTYPE
  5
1F7
100
AcDbSymbolTableRecord
100
AcDbLinetypeTableRecord
  2
PHANTOM
 70
64
  3
_____ _ _ _____ _ _ _____ _ _ _____
 72
65
 73
6
 40
0.8
 49
0.45
 74
0
 49
-0.05
 74
0
 49
0.1
 74
0
 49
-0.05
 74
0
 49
0.1
 74
0
 49
-0.05
 74
0
  0
LTYPE
  5
1F8
100
AcDbSymbolTableRecord
100
AcDbLinetypeTableRecord
  2
DOT
 70
64
  3
. . . . . . . . . . . . . . . . . . . .
 72
65
 73
2
 40
0.2
 49
0.1
 74
0
 49
-0.1
 74
0
  0
LTYPE
  5
1F9
100
AcDbSymbolTableRecord
100
AcDbLinetypeTableRecord
  2
DASHED
 70
64
  3
- - - - - - - - - - - - - - - - - - - -
 72
65
 73
2
 40
0.2
 49
0.1
 74
0
 49
-0.1
 74
0
  0
ENDTAB
  0
TABLE
  2
LAYER
  5
2
100
AcDbSymbolTable
 70
36
  0
LAYER
  5
10
100
AcDbSymbolTableRecord
100
AcDbLayerTableRecord
  2
0
 70
0
 62
7
  6
CONTINUOUS
370
-3
390
F
  0
LAYER
  5
1FA
100
AcDbSymbolTableRecord
100
AcDbLayerTableRecord
  2
DEFAULT_1
 70
0
 62
7
  6
CENTER
370
-3
390
F
  0
LAYER
  5
1FB
100
AcDbSymbolTableRecord
100
AcDbLayerTableRecord
  2
DEFAULT_2
 70
0
 62
8
  6
HIDDEN
370
-3
390
F
  0
LAYER
  5
1FC
100
AcDbSymbolTableRecord
100
AcDbLayerTableRecord
  2
DEFAULT_3
 70
0
 62
7
  6
PHANTOM
370
-3
390
F
  0
LAYER
  5
1FD
100
AcDbSymbolTableRecord
100
AcDbLayerTableRecord
  2
01_ALL_DTM_PLN
 70
0
 62
7
  6
CONTINUOUS
370
-3
390
F
  0
LAYER
  5
1FE
100
AcDbSymbolTableRecord
100
AcDbLayerTableRecord
  2
01__ASM_ALL_DTM_PLN
 70
0
 62
7
  6
CONTINUOUS
370
-3
390
F
  0
LAYER
  5
1FF
100
AcDbSymbolTableRecord
100
AcDbLayerTableRecord
  2
01__ASM_DEF_DTM_PLN
 70
0
 62
7
  6
CONTINUOUS
370
-3
390
F
  0
LAYER
  5
200
100
AcDbSymbolTableRecord
100
AcDbLayerTableRecord
  2
01___PRT_ALL_DTM_PLN
 70
0
 62
7
  6
CONTINUOUS
370
-3
390
F
  0
LAYER
  5
201
100
AcDbSymbolTableRecord
100
AcDbLayerTableRecord
  2
01___PRT_DEF_DTM_PLN
 70
0
 62
7
  6
CONTINUOUS
370
-3
390
F
  0
LAYER
  5
202
100
AcDbSymbolTableRecord
100
AcDbLayerTableRecord
  2
02_ALL_AXES
 70
0
 62
7
  6
CONTINUOUS
370
-3
390
F
  0
LAYER
  5
203
100
AcDbSymbolTableRecord
100
AcDbLayerTableRecord
  2
02__ASM_ALL_AXES
 70
0
 62
7
  6
CONTINUOUS
370
-3
390
F
  0
LAYER
  5
204
100
AcDbSymbolTableRecord
100
AcDbLayerTableRecord
  2
02___PRT_ALL_AXES
 70
0
 62
7
  6
CONTINUOUS
370
-3
390
F
  0
LAYER
  5
205
100
AcDbSymbolTableRecord
100
AcDbLayerTableRecord
  2
03_ALL_CURVES
 70
0
 62
7
  6
CONTINUOUS
370
-3
390
F
  0
LAYER
  5
206
100
AcDbSymbolTableRecord
100
AcDbLayerTableRecord
  2
03__ASM_ALL_CURVES
 70
0
 62
7
  6
CONTINUOUS
370
-3
390
F
  0
LAYER
  5
207
100
AcDbSymbolTableRecord
100
AcDbLayerTableRecord
  2
03___PRT_ALL_CURVES
 70
0
 62
7
  6
CONTINUOUS
370
-3
390
F
  0
LAYER
  5
208
100
AcDbSymbolTableRecord
100
AcDbLayerTableRecord
  2
04_ALL_DTM_PNT
 70
0
 62
7
  6
CONTINUOUS
370
-3
390
F
  0
LAYER
  5
209
100
AcDbSymbolTableRecord
100
AcDbLayerTableRecord
  2
04__ASM_ALL_DTM_PNT
 70
0
 62
7
  6
CONTINUOUS
370
-3
390
F
  0
LAYER
  5
20A
100
AcDbSymbolTableRecord
100
AcDbLayerTableRecord
  2
04___PRT_ALL_DTM_PNT
 70
0
 62
7
  6
CONTINUOUS
370
-3
390
F
  0
LAYER
  5
20B
100
AcDbSymbolTableRecord
100
AcDbLayerTableRecord
  2
05_ALL_DTM_CSYS
 70
0
 62
7
  6
CONTINUOUS
370
-3
390
F
  0
LAYER
  5
20C
100
AcDbSymbolTableRecord
100
AcDbLayerTableRecord
  2
05__ASM_ALL_DTM_CSYS
 70
0
 62
7
  6
CONTINUOUS
370
-3
390
F
  0
LAYER
  5
20D
100
AcDbSymbolTableRecord
100
AcDbLayerTableRecord
  2
05__ASM_DEF_DTM_CSYS
 70
0
 62
7
  6
CONTINUOUS
370
-3
390
F
  0
LAYER
  5
20E
100
AcDbSymbolTableRecord
100
AcDbLayerTableRecord
  2
05___PRT_ALL_DTM_CSYS
 70
0
 62
7
  6
CONTINUOUS
370
-3
390
F
  0
LAYER
  5
20F
100
AcDbSymbolTableRecord
100
AcDbLayerTableRecord
  2
05___PRT_DEF_DTM_CSYS
 70
0
 62
7
  6
CONTINUOUS
370
-3
390
F
  0
LAYER
  5
210
100
AcDbSymbolTableRecord
100
AcDbLayerTableRecord
  2
06_ALL_SURFS
 70
0
 62
7
  6
CONTINUOUS
370
-3
390
F
  0
LAYER
  5
211
100
AcDbSymbolTableRecord
100
AcDbLayerTableRecord
  2
06__ASM_ALL_SURFS
 70
0
 62
7
  6
CONTINUOUS
370
-3
390
F
  0
LAYER
  5
212
100
AcDbSymbolTableRecord
100
AcDbLayerTableRecord
  2
06___PRT_ALL_SURFS
 70
0
 62
7
  6
CONTINUOUS
370
-3
390
F
  0
LAYER
  5
213
100
AcDbSymbolTableRecord
100
AcDbLayerTableRecord
  2
07__ASM_ALL_SKELETONS
 70
0
 62
7
  6
CONTINUOUS
370
-3
390
F
  0
LAYER
  5
214
100
AcDbSymbolTableRecord
100
AcDbLayerTableRecord
  2
126-300_HEX_FEATURES
 70
0
 62
7
  6
CONTINUOUS
370
-3
390
F
  0
LAYER
  5
215
100
AcDbSymbolTableRecord
100
AcDbLayerTableRecord
  2
126-300_REF_GEOMETRY
 70
0
 62
7
  6
CONTINUOUS
370
-3
390
F
  0
LAYER
  5
216
100
AcDbSymbolTableRecord
100
AcDbLayerTableRecord
  2
126-301_HEX_FEATURES
 70
0
 62
7
  6
CONTINUOUS
370
-3
390
F
  0
LAYER
  5
217
100
AcDbSymbolTableRecord
100
AcDbLayerTableRecord
  2
126-301_REF_GEOMETRY
 70
0
 62
7
  6
CONTINUOUS
370
-3
390
F
  0
LAYER
  5
218
100
AcDbSymbolTableRecord
100
AcDbLayerTableRecord
  2
126-302_HEX_FEATURES
 70
0
 62
7
  6
CONTINUOUS
370
-3
390
F
  0
LAYER
  5
219
100
AcDbSymbolTableRecord
100
AcDbLayerTableRecord
  2
126-302_REF_GEOMETRY
 70
0
 62
7
  6
CONTINUOUS
370
-3
390
F
  0
LAYER
  5
21A
100
AcDbSymbolTableRecord
100
AcDbLayerTableRecord
  2
126-303_HEX_FEATURES
 70
0
 62
7
  6
CONTINUOUS
370
-3
390
F
  0
LAYER
  5
21B
100
AcDbSymbolTableRecord
100
AcDbLayerTableRecord
  2
126-303_REF_GEOMETRY
 70
0
 62
7
  6
CONTINUOUS
370
-3
390
F
  0
LAYER
  5
21C
100
AcDbSymbolTableRecord
100
AcDbLayerTableRecord
  2
BSPP_PORT_PER_S-186
 70
0
 62
7
  6
CONTINUOUS
370
-3
390
F
  0
LAYER
  5
21D
100
AcDbSymbolTableRecord
100
AcDbLayerTableRecord
  2
COPY_GEO_FET
 70
0
 62
7
  6
CONTINUOUS
370
-3
390
F
  0
LAYER
  5
21E
100
AcDbSymbolTableRecord
100
AcDbLayerTableRecord
  2
COSMETIC
 70
0
 62
7
  6
CONTINUOUS
370
-3
390
F
  0
LAYER
  5
21F
100
AcDbSymbolTableRecord
100
AcDbLayerTableRecord
  2
COSMETICS
 70
0
 62
7
  6
CONTINUOUS
370
-3
390
F
  0
LAYER
  5
220
100
AcDbSymbolTableRecord
100
AcDbLayerTableRecord
  2
CUT_REF_SURF
 70
0
 62
7
  6
CONTINUOUS
370
-3
390
F
  0
LAYER
  5
221
100
AcDbSymbolTableRecord
100
AcDbLayerTableRecord
  2
DATUM
 70
0
 62
7
  6
CONTINUOUS
370
-3
390
F
  0
LAYER
  5
222
100
AcDbSymbolTableRecord
100
AcDbLayerTableRecord
  2
DATUMCURVES
 70
0
 62
7
  6
CONTINUOUS
370
-3
390
F
  0
LAYER
  5
223
100
AcDbSymbolTableRecord
100
AcDbLayerTableRecord
  2
DIMENSIONS
 70
0
 62
7
  6
CONTINUOUS
370
-3
390
F
  0
LAYER
  5
224
100
AcDbSymbolTableRecord
100
AcDbLayerTableRecord
  2
DTM230
 70
0
 62
7
  6
CONTINUOUS
370
-3
390
F
  0
LAYER
  5
225
100
AcDbSymbolTableRecord
100
AcDbLayerTableRecord
  2
DTM_500001
 70
0
 62
7
  6
CONTINUOUS
370
-3
390
F
  0
LAYER
  5
226
100
AcDbSymbolTableRecord
100
AcDbLayerTableRecord
  2
DTM_500002
 70
0
 62
7
  6
CONTINUOUS
370
-3
390
F
  0
LAYER
  5
227
100
AcDbSymbolTableRecord
100
AcDbLayerTableRecord
  2
DTM_515002
 70
0
 62
7
  6
CONTINUOUS
370
-3
390
F
  0
LAYER
  5
228
100
AcDbSymbolTableRecord
100
AcDbLayerTableRecord
  2
DTM_530002
 70
0
 62
7
  6
CONTINUOUS
370
-3
390
F
  0
LAYER
  5
229
100
AcDbSymbolTableRecord
100
AcDbLayerTableRecord
  2
DTM_SPRING_RH
 70
0
 62
7
  6
CONTINUOUS
370
-3
390
F
  0
LAYER
  5
22A
100
AcDbSymbolTableRecord
100
AcDbLayerTableRecord
  2
DTM_SP_RH_CONSTR
 70
0
 62
7
  6
CONTINUOUS
370
-3
390
F
  0
LAYER
  5
22B
100
AcDbSymbolTableRecord
100
AcDbLayerTableRecord
  2
GEOMETRICTOLERANCES
 70
0
 62
7
  6
CONTINUOUS
370
-3
390
F
  0
LAYER
  5
22C
100
AcDbSymbolTableRecord
100
AcDbLayerTableRecord
  2
HIDDEN
 70
0
 62
7
  6
CONTINUOUS
370
-3
390
F
  0
LAYER
  5
22D
100
AcDbSymbolTableRecord
100
AcDbLayerTableRecord
  2
HIDDEN_DRW
 70
0
 62
7
  6
CONTINUOUS
370
-3
390
F
  0
LAYER
  5
22E
100
AcDbSymbolTableRecord
100
AcDbLayerTableRecord
  2
LAY0001
 70
0
 62
7
  6
CONTINUOUS
370
-3
390
F
  0
LAYER
  5
22F
100
AcDbSymbolTableRecord
100
AcDbLayerTableRecord
  2
NPTF_PORT_PER_S-164
 70
0
 62
7
  6
CONTINUOUS
370
-3
390
F
  0
LAYER
  5
230
100
AcDbSymbolTableRecord
100
AcDbLayerTableRecord
  2
PARAMETERDIMENSIONS
 70
0
 62
7
  6
CONTINUOUS
370
-3
390
F
  0
LAYER
  5
231
100
AcDbSymbolTableRecord
100
AcDbLayerTableRecord
  2
PLANE
 70
0
 62
7
  6
CONTINUOUS
370
-3
390
F
  0
LAYER
  5
232
100
AcDbSymbolTableRecord
100
AcDbLayerTableRecord
  2
STD_SAE-4_PORT
 70
0
 62
7
  6
CONTINUOUS
370
-3
390
F
  0
LAYER
  5
233
100
AcDbSymbolTableRecord
100
AcDbLayerTableRecord
  2
T-8A_CAVITY
 70
0
 62
7
  6
CONTINUOUS
370
-3
390
F
  0
LAYER
  5
234
100
AcDbSymbolTableRecord
100
AcDbLayerTableRecord
  2
T-8A_CAVITY_REF_GEOMETRY
 70
0
 62
7
  6
CONTINUOUS
370
-3
390
F
  0
LAYER
  5
235
100
AcDbSymbolTableRecord
100
AcDbLayerTableRecord
  2
TEXT
 70
0
 62
7
  6
CONTINUOUS
370
-3
390
F
  0
LAYER
  5
236
100
AcDbSymbolTableRecord
100
AcDbLayerTableRecord
  2
THREAD
 70
0
 62
7
  6
CONTINUOUS
370
-3
390
F
  0
ENDTAB
  0
TABLE
  2
STYLE
  5
3
100
AcDbSymbolTable
 70
1
  0
STYLE
  5
11
100
AcDbSymbolTableRecord
100
AcDbTextStyleTableRecord
  2
STANDARD
 70
0
 40
0.0
 41
0.8
 50
0.0
 71
0
 42
0.2
  3
txt
  4

  0
STYLE
  5
237
100
AcDbSymbolTableRecord
100
AcDbTextStyleTableRecord
  2
TEXTSTYLE_1
 70
0
 40
0.0
 41
0.8
 50
0.0
 71
0
 42
0.2
  3
gdt
  4

  0
ENDTAB
  0
TABLE
  2
VIEW
  5
6
100
AcDbSymbolTable
 70
0
  0
ENDTAB
  0
TABLE
  2
UCS
  5
7
100
AcDbSymbolTable
 70
0
  0
ENDTAB
  0
TABLE
  2
APPID
  5
9
100
AcDbSymbolTable
 70
1
  0
APPID
  5
238
100
AcDbSymbolTableRecord
100
AcDbRegAppTableRecord
  2
ACAD
 70
0
  0
ENDTAB
  0
TABLE
  2
BLOCK_RECORD
  5
1
100
AcDbSymbolTable
 70
0
  0
BLOCK_RECORD
  5
239
100
AcDbSymbolTableRecord
100
AcDbBlockTableRecord
  2
*Model_Space
  0
BLOCK_RECORD
  5
23A
100
AcDbSymbolTableRecord
100
AcDbBlockTableRecord
  2
*Paper_Space
  0
BLOCK_RECORD
  5
23B
100
AcDbSymbolTableRecord
100
AcDbBlockTableRecord
  2
_FILLED
  0
BLOCK_RECORD
  5
23C
100
AcDbSymbolTableRecord
100
AcDbBlockTableRecord
  2
*D0
  0
ENDTAB
  0
TABLE
  2
DIMSTYLE
  5
A
100
AcDbSymbolTable
 70
1
100
AcDbDimStyleTable
 71
0
  0
DIMSTYLE
105
23D
100
AcDbSymbolTableRecord
100
AcDbDimStyleTableRecord
  2
STANDARD
 70
0
  3

  4

 40
1.0
 41
0.1875
 42
0.0625
 43
0.38
 44
0.125
 45
0.0
 46
0.0
 47
0.001
 48
0.001
140
0.125
141
0.09
142
0.0
143
25.4
144
1.0
145
0.0
146
1.0
147
0.09
 71
0.0
 72
0.0
 73
1
 74
1
 75
0
 76
0
 77
0
 78
4
170
0
171
2
172
0
173
0
174
0
175
0
176
0
177
0
178
0
270
2
271
3
272
3
273
2
274
2
275
0
280
0
281
0
282
0
283
1
284
4
285
0
286
0
287
3
288
0
340
11
278
46
341
23B
342
23B
343
23B
344
23B
  0
DIMSTYLE
105
23E
100
AcDbSymbolTableRecord
100
AcDbDimStyleTableRecord
  2
DIMSTYLE_1
 70
0
  3

  4

 40
1.0
 41
0.1875
 42
0.0625
 43
0.38
 44
0.125
 45
0.0
 46
0.0
 47
0.0
 48
0.0
140
0.125
141
0.09
142
0.0
143
25.4
144
1.0
145
0.0
146
1.0
147
0.0625
 71
0.0
 72
0.0
 73
1
 74
1
 75
0
 76
0
 77
0
 78
4
170
0
171
2
172
0
173
0
174
0
175
0
176
0
177
0
178
0
270
2
271
2
272
2
273
2
274
2
275
0
280
0
281
0
282
0
283
1
284
4
285
0
286
0
287
3
288
0
340
11
278
46
341
23B
342
23B
343
23B
344
23B
  0
ENDTAB
  0
ENDSEC
  0
SECTION
  2
BLOCKS
  0
BLOCK
  5
20
100
AcDbEntity
  8
0
100
AcDbBlockBegin
  2
*Model_Space
 70
0
 10
0.0
 20
0.0
 30
0.0
  3
*Model_Space
  1

  0
ENDBLK
  5
21
100
AcDbEntity
  8
0
100
AcDbBlockEnd
  0
BLOCK
  5
1C
100
AcDbEntity
  8
0
100
AcDbBlockBegin
  2
*Paper_Space
 70
0
 10
0.0
 20
0.0
 30
0.0
  3
*Paper_Space
  1

  0
ENDBLK
  5
1D
100
AcDbEntity
  8
0
100
AcDbBlockEnd
  0
BLOCK
  5
23F
100
AcDbEntity
  8
0
100
AcDbBlockBegin
  2
_FILLED
 70
64
 10
0.0
 20
0.0
  3
_FILLED
  1

  0
SOLID
  5
240
100
AcDbEntity
  8
0
  6
BYBLOCK
 62
0
100
AcDbTrace
 10
0.0
 20
0.0
 11
-1.0
 21
0.1666666667
 12
-1.0
 22
-0.1666666667
 13
-1.0
 23
-0.1666666667
  0
ENDBLK
  5
241
100
AcDbEntity
  8
0
  6
BYBLOCK
 62
0
100
AcDbBlockEnd
  0
BLOCK
  5
242
100
AcDbEntity
  8
0
100
AcDbBlockBegin
 62
6
  6
CONTINUOUS
  2
*D0
 70
65
 10
0.0
 20
0.0
  3
*D0
  1

  0
MTEXT
  5
243
100
AcDbEntity
  8
0
100
AcDbMText
 62
6
  6
CONTINUOUS
  7
STANDARD
 71
1
 72
1
 10
5.1565
 20
7.8650954917
 30
0.0
 11
1.0
 21
0.0
 31
0.0
 44
0.9
  1
1.19 in (30,1 mm)
 40
0.125
 41
1.7
  0
LINE
  5
244
100
AcDbEntity
  8
0
100
AcDbLine
 62
6
  6
CONTINUOUS
 10
4.9065
 20
7.4900954917
 11
4.9065
 21
7.9275954917
  0
LINE
  5
245
100
AcDbEntity
  8
0
100
AcDbLine
 62
6
  6
CONTINUOUS
 10
3.7194999638
 20
7.0625954917
 11
3.7194999638
 21
7.9275954917
  0
LINE
  5
246
100
AcDbEntity
  8
0
100
AcDbLine
 62
6
  6
CONTINUOUS
 10
4.9065
 20
7.8025954917
 11
4.3129999819
 21
7.8025954917
  0
LINE
  5
247
100
AcDbEntity
  8
0
100
AcDbLine
 62
6
  6
CONTINUOUS
 10
4.3129999819
 20
7.8025954917
 11
5.094
 21
7.8025954917
  0
LINE
  5
248
100
AcDbEntity
  8
0
100
AcDbLine
 62
6
  6
CONTINUOUS
 10
3.7194999638
 20
7.8025954917
 11
4.3129999819
 21
7.8025954917
  0
INSERT
  5
249
100
AcDbEntity
  8
0
100
AcDbBlockReference
 62
6
  6
CONTINUOUS
  2
_FILLED
 10
4.9065
 20
7.8025954917
 41
0.1875
 42
0.1875
 43
0.1875
  0
INSERT
  5
24A
100
AcDbEntity
  8
0
100
AcDbBlockReference
 62
6
  6
CONTINUOUS
  2
_FILLED
 10
3.7194999638
 20
7.8025954917
 41
0.1875
 42
0.1875
 43
0.1875
 50
180.0
  0
ENDBLK
  5
24B
100
AcDbEntity
  8
0
  6
BYBLOCK
 62
0
100
AcDbBlockEnd
  0
ENDSEC
  0
SECTION
  2
ENTITIES
  0
DIMENSION
  5
24C
100
AcDbEntity
  8
0
100
AcDbDimension
 62
6
  6
CONTINUOUS
  2
*D0
 10
3.7194999638
 20
7.8025954917
 11
6.0065
 21
7.8025954917
 70
160
 71
1
 42
1.1870000362
  1
<> in (30,1 mm)
  3
DIMSTYLE_1
100
AcDbAlignedDimension
 13
4.9065
 23
7.4275954917
 14
3.7194999638
 24
7.0000954917
 50
180.0
100
AcDbRotatedDimension
  0
MTEXT
  5
24D
100
AcDbEntity
  8
0
100
AcDbMText
 62
2
  6
CONTINUOUS
  7
STANDARD
 71
1
 72
1
 10
6.5415
 20
7.0625954917
 30
0.0
 11
1.0
 21
0.0
 31
0.0
 44
0.6
  1
Port 1\PInlet
 40
0.125
 41
0.6
  0
MTEXT
  5
24E
100
AcDbEntity
  8
0
100
AcDbMText
 62
2
  6
CONTINUOUS
  7
STANDARD
 71
1
 72
1
 10
5.6065
 20
6.4685954917
 30
0.0
 11
1.0
 21
0.0
 31
0.0
 44
0.6
  1
Port 2\POutlet
 40
0.125
 41
0.6
  0
MTEXT
  5
24F
100
AcDbEntity
  8
0
100
AcDbMText
 62
2
  6
CONTINUOUS
  7
STANDARD
 71
1
 72
1
 10
4.3865
 20
6.4685954917
 30
0.0
 11
1.0
 21
0.0
 31
0.0
 44
0.6
  1
Port 3\PPilot
 40
0.125
 41
0.6
  0
MTEXT
  5
250
100
AcDbEntity
  8
0
100
AcDbMText
 62
2
  6
CONTINUOUS
  7
STANDARD
 71
1
 72
1
 10
5.1565
 20
7.6151909834
 30
0.0
 11
1.0
 21
0.0
 31
0.0
 44
0.6
  1
 LOCATING SHOULDER
 40
0.125
 41
1.8
  0
LINE
  5
251
100
AcDbEntity
  8
0
100
AcDbLine
 62
7
  6
CONTINUOUS
 10
3.7195
 20
6.57
 11
3.7195
 21
7.43
  0
LINE
  5
252
100
AcDbEntity
  8
0
100
AcDbLine
 62
7
  6
CONTINUOUS
 10
3.724466776
 20
7.4386027084
 11
3.7195
 21
7.43
  0
LINE
  5
253
100
AcDbEntity
  8
0
100
AcDbLine
 62
7
  6
CONTINUOUS
 10
3.724466776
 20
6.5613972916
 11
3.7195
 21
6.57
  0
LINE
  5
254
100
AcDbEntity
  8
0
100
AcDbLine
 62
7
  6
CONTINUOUS
 10
3.7535636659
 20
6.562483966
 11
3.7535636659
 21
6.5920977523
  0
LINE
  5
255
100
AcDbEntity
  8
0
100
AcDbLine
 62
7
  6
CONTINUOUS
 10
3.7535636659
 20
6.9703862137
 11
3.7535636659
 21
7.0296137863
  0
LINE
  5
256
100
AcDbEntity
  8
0
100
AcDbLine
 62
7
  6
CONTINUOUS
 10
3.7535636659
 20
7.4079022477
 11
3.7535636659
 21
7.437516034
  0
LINE
  5
257
100
AcDbEntity
  8
0
100
AcDbLine
 62
7
  6
CONTINUOUS
 10
4.127
 20
7.437516034
 11
4.127
 21
7.4079022477
  0
LINE
  5
258
100
AcDbEntity
  8
0
100
AcDbLine
 62
7
  6
CONTINUOUS
 10
4.127
 20
6.562483966
 11
4.127
 21
6.5920977523
  0
LINE
  5
259
100
AcDbEntity
  8
0
100
AcDbLine
 62
7
  6
CONTINUOUS
 10
4.127
 20
6.9703862137
 11
4.127
 21
7.0296137863
  0
LINE
  5
25A
100
AcDbEntity
  8
0
100
AcDbLine
 62
7
  6
CONTINUOUS
 10
4.1875
 20
6.5715
 11
4.1875
 21
7.4285
  0
LINE
  5
25B
100
AcDbEntity
  8
0
100
AcDbLine
 62
7
  6
CONTINUOUS
 10
4.3125
 20
6.5715074896
 11
4.3125
 21
7.4284925104
  0
LINE
  5
25C
100
AcDbEntity
  8
0
100
AcDbLine
 62
7
  6
CONTINUOUS
 10
4.3625
 20
7.428
 11
4.3625
 21
6.572
  0
LINE
  5
25D
100
AcDbEntity
  8
0
100
AcDbLine
 62
7
  6
CONTINUOUS
 10
4.4325
 20
7.409
 11
4.4325
 21
6.591
  0
LINE
  5
25E
100
AcDbEntity
  8
0
100
AcDbLine
 62
7
  6
CONTINUOUS
 10
4.4405
 20
6.626
 11
4.4405
 21
7.374
  0
LINE
  5
25F
100
AcDbEntity
  8
0
100
AcDbLine
 62
7
  6
CONTINUOUS
 10
4.4535
 20
6.5715
 11
4.4535
 21
7.4285
  0
LINE
  5
260
100
AcDbEntity
  8
0
100
AcDbLine
 62
7
  6
CONTINUOUS
 10
4.5035
 20
6.5715
 11
4.5035
 21
7.4285
  0
LINE
  5
261
100
AcDbEntity
  8
126-300_HEX_FEATURES
100
AcDbLine
 62
7
  6
CONTINUOUS
 10
4.526409656
 20
6.657
 11
4.526409656
 21
7.343
  0
LINE
  5
262
100
AcDbEntity
  8
0
100
AcDbLine
 62
7
  6
CONTINUOUS
 10
4.526409656
 20
6.657
 11
4.5035
 21
6.5715
  0
LINE
  5
263
100
AcDbEntity
  8
0
100
AcDbLine
 62
7
  6
CONTINUOUS
 10
3.7238459498
 20
6.562483966
 11
4.1784839658
 21
6.562483966
  0
LINE
  5
264
100
AcDbEntity
  8
0
100
AcDbLine
 62
7
  6
CONTINUOUS
 10
4.5035
 20
6.5715
 11
4.4535
 21
6.5715
  0
LINE
  5
265
100
AcDbEntity
  8
0
100
AcDbLine
 62
7
  6
CONTINUOUS
 10
4.3125
 20
6.5715
 11
4.1875
 21
6.5715
  0
LINE
  5
266
100
AcDbEntity
  8
0
100
AcDbLine
 62
7
  6
CONTINUOUS
 10
4.3125
 20
6.572
 11
4.3625
 21
6.572
  0
LINE
  5
267
100
AcDbEntity
  8
0
100
AcDbLine
 62
7
  6
CONTINUOUS
 10
4.9035
 20
6.5725
 11
4.8515
 21
6.5725
  0
LINE
  5
268
100
AcDbEntity
  8
0
100
AcDbLine
 62
7
  6
CONTINUOUS
 10
4.127
 20
6.5920977523
 11
3.7535636659
 21
6.5920977523
  0
LINE
  5
269
100
AcDbEntity
  8
THREAD
100
AcDbLine
 62
7
  6
CONTINUOUS
 10
4.9535
 20
6.595
 11
4.9312224319
 21
6.595
  0
LINE
  5
26A
100
AcDbEntity
  8
0
100
AcDbLine
 62
7
  6
CONTINUOUS
 10
5.0235
 20
6.5955
 11
5.0735
 21
6.5955
  0
LINE
  5
26B
100
AcDbEntity
  8
THREAD
100
AcDbLine
 62
7
  6
CONTINUOUS
 10
5.362
 20
6.6125
 11
5.11486196
 21
6.6125
  0
LINE
  5
26C
100
AcDbEntity
  8
0
100
AcDbLine
 62
7
  6
CONTINUOUS
 10
4.4405
 20
6.626
 11
4.4325
 21
6.626
  0
LINE
  5
26D
100
AcDbEntity
  8
THREAD
100
AcDbLine
 62
7
  6
CONTINUOUS
 10
5.0859944465
 20
6.6495
 11
5.0735
 21
6.6495
  0
LINE
  5
26E
100
AcDbEntity
  8
0
100
AcDbLine
 62
7
  6
CONTINUOUS
 10
4.526409656
 20
7.343
 11
4.5035
 21
7.4285
  0
LINE
  5
26F
100
AcDbEntity
  8
0
100
AcDbLine
 62
7
  6
CONTINUOUS
 10
4.1875
 20
6.5715
 11
4.1784821994
 21
6.5624821994
  0
LINE
  5
270
100
AcDbEntity
  8
THREAD
100
AcDbLine
 62
7
  6
CONTINUOUS
 10
5.5845
 20
6.657
 11
5.4065
 21
6.657
  0
LINE
  5
271
100
AcDbEntity
  8
0
100
AcDbLine
 62
7
  6
CONTINUOUS
 10
4.8288582932
 20
6.657
 11
4.526409656
 21
6.657
  0
LINE
  5
272
100
AcDbEntity
  8
0
100
AcDbLine
 62
7
  6
CONTINUOUS
 10
6.0125
 20
6.6575
 11
6.0725
 21
6.6575
  0
LINE
  5
273
100
AcDbEntity
  8
0
100
AcDbLine
 62
7
  6
CONTINUOUS
 10
6.2135
 20
6.6575
 11
6.2675
 21
6.6575
  0
LINE
  5
274
100
AcDbEntity
  8
0
100
AcDbLine
 62
7
  6
CONTINUOUS
 10
6.0725
 20
6.658
 11
6.1225
 21
6.658
  0
LINE
  5
275
100
AcDbEntity
  8
0
100
AcDbLine
 62
7
  6
CONTINUOUS
 10
6.2135
 20
6.712
 11
6.1925
 21
6.712
  0
LINE
  5
276
100
AcDbEntity
  8
0
100
AcDbLine
 62
7
  6
CONTINUOUS
 10
5.9995
 20
6.7195
 11
5.983
 21
6.7195
  0
LINE
  5
277
100
AcDbEntity
  8
0
100
AcDbLine
 62
7
  6
CONTINUOUS
 10
5.874
 20
6.7195
 11
5.5945
 21
6.7195
  0
LINE
  5
278
100
AcDbEntity
  8
0
100
AcDbLine
 62
7
  6
CONTINUOUS
 10
4.1875
 20
7.4285
 11
4.1784821994
 21
7.4375178006
  0
LINE
  5
279
100
AcDbEntity
  8
0
100
AcDbLine
 62
7
  6
CONTINUOUS
 10
4.8288582932
 20
6.657
 11
4.8288582932
 21
7.343
  0
LINE
  5
27A
100
AcDbEntity
  8
0
100
AcDbLine
 62
7
  6
CONTINUOUS
 10
4.8515
 20
7.4275
 11
4.8288582932
 21
7.343
  0
LINE
  5
27B
100
AcDbEntity
  8
0
100
AcDbLine
 62
7
  6
CONTINUOUS
 10
4.8515
 20
6.5725
 11
4.8288582932
 21
6.657
  0
LINE
  5
27C
100
AcDbEntity
  8
0
100
AcDbLine
 62
7
  6
CONTINUOUS
 10
4.8515
 20
6.5725
 11
4.8515
 21
7.4275
  0
LINE
  5
27D
100
AcDbEntity
  8
0
100
AcDbLine
 62
7
  6
CONTINUOUS
 10
4.9035
 20
7.4275
 11
4.9035
 21
6.5725
  0
LINE
  5
27E
100
AcDbEntity
  8
0
100
AcDbLine
 62
7
  6
CONTINUOUS
 10
4.9065
 20
7.4244999977
 11
4.9065
 21
6.5755000023
  0
LINE
  5
27F
100
AcDbEntity
  8
0
100
AcDbLine
 62
7
  6
CONTINUOUS
 10
4.909
 20
6.5829433757
 11
4.909
 21
7.4170566243
  0
LINE
  5
280
100
AcDbEntity
  8
THREAD
100
AcDbLine
 62
7
  6
CONTINUOUS
 10
5.11486196
 20
7.3875
 11
5.0972527725
 21
7.3569999927
  0
LINE
  5
281
100
AcDbEntity
  8
THREAD
100
AcDbLine
 62
7
  6
CONTINUOUS
 10
5.11486196
 20
6.6125
 11
5.0972527725
 21
6.6430000073
  0
LINE
  5
282
100
AcDbEntity
  8
0
100
AcDbLine
 62
7
  6
CONTINUOUS
 10
4.9287224319
 20
6.594330127
 11
4.9287224319
 21
7.405669873
  0
LINE
  5
283
100
AcDbEntity
  8
0
100
AcDbLine
 62
7
  6
CONTINUOUS
 10
4.9312224319
 20
6.595
 11
4.9312224319
 21
7.405
  0
LINE
  5
284
100
AcDbEntity
  8
0
100
AcDbLine
 62
7
  6
CONTINUOUS
 10
4.9535
 20
7.409
 11
4.9535
 21
6.591
  0
LINE
  5
285
100
AcDbEntity
  8
0
100
AcDbLine
 62
7
  6
CONTINUOUS
 10
4.127
 20
6.9703862137
 11
3.7535636659
 21
6.9703862137
  0
LINE
  5
286
100
AcDbEntity
  8
0
100
AcDbLine
 62
7
  6
CONTINUOUS
 10
5.0235
 20
7.409
 11
5.0235
 21
6.591
  0
LINE
  5
287
100
AcDbEntity
  8
0
100
AcDbLine
 62
7
  6
CONTINUOUS
 10
5.0735
 20
7.4045
 11
5.0735
 21
6.5955
  0
LINE
  5
288
100
AcDbEntity
  8
0
100
AcDbLine
 62
7
  6
CONTINUOUS
 10
5.0859944465
 20
6.6495
 11
5.0859944465
 21
7.3505
  0
LINE
  5
289
100
AcDbEntity
  8
0
100
AcDbLine
 62
7
  6
CONTINUOUS
 10
5.0972527725
 20
6.6430000073
 11
5.0972527725
 21
7.3569999927
  0
LINE
  5
28A
100
AcDbEntity
  8
0
100
AcDbLine
 62
7
  6
CONTINUOUS
 10
4.127
 20
7.0296137863
 11
3.7535636659
 21
7.0296137863
  0
LINE
  5
28B
100
AcDbEntity
  8
THREAD
100
AcDbLine
 62
7
  6
CONTINUOUS
 10
5.11486196
 20
6.6125
 11
5.11486196
 21
7.3875
  0
LINE
  5
28C
100
AcDbEntity
  8
0
100
AcDbLine
 62
7
  6
CONTINUOUS
 10
5.9995
 20
7.2805
 11
5.983
 21
7.2805
  0
LINE
  5
28D
100
AcDbEntity
  8
0
100
AcDbLine
 62
7
  6
CONTINUOUS
 10
5.874
 20
7.2805
 11
5.5945
 21
7.2805
  0
LINE
  5
28E
100
AcDbEntity
  8
THREAD
100
AcDbLine
 62
7
  6
CONTINUOUS
 10
5.362
 20
6.6125
 11
5.362
 21
7.3875
  0
LINE
  5
28F
100
AcDbEntity
  8
THREAD
100
AcDbLine
 62
7
  6
CONTINUOUS
 10
4.9287224319
 20
6.594330127
 11
4.909
 21
6.5829433757
  0
LINE
  5
290
100
AcDbEntity
  8
0
100
AcDbLine
 62
7
  6
CONTINUOUS
 10
6.2135
 20
7.288
 11
6.1925
 21
7.288
  0
LINE
  5
291
100
AcDbEntity
  8
0
100
AcDbLine
 62
7
  6
CONTINUOUS
 10
6.0725
 20
7.342
 11
6.1225
 21
7.342
  0
LINE
  5
292
100
AcDbEntity
  8
0
100
AcDbLine
 62
7
  6
CONTINUOUS
 10
6.0125
 20
7.3425
 11
6.0725
 21
7.3425
  0
LINE
  5
293
100
AcDbEntity
  8
0
100
AcDbLine
 62
7
  6
CONTINUOUS
 10
6.2135
 20
7.3425
 11
6.2675
 21
7.3425
  0
LINE
  5
294
100
AcDbEntity
  8
THREAD
100
AcDbLine
 62
7
  6
CONTINUOUS
 10
5.5845
 20
7.343
 11
5.4065
 21
7.343
  0
LINE
  5
295
100
AcDbEntity
  8
0
100
AcDbLine
 62
7
  6
CONTINUOUS
 10
4.8288582932
 20
7.343
 11
4.526409656
 21
7.343
  0
LINE
  5
296
100
AcDbEntity
  8
THREAD
100
AcDbLine
 62
7
  6
CONTINUOUS
 10
5.0859944465
 20
7.3505
 11
5.0735
 21
7.3505
  0
LINE
  5
297
100
AcDbEntity
  8
THREAD
100
AcDbLine
 62
7
  6
CONTINUOUS
 10
4.9287224319
 20
7.405669873
 11
4.909
 21
7.4170566243
  0
LINE
  5
298
100
AcDbEntity
  8
THREAD
100
AcDbLine
 62
7
  6
CONTINUOUS
 10
5.4065
 20
6.657
 11
5.4065
 21
7.343
  0
LINE
  5
299
100
AcDbEntity
  8
0
100
AcDbLine
 62
7
  6
CONTINUOUS
 10
4.4405
 20
7.374
 11
4.4325
 21
7.374
  0
LINE
  5
29A
100
AcDbEntity
  8
THREAD
100
AcDbLine
 62
7
  6
CONTINUOUS
 10
5.362
 20
7.3875
 11
5.11486196
 21
7.3875
  0
LINE
  5
29B
100
AcDbEntity
  8
0
100
AcDbLine
 62
7
  6
CONTINUOUS
 10
5.0235
 20
7.4045
 11
5.0735
 21
7.4045
  0
LINE
  5
29C
100
AcDbEntity
  8
THREAD
100
AcDbLine
 62
7
  6
CONTINUOUS
 10
4.9535
 20
7.405
 11
4.9312224319
 21
7.405
  0
LINE
  5
29D
100
AcDbEntity
  8
0
100
AcDbLine
 62
7
  6
CONTINUOUS
 10
4.127
 20
7.4079022477
 11
3.7535636659
 21
7.4079022477
  0
LINE
  5
29E
100
AcDbEntity
  8
0
100
AcDbLine
 62
7
  6
CONTINUOUS
 10
4.9035
 20
7.4275
 11
4.8515
 21
7.4275
  0
LINE
  5
29F
100
AcDbEntity
  8
0
100
AcDbLine
 62
7
  6
CONTINUOUS
 10
4.3125
 20
7.428
 11
4.3625
 21
7.428
  0
LINE
  5
2A0
100
AcDbEntity
  8
0
100
AcDbLine
 62
7
  6
CONTINUOUS
 10
4.5035
 20
7.4285
 11
4.4535
 21
7.4285
  0
LINE
  5
2A1
100
AcDbEntity
  8
0
100
AcDbLine
 62
7
  6
CONTINUOUS
 10
4.3125
 20
7.4285
 11
4.1875
 21
7.4285
  0
LINE
  5
2A2
100
AcDbEntity
  8
0
100
AcDbLine
 62
7
  6
CONTINUOUS
 10
3.7238459498
 20
7.437516034
 11
4.1784839658
 21
7.437516034
  0
LINE
  5
2A3
100
AcDbEntity
  8
0
100
AcDbLine
 62
7
  6
CONTINUOUS
 10
5.9995
 20
7.3295
 11
6.0125
 21
7.3425
  0
LINE
  5
2A4
100
AcDbEntity
  8
THREAD
100
AcDbLine
 62
7
  6
CONTINUOUS
 10
5.4065
 20
6.657
 11
5.362
 21
6.6125
  0
LINE
  5
2A5
100
AcDbEntity
  8
0
100
AcDbLine
 62
7
  6
CONTINUOUS
 10
5.9995
 20
6.6705
 11
6.0125
 21
6.6575
  0
LINE
  5
2A6
100
AcDbEntity
  8
THREAD
100
AcDbLine
 62
7
  6
CONTINUOUS
 10
5.4065
 20
7.343
 11
5.362
 21
7.3875
  0
LINE
  5
2A7
100
AcDbEntity
  8
0
100
AcDbLine
 62
7
  6
CONTINUOUS
 10
5.5845
 20
6.657
 11
5.5845
 21
7.343
  0
LINE
  5
2A8
100
AcDbEntity
  8
0
100
AcDbLine
 62
7
  6
CONTINUOUS
 10
5.5945
 20
6.6670090766
 11
5.5945
 21
7.3329909234
  0
LINE
  5
2A9
100
AcDbEntity
  8
0
100
AcDbLine
 62
7
  6
CONTINUOUS
 10
5.5945
 20
6.667
 11
5.5845
 21
6.657
  0
LINE
  5
2AA
100
AcDbEntity
  8
0
100
AcDbLine
 62
7
  6
CONTINUOUS
 10
5.5945
 20
7.333
 11
5.5845
 21
7.343
  0
LINE
  5
2AB
100
AcDbEntity
  8
0
100
AcDbLine
 62
7
  6
CONTINUOUS
 10
5.915919873
 20
6.8236685204
 11
5.915919873
 21
6.8425954589
  0
LINE
  5
2AC
100
AcDbEntity
  8
0
100
AcDbLine
 62
7
  6
CONTINUOUS
 10
5.915919873
 20
6.9472660855
 11
5.915919873
 21
7.0527345215
  0
LINE
  5
2AD
100
AcDbEntity
  8
0
100
AcDbLine
 62
7
  6
CONTINUOUS
 10
5.915919873
 20
7.1573788639
 11
5.915919873
 21
7.1763320035
  0
LINE
  5
2AE
100
AcDbEntity
  8
0
100
AcDbLine
 62
7
  6
CONTINUOUS
 10
5.921169873
 20
6.8231939925
 11
5.921169873
 21
6.8433569094
  0
LINE
  5
2AF
100
AcDbEntity
  8
0
100
AcDbLine
 62
7
  6
CONTINUOUS
 10
5.921169873
 20
6.9461455855
 11
5.921169873
 21
7.0538531092
  0
LINE
  5
2B0
100
AcDbEntity
  8
0
100
AcDbLine
 62
7
  6
CONTINUOUS
 10
5.921169873
 20
7.1566730251
 11
5.921169873
 21
7.1768057919
  0
LINE
  5
2B1
100
AcDbEntity
  8
0
100
AcDbLine
 62
7
  6
CONTINUOUS
 10
5.96835961
 20
7.0367383415
 11
5.96835961
 21
6.9632621142
  0
LINE
  5
2B2
100
AcDbEntity
  8
0
100
AcDbLine
 62
7
  6
CONTINUOUS
 10
5.9995
 20
7.3295
 11
5.9995
 21
6.6705
  0
LINE
  5
2B3
100
AcDbEntity
  8
0
100
AcDbLine
 62
7
  6
CONTINUOUS
 10
6.0125
 20
7.3425
 11
6.0125
 21
6.6575
  0
LINE
  5
2B4
100
AcDbEntity
  8
0
100
AcDbLine
 62
7
  6
CONTINUOUS
 10
6.0725
 20
7.3425
 11
6.0725
 21
6.6575
  0
LINE
  5
2B5
100
AcDbEntity
  8
0
100
AcDbLine
 62
7
  6
CONTINUOUS
 10
6.1225
 20
7.342
 11
6.1225
 21
6.658
  0
LINE
  5
2B6
100
AcDbEntity
  8
0
100
AcDbLine
 62
7
  6
CONTINUOUS
 10
6.2675
 20
6.6575
 11
6.2805
 21
6.6705
  0
LINE
  5
2B7
100
AcDbEntity
  8
0
100
AcDbLine
 62
7
  6
CONTINUOUS
 10
6.2675
 20
7.3425
 11
6.2805
 21
7.3295
  0
LINE
  5
2B8
100
AcDbEntity
  8
0
100
AcDbLine
 62
7
  6
CONTINUOUS
 10
6.1925
 20
7.323
 11
6.1925
 21
6.677
  0
LINE
  5
2B9
100
AcDbEntity
  8
0
100
AcDbLine
 62
7
  6
CONTINUOUS
 10
6.2135
 20
7.3425
 11
6.2135
 21
6.6575
  0
LINE
  5
2BA
100
AcDbEntity
  8
0
100
AcDbLine
 62
7
  6
CONTINUOUS
 10
6.2675
 20
7.3425
 11
6.2675
 21
6.6575
  0
LINE
  5
2BB
100
AcDbEntity
  8
0
100
AcDbLine
 62
7
  6
CONTINUOUS
 10
6.2805
 20
7.3295
 11
6.2805
 21
6.6705
  0
CIRCLE
  5
2BC
100
AcDbEntity
  8
0
100
AcDbCircle
 62
7
  6
CONTINUOUS
 10
5.9285
 20
7.0
 40
0.0545
  0
ARC
  5
2BD
100
AcDbEntity
  8
0
100
AcDbCircle
 62
7
  6
CONTINUOUS
 10
5.6235
 20
7.0
 40
0.031
100
AcDbArc
 50
199.5346552887
 51
160.4649113522
  0
ARC
  5
2BE
100
AcDbEntity
  8
0
100
AcDbCircle
 62
7
  6
CONTINUOUS
 10
5.666169873
 20
7.0
 40
0.0235
100
AcDbArc
 50
135.1673851635
 51
224.8339716003
  0
ARC
  5
2BF
100
AcDbEntity
  8
0
100
AcDbCircle
 62
7
  6
CONTINUOUS
 10
4.4405
 20
6.613
 40
0.013
100
AcDbArc
 50
0.0000148105
 51
90.0
  0
ARC
  5
2C0
100
AcDbEntity
  8
0
100
AcDbCircle
 62
7
  6
CONTINUOUS
 10
5.0859944465
 20
6.6365
 40
0.013
100
AcDbArc
 50
30.0000373581
 51
90.0
  0
ARC
  5
2C1
100
AcDbEntity
  8
0
100
AcDbCircle
 62
7
  6
CONTINUOUS
 10
4.4405
 20
7.387
 40
0.013
100
AcDbArc
 50
270.0
 51
359.9999851895
  0
ARC
  5
2C2
100
AcDbEntity
  8
0
100
AcDbCircle
 62
7
  6
CONTINUOUS
 10
5.0859944465
 20
7.3635
 40
0.013
100
AcDbArc
 50
270.0
 51
329.9999626419
  0
ARC
  5
2C3
100
AcDbEntity
  8
0
100
AcDbCircle
 62
7
  6
CONTINUOUS
 10
4.9115
 20
7.4213867513
 40
0.005
100
AcDbArc
 50
180.0000012478
 51
240.0000006308
  0
ARC
  5
2C4
100
AcDbEntity
  8
0
100
AcDbCircle
 62
7
  6
CONTINUOUS
 10
4.9312224319
 20
7.41
 40
0.005
100
AcDbArc
 50
240.0000000314
 51
270.0
  0
ARC
  5
2C5
100
AcDbEntity
  8
0
100
AcDbCircle
 62
7
  6
CONTINUOUS
 10
4.9312224319
 20
6.59
 40
0.005
100
AcDbArc
 50
90.0
 51
119.9999999686
  0
ARC
  5
2C6
100
AcDbEntity
  8
0
100
AcDbCircle
 62
7
  6
CONTINUOUS
 10
4.9115
 20
6.5786132487
 40
0.005
100
AcDbArc
 50
119.9999993692
 51
179.9999987522
  0
ARC
  5
2C7
100
AcDbEntity
  8
0
100
AcDbCircle
 62
7
  6
CONTINUOUS
 10
4.9035
 20
7.4245
 40
0.003
100
AcDbArc
 50
359.9999558847
 51
90.0
  0
ARC
  5
2C8
100
AcDbEntity
  8
0
100
AcDbCircle
 62
7
  6
CONTINUOUS
 10
4.9035
 20
6.5755
 40
0.003
100
AcDbArc
 50
270.0
 51
0.0000441153
  0
SPLINE
  5
2C9
100
AcDbEntity
  8
0
100
AcDbSpline
 62
7
  6
CONTINUOUS
 70
0
 71
3
 72
15
 73
11
 74
0
 42
0.0000001
 43
0.0000001
 44
0.0000000001
 40
0.0
 40
0.0
 40
0.0
 40
0.0
 40
0.1114223792
 40
0.2275495837
 40
0.3482079349
 40
0.472992072
 40
0.6013530656
 40
0.7325922723
 40
0.8658641802
 40
1.0
 40
1.0
 40
1.0
 40
1.0
 10
5.9664710051
 20
7.1688604231
 30
0.0
 10
5.9651947793
 20
7.1695652807
 30
0.0
 10
5.962520488
 20
7.1708841691
 30
0.0
 10
5.9582809787
 20
7.1725643799
 30
0.0
 10
5.9537647469
 20
7.1739864314
 30
0.0
 10
5.9490109903
 20
7.1751505585
 30
0.0
 10
5.9440608484
 20
7.1760561021
 30
0.0
 10
5.9389586109
 20
7.1767029937
 30
0.0
 10
5.9337547203
 20
7.1770907731
 30
0.0
 10
5.9302551358
 20
7.1771771407
 30
0.0
 10
5.9285
 20
7.1771771407
 30
0.0
  0
SPLINE
  5
2CA
100
AcDbEntity
  8
0
100
AcDbSpline
 62
7
  6
CONTINUOUS
 70
0
 71
3
 72
21
 73
17
 74
0
 42
0.0000001
 43
0.0000001
 44
0.0000000001
 40
0.0
 40
0.0
 40
0.0
 40
0.0
 40
0.0505604918
 40
0.102484377
 40
0.1560840851
 40
0.211546908
 40
0.3281974661
 40
0.3894831981
 40
0.452555489
 40
0.5172681403
 40
0.5834474668
 40
0.6509074143
 40
0.7194379008
 40
0.8587809574
 40
0.9293180922
 40
1.0
 40
1.0
 40
1.0
 40
1.0
 10
5.9829999852
 20
7.1983472432
 30
0.0
 10
5.9830000918
 20
7.1970699937
 30
0.0
 10
5.9828172058
 20
7.1944779497
 30
0.0
 10
5.9820188375
 20
7.1906061414
 30
0.0
 10
5.9807020224
 20
7.1867473695
 30
0.0
 10
5.9782392497
 20
7.1815933304
 30
0.0
 10
5.9748205582
 20
7.1767277355
 30
0.0
 10
5.970640769
 20
7.1722932634
 30
0.0
 10
5.9670515018
 20
7.1691309318
 30
0.0
 10
5.9630943928
 20
7.1662307954
 30
0.0
 10
5.9588056441
 20
7.1636277279
 30
0.0
 10
5.9542230755
 20
7.1613584156
 30
0.0
 10
5.9477470911
 20
7.1588039023
 30
0.0
 10
5.9408931337
 20
7.157058181
 30
0.0
 10
5.9338550895
 20
7.1561760551
 30
0.0
 10
5.930285553
 20
7.1560262947
 30
0.0
 10
5.9285
 20
7.1560262947
 30
0.0
  0
SPLINE
  5
2CB
100
AcDbEntity
  8
0
100
AcDbSpline
 62
7
  6
CONTINUOUS
 70
0
 71
3
 72
15
 73
11
 74
0
 42
0.0000001
 43
0.0000001
 44
0.0000000001
 40
0.0
 40
0.0
 40
0.0
 40
0.0
 40
0.0386033764
 40
0.1475718485
 40
0.3094299051
 40
0.5000122161
 40
0.6905933492
 40
0.8524407099
 40
0.9614001884
 40
1.0
 40
1.0
 40
1.0
 40
1.0
 10
5.983
 20
7.2805
 30
0.0
 10
5.9816146547
 20
7.280230805
 30
0.0
 10
5.9763115851
 20
7.2792381731
 30
0.0
 10
5.9651378569
 20
7.277453976
 30
0.0
 10
5.9483555851
 20
7.2756459363
 30
0.0
 10
5.9284987013
 20
7.2748891014
 30
0.0
 10
5.9086422118
 20
7.2756460609
 30
0.0
 10
5.8918607173
 20
7.277454183
 30
0.0
 10
5.8806878379
 20
7.2792382945
 30
0.0
 10
5.8753852182
 20
7.2802308343
 30
0.0
 10
5.874
 20
7.2805
 30
0.0
  0
SPLINE
  5
2CC
100
AcDbEntity
  8
0
100
AcDbSpline
 62
7
  6
CONTINUOUS
 70
0
 71
3
 72
15
 73
11
 74
0
 42
0.0000001
 43
0.0000001
 44
0.0000000001
 40
0.0
 40
0.0
 40
0.0
 40
0.0
 40
0.1340691593
 40
0.2672830861
 40
0.3984800073
 40
0.5268197873
 40
0.6516093706
 40
0.7723017783
 40
0.8884911291
 40
1.0
 40
1.0
 40
1.0
 40
1.0
 10
5.9285
 20
6.8228228593
 30
0.0
 10
5.9302480734
 20
6.8228228593
 30
0.0
 10
5.9337336788
 20
6.82290854
 30
0.0
 10
5.9389171343
 20
6.8232932208
 30
0.0
 10
5.9440001154
 20
6.8239349285
 30
0.0
 10
5.948932733
 20
6.8248332195
 30
0.0
 10
5.9536712033
 20
6.825988007
 30
0.0
 10
5.9581748461
 20
6.8273986504
 30
0.0
 10
5.9624048847
 20
6.8290653769
 30
0.0
 10
5.9650747982
 20
6.8303735703
 30
0.0
 10
5.9663495706
 20
6.8310727381
 30
0.0
  0
SPLINE
  5
2CD
100
AcDbEntity
  8
0
100
AcDbSpline
 62
7
  6
CONTINUOUS
 70
0
 71
3
 72
15
 73
11
 74
0
 42
0.0000001
 43
0.0000001
 44
0.0000000001
 40
0.0
 40
0.0
 40
0.0
 40
0.0
 40
0.134072102
 40
0.2672886624
 40
0.3984876421
 40
0.5268285614
 40
0.651617992
 40
0.7723088508
 40
0.8884952935
 40
1.0
 40
1.0
 40
1.0
 40
1.0
 10
5.9285
 20
7.1771771407
 30
0.0
 10
5.9267516078
 20
7.1771771407
 30
0.0
 10
5.9232653704
 20
7.1770914291
 30
0.0
 10
5.9180809886
 20
7.1767066082
 30
0.0
 10
5.9129971311
 20
7.1760646656
 30
0.0
 10
5.9080637142
 20
7.175166046
 30
0.0
 10
5.9033245479
 20
7.1740108347
 30
0.0
 10
5.8988203345
 20
7.1725996745
 30
0.0
 10
5.8945898696
 20
7.1709323407
 30
0.0
 10
5.8919197609
 20
7.169623665
 30
0.0
 10
5.8906449245
 20
7.1689242418
 30
0.0
  0
SPLINE
  5
2CE
100
AcDbEntity
  8
0
100
AcDbSpline
 62
7
  6
CONTINUOUS
 70
0
 71
3
 72
20
 73
16
 74
0
 42
0.0000001
 43
0.0000001
 44
0.0000000001
 40
0.0
 40
0.0
 40
0.0
 40
0.0
 40
0.0706837192
 40
0.14123402
 40
0.2806015948
 40
0.3491381425
 40
0.4166065618
 40
0.5473904687
 40
0.6104703851
 40
0.6717635771
 40
0.788427324
 40
0.8438981102
 40
0.8975025938
 40
0.9494368053
 40
1.0
 40
1.0
 40
1.0
 40
1.0
 10
5.9285
 20
6.8439737053
 30
0.0
 10
5.930285393
 20
6.8439737053
 30
0.0
 10
5.9338548802
 20
6.8438237685
 30
0.0
 10
5.9408931646
 20
6.842941803
 30
0.0
 10
5.947747168
 20
6.8411961061
 30
0.0
 10
5.9542238917
 20
6.8386412264
 30
0.0
 10
5.9602681334
 20
6.8356477611
 30
0.0
 10
5.9657990302
 20
6.8319723322
 30
0.0
 10
5.9706411202
 20
6.8277065669
 30
0.0
 10
5.9748209415
 20
6.8232714856
 30
0.0
 10
5.9782391575
 20
6.8184058593
 30
0.0
 10
5.9807027279
 20
6.8132520992
 30
0.0
 10
5.9820184087
 20
6.8093928669
 30
0.0
 10
5.9828179908
 20
6.8055213019
 30
0.0
 10
5.9829998977
 20
6.802929118
 30
0.0
 10
5.9829996954
 20
6.8016519473
 30
0.0
  0
SPLINE
  5
2CF
100
AcDbEntity
  8
0
100
AcDbSpline
 62
7
  6
CONTINUOUS
 70
0
 71
3
 72
20
 73
16
 74
0
 42
0.0000001
 43
0.0000001
 44
0.0000000001
 40
0.0
 40
0.0
 40
0.0
 40
0.0
 40
0.0706841031
 40
0.1412341075
 40
0.2806010926
 40
0.3491377526
 40
0.4166061773
 40
0.5473900351
 40
0.6104699786
 40
0.6717632651
 40
0.7884271271
 40
0.8438978088
 40
0.897502567
 40
0.9494365279
 40
1.0
 40
1.0
 40
1.0
 40
1.0
 10
5.9285
 20
7.1560262947
 30
0.0
 10
5.9267146056
 20
7.1560262947
 30
0.0
 10
5.9231451324
 20
7.1561762192
 30
0.0
 10
5.9161068941
 20
7.1570581857
 30
0.0
 10
5.9092529392
 20
7.1588038567
 30
0.0
 10
5.9027762556
 20
7.1613587156
 30
0.0
 10
5.8967320216
 20
7.1643521278
 30
0.0
 10
5.8912011378
 20
7.1680275245
 30
0.0
 10
5.8863590692
 20
7.1722932698
 30
0.0
 10
5.8821792188
 20
7.1767282895
 30
0.0
 10
5.8787609675
 20
7.1815938698
 30
0.0
 10
5.8762974246
 20
7.186747617
 30
0.0
 10
5.8749816494
 20
7.1906067952
 30
0.0
 10
5.8741820808
 20
7.1944783542
 30
0.0
 10
5.8740001299
 20
7.1970705195
 30
0.0
 10
5.8740002969
 20
7.1983476913
 30
0.0
  0
SPLINE
  5
2D0
100
AcDbEntity
  8
0
100
AcDbSpline
 62
7
  6
CONTINUOUS
 70
0
 71
3
 72
15
 73
11
 74
0
 42
0.0000001
 43
0.0000001
 44
0.0000000001
 40
0.0
 40
0.0
 40
0.0
 40
0.0
 40
0.0386031363
 40
0.1475710175
 40
0.3094283145
 40
0.5000099394
 40
0.6905906281
 40
0.8524392665
 40
0.9613997947
 40
1.0
 40
1.0
 40
1.0
 40
1.0
 10
5.874
 20
6.7195
 30
0.0
 10
5.8753853367
 20
6.719769193
 30
0.0
 10
5.8806883766
 20
6.7207618188
 30
0.0
 10
5.8918620467
 20
6.7225460103
 30
0.0
 10
5.9086442432
 20
6.7243540523
 30
0.0
 10
5.9285010575
 20
6.7251108988
 30
0.0
 10
5.9483575525
 20
6.7243539504
 30
0.0
 10
5.9651391177
 20
6.7225458415
 30
0.0
 10
5.9763120964
 20
6.7207617192
 30
0.0
 10
5.9816147678
 20
6.7197691688
 30
0.0
 10
5.983
 20
6.7195
 30
0.0
  0
SPLINE
  5
2D1
100
AcDbEntity
  8
0
100
AcDbSpline
 62
7
  6
CONTINUOUS
 70
0
 71
3
 72
15
 73
11
 74
0
 42
0.0000001
 43
0.0000001
 44
0.0000000001
 40
0.0
 40
0.0
 40
0.0
 40
0.0
 40
0.1114291044
 40
0.2275610838
 40
0.3482220036
 40
0.4730064606
 40
0.6013656956
 40
0.7326016007
 40
0.8658691461
 40
1.0
 40
1.0
 40
1.0
 40
1.0
 10
5.8905381161
 20
6.8311345402
 30
0.0
 10
5.8918142366
 20
6.8304301099
 30
0.0
 10
5.8944882053
 20
6.8291120265
 30
0.0
 10
5.898727009
 20
6.8274328301
 30
0.0
 10
5.9032422966
 20
6.8260116394
 30
0.0
 10
5.9079949019
 20
6.8248482177
 30
0.0
 10
5.9129437219
 20
6.8239432215
 30
0.0
 10
5.9180445079
 20
6.8232967212
 30
0.0
 10
5.9232468609
 20
6.8229091753
 30
0.0
 10
5.9267453947
 20
6.8228228593
 30
0.0
 10
5.9285
 20
6.8228228593
 30
0.0
  0
SPLINE
  5
2D2
100
AcDbEntity
  8
0
100
AcDbSpline
 62
7
  6
CONTINUOUS
 70
0
 71
3
 72
21
 73
17
 74
0
 42
0.0000001
 43
0.0000001
 44
0.0000000001
 40
0.0
 40
0.0
 40
0.0
 40
0.0
 40
0.0505601866
 40
0.1024837969
 40
0.1560833167
 40
0.2115458672
 40
0.3281959508
 40
0.3894816032
 40
0.4525538227
 40
0.517266479
 40
0.583445914
 40
0.6509060434
 40
0.7194365851
 40
0.8587805153
 40
0.9293182044
 40
1.0
 40
1.0
 40
1.0
 40
1.0
 10
5.8740000278
 20
6.8016514121
 30
0.0
 10
5.8739998788
 20
6.8029286765
 30
0.0
 10
5.8741825829
 20
6.8055207638
 30
0.0
 10
5.87498085
 20
6.8093926488
 30
0.0
 10
5.8762975161
 20
6.8132515259
 30
0.0
 10
5.8787601742
 20
6.8184057086
 30
0.0
 10
5.8821787917
 20
6.8232714596
 30
0.0
 10
5.8863585524
 20
6.8277060858
 30
0.0
 10
5.8899478286
 20
6.8308685293
 30
0.0
 10
5.8939049616
 20
6.8337687821
 30
0.0
 10
5.898193766
 20
6.8363719436
 30
0.0
 10
5.9027763979
 20
6.8386413506
 30
0.0
 10
5.9092524988
 20
6.8411959808
 30
0.0
 10
5.9161066079
 20
6.842941777
 30
0.0
 10
5.9231448081
 20
6.8438239281
 30
0.0
 10
5.9267144184
 20
6.8439737053
 30
0.0
 10
5.9285
 20
6.8439737053
 30
0.0
  0
SPLINE
  5
2D3
100
AcDbEntity
  8
0
100
AcDbSpline
 62
7
  6
CONTINUOUS
 70
0
 71
3
 72
23
 73
19
 74
0
 42
0.0000001
 43
0.0000001
 44
0.0000000001
 40
0.0
 40
0.0
 40
0.0
 40
0.0
 40
0.0525924673
 40
0.1047097243
 40
0.1569541694
 40
0.2099246342
 40
0.2641895579
 40
0.3202258652
 40
0.3783960718
 40
0.4389361025
 40
0.5019631165
 40
0.5674809604
 40
0.6353794114
 40
0.7054426119
 40
0.7773500047
 40
0.850723366
 40
0.9251308621
 40
1.0
 40
1.0
 40
1.0
 40
1.0
 10
5.8740002969
 20
7.1983476913
 30
0.0
 10
5.8740004608
 20
7.1996011421
 30
0.0
 10
5.8741734643
 20
7.2021006421
 30
0.0
 10
5.8749685643
 20
7.2057686517
 30
0.0
 10
5.876284894
 20
7.2092936288
 30
0.0
 10
5.8781101717
 20
7.2126414033
 30
0.0
 10
5.8804198094
 20
7.2157867851
 30
0.0
 10
5.8831901064
 20
7.2187066176
 30
0.0
 10
5.8863898689
 20
7.2213854266
 30
0.0
 10
5.8899882283
 20
7.2238090738
 30
0.0
 10
5.8939506814
 20
7.225968079
 30
0.0
 10
5.8982413899
 20
7.2278541586
 30
0.0
 10
5.9028215822
 20
7.2294611165
 30
0.0
 10
5.9076494666
 20
7.2307832237
 30
0.0
 10
5.9126801566
 20
7.2318163975
 30
0.0
 10
5.917866543
 20
7.2325569228
 30
0.0
 10
5.9231570715
 20
7.2330018066
 30
0.0
 10
5.9267156231
 20
7.2331009339
 30
0.0
 10
5.9285
 20
7.2331009339
 30
0.0
  0
SPLINE
  5
2D4
100
AcDbEntity
  8
0
100
AcDbSpline
 62
7
  6
CONTINUOUS
 70
0
 71
3
 72
23
 73
19
 74
0
 42
0.0000001
 43
0.0000001
 44
0.0000000001
 40
0.0
 40
0.0
 40
0.0
 40
0.0
 40
0.0748758808
 40
0.1492758004
 40
0.2226452773
 40
0.294554278
 40
0.3646185475
 40
0.4325178041
 40
0.4980363233
 40
0.5610646895
 40
0.6216062166
 40
0.6797758218
 40
0.7358108307
 40
0.7900748292
 40
0.8430471566
 40
0.8952887252
 40
0.9474097626
 40
1.0
 40
1.0
 40
1.0
 40
1.0
 10
5.9285
 20
6.7668990661
 30
0.0
 10
5.9267154839
 20
6.7668990661
 30
0.0
 10
5.9231569923
 20
6.7669981312
 30
0.0
 10
5.9178666468
 20
6.7674430918
 30
0.0
 10
5.9126805542
 20
6.7681835499
 30
0.0
 10
5.9076499453
 20
6.7692166674
 30
0.0
 10
5.9028220186
 20
6.7705387018
 30
0.0
 10
5.8982418152
 20
6.7721456529
 30
0.0
 10
5.893951132
 20
6.7740317869
 30
0.0
 10
5.8899885074
 20
6.7761905788
 30
0.0
 10
5.8863903695
 20
6.7786145022
 30
0.0
 10
5.8831901224
 20
6.7812927011
 30
0.0
 10
5.8804206417
 20
6.7842130905
 30
0.0
 10
5.8781099525
 20
6.7873576734
 30
0.0
 10
5.8762858653
 20
6.7907059587
 30
0.0
 10
5.8749679734
 20
6.7942303893
 30
0.0
 10
5.8741743764
 20
6.7978986573
 30
0.0
 10
5.8740001741
 20
6.8003980295
 30
0.0
 10
5.8740000278
 20
6.8016514121
 30
0.0
  0
SPLINE
  5
2D5
100
AcDbEntity
  8
0
100
AcDbSpline
 62
7
  6
CONTINUOUS
 70
0
 71
3
 72
23
 73
19
 74
0
 42
0.0000001
 43
0.0000001
 44
0.0000000001
 40
0.0
 40
0.0
 40
0.0
 40
0.0
 40
0.074876233
 40
0.1492774105
 40
0.2226479173
 40
0.2945575662
 40
0.3646225931
 40
0.4325223204
 40
0.4980409602
 40
0.5610687361
 40
0.6216096061
 40
0.6797787157
 40
0.7358131108
 40
0.7900764926
 40
0.8430483834
 40
0.8952894173
 40
0.9474100921
 40
1.0
 40
1.0
 40
1.0
 40
1.0
 10
5.9285
 20
7.2331009339
 30
0.0
 10
5.9302845581
 20
7.2331009339
 30
0.0
 10
5.9338431549
 20
7.2330018598
 30
0.0
 10
5.939133662
 20
7.2325568776
 30
0.0
 10
5.9443199188
 20
7.2318163733
 30
0.0
 10
5.9493506713
 20
7.2307831859
 30
0.0
 10
5.9541787216
 20
7.2294610752
 30
0.0
 10
5.9587590188
 20
7.2278540167
 30
0.0
 10
5.9630497543
 20
7.2259677835
 30
0.0
 10
5.9670123933
 20
7.2238088917
 30
0.0
 10
5.9706104838
 20
7.2213848298
 30
0.0
 10
5.973810723
 20
7.2187065601
 30
0.0
 10
5.9765800769
 20
7.2157860041
 30
0.0
 10
5.9788907237
 20
7.212641346
 30
0.0
 10
5.9807146131
 20
7.2092929138
 30
0.0
 10
5.9820324217
 20
7.2057684117
 30
0.0
 10
5.9828257902
 20
7.2021000475
 30
0.0
 10
5.9829998805
 20
7.1996006415
 30
0.0
 10
5.9829999852
 20
7.1983472432
 30
0.0
  0
SPLINE
  5
2D6
100
AcDbEntity
  8
0
100
AcDbSpline
 62
7
  6
CONTINUOUS
 70
0
 71
3
 72
23
 73
19
 74
0
 42
0.0000001
 43
0.0000001
 44
0.0000000001
 40
0.0
 40
0.0
 40
0.0
 40
0.0
 40
0.0525932623
 40
0.1047109979
 40
0.1569560476
 40
0.2099271462
 40
0.2641925027
 40
0.3202291764
 40
0.3783999561
 40
0.4389405641
 40
0.5019678535
 40
0.5674855591
 40
0.6353832925
 40
0.7054458652
 40
0.7773525091
 40
0.8507247333
 40
0.9251310095
 40
1.0
 40
1.0
 40
1.0
 40
1.0
 10
5.9829996954
 20
6.8016519473
 30
0.0
 10
5.9829994969
 20
6.8003984838
 30
0.0
 10
5.9828264964
 20
6.7978989682
 30
0.0
 10
5.9820313243
 20
6.7942309419
 30
0.0
 10
5.9807148958
 20
6.7907059831
 30
0.0
 10
5.9788896088
 20
6.7873581871
 30
0.0
 10
5.9765798451
 20
6.7842128816
 30
0.0
 10
5.9738095718
 20
6.7812930109
 30
0.0
 10
5.9706097003
 20
6.7786143049
 30
0.0
 10
5.9670113418
 20
6.7761906413
 30
0.0
 10
5.9630488553
 20
6.774031704
 30
0.0
 10
5.9587581695
 20
6.7721456714
 30
0.0
 10
5.954178026
 20
6.7705387542
 30
0.0
 10
5.9493502043
 20
6.7692167039
 30
0.0
 10
5.944319596
 20
6.7681835615
 30
0.0
 10
5.9391333075
 20
6.7674430634
 30
0.0
 10
5.9338428655
 20
6.7669981866
 30
0.0
 10
5.9302843644
 20
6.7668990661
 30
0.0
 10
5.9285
 20
6.7668990661
 30
0.0
  0
SPLINE
  5
2D7
100
AcDbEntity
  8
0
100
AcDbSpline
 62
7
  6
CONTINUOUS
 70
0
 71
3
 72
19
 73
15
 74
0
 42
0.0000001
 43
0.0000001
 44
0.0000000001
 40
0.0
 40
0.0
 40
0.0
 40
0.0
 40
0.1255570989
 40
0.2506679576
 40
0.3130877084
 40
0.3754357534
 40
0.4377309837
 40
0.5000000179
 40
0.5622690537
 40
0.6245642827
 40
0.6869123252
 40
0.7493320735
 40
0.8744429083
 40
1.0
 40
1.0
 40
1.0
 40
1.0
 10
3.7535636659
 20
6.5920977523
 30
0.0
 10
3.7489742637
 20
6.6075109862
 30
0.0
 10
3.7406315149
 20
6.6385360022
 30
0.0
 10
3.7327173624
 20
6.6778847928
 30
0.0
 10
3.7281611242
 20
6.7095716287
 30
0.0
 10
3.7256823816
 20
6.7334096064
 30
0.0
 10
3.7241749663
 20
6.7573096215
 30
0.0
 10
3.7236735152
 20
6.7812419901
 30
0.0
 10
3.72417497
 20
6.8051743584
 30
0.0
 10
3.7256823784
 20
6.8290743737
 30
0.0
 10
3.7281611304
 20
6.8529123496
 30
0.0
 10
3.7327173586
 20
6.8845991831
 30
0.0
 10
3.7406315188
 20
6.9239479681
 30
0.0
 10
3.748974264
 20
6.9549729807
 30
0.0
 10
3.7535636659
 20
6.9703862137
 30
0.0
  0
SPLINE
  5
2D8
100
AcDbEntity
  8
0
100
AcDbSpline
 62
7
  6
CONTINUOUS
 70
0
 71
3
 72
19
 73
15
 74
0
 42
0.0000001
 43
0.0000001
 44
0.0000000001
 40
0.0
 40
0.0
 40
0.0
 40
0.0
 40
0.1255570989
 40
0.2506679576
 40
0.3130877084
 40
0.3754357534
 40
0.4377309837
 40
0.5000000179
 40
0.5622690537
 40
0.6245642827
 40
0.6869123252
 40
0.7493320735
 40
0.8744429083
 40
1.0
 40
1.0
 40
1.0
 40
1.0
 10
3.7535636659
 20
7.0296137863
 30
0.0
 10
3.7489742637
 20
7.0450270202
 30
0.0
 10
3.7406315149
 20
7.0760520362
 30
0.0
 10
3.7327173624
 20
7.1154008268
 30
0.0
 10
3.7281611242
 20
7.1470876627
 30
0.0
 10
3.7256823816
 20
7.1709256404
 30
0.0
 10
3.7241749663
 20
7.1948256555
 30
0.0
 10
3.7236735152
 20
7.2187580241
 30
0.0
 10
3.72417497
 20
7.2426903924
 30
0.0
 10
3.7256823784
 20
7.2665904077
 30
0.0
 10
3.7281611304
 20
7.2904283836
 30
0.0
 10
3.7327173586
 20
7.3221152171
 30
0.0
 10
3.7406315188
 20
7.3614640021
 30
0.0
 10
3.748974264
 20
7.3924890146
 30
0.0
 10
3.7535636659
 20
7.4079022477
 30
0.0
  0
SPLINE
  5
2D9
100
AcDbEntity
  8
0
100
AcDbSpline
 62
7
  6
CONTINUOUS
 70
0
 71
3
 72
21
 73
17
 74
0
 42
0.0000001
 43
0.0000001
 44
0.0000000001
 40
0.0
 40
0.0
 40
0.0
 40
0.0
 40
0.1264560126
 40
0.1892875349
 40
0.2518383053
 40
0.3141389815
 40
0.3762244014
 40
0.4381542655
 40
0.5000000641
 40
0.5618458488
 40
0.6237757087
 40
0.6858611075
 40
0.7481617721
 40
0.8107125085
 40
0.8735439971
 40
1.0
 40
1.0
 40
1.0
 40
1.0
 10
4.127
 20
7.0296137863
 30
0.0
 10
4.1346471373
 20
7.0444415588
 30
0.0
 10
4.1452575359
 20
7.0670957235
 30
0.0
 10
4.1570954699
 20
7.0981539187
 30
0.0
 10
4.1646354262
 20
7.1217545486
 30
0.0
 10
4.1706966695
 20
7.1456780355
 30
0.0
 10
4.1751517738
 20
7.1698717309
 30
0.0
 10
4.17786939
 20
7.1942632535
 30
0.0
 10
4.1787910459
 20
7.2187580407
 30
0.0
 10
4.1778693877
 20
7.2432528272
 30
0.0
 10
4.1751517688
 20
7.2676443444
 30
0.0
 10
4.1706966631
 20
7.2918380346
 30
0.0
 10
4.164635417
 20
7.3157615116
 30
0.0
 10
4.1570954668
 20
7.3393621325
 30
0.0
 10
4.1452575302
 20
7.3704203158
 30
0.0
 10
4.1346471367
 20
7.3930744763
 30
0.0
 10
4.127
 20
7.4079022477
 30
0.0
  0
SPLINE
  5
2DA
100
AcDbEntity
  8
0
100
AcDbSpline
 62
7
  6
CONTINUOUS
 70
0
 71
3
 72
21
 73
17
 74
0
 42
0.0000001
 43
0.0000001
 44
0.0000000001
 40
0.0
 40
0.0
 40
0.0
 40
0.0
 40
0.1264560126
 40
0.1892875349
 40
0.2518383053
 40
0.3141389815
 40
0.3762244014
 40
0.4381542655
 40
0.5000000641
 40
0.5618458488
 40
0.6237757087
 40
0.6858611075
 40
0.7481617721
 40
0.8107125085
 40
0.8735439971
 40
1.0
 40
1.0
 40
1.0
 40
1.0
 10
4.127
 20
6.5920977523
 30
0.0
 10
4.1346471373
 20
6.6069255248
 30
0.0
 10
4.1452575359
 20
6.6295796895
 30
0.0
 10
4.1570954699
 20
6.6606378847
 30
0.0
 10
4.1646354262
 20
6.6842385146
 30
0.0
 10
4.1706966695
 20
6.7081620015
 30
0.0
 10
4.1751517738
 20
6.7323556969
 30
0.0
 10
4.17786939
 20
6.7567472195
 30
0.0
 10
4.1787910459
 20
6.7812420067
 30
0.0
 10
4.1778693877
 20
6.8057367933
 30
0.0
 10
4.1751517688
 20
6.8301283104
 30
0.0
 10
4.1706966631
 20
6.8543220006
 30
0.0
 10
4.164635417
 20
6.8782454777
 30
0.0
 10
4.1570954668
 20
6.9018460985
 30
0.0
 10
4.1452575302
 20
6.9329042818
 30
0.0
 10
4.1346471367
 20
6.9555584424
 30
0.0
 10
4.127
 20
6.9703862137
 30
0.0
  0
ELLIPSE
  5
2DB
100
AcDbEntity
  8
0
100
AcDbEllipse
 62
7
  6
CONTINUOUS
 10
6.1575
 20
6.677
 30
0.0
 11
0.0
 21
0.035
 31
0.0
 40
1.0
 41
-4.7123889804
 42
-1.5707963268
  0
ELLIPSE
  5
2DC
100
AcDbEntity
  8
0
100
AcDbEllipse
 62
7
  6
CONTINUOUS
 10
6.1575
 20
7.323
 30
0.0
 11
0.035
 21
-0.0
 31
0.0
 40
1.0
 41
0.0
 42
3.1415926536
  0
ELLIPSE
  5
2DD
100
AcDbEntity
  8
0
100
AcDbEllipse
 62
7
  6
CONTINUOUS
 10
4.9885
 20
6.591
 30
0.0
 11
-0.0
 21
0.035
 31
0.0
 40
1.0
 41
-4.7123889804
 42
-1.5707963268
  0
ELLIPSE
  5
2DE
100
AcDbEntity
  8
0
100
AcDbEllipse
 62
7
  6
CONTINUOUS
 10
4.9885
 20
7.409
 30
0.0
 11
0.035
 21
0.0
 31
0.0
 40
1.0
 41
0.0
 42
3.1415926536
  0
ELLIPSE
  5
2DF
100
AcDbEntity
  8
0
100
AcDbEllipse
 62
7
  6
CONTINUOUS
 10
4.3975
 20
6.591
 30
0.0
 11
0.0
 21
0.035
 31
0.0
 40
1.0
 41
-4.7123889804
 42
-1.5707963268
  0
ELLIPSE
  5
2E0
100
AcDbEntity
  8
0
100
AcDbEllipse
 62
7
  6
CONTINUOUS
 10
4.3975
 20
7.409
 30
0.0
 11
0.035
 21
-0.0
 31
0.0
 40
1.0
 41
0.0
 42
3.1415926536
  0
ENDSEC
  0
SECTION
  2
OBJECTS
  0
DICTIONARY
  5
C
100
AcDbDictionary
280
0
281
1
  3
ACAD_GROUP
350
D
  3
ACAD_MLINESTYLE
350
17
  3
ACAD_LAYOUT
350
1A
  3
ACAD_PLOTSETTINGS
350
19
  3
ACAD_PLOTSTYLENAME
350
E
  0
DICTIONARY
  5
D
102
{ACAD_REACTORS
330
C
102
}
100
AcDbDictionary
280
0
281
1
  0
ACDBDICTIONARYWDFLT
  5
E
102
{ACAD_REACTORS
330
C
102
}
100
AcDbDictionary
281
1
  3
Normal
350
F
100
AcDbDictionaryWithDefault
340
F
  0
DICTIONARY
  5
17
102
{ACAD_REACTORS
330
C
102
}
100
AcDbDictionary
280
0
281
1
  3
Standard
350
18
  0
DICTIONARY
  5
19
102
{ACAD_REACTORS
330
C
102
}
100
AcDbDictionary
281
1
  0
DICTIONARY
  5
1A
102
{ACAD_REACTORS
330
C
102
}
100
AcDbDictionary
281
1
  3
Model
350
2E1
  3
Layout1
350
2E2
  0
ACDBPLACEHOLDER
  5
F
102
{ACAD_REACTORS
330
E
102
}
  0
MLINESTYLE
  5
18
102
{ACAD_REACTORS
330
17
102
}
100
AcDbMlineStyle
  2
STANDARD
 70
0
  3

 62
256
 51
90.0
 52
90.0
 71
2
 49
0.5
 62
256
  6
BYLAYER
 49
-0.5
 62
256
  6
BYLAYER
  0
LAYOUT
  5
2E1
102
{ACAD_REACTORS
330
1A
102
}
100
AcDbPlotSettings
  1

  2
none_device
  4
ANSI_B_(17.00_x_11.00_Inches)
  6

 40
0.0
 41
0.0
 42
0.0
 43
0.0
 44
431.8
 45
279.4
 46
0.0
 47
0.0
 48
0.0
 49
0.0
140
0.0
141
0.0
142
1.0
143
1.0
 70
1024
 72
0
 73
0
 74
0
  7

 75
0
147
1.0
148
0.0
149
0.0
100
AcDbLayout
  1
Model
 70
0
 71
0
 10
0.0
 20
0.0
 11
17.0
 21
11.0
 12
0.0
 22
0.0
 32
0.0
 14
0.0
 24
0.0
 34
0.0
 15
0.0
 25
0.0
 35
0.0
146
0.0
 13
0.0
 23
0.0
 33
0.0
 16
1.0
 26
0.0
 36
0.0
 17
0.0
 27
1.0
 37
0.0
 76
0
330
239
345
0
346
0
  0
LAYOUT
  5
2E2
102
{ACAD_REACTORS
330
1A
102
}
100
AcDbPlotSettings
  1

  2
none_device
  4
ANSI_B_(17.00_x_11.00_Inches)
  6

 40
0.0
 41
0.0
 42
0.0
 43
0.0
 44
431.8
 45
279.4
 46
0.0
 47
0.0
 48
0.0
 49
0.0
140
0.0
141
0.0
142
1.0
143
1.0
 70
0
 72
0
 73
0
 74
0
  7

 75
0
147
1.0
148
0.0
149
0.0
100
AcDbLayout
  1
Layout1
 70
0
 71
1
 10
0.0
 20
0.0
 11
17.0
 21
11.0
 12
0.0
 22
0.0
 32
0.0
 14
0.0
 24
0.0
 34
0.0
 15
0.0
 25
0.0
 35
0.0
146
0.0
 13
0.0
 23
0.0
 33
0.0
 16
1.0
 26
0.0
 36
0.0
 17
0.0
 27
1.0
 37
0.0
 76
0
330
23A
345
0
346
0
  0
ENDSEC
  0
EOF
