999
DXF file: CKECLAN.dxf
999
Pro/ENGINEER 2021072 by Parametric Technology Corporation
  0
SECTION
  2
HEADER
  9
$ACADVER
  1
AC1032
  9
$DWGCODEPAGE
  3
ANSI_1252
  9
$EXTMAX
 10
17.0
 20
11.0
 30
0.0
  9
$EXTMIN
 10
0.0
 20
0.0
 30
0.0
  9
$LIMMIN
 10
0.0
 20
0.0
  9
$LIMMAX
 10
17.0
 20
11.0
  9
$VIEWCTR
 10
8.5
 20
5.5
  9
$VIEWSIZE
 40
11.0
  9
$CLAYER
  8
0
  9
$LTSCALE
 40
0.935
  9
$CELTYPE
  6
BYLAYER
  9
$DIMSCALE
 40
1.0
  9
$DIMASZ
 40
0.1875
  9
$DIMEXO
 40
0.0625
  9
$DIMDLI
 40
0.646
  9
$DIMEXE
 40
0.125
  9
$DIMCEN
 40
0.153
  9
$DIMLFAC
 40
1.0
  9
$DIMBLK
  1
_FILLED
  9
$DIMALT
 70
0
  9
$DIMALTF
 40
25.4
  9
$DIMTXT
 40
0.125
  9
$DIMTOL
 70
0
  9
$DIMLIM
 70
0
  9
$DIMTFAC
 40
1.0
  9
$DIMGAP
 40
0.09
  9
$DIMDSEP
 70
46
  9
$AUNITS
 70
0
  9
$PDMODE
 70
3
  9
$PDSIZE
 40
0.3125
  9
$HANDSEED
  5
325
  9
$TILEMODE
 70
1
  9
$MEASUREMENT
 70
0
  9
$INSUNITS
 70
1
  0
ENDSEC
  0
SECTION
  2
CLASSES
  0
CLASS
  1
ACDBDICTIONARYWDFLT
  2
AcDbDictionaryWithDefault
  3
AutoCAD 2000
 90
0
 91
1
280
0
281
0
  0
CLASS
  1
ACDBPLACEHOLDER
  2
AcDbPlaceHolder
  3
AutoCAD 2000
 90
0
 91
1
280
0
281
0
  0
CLASS
  1
LAYOUT
  2
AcDbLayout
  3
AutoCAD 2000
 90
0
 91
0
280
0
281
0
  0
ENDSEC
  0
SECTION
  2
TABLES
  0
TABLE
  2
VPORT
  5
8
100
AcDbSymbolTable
 70
2
  0
VPORT
  5
1F4
100
AcDbSymbolTableRecord
100
AcDbViewportTableRecord
  2
*ACTIVE
 70
0
 10
0.0
 20
0.0
 11
1.0
 21
1.0
 12
8.5
 22
5.5
 13
0.0
 23
0.0
 14
1.0
 24
1.0
 15
0.0
 25
0.0
 16
0.0
 26
0.0
 36
1.0
 17
0.0
 27
0.0
 37
0.0
 40
11.0
 41
1.5454545455
 42
50.0
 43
0.0
 44
0.0
 50
0.0
 51
0.0
 71
0
 72
100
 73
1
 74
1
 75
0
 76
0
 77
0
 78
0
  0
ENDTAB
  0
TABLE
  2
LTYPE
  5
5
100
AcDbSymbolTable
 70
6
  0
LTYPE
  5
14
100
AcDbSymbolTableRecord
100
AcDbLinetypeTableRecord
  2
BYBLOCK
 70
0
  3

 72
65
 73
0
 40
0.0
  0
LTYPE
  5
15
100
AcDbSymbolTableRecord
100
AcDbLinetypeTableRecord
  2
BYLAYER
 70
0
  3

 72
65
 73
0
 40
0.0
  0
LTYPE
  5
16
100
AcDbSymbolTableRecord
100
AcDbLinetypeTableRecord
  2
CONTINUOUS
 70
64
  3
Solid line
 72
65
 73
0
 40
0.0
  0
LTYPE
  5
1F5
100
AcDbSymbolTableRecord
100
AcDbLinetypeTableRecord
  2
CENTER
 70
64
  3
____ _ ____ _ ____ _ ____ _ ____ _ ____ _ ____
 72
65
 73
4
 40
0.6
 49
0.375
 74
0
 49
-0.075
 74
0
 49
0.075
 74
0
 49
-0.075
 74
0
  0
LTYPE
  5
1F6
100
AcDbSymbolTableRecord
100
AcDbLinetypeTableRecord
  2
HIDDEN
 70
64
  3
- - - - - - - - - - - - - - - - - - - -
 72
65
 73
2
 40
0.2
 49
0.1
 74
0
 49
-0.1
 74
0
  0
LTYPE
  5
1F7
100
AcDbSymbolTableRecord
100
AcDbLinetypeTableRecord
  2
PHANTOM
 70
64
  3
_____ _ _ _____ _ _ _____ _ _ _____
 72
65
 73
6
 40
0.8
 49
0.45
 74
0
 49
-0.05
 74
0
 49
0.1
 74
0
 49
-0.05
 74
0
 49
0.1
 74
0
 49
-0.05
 74
0
  0
LTYPE
  5
1F8
100
AcDbSymbolTableRecord
100
AcDbLinetypeTableRecord
  2
DOT
 70
64
  3
. . . . . . . . . . . . . . . . . . . .
 72
65
 73
2
 40
0.2
 49
0.1
 74
0
 49
-0.1
 74
0
  0
LTYPE
  5
1F9
100
AcDbSymbolTableRecord
100
AcDbLinetypeTableRecord
  2
DASHED
 70
64
  3
- - - - - - - - - - - - - - - - - - - -
 72
65
 73
2
 40
0.2
 49
0.1
 74
0
 49
-0.1
 74
0
  0
ENDTAB
  0
TABLE
  2
LAYER
  5
2
100
AcDbSymbolTable
 70
36
  0
LAYER
  5
10
100
AcDbSymbolTableRecord
100
AcDbLayerTableRecord
  2
0
 70
0
 62
7
  6
CONTINUOUS
370
-3
390
F
  0
LAYER
  5
1FA
100
AcDbSymbolTableRecord
100
AcDbLayerTableRecord
  2
DEFAULT_1
 70
0
 62
7
  6
CENTER
370
-3
390
F
  0
LAYER
  5
1FB
100
AcDbSymbolTableRecord
100
AcDbLayerTableRecord
  2
DEFAULT_2
 70
0
 62
8
  6
HIDDEN
370
-3
390
F
  0
LAYER
  5
1FC
100
AcDbSymbolTableRecord
100
AcDbLayerTableRecord
  2
DEFAULT_3
 70
0
 62
7
  6
PHANTOM
370
-3
390
F
  0
LAYER
  5
1FD
100
AcDbSymbolTableRecord
100
AcDbLayerTableRecord
  2
01_ALL_DTM_PLN
 70
0
 62
7
  6
CONTINUOUS
370
-3
390
F
  0
LAYER
  5
1FE
100
AcDbSymbolTableRecord
100
AcDbLayerTableRecord
  2
01__ASM_ALL_DTM_PLN
 70
0
 62
7
  6
CONTINUOUS
370
-3
390
F
  0
LAYER
  5
1FF
100
AcDbSymbolTableRecord
100
AcDbLayerTableRecord
  2
01__ASM_DEF_DTM_PLN
 70
0
 62
7
  6
CONTINUOUS
370
-3
390
F
  0
LAYER
  5
200
100
AcDbSymbolTableRecord
100
AcDbLayerTableRecord
  2
01___PRT_ALL_DTM_PLN
 70
0
 62
7
  6
CONTINUOUS
370
-3
390
F
  0
LAYER
  5
201
100
AcDbSymbolTableRecord
100
AcDbLayerTableRecord
  2
01___PRT_DEF_DTM_PLN
 70
0
 62
7
  6
CONTINUOUS
370
-3
390
F
  0
LAYER
  5
202
100
AcDbSymbolTableRecord
100
AcDbLayerTableRecord
  2
02_ALL_AXES
 70
0
 62
7
  6
CONTINUOUS
370
-3
390
F
  0
LAYER
  5
203
100
AcDbSymbolTableRecord
100
AcDbLayerTableRecord
  2
02__ASM_ALL_AXES
 70
0
 62
7
  6
CONTINUOUS
370
-3
390
F
  0
LAYER
  5
204
100
AcDbSymbolTableRecord
100
AcDbLayerTableRecord
  2
02___PRT_ALL_AXES
 70
0
 62
7
  6
CONTINUOUS
370
-3
390
F
  0
LAYER
  5
205
100
AcDbSymbolTableRecord
100
AcDbLayerTableRecord
  2
03_ALL_CURVES
 70
0
 62
7
  6
CONTINUOUS
370
-3
390
F
  0
LAYER
  5
206
100
AcDbSymbolTableRecord
100
AcDbLayerTableRecord
  2
03__ASM_ALL_CURVES
 70
0
 62
7
  6
CONTINUOUS
370
-3
390
F
  0
LAYER
  5
207
100
AcDbSymbolTableRecord
100
AcDbLayerTableRecord
  2
03___PRT_ALL_CURVES
 70
0
 62
7
  6
CONTINUOUS
370
-3
390
F
  0
LAYER
  5
208
100
AcDbSymbolTableRecord
100
AcDbLayerTableRecord
  2
04_ALL_DTM_PNT
 70
0
 62
7
  6
CONTINUOUS
370
-3
390
F
  0
LAYER
  5
209
100
AcDbSymbolTableRecord
100
AcDbLayerTableRecord
  2
04__ASM_ALL_DTM_PNT
 70
0
 62
7
  6
CONTINUOUS
370
-3
390
F
  0
LAYER
  5
20A
100
AcDbSymbolTableRecord
100
AcDbLayerTableRecord
  2
04___PRT_ALL_DTM_PNT
 70
0
 62
7
  6
CONTINUOUS
370
-3
390
F
  0
LAYER
  5
20B
100
AcDbSymbolTableRecord
100
AcDbLayerTableRecord
  2
05_ALL_DTM_CSYS
 70
0
 62
7
  6
CONTINUOUS
370
-3
390
F
  0
LAYER
  5
20C
100
AcDbSymbolTableRecord
100
AcDbLayerTableRecord
  2
05__ASM_ALL_DTM_CSYS
 70
0
 62
7
  6
CONTINUOUS
370
-3
390
F
  0
LAYER
  5
20D
100
AcDbSymbolTableRecord
100
AcDbLayerTableRecord
  2
05__ASM_DEF_DTM_CSYS
 70
0
 62
7
  6
CONTINUOUS
370
-3
390
F
  0
LAYER
  5
20E
100
AcDbSymbolTableRecord
100
AcDbLayerTableRecord
  2
05___PRT_ALL_DTM_CSYS
 70
0
 62
7
  6
CONTINUOUS
370
-3
390
F
  0
LAYER
  5
20F
100
AcDbSymbolTableRecord
100
AcDbLayerTableRecord
  2
05___PRT_DEF_DTM_CSYS
 70
0
 62
7
  6
CONTINUOUS
370
-3
390
F
  0
LAYER
  5
210
100
AcDbSymbolTableRecord
100
AcDbLayerTableRecord
  2
06_ALL_SURFS
 70
0
 62
7
  6
CONTINUOUS
370
-3
390
F
  0
LAYER
  5
211
100
AcDbSymbolTableRecord
100
AcDbLayerTableRecord
  2
06__ASM_ALL_SURFS
 70
0
 62
7
  6
CONTINUOUS
370
-3
390
F
  0
LAYER
  5
212
100
AcDbSymbolTableRecord
100
AcDbLayerTableRecord
  2
06___PRT_ALL_SURFS
 70
0
 62
7
  6
CONTINUOUS
370
-3
390
F
  0
LAYER
  5
213
100
AcDbSymbolTableRecord
100
AcDbLayerTableRecord
  2
07__ASM_ALL_SKELETONS
 70
0
 62
7
  6
CONTINUOUS
370
-3
390
F
  0
LAYER
  5
214
100
AcDbSymbolTableRecord
100
AcDbLayerTableRecord
  2
127-001_FEATURES
 70
0
 62
7
  6
CONTINUOUS
370
-3
390
F
  0
LAYER
  5
215
100
AcDbSymbolTableRecord
100
AcDbLayerTableRecord
  2
127-001_REF_GEOMETRY
 70
0
 62
7
  6
CONTINUOUS
370
-3
390
F
  0
LAYER
  5
216
100
AcDbSymbolTableRecord
100
AcDbLayerTableRecord
  2
127-004_FEATURES
 70
0
 62
7
  6
CONTINUOUS
370
-3
390
F
  0
LAYER
  5
217
100
AcDbSymbolTableRecord
100
AcDbLayerTableRecord
  2
127-004_REF_GEOMETRY
 70
0
 62
7
  6
CONTINUOUS
370
-3
390
F
  0
LAYER
  5
218
100
AcDbSymbolTableRecord
100
AcDbLayerTableRecord
  2
127-008_FEATURES
 70
0
 62
7
  6
CONTINUOUS
370
-3
390
F
  0
LAYER
  5
219
100
AcDbSymbolTableRecord
100
AcDbLayerTableRecord
  2
127-008_REF_GEOMETRY
 70
0
 62
7
  6
CONTINUOUS
370
-3
390
F
  0
LAYER
  5
21A
100
AcDbSymbolTableRecord
100
AcDbLayerTableRecord
  2
127-410_FEATURES
 70
0
 62
7
  6
CONTINUOUS
370
-3
390
F
  0
LAYER
  5
21B
100
AcDbSymbolTableRecord
100
AcDbLayerTableRecord
  2
127-410_REF_GEOMETRY
 70
0
 62
7
  6
CONTINUOUS
370
-3
390
F
  0
LAYER
  5
21C
100
AcDbSymbolTableRecord
100
AcDbLayerTableRecord
  2
127-411_FEATURES
 70
0
 62
7
  6
CONTINUOUS
370
-3
390
F
  0
LAYER
  5
21D
100
AcDbSymbolTableRecord
100
AcDbLayerTableRecord
  2
127-411_REF_GEOMETRY
 70
0
 62
7
  6
CONTINUOUS
370
-3
390
F
  0
LAYER
  5
21E
100
AcDbSymbolTableRecord
100
AcDbLayerTableRecord
  2
127-412_FEATURES
 70
0
 62
7
  6
CONTINUOUS
370
-3
390
F
  0
LAYER
  5
21F
100
AcDbSymbolTableRecord
100
AcDbLayerTableRecord
  2
127-412_REF_GEOMETRY
 70
0
 62
7
  6
CONTINUOUS
370
-3
390
F
  0
LAYER
  5
220
100
AcDbSymbolTableRecord
100
AcDbLayerTableRecord
  2
127-413_FEATURES
 70
0
 62
7
  6
CONTINUOUS
370
-3
390
F
  0
LAYER
  5
221
100
AcDbSymbolTableRecord
100
AcDbLayerTableRecord
  2
127-413_REF_GEOMETRY
 70
0
 62
7
  6
CONTINUOUS
370
-3
390
F
  0
LAYER
  5
222
100
AcDbSymbolTableRecord
100
AcDbLayerTableRecord
  2
127-414_FEATURES
 70
0
 62
7
  6
CONTINUOUS
370
-3
390
F
  0
LAYER
  5
223
100
AcDbSymbolTableRecord
100
AcDbLayerTableRecord
  2
127-414_REF_GEOMETRY
 70
0
 62
7
  6
CONTINUOUS
370
-3
390
F
  0
LAYER
  5
224
100
AcDbSymbolTableRecord
100
AcDbLayerTableRecord
  2
127-415_FEATURES
 70
0
 62
7
  6
CONTINUOUS
370
-3
390
F
  0
LAYER
  5
225
100
AcDbSymbolTableRecord
100
AcDbLayerTableRecord
  2
127-415_REF_GEOMETRY
 70
0
 62
7
  6
CONTINUOUS
370
-3
390
F
  0
LAYER
  5
226
100
AcDbSymbolTableRecord
100
AcDbLayerTableRecord
  2
127-416_FEATURES
 70
0
 62
7
  6
CONTINUOUS
370
-3
390
F
  0
LAYER
  5
227
100
AcDbSymbolTableRecord
100
AcDbLayerTableRecord
  2
127-416_REF_GEOMETRY
 70
0
 62
7
  6
CONTINUOUS
370
-3
390
F
  0
LAYER
  5
228
100
AcDbSymbolTableRecord
100
AcDbLayerTableRecord
  2
250-NPTF_PORT
 70
0
 62
7
  6
CONTINUOUS
370
-3
390
F
  0
LAYER
  5
229
100
AcDbSymbolTableRecord
100
AcDbLayerTableRecord
  2
COPY_GEO_FET
 70
0
 62
7
  6
CONTINUOUS
370
-3
390
F
  0
LAYER
  5
22A
100
AcDbSymbolTableRecord
100
AcDbLayerTableRecord
  2
COSMETIC
 70
0
 62
7
  6
CONTINUOUS
370
-3
390
F
  0
LAYER
  5
22B
100
AcDbSymbolTableRecord
100
AcDbLayerTableRecord
  2
CURVES
 70
0
 62
7
  6
CONTINUOUS
370
-3
390
F
  0
LAYER
  5
22C
100
AcDbSymbolTableRecord
100
AcDbLayerTableRecord
  2
CUT_REF_SURF
 70
0
 62
7
  6
CONTINUOUS
370
-3
390
F
  0
LAYER
  5
22D
100
AcDbSymbolTableRecord
100
AcDbLayerTableRecord
  2
DATUM
 70
0
 62
7
  6
CONTINUOUS
370
-3
390
F
  0
LAYER
  5
22E
100
AcDbSymbolTableRecord
100
AcDbLayerTableRecord
  2
DATUMCURVES
 70
0
 62
7
  6
CONTINUOUS
370
-3
390
F
  0
LAYER
  5
22F
100
AcDbSymbolTableRecord
100
AcDbLayerTableRecord
  2
DIMENSIONS
 70
0
 62
7
  6
CONTINUOUS
370
-3
390
F
  0
LAYER
  5
230
100
AcDbSymbolTableRecord
100
AcDbLayerTableRecord
  2
DRAWINGNOTES
 70
0
 62
7
  6
CONTINUOUS
370
-3
390
F
  0
LAYER
  5
231
100
AcDbSymbolTableRecord
100
AcDbLayerTableRecord
  2
DTM
 70
0
 62
7
  6
CONTINUOUS
370
-3
390
F
  0
LAYER
  5
232
100
AcDbSymbolTableRecord
100
AcDbLayerTableRecord
  2
DTM230
 70
0
 62
7
  6
CONTINUOUS
370
-3
390
F
  0
LAYER
  5
233
100
AcDbSymbolTableRecord
100
AcDbLayerTableRecord
  2
DTM_500001
 70
0
 62
7
  6
CONTINUOUS
370
-3
390
F
  0
LAYER
  5
234
100
AcDbSymbolTableRecord
100
AcDbLayerTableRecord
  2
DTM_500002
 70
0
 62
7
  6
CONTINUOUS
370
-3
390
F
  0
LAYER
  5
235
100
AcDbSymbolTableRecord
100
AcDbLayerTableRecord
  2
DTM_515002
 70
0
 62
7
  6
CONTINUOUS
370
-3
390
F
  0
LAYER
  5
236
100
AcDbSymbolTableRecord
100
AcDbLayerTableRecord
  2
DTM_525001
 70
0
 62
7
  6
CONTINUOUS
370
-3
390
F
  0
LAYER
  5
237
100
AcDbSymbolTableRecord
100
AcDbLayerTableRecord
  2
DTM_SPRING_LH
 70
0
 62
7
  6
CONTINUOUS
370
-3
390
F
  0
LAYER
  5
238
100
AcDbSymbolTableRecord
100
AcDbLayerTableRecord
  2
DTM_SP_LH_CONSTR
 70
0
 62
7
  6
CONTINUOUS
370
-3
390
F
  0
LAYER
  5
239
100
AcDbSymbolTableRecord
100
AcDbLayerTableRecord
  2
GEOMETRICTOLERANCES
 70
0
 62
7
  6
CONTINUOUS
370
-3
390
F
  0
LAYER
  5
23A
100
AcDbSymbolTableRecord
100
AcDbLayerTableRecord
  2
HIDDEN
 70
0
 62
7
  6
CONTINUOUS
370
-3
390
F
  0
LAYER
  5
23B
100
AcDbSymbolTableRecord
100
AcDbLayerTableRecord
  2
HIDDEN_DRW
 70
0
 62
7
  6
CONTINUOUS
370
-3
390
F
  0
LAYER
  5
23C
100
AcDbSymbolTableRecord
100
AcDbLayerTableRecord
  2
HIDDEN_SKETCHES
 70
0
 62
7
  6
CONTINUOUS
370
-3
390
F
  0
LAYER
  5
23D
100
AcDbSymbolTableRecord
100
AcDbLayerTableRecord
  2
LAY0001
 70
0
 62
7
  6
CONTINUOUS
370
-3
390
F
  0
LAYER
  5
23E
100
AcDbSymbolTableRecord
100
AcDbLayerTableRecord
  2
PARAMETERDIMENSIONS
 70
0
 62
7
  6
CONTINUOUS
370
-3
390
F
  0
LAYER
  5
23F
100
AcDbSymbolTableRecord
100
AcDbLayerTableRecord
  2
PLANE
 70
0
 62
7
  6
CONTINUOUS
370
-3
390
F
  0
LAYER
  5
240
100
AcDbSymbolTableRecord
100
AcDbLayerTableRecord
  2
SUN_SAE-4_PORT
 70
0
 62
7
  6
CONTINUOUS
370
-3
390
F
  0
LAYER
  5
241
100
AcDbSymbolTableRecord
100
AcDbLayerTableRecord
  2
TEXT
 70
0
 62
7
  6
CONTINUOUS
370
-3
390
F
  0
LAYER
  5
242
100
AcDbSymbolTableRecord
100
AcDbLayerTableRecord
  2
THREAD
 70
0
 62
7
  6
CONTINUOUS
370
-3
390
F
  0
ENDTAB
  0
TABLE
  2
STYLE
  5
3
100
AcDbSymbolTable
 70
1
  0
STYLE
  5
11
100
AcDbSymbolTableRecord
100
AcDbTextStyleTableRecord
  2
STANDARD
 70
0
 40
0.0
 41
0.8
 50
0.0
 71
0
 42
0.2
  3
txt
  4

  0
STYLE
  5
243
100
AcDbSymbolTableRecord
100
AcDbTextStyleTableRecord
  2
TEXTSTYLE_1
 70
0
 40
0.0
 41
0.8
 50
0.0
 71
0
 42
0.2
  3
gdt
  4

  0
ENDTAB
  0
TABLE
  2
VIEW
  5
6
100
AcDbSymbolTable
 70
0
  0
ENDTAB
  0
TABLE
  2
UCS
  5
7
100
AcDbSymbolTable
 70
0
  0
ENDTAB
  0
TABLE
  2
APPID
  5
9
100
AcDbSymbolTable
 70
1
  0
APPID
  5
244
100
AcDbSymbolTableRecord
100
AcDbRegAppTableRecord
  2
ACAD
 70
0
  0
ENDTAB
  0
TABLE
  2
BLOCK_RECORD
  5
1
100
AcDbSymbolTable
 70
0
  0
BLOCK_RECORD
  5
245
100
AcDbSymbolTableRecord
100
AcDbBlockTableRecord
  2
*Model_Space
  0
BLOCK_RECORD
  5
246
100
AcDbSymbolTableRecord
100
AcDbBlockTableRecord
  2
*Paper_Space
  0
BLOCK_RECORD
  5
247
100
AcDbSymbolTableRecord
100
AcDbBlockTableRecord
  2
_FILLED
  0
BLOCK_RECORD
  5
248
100
AcDbSymbolTableRecord
100
AcDbBlockTableRecord
  2
*D0
  0
ENDTAB
  0
TABLE
  2
DIMSTYLE
  5
A
100
AcDbSymbolTable
 70
1
100
AcDbDimStyleTable
 71
0
  0
DIMSTYLE
105
249
100
AcDbSymbolTableRecord
100
AcDbDimStyleTableRecord
  2
STANDARD
 70
0
  3

  4

 40
1.0
 41
0.1875
 42
0.0625
 43
0.38
 44
0.125
 45
0.0
 46
0.0
 47
0.001
 48
0.001
140
0.125
141
0.09
142
0.0
143
25.4
144
1.0
145
0.0
146
1.0
147
0.09
 71
0
 72
0
 73
1
 74
1
 75
0
 76
0
 77
0
 78
4
 79
1
170
0
171
2
172
0
173
0
174
0
175
0
176
0
177
0
178
0
270
2
179
3
271
3
272
3
273
2
274
2
275
0
280
0
281
0
282
0
283
1
284
4
285
0
286
0
287
3
288
0
340
11
278
46
341
247
342
247
343
247
344
247
  0
DIMSTYLE
105
24A
100
AcDbSymbolTableRecord
100
AcDbDimStyleTableRecord
  2
DIMSTYLE_1
 70
0
  3

  4

 40
1.0
 41
0.1875
 42
0.0625
 43
0.38
 44
0.125
 45
0.0
 46
0.0
 47
0.0
 48
0.0
140
0.125
141
0.09
142
0.0
143
25.4
144
1.0
145
0.0
146
1.0
147
0.0625
 71
0
 72
0
 73
1
 74
1
 75
0
 76
0
 77
0
 78
4
 79
1
170
0
171
2
172
0
173
0
174
0
175
0
176
0
177
0
178
0
270
2
179
3
271
2
272
3
273
2
274
2
275
0
280
0
281
0
282
0
283
1
284
4
285
0
286
0
287
3
288
0
340
11
278
46
341
247
342
247
343
247
344
247
  0
ENDTAB
  0
ENDSEC
  0
SECTION
  2
BLOCKS
  0
BLOCK
  5
20
100
AcDbEntity
  8
0
100
AcDbBlockBegin
  2
*Model_Space
 70
0
 10
0.0
 20
0.0
 30
0.0
  3
*Model_Space
  1

  0
ENDBLK
  5
21
100
AcDbEntity
  8
0
100
AcDbBlockEnd
  0
BLOCK
  5
1C
100
AcDbEntity
  8
0
100
AcDbBlockBegin
  2
*Paper_Space
 70
0
 10
0.0
 20
0.0
 30
0.0
  3
*Paper_Space
  1

  0
ENDBLK
  5
1D
100
AcDbEntity
  8
0
100
AcDbBlockEnd
  0
BLOCK
  5
24B
100
AcDbEntity
  8
0
100
AcDbBlockBegin
  2
_FILLED
 70
64
 10
0.0
 20
0.0
  3
_FILLED
  1

  0
SOLID
  5
24C
100
AcDbEntity
  8
0
  6
BYBLOCK
 62
0
100
AcDbTrace
 10
0.0
 20
0.0
 11
-1.0
 21
0.1666666667
 12
-1.0
 22
-0.1666666667
 13
-1.0
 23
-0.1666666667
  0
ENDBLK
  5
24D
100
AcDbEntity
  8
0
  6
BYBLOCK
 62
0
100
AcDbBlockEnd
  0
BLOCK
  5
24E
100
AcDbEntity
  8
0
100
AcDbBlockBegin
 62
6
  6
CONTINUOUS
  2
*D0
 70
65
 10
0.0
 20
0.0
  3
*D0
  1

  0
MTEXT
  5
24F
100
AcDbEntity
  8
0
100
AcDbMText
 62
6
  6
CONTINUOUS
  7
STANDARD
 71
1
 72
1
 10
5.9685
 20
8.3505
 30
0.0
 11
1.0
 21
0.0
 31
0.0
 73
2
 44
0.9
  1
2.81 in (71,4 mm)
 40
0.125
 41
1.7
  0
LINE
  5
250
100
AcDbEntity
  8
0
100
AcDbLine
 62
6
  6
CONTINUOUS
 10
5.7185
 20
7.6005
 11
5.7185
 21
8.413
  0
LINE
  5
251
100
AcDbEntity
  8
0
100
AcDbLine
 62
6
  6
CONTINUOUS
 10
2.9064999638
 20
7.0625
 11
2.9064999638
 21
8.413
  0
LINE
  5
252
100
AcDbEntity
  8
0
100
AcDbLine
 62
6
  6
CONTINUOUS
 10
5.7185
 20
8.288
 11
4.3124999819
 21
8.288
  0
LINE
  5
253
100
AcDbEntity
  8
0
100
AcDbLine
 62
6
  6
CONTINUOUS
 10
4.3124999819
 20
8.288
 11
5.906
 21
8.288
  0
LINE
  5
254
100
AcDbEntity
  8
0
100
AcDbLine
 62
6
  6
CONTINUOUS
 10
2.9064999638
 20
8.288
 11
4.3124999819
 21
8.288
  0
INSERT
  5
255
100
AcDbEntity
  8
0
100
AcDbBlockReference
 62
6
  6
CONTINUOUS
  2
_FILLED
 10
5.7185
 20
8.288
 41
0.1875
 42
0.1875
 43
0.1875
  0
INSERT
  5
256
100
AcDbEntity
  8
0
100
AcDbBlockReference
 62
6
  6
CONTINUOUS
  2
_FILLED
 10
2.9064999638
 20
8.288
 41
0.1875
 42
0.1875
 43
0.1875
 50
180.0
  0
ENDBLK
  5
257
100
AcDbEntity
  8
0
  6
BYBLOCK
 62
0
100
AcDbBlockEnd
  0
ENDSEC
  0
SECTION
  2
ENTITIES
  0
DIMENSION
  5
258
100
AcDbEntity
  8
0
100
AcDbDimension
 62
6
  6
CONTINUOUS
  2
*D0
 10
2.9064999638
 20
8.288
 11
6.8185
 21
8.288
 70
160
 71
1
 72
2
 41
0.9
 42
2.8120000362
  1
<> in (71,4 mm)
  3
DIMSTYLE_1
100
AcDbAlignedDimension
 13
5.7185
 23
7.538
 14
2.9064999638
 24
7.0
 50
180.0
100
AcDbRotatedDimension
  0
MTEXT
  5
259
100
AcDbEntity
  8
0
100
AcDbMText
 62
2
  6
CONTINUOUS
  7
STANDARD
 71
1
 72
1
 10
7.4685
 20
7.0625
 30
0.0
 11
1.0
 21
0.0
 31
0.0
 73
2
 44
0.6
  1
Port 1
 40
0.125
 41
0.6
  0
MTEXT
  5
25A
100
AcDbEntity
  8
0
100
AcDbMText
 62
2
  6
CONTINUOUS
  7
STANDARD
 71
1
 72
1
 10
6.2685
 20
6.3125
 30
0.0
 11
1.0
 21
0.0
 31
0.0
 73
2
 44
0.6
  1
Port 2
 40
0.125
 41
0.6
  0
MTEXT
  5
25B
100
AcDbEntity
  8
0
100
AcDbMText
 62
2
  6
CONTINUOUS
  7
STANDARD
 71
1
 72
1
 10
5.1985
 20
6.3125
 30
0.0
 11
1.0
 21
0.0
 31
0.0
 73
2
 44
0.6
  1
Port 3
 40
0.125
 41
0.6
  0
MTEXT
  5
25C
100
AcDbEntity
  8
0
100
AcDbMText
 62
2
  6
CONTINUOUS
  7
STANDARD
 71
1
 72
1
 10
5.9685
 20
8.1005
 30
0.0
 11
1.0
 21
0.0
 31
0.0
 73
2
 44
0.6
  1
 LOCATING SHOULDER
 40
0.125
 41
1.8
  0
LINE
  5
25D
100
AcDbEntity
  8
0
100
AcDbLine
 62
7
  6
CONTINUOUS
 10
2.9065
 20
7.153
 11
2.9065
 21
6.847
  0
LINE
  5
25E
100
AcDbEntity
  8
0
100
AcDbLine
 62
7
  6
CONTINUOUS
 10
2.9375
 20
7.184
 11
2.9375
 21
6.816
  0
LINE
  5
25F
100
AcDbEntity
  8
0
100
AcDbLine
 62
7
  6
CONTINUOUS
 10
3.1365
 20
7.184
 11
3.1365
 21
6.816
  0
LINE
  5
260
100
AcDbEntity
  8
0
100
AcDbLine
 62
7
  6
CONTINUOUS
 10
3.1745
 20
7.184
 11
3.1745
 21
6.816
  0
LINE
  5
261
100
AcDbEntity
  8
0
100
AcDbLine
 62
7
  6
CONTINUOUS
 10
3.4065
 20
6.7523459131
 11
3.4065
 21
7.2476540869
  0
LINE
  5
262
100
AcDbEntity
  8
0
100
AcDbLine
 62
7
  6
CONTINUOUS
 10
2.9065
 20
7.153
 11
2.9375
 21
7.184
  0
LINE
  5
263
100
AcDbEntity
  8
0
100
AcDbLine
 62
7
  6
CONTINUOUS
 10
2.9065
 20
6.847
 11
2.9375
 21
6.816
  0
LINE
  5
264
100
AcDbEntity
  8
0
100
AcDbLine
 62
7
  6
CONTINUOUS
 10
3.4685
 20
6.729
 11
3.4685
 21
7.271
  0
LINE
  5
265
100
AcDbEntity
  8
0
100
AcDbLine
 62
7
  6
CONTINUOUS
 10
3.4745
 20
6.729
 11
3.4745
 21
7.271
  0
LINE
  5
266
100
AcDbEntity
  8
0
100
AcDbLine
 62
7
  6
CONTINUOUS
 10
3.48
 20
7.2655
 11
3.48
 21
6.7345
  0
LINE
  5
267
100
AcDbEntity
  8
0
100
AcDbLine
 62
7
  6
CONTINUOUS
 10
3.496
 20
7.2655
 11
3.496
 21
6.7345
  0
LINE
  5
268
100
AcDbEntity
  8
0
100
AcDbLine
 62
7
  6
CONTINUOUS
 10
3.6875
 20
7.271
 11
3.6875
 21
6.729
  0
LINE
  5
269
100
AcDbEntity
  8
0
100
AcDbLine
 62
7
  6
CONTINUOUS
 10
3.7185
 20
6.5650118568
 11
3.7185
 21
7.4349881432
  0
LINE
  5
26A
100
AcDbEntity
  8
0
100
AcDbLine
 62
7
  6
CONTINUOUS
 10
3.7805
 20
6.503
 11
3.7805
 21
7.497
  0
LINE
  5
26B
100
AcDbEntity
  8
0
100
AcDbLine
 62
7
  6
CONTINUOUS
 10
3.5549708513
 20
7.3244708513
 11
3.496
 21
7.2655
  0
LINE
  5
26C
100
AcDbEntity
  8
0
100
AcDbLine
 62
7
  6
CONTINUOUS
 10
3.7805
 20
7.497
 11
3.7185
 21
7.435
  0
LINE
  5
26D
100
AcDbEntity
  8
0
100
AcDbLine
 62
7
  6
CONTINUOUS
 10
3.5549708513
 20
6.6755291487
 11
3.496
 21
6.7345
  0
LINE
  5
26E
100
AcDbEntity
  8
0
100
AcDbLine
 62
7
  6
CONTINUOUS
 10
3.7805
 20
6.503
 11
3.7185
 21
6.565
  0
LINE
  5
26F
100
AcDbEntity
  8
0
100
AcDbLine
 62
7
  6
CONTINUOUS
 10
3.6875
 20
6.729
 11
3.6566285896
 21
6.6755291487
  0
LINE
  5
270
100
AcDbEntity
  8
0
100
AcDbLine
 62
7
  6
CONTINUOUS
 10
3.6875
 20
7.271
 11
3.6566285896
 21
7.3244708513
  0
LINE
  5
271
100
AcDbEntity
  8
0
100
AcDbLine
 62
7
  6
CONTINUOUS
 10
4.2236926419
 20
7.5639939196
 11
4.2185
 21
7.555
  0
LINE
  5
272
100
AcDbEntity
  8
0
100
AcDbLine
 62
7
  6
CONTINUOUS
 10
3.48
 20
6.7345
 11
3.4745
 21
6.729
  0
LINE
  5
273
100
AcDbEntity
  8
0
100
AcDbLine
 62
7
  6
CONTINUOUS
 10
3.48
 20
7.2655
 11
3.4745
 21
7.271
  0
LINE
  5
274
100
AcDbEntity
  8
0
100
AcDbLine
 62
7
  6
CONTINUOUS
 10
4.2236926419
 20
6.4360060804
 11
4.2185
 21
6.445
  0
LINE
  5
275
100
AcDbEntity
  8
0
100
AcDbLine
 62
7
  6
CONTINUOUS
 10
4.2185
 20
6.445
 11
4.2185
 21
7.555
  0
LINE
  5
276
100
AcDbEntity
  8
0
100
AcDbLine
 62
7
  6
CONTINUOUS
 10
4.2641106713
 20
7.5624834998
 11
4.2641106713
 21
7.534572037
  0
LINE
  5
277
100
AcDbEntity
  8
0
100
AcDbLine
 62
7
  6
CONTINUOUS
 10
4.2641106713
 20
6.4375165002
 11
4.2641106713
 21
6.465427963
  0
LINE
  5
278
100
AcDbEntity
  8
0
100
AcDbLine
 62
7
  6
CONTINUOUS
 10
4.2641106713
 20
6.9720885372
 11
4.2641106713
 21
7.0279114628
  0
LINE
  5
279
100
AcDbEntity
  8
0
100
AcDbLine
 62
7
  6
CONTINUOUS
 10
5.7398564063
 20
6.484830127
 11
5.7423564065
 21
6.4855
  0
LINE
  5
27A
100
AcDbEntity
  8
0
100
AcDbLine
 62
7
  6
CONTINUOUS
 10
4.2228303327
 20
6.4375165002
 11
4.8923547127
 21
6.4375165002
  0
LINE
  5
27B
100
AcDbEntity
  8
0
100
AcDbLine
 62
7
  6
CONTINUOUS
 10
5.7155
 20
6.462
 11
5.655801981
 21
6.462
  0
LINE
  5
27C
100
AcDbEntity
  8
0
100
AcDbLine
 62
7
  6
CONTINUOUS
 10
5.277198019
 20
6.462
 11
5.2375
 21
6.462
  0
LINE
  5
27D
100
AcDbEntity
  8
0
100
AcDbLine
 62
7
  6
CONTINUOUS
 10
5.0905
 20
6.462
 11
4.9065
 21
6.462
  0
LINE
  5
27E
100
AcDbEntity
  8
0
100
AcDbLine
 62
7
  6
CONTINUOUS
 10
5.0935
 20
6.4635
 11
5.1435
 21
6.4635
  0
LINE
  5
27F
100
AcDbEntity
  8
0
100
AcDbLine
 62
7
  6
CONTINUOUS
 10
4.8510743742
 20
6.465427963
 11
4.2641106713
 21
6.465427963
  0
LINE
  5
280
100
AcDbEntity
  8
THREAD
100
AcDbLine
 62
7
  6
CONTINUOUS
 10
5.7625
 20
6.4855
 11
5.7423564065
 21
6.4855
  0
LINE
  5
281
100
AcDbEntity
  8
0
100
AcDbLine
 62
7
  6
CONTINUOUS
 10
5.8355
 20
6.488
 11
5.8855
 21
6.488
  0
LINE
  5
282
100
AcDbEntity
  8
0
100
AcDbLine
 62
7
  6
CONTINUOUS
 10
4.2185
 20
6.503
 11
3.7805
 21
6.503
  0
LINE
  5
283
100
AcDbEntity
  8
THREAD
100
AcDbLine
 62
7
  6
CONTINUOUS
 10
6.1995
 20
6.504
 11
5.9284393102
 21
6.504
  0
LINE
  5
284
100
AcDbEntity
  8
0
100
AcDbLine
 62
7
  6
CONTINUOUS
 10
5.2245
 20
6.5175
 11
5.2135
 21
6.5175
  0
LINE
  5
285
100
AcDbEntity
  8
THREAD
100
AcDbLine
 62
7
  6
CONTINUOUS
 10
5.8989944465
 20
6.542
 11
5.8855
 21
6.542
  0
LINE
  5
286
100
AcDbEntity
  8
0
100
AcDbLine
 62
7
  6
CONTINUOUS
 10
5.6320640646
 20
6.542
 11
5.3222994907
 21
6.542
  0
LINE
  5
287
100
AcDbEntity
  8
THREAD
100
AcDbLine
 62
7
  6
CONTINUOUS
 10
6.3275
 20
6.548
 11
6.2435
 21
6.548
  0
LINE
  5
288
100
AcDbEntity
  8
0
100
AcDbLine
 62
7
  6
CONTINUOUS
 10
6.7815
 20
6.5635
 11
6.8385
 21
6.5635
  0
LINE
  5
289
100
AcDbEntity
  8
0
100
AcDbLine
 62
7
  6
CONTINUOUS
 10
7.0365
 20
6.5635
 11
7.0775
 21
6.5635
  0
LINE
  5
28A
100
AcDbEntity
  8
0
100
AcDbLine
 62
7
  6
CONTINUOUS
 10
6.8385
 20
6.5645
 11
6.8885
 21
6.5645
  0
LINE
  5
28B
100
AcDbEntity
  8
0
100
AcDbLine
 62
7
  6
CONTINUOUS
 10
6.9585
 20
6.5645
 11
7.0085
 21
6.5645
  0
LINE
  5
28C
100
AcDbEntity
  8
0
100
AcDbLine
 62
7
  6
CONTINUOUS
 10
7.0365
 20
6.618
 11
7.0085
 21
6.618
  0
LINE
  5
28D
100
AcDbEntity
  8
0
100
AcDbLine
 62
7
  6
CONTINUOUS
 10
6.7815
 20
6.6255
 11
6.6245
 21
6.6255
  0
LINE
  5
28E
100
AcDbEntity
  8
0
100
AcDbLine
 62
7
  6
CONTINUOUS
 10
6.3745
 20
6.6255
 11
6.3435
 21
6.6255
  0
LINE
  5
28F
100
AcDbEntity
  8
0
100
AcDbLine
 62
7
  6
CONTINUOUS
 10
3.6566285896
 20
6.6755291487
 11
3.5549708513
 21
6.6755291487
  0
LINE
  5
290
100
AcDbEntity
  8
0
100
AcDbLine
 62
7
  6
CONTINUOUS
 10
3.7185
 20
6.729
 11
3.6875
 21
6.729
  0
LINE
  5
291
100
AcDbEntity
  8
0
100
AcDbLine
 62
7
  6
CONTINUOUS
 10
3.4745
 20
6.729
 11
3.4685
 21
6.729
  0
LINE
  5
292
100
AcDbEntity
  8
0
100
AcDbLine
 62
7
  6
CONTINUOUS
 10
4.8510743742
 20
7.5624834998
 11
4.8510743742
 21
7.534572037
  0
LINE
  5
293
100
AcDbEntity
  8
0
100
AcDbLine
 62
7
  6
CONTINUOUS
 10
4.8510743742
 20
6.4375165002
 11
4.8510743742
 21
6.465427963
  0
LINE
  5
294
100
AcDbEntity
  8
0
100
AcDbLine
 62
7
  6
CONTINUOUS
 10
4.8510743742
 20
6.9720885372
 11
4.8510743742
 21
7.0279114628
  0
LINE
  5
295
100
AcDbEntity
  8
0
100
AcDbLine
 62
7
  6
CONTINUOUS
 10
3.496
 20
6.7345
 11
3.48
 21
6.7345
  0
LINE
  5
296
100
AcDbEntity
  8
0
100
AcDbLine
 62
7
  6
CONTINUOUS
 10
2.9375
 20
6.816
 11
3.1365
 21
6.816
  0
LINE
  5
297
100
AcDbEntity
  8
0
100
AcDbLine
 62
7
  6
CONTINUOUS
 10
3.1745
 20
6.816
 11
3.4065
 21
6.816
  0
LINE
  5
298
100
AcDbEntity
  8
0
100
AcDbLine
 62
7
  6
CONTINUOUS
 10
3.6566285896
 20
6.8377645744
 11
3.5549708513
 21
6.8377645744
  0
LINE
  5
299
100
AcDbEntity
  8
0
100
AcDbLine
 62
7
  6
CONTINUOUS
 10
3.1365
 20
6.849
 11
3.1745
 21
6.849
  0
LINE
  5
29A
100
AcDbEntity
  8
0
100
AcDbLine
 62
7
  6
CONTINUOUS
 10
4.9065
 20
6.462
 11
4.9065
 21
7.538
  0
LINE
  5
29B
100
AcDbEntity
  8
0
100
AcDbLine
 62
7
  6
CONTINUOUS
 10
6.5947192696
 20
6.92
 11
6.515275731
 21
6.92
  0
LINE
  5
29C
100
AcDbEntity
  8
0
100
AcDbLine
 62
7
  6
CONTINUOUS
 10
6.515275731
 20
6.9223
 11
6.4023239216
 21
6.9223
  0
LINE
  5
29D
100
AcDbEntity
  8
0
100
AcDbLine
 62
7
  6
CONTINUOUS
 10
4.8510743742
 20
6.9720885372
 11
4.2641106713
 21
6.9720885372
  0
LINE
  5
29E
100
AcDbEntity
  8
0
100
AcDbLine
 62
7
  6
CONTINUOUS
 10
5.0905
 20
7.538
 11
5.0905
 21
6.462
  0
LINE
  5
29F
100
AcDbEntity
  8
0
100
AcDbLine
 62
7
  6
CONTINUOUS
 10
5.0935
 20
7.5365
 11
5.0935
 21
6.4635
  0
LINE
  5
2A0
100
AcDbEntity
  8
0
100
AcDbLine
 62
7
  6
CONTINUOUS
 10
5.1435
 20
7.5365
 11
5.1435
 21
6.4635
  0
LINE
  5
2A1
100
AcDbEntity
  8
0
100
AcDbLine
 62
7
  6
CONTINUOUS
 10
4.8510743742
 20
7.0279114628
 11
4.2641106713
 21
7.0279114628
  0
LINE
  5
2A2
100
AcDbEntity
  8
0
100
AcDbLine
 62
7
  6
CONTINUOUS
 10
6.515275731
 20
7.0777
 11
6.4023252172
 21
7.0777
  0
LINE
  5
2A3
100
AcDbEntity
  8
0
100
AcDbLine
 62
7
  6
CONTINUOUS
 10
6.5948208467
 20
7.08
 11
6.515275731
 21
7.08
  0
LINE
  5
2A4
100
AcDbEntity
  8
0
100
AcDbLine
 62
7
  6
CONTINUOUS
 10
3.1365
 20
7.151
 11
3.1745
 21
7.151
  0
LINE
  5
2A5
100
AcDbEntity
  8
0
100
AcDbLine
 62
7
  6
CONTINUOUS
 10
3.6566285896
 20
7.1622354256
 11
3.5549708513
 21
7.1622354256
  0
LINE
  5
2A6
100
AcDbEntity
  8
0
100
AcDbLine
 62
7
  6
CONTINUOUS
 10
5.2135
 20
7.5175
 11
5.2135
 21
6.4825
  0
LINE
  5
2A7
100
AcDbEntity
  8
0
100
AcDbLine
 62
7
  6
CONTINUOUS
 10
5.2245
 20
6.5175
 11
5.2245
 21
7.4825
  0
LINE
  5
2A8
100
AcDbEntity
  8
0
100
AcDbLine
 62
7
  6
CONTINUOUS
 10
5.2345
 20
6.465
 11
5.2345
 21
7.535
  0
LINE
  5
2A9
100
AcDbEntity
  8
0
100
AcDbLine
 62
7
  6
CONTINUOUS
 10
5.2375
 20
7.538
 11
5.2375
 21
6.462
  0
LINE
  5
2AA
100
AcDbEntity
  8
0
100
AcDbLine
 62
7
  6
CONTINUOUS
 10
5.277198019
 20
7.538
 11
5.277198019
 21
6.462
  0
LINE
  5
2AB
100
AcDbEntity
  8
0
100
AcDbLine
 62
7
  6
CONTINUOUS
 10
5.2800957965
 20
7.5357764571
 11
5.2800957965
 21
6.4642235429
  0
LINE
  5
2AC
100
AcDbEntity
  8
0
100
AcDbLine
 62
7
  6
CONTINUOUS
 10
5.3009359354
 20
7.458
 11
5.3009359354
 21
7.0
  0
LINE
  5
2AD
100
AcDbEntity
  8
127-413_FEATURES
100
AcDbLine
 62
7
  6
CONTINUOUS
 10
5.3009359354
 20
6.542334416
 11
5.3009359354
 21
7.0
  0
LINE
  5
2AE
100
AcDbEntity
  8
0
100
AcDbLine
 62
7
  6
CONTINUOUS
 10
4.9065
 20
6.462
 11
4.8914924035
 21
6.4360060804
  0
LINE
  5
2AF
100
AcDbEntity
  8
0
100
AcDbLine
 62
7
  6
CONTINUOUS
 10
2.9375
 20
7.184
 11
3.1365
 21
7.184
  0
LINE
  5
2B0
100
AcDbEntity
  8
0
100
AcDbLine
 62
7
  6
CONTINUOUS
 10
3.1745
 20
7.184
 11
3.4065
 21
7.184
  0
LINE
  5
2B1
100
AcDbEntity
  8
0
100
AcDbLine
 62
7
  6
CONTINUOUS
 10
3.496
 20
7.2655
 11
3.48
 21
7.2655
  0
LINE
  5
2B2
100
AcDbEntity
  8
0
100
AcDbLine
 62
7
  6
CONTINUOUS
 10
3.7185
 20
7.271
 11
3.6875
 21
7.271
  0
LINE
  5
2B3
100
AcDbEntity
  8
0
100
AcDbLine
 62
7
  6
CONTINUOUS
 10
3.4745
 20
7.271
 11
3.4685
 21
7.271
  0
LINE
  5
2B4
100
AcDbEntity
  8
0
100
AcDbLine
 62
7
  6
CONTINUOUS
 10
4.9065
 20
7.538
 11
4.8914924035
 21
7.5639939196
  0
LINE
  5
2B5
100
AcDbEntity
  8
0
100
AcDbLine
 62
7
  6
CONTINUOUS
 10
5.2950233107
 20
6.5199337842
 11
5.2800957965
 21
6.4642235429
  0
LINE
  5
2B6
100
AcDbEntity
  8
0
100
AcDbLine
 62
7
  6
CONTINUOUS
 10
3.6566285896
 20
7.3244708513
 11
3.5549708513
 21
7.3244708513
  0
LINE
  5
2B7
100
AcDbEntity
  8
0
100
AcDbLine
 62
7
  6
CONTINUOUS
 10
6.7815
 20
7.3745
 11
6.6245
 21
7.3745
  0
LINE
  5
2B8
100
AcDbEntity
  8
0
100
AcDbLine
 62
7
  6
CONTINUOUS
 10
6.3745
 20
7.3745
 11
6.3435
 21
7.3745
  0
LINE
  5
2B9
100
AcDbEntity
  8
0
100
AcDbLine
 62
7
  6
CONTINUOUS
 10
7.0365
 20
7.382
 11
7.0085
 21
7.382
  0
LINE
  5
2BA
100
AcDbEntity
  8
0
100
AcDbLine
 62
7
  6
CONTINUOUS
 10
6.285
 20
7.4108581236
 11
6.244
 21
7.4108581236
  0
LINE
  5
2BB
100
AcDbEntity
  8
0
100
AcDbLine
 62
7
  6
CONTINUOUS
 10
6.8385
 20
7.4355
 11
6.8885
 21
7.4355
  0
LINE
  5
2BC
100
AcDbEntity
  8
0
100
AcDbLine
 62
7
  6
CONTINUOUS
 10
6.9585
 20
7.4355
 11
7.0085
 21
7.4355
  0
LINE
  5
2BD
100
AcDbEntity
  8
0
100
AcDbLine
 62
7
  6
CONTINUOUS
 10
6.7815
 20
7.4365
 11
6.8385
 21
7.4365
  0
LINE
  5
2BE
100
AcDbEntity
  8
0
100
AcDbLine
 62
7
  6
CONTINUOUS
 10
7.0365
 20
7.4365
 11
7.0775
 21
7.4365
  0
LINE
  5
2BF
100
AcDbEntity
  8
THREAD
100
AcDbLine
 62
7
  6
CONTINUOUS
 10
6.3275
 20
7.452
 11
6.285
 21
7.452
  0
LINE
  5
2C0
100
AcDbEntity
  8
THREAD
100
AcDbLine
 62
7
  6
CONTINUOUS
 10
6.244
 20
7.452
 11
6.2435
 21
7.452
  0
LINE
  5
2C1
100
AcDbEntity
  8
0
100
AcDbLine
 62
7
  6
CONTINUOUS
 10
5.3009359354
 20
7.458
 11
5.2800957965
 21
7.5357764571
  0
LINE
  5
2C2
100
AcDbEntity
  8
0
100
AcDbLine
 62
7
  6
CONTINUOUS
 10
5.6529042035
 20
7.5357764571
 11
5.6320640646
 21
7.458
  0
LINE
  5
2C3
100
AcDbEntity
  8
THREAD
100
AcDbLine
 62
7
  6
CONTINUOUS
 10
5.9284393102
 20
7.496
 11
5.9102527763
 21
7.4644999993
  0
LINE
  5
2C4
100
AcDbEntity
  8
THREAD
100
AcDbLine
 62
7
  6
CONTINUOUS
 10
5.8989944465
 20
7.458
 11
5.8855
 21
7.458
  0
LINE
  5
2C5
100
AcDbEntity
  8
0
100
AcDbLine
 62
7
  6
CONTINUOUS
 10
5.6320640646
 20
7.458
 11
5.3009359354
 21
7.458
  0
LINE
  5
2C6
100
AcDbEntity
  8
0
100
AcDbLine
 62
7
  6
CONTINUOUS
 10
5.2245
 20
7.4825
 11
5.2135
 21
7.4825
  0
LINE
  5
2C7
100
AcDbEntity
  8
THREAD
100
AcDbLine
 62
7
  6
CONTINUOUS
 10
6.1995
 20
7.496
 11
5.9284393102
 21
7.496
  0
LINE
  5
2C8
100
AcDbEntity
  8
0
100
AcDbLine
 62
7
  6
CONTINUOUS
 10
4.2185
 20
7.497
 11
3.7805
 21
7.497
  0
LINE
  5
2C9
100
AcDbEntity
  8
0
100
AcDbLine
 62
7
  6
CONTINUOUS
 10
5.8355
 20
7.512
 11
5.8855
 21
7.512
  0
LINE
  5
2CA
100
AcDbEntity
  8
THREAD
100
AcDbLine
 62
7
  6
CONTINUOUS
 10
5.7625
 20
7.5145
 11
5.7423564065
 21
7.5145
  0
LINE
  5
2CB
100
AcDbEntity
  8
0
100
AcDbLine
 62
7
  6
CONTINUOUS
 10
4.8510743742
 20
7.534572037
 11
4.2641106713
 21
7.534572037
  0
LINE
  5
2CC
100
AcDbEntity
  8
0
100
AcDbLine
 62
7
  6
CONTINUOUS
 10
5.0935
 20
7.5365
 11
5.1435
 21
7.5365
  0
LINE
  5
2CD
100
AcDbEntity
  8
0
100
AcDbLine
 62
7
  6
CONTINUOUS
 10
5.7155
 20
7.538
 11
5.655801981
 21
7.538
  0
LINE
  5
2CE
100
AcDbEntity
  8
0
100
AcDbLine
 62
7
  6
CONTINUOUS
 10
5.277198019
 20
7.538
 11
5.2375
 21
7.538
  0
LINE
  5
2CF
100
AcDbEntity
  8
0
100
AcDbLine
 62
7
  6
CONTINUOUS
 10
5.0905
 20
7.538
 11
4.9065
 21
7.538
  0
LINE
  5
2D0
100
AcDbEntity
  8
0
100
AcDbLine
 62
7
  6
CONTINUOUS
 10
4.2228303327
 20
7.5624834998
 11
4.8923547127
 21
7.5624834998
  0
LINE
  5
2D1
100
AcDbEntity
  8
THREAD
100
AcDbLine
 62
7
  6
CONTINUOUS
 10
5.9284393102
 20
6.504
 11
5.9102527763
 21
6.5355000007
  0
LINE
  5
2D2
100
AcDbEntity
  8
0
100
AcDbLine
 62
7
  6
CONTINUOUS
 10
5.6529042035
 20
6.4642235429
 11
5.6320640646
 21
6.542
  0
LINE
  5
2D3
100
AcDbEntity
  8
0
100
AcDbLine
 62
7
  6
CONTINUOUS
 10
5.6320640646
 20
6.542
 11
5.6320640646
 21
7.458
  0
LINE
  5
2D4
100
AcDbEntity
  8
0
100
AcDbLine
 62
7
  6
CONTINUOUS
 10
5.6529042035
 20
7.5357764571
 11
5.6529042035
 21
6.4642235429
  0
LINE
  5
2D5
100
AcDbEntity
  8
0
100
AcDbLine
 62
7
  6
CONTINUOUS
 10
5.655801981
 20
7.538
 11
5.655801981
 21
6.462
  0
LINE
  5
2D6
100
AcDbEntity
  8
0
100
AcDbLine
 62
7
  6
CONTINUOUS
 10
5.7155
 20
7.538
 11
5.7155
 21
6.462
  0
LINE
  5
2D7
100
AcDbEntity
  8
0
100
AcDbLine
 62
7
  6
CONTINUOUS
 10
5.7185
 20
7.5349999749
 11
5.7185
 21
6.4650000251
  0
LINE
  5
2D8
100
AcDbEntity
  8
0
100
AcDbLine
 62
7
  6
CONTINUOUS
 10
5.7210000001
 20
6.4739433757
 11
5.7210000001
 21
7.5260566243
  0
LINE
  5
2D9
100
AcDbEntity
  8
0
100
AcDbLine
 62
7
  6
CONTINUOUS
 10
5.7398564062
 20
6.4848301269
 11
5.7398564062
 21
7.5151698731
  0
LINE
  5
2DA
100
AcDbEntity
  8
0
100
AcDbLine
 62
7
  6
CONTINUOUS
 10
5.7398564063
 20
7.515169873
 11
5.7423564065
 21
7.5145
  0
LINE
  5
2DB
100
AcDbEntity
  8
0
100
AcDbLine
 62
7
  6
CONTINUOUS
 10
5.7423564065
 20
6.4855
 11
5.7423564065
 21
7.5145
  0
LINE
  5
2DC
100
AcDbEntity
  8
0
100
AcDbLine
 62
7
  6
CONTINUOUS
 10
5.7625
 20
7.5145
 11
5.7625
 21
6.4855
  0
LINE
  5
2DD
100
AcDbEntity
  8
0
100
AcDbLine
 62
7
  6
CONTINUOUS
 10
5.7655
 20
7.5114909823
 11
5.7655
 21
6.4885090177
  0
LINE
  5
2DE
100
AcDbEntity
  8
0
100
AcDbLine
 62
7
  6
CONTINUOUS
 10
5.8355
 20
7.512
 11
5.8355
 21
6.488
  0
LINE
  5
2DF
100
AcDbEntity
  8
0
100
AcDbLine
 62
7
  6
CONTINUOUS
 10
5.8855
 20
7.512
 11
5.8855
 21
6.488
  0
LINE
  5
2E0
100
AcDbEntity
  8
THREAD
100
AcDbLine
 62
7
  6
CONTINUOUS
 10
5.7398564063
 20
6.484830127
 11
5.7210000001
 21
6.4739433758
  0
LINE
  5
2E1
100
AcDbEntity
  8
THREAD
100
AcDbLine
 62
7
  6
CONTINUOUS
 10
5.7398564063
 20
7.515169873
 11
5.7210000001
 21
7.5260566242
  0
LINE
  5
2E2
100
AcDbEntity
  8
THREAD
100
AcDbLine
 62
7
  6
CONTINUOUS
 10
5.8989944465
 20
6.542
 11
5.8989944465
 21
7.458
  0
LINE
  5
2E3
100
AcDbEntity
  8
THREAD
100
AcDbLine
 62
7
  6
CONTINUOUS
 10
5.9102527763
 20
6.5355000008
 11
5.9102527763
 21
7.4644999992
  0
LINE
  5
2E4
100
AcDbEntity
  8
THREAD
100
AcDbLine
 62
7
  6
CONTINUOUS
 10
5.9284393102
 20
6.504
 11
5.9284393102
 21
7.496
  0
LINE
  5
2E5
100
AcDbEntity
  8
THREAD
100
AcDbLine
 62
7
  6
CONTINUOUS
 10
6.1995
 20
6.504
 11
6.1995
 21
7.496
  0
LINE
  5
2E6
100
AcDbEntity
  8
THREAD
100
AcDbLine
 62
7
  6
CONTINUOUS
 10
6.2435
 20
6.548
 11
6.2435
 21
7.452
  0
LINE
  5
2E7
100
AcDbEntity
  8
0
100
AcDbLine
 62
7
  6
CONTINUOUS
 10
6.244
 20
7.4108581236
 11
6.244
 21
7.452
  0
LINE
  5
2E8
100
AcDbEntity
  8
0
100
AcDbLine
 62
7
  6
CONTINUOUS
 10
6.285
 20
7.4108581236
 11
6.285
 21
7.452
  0
LINE
  5
2E9
100
AcDbEntity
  8
THREAD
100
AcDbLine
 62
7
  6
CONTINUOUS
 10
6.2435
 20
6.548
 11
6.1995
 21
6.504
  0
LINE
  5
2EA
100
AcDbEntity
  8
0
100
AcDbLine
 62
7
  6
CONTINUOUS
 10
6.3435
 20
6.564
 11
6.3275
 21
6.548
  0
LINE
  5
2EB
100
AcDbEntity
  8
THREAD
100
AcDbLine
 62
7
  6
CONTINUOUS
 10
6.2435
 20
7.452
 11
6.1995
 21
7.496
  0
LINE
  5
2EC
100
AcDbEntity
  8
0
100
AcDbLine
 62
7
  6
CONTINUOUS
 10
6.3435
 20
7.436
 11
6.3275
 21
7.452
  0
LINE
  5
2ED
100
AcDbEntity
  8
0
100
AcDbLine
 62
7
  6
CONTINUOUS
 10
6.3275
 20
6.548
 11
6.3275
 21
7.452
  0
LINE
  5
2EE
100
AcDbEntity
  8
0
100
AcDbLine
 62
7
  6
CONTINUOUS
 10
6.3435
 20
6.5640118841
 11
6.3435
 21
7.4359881159
  0
LINE
  5
2EF
100
AcDbEntity
  8
0
100
AcDbLine
 62
7
  6
CONTINUOUS
 10
6.515275731
 20
6.92
 11
6.515275731
 21
7.08
  0
LINE
  5
2F0
100
AcDbEntity
  8
0
100
AcDbLine
 62
7
  6
CONTINUOUS
 10
6.7815
 20
7.4365
 11
6.7815
 21
6.5635
  0
LINE
  5
2F1
100
AcDbEntity
  8
0
100
AcDbLine
 62
7
  6
CONTINUOUS
 10
6.8385
 20
7.4365
 11
6.8385
 21
6.5635
  0
LINE
  5
2F2
100
AcDbEntity
  8
0
100
AcDbLine
 62
7
  6
CONTINUOUS
 10
6.8885
 20
7.4355
 11
6.8885
 21
6.5645
  0
LINE
  5
2F3
100
AcDbEntity
  8
0
100
AcDbLine
 62
7
  6
CONTINUOUS
 10
7.0775
 20
6.5635
 11
7.0935
 21
6.5795
  0
LINE
  5
2F4
100
AcDbEntity
  8
0
100
AcDbLine
 62
7
  6
CONTINUOUS
 10
7.0775
 20
7.4365
 11
7.0935
 21
7.4205
  0
LINE
  5
2F5
100
AcDbEntity
  8
0
100
AcDbLine
 62
7
  6
CONTINUOUS
 10
6.9585
 20
7.4355
 11
6.9585
 21
6.5645
  0
LINE
  5
2F6
100
AcDbEntity
  8
0
100
AcDbLine
 62
7
  6
CONTINUOUS
 10
7.0085
 20
7.4355
 11
7.0085
 21
6.5645
  0
LINE
  5
2F7
100
AcDbEntity
  8
0
100
AcDbLine
 62
7
  6
CONTINUOUS
 10
7.0365
 20
7.4365
 11
7.0365
 21
6.5635
  0
LINE
  5
2F8
100
AcDbEntity
  8
0
100
AcDbLine
 62
7
  6
CONTINUOUS
 10
7.0775
 20
7.4365
 11
7.0775
 21
6.5635
  0
LINE
  5
2F9
100
AcDbEntity
  8
0
100
AcDbLine
 62
7
  6
CONTINUOUS
 10
7.0935
 20
7.4205
 11
7.0935
 21
6.5795
  0
ARC
  5
2FA
100
AcDbEntity
  8
127-413_FEATURES
100
AcDbCircle
 62
7
  6
CONTINUOUS
 10
8.4898941735
 20
5.6886313973
 40
3.3012518063
100
AcDbArc
 50
165.0130052432
 51
165.4151013423
  0
ARC
  5
2FB
100
AcDbEntity
  8
127-413_FEATURES
100
AcDbCircle
 62
7
  6
CONTINUOUS
 10
5.300530228
 20
5.8338634434
 40
0.7084710888
100
AcDbArc
 50
88.2391896395
 51
89.9671894518
  0
CIRCLE
  5
2FC
100
AcDbEntity
  8
0
100
AcDbCircle
 62
7
  6
CONTINUOUS
 10
6.4995
 20
7.0
 40
0.125
  0
ARC
  5
2FD
100
AcDbEntity
  8
0
100
AcDbCircle
 62
7
  6
CONTINUOUS
 10
3.4685
 20
6.823
 40
0.094
100
AcDbArc
 50
228.732572619
 51
270.0
  0
ARC
  5
2FE
100
AcDbEntity
  8
0
100
AcDbCircle
 62
7
  6
CONTINUOUS
 10
3.4685
 20
7.177
 40
0.094
100
AcDbArc
 50
90.0
 51
131.267427381
  0
ARC
  5
2FF
100
AcDbEntity
  8
THREAD
100
AcDbCircle
 62
7
  6
CONTINUOUS
 10
5.8989944465
 20
6.529
 40
0.013
100
AcDbArc
 50
30.0000035347
 51
90.0
  0
ARC
  5
300
100
AcDbEntity
  8
THREAD
100
AcDbCircle
 62
7
  6
CONTINUOUS
 10
5.8989944465
 20
7.471
 40
0.013
100
AcDbArc
 50
270.0
 51
329.9999964653
  0
ARC
  5
301
100
AcDbEntity
  8
0
100
AcDbCircle
 62
7
  6
CONTINUOUS
 10
5.2245
 20
7.4925
 40
0.01
100
AcDbArc
 50
270.0
 51
360.0
  0
ARC
  5
302
100
AcDbEntity
  8
0
100
AcDbCircle
 62
7
  6
CONTINUOUS
 10
5.2245
 20
6.5075
 40
0.01
100
AcDbArc
 50
0.0
 51
90.0
  0
ARC
  5
303
100
AcDbEntity
  8
0
100
AcDbCircle
 62
7
  6
CONTINUOUS
 10
5.7235
 20
7.5303867513
 40
0.005
100
AcDbArc
 50
180.0000035594
 51
240.0000017825
  0
ARC
  5
304
100
AcDbEntity
  8
0
100
AcDbCircle
 62
7
  6
CONTINUOUS
 10
5.7235
 20
6.4696132487
 40
0.005
100
AcDbArc
 50
119.9999982175
 51
179.9999964405
  0
ARC
  5
305
100
AcDbEntity
  8
0
100
AcDbCircle
 62
7
  6
CONTINUOUS
 10
5.7625
 20
7.5115
 40
0.003
100
AcDbArc
 50
0.0
 51
90.0
  0
ARC
  5
306
100
AcDbEntity
  8
0
100
AcDbCircle
 62
7
  6
CONTINUOUS
 10
5.0905
 20
7.535
 40
0.003
100
AcDbArc
 50
0.0
 51
90.0
  0
ARC
  5
307
100
AcDbEntity
  8
0
100
AcDbCircle
 62
7
  6
CONTINUOUS
 10
5.2375
 20
7.535
 40
0.003
100
AcDbArc
 50
90.0
 51
180.0
  0
ARC
  5
308
100
AcDbEntity
  8
0
100
AcDbCircle
 62
7
  6
CONTINUOUS
 10
5.277198019
 20
7.535
 40
0.003
100
AcDbArc
 50
15.0
 51
90.0
  0
ARC
  5
309
100
AcDbEntity
  8
0
100
AcDbCircle
 62
7
  6
CONTINUOUS
 10
5.655801981
 20
7.535
 40
0.003
100
AcDbArc
 50
90.0
 51
165.0
  0
ARC
  5
30A
100
AcDbEntity
  8
0
100
AcDbCircle
 62
7
  6
CONTINUOUS
 10
5.7155
 20
7.535
 40
0.003
100
AcDbArc
 50
359.9999216731
 51
90.0
  0
ARC
  5
30B
100
AcDbEntity
  8
0
100
AcDbCircle
 62
7
  6
CONTINUOUS
 10
5.7625
 20
6.4885
 40
0.003
100
AcDbArc
 50
270.0
 51
360.0
  0
ARC
  5
30C
100
AcDbEntity
  8
0
100
AcDbCircle
 62
7
  6
CONTINUOUS
 10
5.0905
 20
6.465
 40
0.003
100
AcDbArc
 50
270.0
 51
360.0
  0
ARC
  5
30D
100
AcDbEntity
  8
0
100
AcDbCircle
 62
7
  6
CONTINUOUS
 10
5.2375
 20
6.465
 40
0.003
100
AcDbArc
 50
180.0
 51
270.0
  0
ARC
  5
30E
100
AcDbEntity
  8
0
100
AcDbCircle
 62
7
  6
CONTINUOUS
 10
5.277198019
 20
6.465
 40
0.003
100
AcDbArc
 50
270.0
 51
345.0
  0
ARC
  5
30F
100
AcDbEntity
  8
0
100
AcDbCircle
 62
7
  6
CONTINUOUS
 10
5.655801981
 20
6.465
 40
0.003
100
AcDbArc
 50
195.0
 51
270.0
  0
ARC
  5
310
100
AcDbEntity
  8
0
100
AcDbCircle
 62
7
  6
CONTINUOUS
 10
5.7155
 20
6.465
 40
0.003
100
AcDbArc
 50
270.0
 51
0.0000783269
  0
SPLINE
  5
311
100
AcDbEntity
  8
0
100
AcDbSpline
 62
7
  6
CONTINUOUS
 70
0
 71
3
 72
29
 73
25
 74
0
 42
0.0000001
 43
0.0000001
 44
0.0000000001
 40
0.0
 40
0.0
 40
0.0
 40
0.0
 40
0.0699814326
 40
0.1378931693
 40
0.2035483063
 40
0.2668301071
 40
0.3277577624
 40
0.3574096745
 40
0.3865762134
 40
0.4153250756
 40
0.4437427141
 40
0.4719307121
 40
0.5000000301
 40
0.5280693453
 40
0.5562573422
 40
0.5846749808
 40
0.6134238382
 40
0.6425903726
 40
0.6722422822
 40
0.7331699209
 40
0.796451712
 40
0.8621068357
 40
0.9300185679
 40
1.0
 40
1.0
 40
1.0
 40
1.0
 10
3.5549708513
 20
7.1622354256
 30
0.0
 10
3.5518560267
 20
7.1653502502
 30
0.0
 10
3.5458485704
 20
7.171620498
 30
0.0
 10
3.5374837005
 20
7.1813347699
 30
0.0
 10
3.5300144878
 20
7.1912347025
 30
0.0
 10
3.5235857871
 20
7.2013263651
 30
0.0
 10
3.5191793193
 20
7.2099734854
 30
0.0
 10
3.516352393
 20
7.2169651849
 30
0.0
 10
3.5146052759
 20
7.2221969955
 30
0.0
 10
3.5132274621
 20
7.2274580884
 30
0.0
 10
3.5122350053
 20
7.2327430445
 30
0.0
 10
3.5116348105
 20
7.238043924
 30
0.0
 10
3.5114327377
 20
7.243353144
 30
0.0
 10
3.5116348076
 20
7.2486623643
 30
0.0
 10
3.51223501
 20
7.2539632427
 30
0.0
 10
3.5132274641
 20
7.2592481987
 30
0.0
 10
3.5146052762
 20
7.2645092916
 30
0.0
 10
3.5163523974
 20
7.2697411001
 30
0.0
 10
3.5191793222
 20
7.2767327984
 30
0.0
 10
3.5235857895
 20
7.2853799171
 30
0.0
 10
3.5300144902
 20
7.2954715767
 30
0.0
 10
3.5374837013
 20
7.3053715083
 30
0.0
 10
3.5458485708
 20
7.3150857791
 30
0.0
 10
3.5518560267
 20
7.3213560267
 30
0.0
 10
3.5549708513
 20
7.3244708513
 30
0.0
  0
SPLINE
  5
312
100
AcDbEntity
  8
0
100
AcDbSpline
 62
7
  6
CONTINUOUS
 70
0
 71
3
 72
25
 73
21
 74
0
 42
0.0000001
 43
0.0000001
 44
0.0000000001
 40
0.0
 40
0.0
 40
0.0
 40
0.0
 40
0.0659343996
 40
0.1307786338
 40
0.1945190869
 40
0.2571884297
 40
0.3188803748
 40
0.3494111547
 40
0.3797624252
 40
0.4400381959
 40
0.5000000142
 40
0.5599618336
 40
0.6202376013
 40
0.6505888715
 40
0.68111965
 40
0.7428115909
 40
0.8054809287
 40
0.8692213713
 40
0.9340656013
 40
1.0
 40
1.0
 40
1.0
 40
1.0
 10
3.6566285896
 20
6.6755291487
 30
0.0
 10
3.658516559
 20
6.6787992076
 30
0.0
 10
3.6621349301
 20
6.6853595679
 30
0.0
 10
3.667066339
 20
6.6953530604
 30
0.0
 10
3.6713954557
 20
6.7054202562
 30
0.0
 10
3.6750566079
 20
6.7155586034
 30
0.0
 10
3.6775068654
 20
6.7240922681
 30
0.0
 10
3.6790671299
 20
6.7309378364
 30
0.0
 10
3.6803474037
 20
6.7377586365
 30
0.0
 10
3.6814342196
 20
6.7463242762
 30
0.0
 10
3.681871496
 20
6.756646864
 30
0.0
 10
3.6814342204
 20
6.7669694518
 30
0.0
 10
3.6803474027
 20
6.7755350912
 30
0.0
 10
3.6790671279
 20
6.7823558908
 30
0.0
 10
3.6775068664
 20
6.7892014594
 30
0.0
 10
3.6750566054
 20
6.7977351226
 30
0.0
 10
3.6713954555
 20
6.8078734694
 30
0.0
 10
3.6670663383
 20
6.8179406637
 30
0.0
 10
3.6621349298
 20
6.8279341554
 30
0.0
 10
3.658516559
 20
6.8344945155
 30
0.0
 10
3.6566285896
 20
6.8377645744
 30
0.0
  0
SPLINE
  5
313
100
AcDbEntity
  8
0
100
AcDbSpline
 62
7
  6
CONTINUOUS
 70
0
 71
3
 72
29
 73
25
 74
0
 42
0.0000001
 43
0.0000001
 44
0.0000000001
 40
0.0
 40
0.0
 40
0.0
 40
0.0
 40
0.0699814326
 40
0.1378931693
 40
0.2035483063
 40
0.2668301071
 40
0.3277577624
 40
0.3574096745
 40
0.3865762134
 40
0.4153250756
 40
0.4437427141
 40
0.4719307121
 40
0.5000000301
 40
0.5280693453
 40
0.5562573422
 40
0.5846749808
 40
0.6134238382
 40
0.6425903726
 40
0.6722422822
 40
0.7331699209
 40
0.796451712
 40
0.8621068357
 40
0.9300185679
 40
1.0
 40
1.0
 40
1.0
 40
1.0
 10
3.5549708513
 20
6.6755291487
 30
0.0
 10
3.5518560267
 20
6.6786439733
 30
0.0
 10
3.5458485704
 20
6.684914221
 30
0.0
 10
3.5374837005
 20
6.694628493
 30
0.0
 10
3.5300144878
 20
6.7045284256
 30
0.0
 10
3.5235857871
 20
6.7146200881
 30
0.0
 10
3.5191793193
 20
6.7232672085
 30
0.0
 10
3.516352393
 20
6.7302589079
 30
0.0
 10
3.5146052759
 20
6.7354907185
 30
0.0
 10
3.5132274621
 20
6.7407518115
 30
0.0
 10
3.5122350053
 20
6.7460367676
 30
0.0
 10
3.5116348105
 20
6.751337647
 30
0.0
 10
3.5114327377
 20
6.756646867
 30
0.0
 10
3.5116348076
 20
6.7619560874
 30
0.0
 10
3.51223501
 20
6.7672569657
 30
0.0
 10
3.5132274641
 20
6.7725419217
 30
0.0
 10
3.5146052762
 20
6.7778030147
 30
0.0
 10
3.5163523974
 20
6.7830348231
 30
0.0
 10
3.5191793222
 20
6.7900265215
 30
0.0
 10
3.5235857895
 20
6.7986736402
 30
0.0
 10
3.5300144902
 20
6.8087652997
 30
0.0
 10
3.5374837013
 20
6.8186652314
 30
0.0
 10
3.5458485708
 20
6.8283795022
 30
0.0
 10
3.5518560267
 20
6.8346497498
 30
0.0
 10
3.5549708513
 20
6.8377645744
 30
0.0
  0
SPLINE
  5
314
100
AcDbEntity
  8
0
100
AcDbSpline
 62
7
  6
CONTINUOUS
 70
0
 71
3
 72
25
 73
21
 74
0
 42
0.0000001
 43
0.0000001
 44
0.0000000001
 40
0.0
 40
0.0
 40
0.0
 40
0.0
 40
0.1249859891
 40
0.1874862541
 40
0.2499858822
 40
0.2812379746
 40
0.3124899424
 40
0.3437420673
 40
0.3749949169
 40
0.4374972714
 40
0.5000000149
 40
0.5625027595
 40
0.6250051101
 40
0.6562579591
 40
0.6875100837
 40
0.7187620486
 40
0.750014138
 40
0.8125137618
 40
0.8750140159
 40
1.0
 40
1.0
 40
1.0
 40
1.0
 10
3.6566285896
 20
6.8377645744
 30
0.0
 10
3.6604350268
 20
6.8509504595
 30
0.0
 10
3.6656657731
 20
6.8708762575
 30
0.0
 10
3.6714293362
 20
6.8977181122
 30
0.0
 10
3.6744738555
 20
6.914607377
 30
0.0
 10
3.6765429788
 20
6.9281774237
 30
0.0
 10
3.6779051271
 20
6.9383826107
 30
0.0
 10
3.6790702724
 20
6.9486123073
 30
0.0
 10
3.6803521573
 20
6.9622797041
 30
0.0
 10
3.681436007
 20
6.9794089268
 30
0.0
 10
3.6818709837
 20
7.000000005
 30
0.0
 10
3.6814360078
 20
7.0205910829
 30
0.0
 10
3.6803521563
 20
7.0377203051
 30
0.0
 10
3.6790702703
 20
7.0513877012
 30
0.0
 10
3.6779051274
 20
7.0616173977
 30
0.0
 10
3.6765429781
 20
7.071822584
 30
0.0
 10
3.6744738535
 20
7.0853926293
 30
0.0
 10
3.6714293361
 20
7.1022818924
 30
0.0
 10
3.6656657721
 20
7.1291237446
 30
0.0
 10
3.6604350266
 20
7.1490495411
 30
0.0
 10
3.6566285896
 20
7.1622354256
 30
0.0
  0
SPLINE
  5
315
100
AcDbEntity
  8
0
100
AcDbSpline
 62
7
  6
CONTINUOUS
 70
0
 71
3
 72
29
 73
25
 74
0
 42
0.0000001
 43
0.0000001
 44
0.0000000001
 40
0.0
 40
0.0
 40
0.0
 40
0.0
 40
0.0624904563
 40
0.124986907
 40
0.1874824592
 40
0.2499774484
 40
0.3124737491
 40
0.343727532
 40
0.3749816508
 40
0.4062351141
 40
0.4374899104
 40
0.4687452438
 40
0.5000000338
 40
0.5312548209
 40
0.562510151
 40
0.5937649481
 40
0.6250184069
 40
0.6562725173
 40
0.6875262971
 40
0.7500225805
 40
0.8125175578
 40
0.8750130976
 40
0.937509544
 40
1.0
 40
1.0
 40
1.0
 40
1.0
 10
3.5549708513
 20
6.8377645744
 30
0.0
 10
3.5518128872
 20
6.8440805025
 30
0.0
 10
3.5457161719
 20
6.8568246313
 30
0.0
 10
3.5373492137
 20
6.8762947767
 30
0.0
 10
3.5298856662
 20
6.8961319207
 30
0.0
 10
3.5234741834
 20
6.9163355535
 30
0.0
 10
3.5191318882
 20
6.9334620213
 30
0.0
 10
3.5163365363
 20
6.9473104666
 30
0.0
 10
3.5145940873
 20
6.9577634496
 30
0.0
 10
3.5132206746
 20
6.968271489
 30
0.0
 10
3.5122319259
 20
6.9788229566
 30
0.0
 10
3.5116341443
 20
6.9894039589
 30
0.0
 10
3.5114329292
 20
7.0000000111
 30
0.0
 10
3.5116341413
 20
7.0105960632
 30
0.0
 10
3.5122319307
 20
7.0211770644
 30
0.0
 10
3.5132206767
 20
7.0317285313
 30
0.0
 10
3.5145940874
 20
7.0422365698
 30
0.0
 10
3.5163365409
 20
7.0526895502
 30
0.0
 10
3.5191318911
 20
7.0665379924
 30
0.0
 10
3.5234741857
 20
7.0836644567
 30
0.0
 10
3.5298856688
 20
7.1038680844
 30
0.0
 10
3.5373492145
 20
7.1237052256
 30
0.0
 10
3.5457161724
 20
7.1431753692
 30
0.0
 10
3.5518128872
 20
7.1559194975
 30
0.0
 10
3.5549708513
 20
7.1622354256
 30
0.0
  0
SPLINE
  5
316
100
AcDbEntity
  8
0
100
AcDbSpline
 62
7
  6
CONTINUOUS
 70
0
 71
3
 72
25
 73
21
 74
0
 42
0.0000001
 43
0.0000001
 44
0.0000000001
 40
0.0
 40
0.0
 40
0.0
 40
0.0
 40
0.0659343996
 40
0.1307786338
 40
0.1945190869
 40
0.2571884297
 40
0.3188803748
 40
0.3494111547
 40
0.3797624252
 40
0.4400381959
 40
0.5000000142
 40
0.5599618336
 40
0.6202376013
 40
0.6505888715
 40
0.68111965
 40
0.7428115909
 40
0.8054809287
 40
0.8692213713
 40
0.9340656013
 40
1.0
 40
1.0
 40
1.0
 40
1.0
 10
3.6566285896
 20
7.1622354256
 30
0.0
 10
3.658516559
 20
7.1655054845
 30
0.0
 10
3.6621349301
 20
7.1720658448
 30
0.0
 10
3.667066339
 20
7.1820593374
 30
0.0
 10
3.6713954557
 20
7.1921265331
 30
0.0
 10
3.6750566079
 20
7.2022648803
 30
0.0
 10
3.6775068654
 20
7.210798545
 30
0.0
 10
3.6790671299
 20
7.2176441133
 30
0.0
 10
3.6803474037
 20
7.2244649134
 30
0.0
 10
3.6814342196
 20
7.2330305531
 30
0.0
 10
3.681871496
 20
7.243353141
 30
0.0
 10
3.6814342204
 20
7.2536757287
 30
0.0
 10
3.6803474027
 20
7.2622413681
 30
0.0
 10
3.6790671279
 20
7.2690621677
 30
0.0
 10
3.6775068664
 20
7.2759077364
 30
0.0
 10
3.6750566054
 20
7.2844413995
 30
0.0
 10
3.6713954555
 20
7.2945797463
 30
0.0
 10
3.6670663383
 20
7.3046469406
 30
0.0
 10
3.6621349298
 20
7.3146404323
 30
0.0
 10
3.658516559
 20
7.3212007924
 30
0.0
 10
3.6566285896
 20
7.3244708513
 30
0.0
  0
SPLINE
  5
317
100
AcDbEntity
  8
0
100
AcDbSpline
 62
7
  6
CONTINUOUS
 70
0
 71
3
 72
25
 73
21
 74
0
 42
0.0000001
 43
0.0000001
 44
0.0000000001
 40
0.0
 40
0.0
 40
0.0
 40
0.0
 40
0.0396158134
 40
0.1496653553
 40
0.2252230771
 40
0.2669611985
 40
0.3108608896
 40
0.3565357821
 40
0.4035813067
 40
0.4515566407
 40
0.5000041978
 40
0.5484519428
 40
0.5964270935
 40
0.6434728253
 40
0.6891471769
 40
0.7330463341
 40
0.7747833372
 40
0.8503390395
 40
0.9603853059
 40
1.0
 40
1.0
 40
1.0
 40
1.0
 10
6.6245
 20
7.3745
 30
0.0
 10
6.6213091946
 20
7.3734349096
 30
0.0
 10
6.6092115059
 20
7.3695339453
 30
0.0
 10
6.5907724066
 20
7.3644002725
 30
0.0
 10
6.5719048335
 20
7.3602731944
 30
0.0
 10
6.558429568
 20
7.3578550385
 30
0.0
 10
6.5474001811
 20
7.3561997813
 30
0.0
 10
6.5358776861
 20
7.3548277201
 30
0.0
 10
6.5239714365
 20
7.3538030116
 30
0.0
 10
6.5118021818
 20
7.3531656049
 30
0.0
 10
6.4994989137
 20
7.352952432
 30
0.0
 10
6.4871956605
 20
7.3531656483
 30
0.0
 10
6.4750263963
 20
7.3538032003
 30
0.0
 10
6.4631201893
 20
7.354827894
 30
0.0
 10
6.4515977835
 20
7.3562000831
 30
0.0
 10
6.4405685819
 20
7.3578553165
 30
0.0
 10
6.4270936415
 20
7.360273521
 30
0.0
 10
6.4082266107
 20
7.3644005211
 30
0.0
 10
6.3897880453
 20
7.3695340796
 30
0.0
 10
6.3776907147
 20
7.3734349384
 30
0.0
 10
6.3745
 20
7.3745
 30
0.0
  0
SPLINE
  5
318
100
AcDbEntity
  8
0
100
AcDbSpline
 62
7
  6
CONTINUOUS
 70
0
 71
3
 72
25
 73
21
 74
0
 42
0.0000001
 43
0.0000001
 44
0.0000000001
 40
0.0
 40
0.0
 40
0.0
 40
0.0
 40
0.0396157255
 40
0.149665052
 40
0.2252226436
 40
0.2669606834
 40
0.3108603173
 40
0.356535131
 40
0.4035806137
 40
0.4515558598
 40
0.5000033561
 40
0.548451007
 40
0.596426119
 40
0.6434717877
 40
0.6891461844
 40
0.7330454063
 40
0.7747825517
 40
0.8503385182
 40
0.9603851629
 40
1.0
 40
1.0
 40
1.0
 40
1.0
 10
6.3745
 20
6.6255
 30
0.0
 10
6.3776907983
 20
6.6265650881
 30
0.0
 10
6.3897884623
 20
6.6304660452
 30
0.0
 10
6.4082275254
 20
6.6355997105
 30
0.0
 10
6.4270950625
 20
6.639726783
 30
0.0
 10
6.4405703042
 20
6.6421449425
 30
0.0
 10
6.4515996728
 20
6.6438001969
 30
0.0
 10
6.4631221516
 20
6.6451722668
 30
0.0
 10
6.4750283835
 20
6.6461969736
 30
0.0
 10
6.4871976213
 20
6.6468343913
 30
0.0
 10
6.4995008688
 20
6.6470475692
 30
0.0
 10
6.5118041056
 20
6.6468343572
 30
0.0
 10
6.523973354
 20
6.6461968212
 30
0.0
 10
6.5358795562
 20
6.6451721279
 30
0.0
 10
6.5474019676
 20
6.6437999527
 30
0.0
 10
6.5584311908
 20
6.6421447184
 30
0.0
 10
6.5719061726
 20
6.6397265181
 30
0.0
 10
6.59077327
 20
6.6355995095
 30
0.0
 10
6.6092119006
 20
6.6304659365
 30
0.0
 10
6.6213092737
 20
6.6265650653
 30
0.0
 10
6.6245
 20
6.6255
 30
0.0
  0
SPLINE
  5
319
100
AcDbEntity
  8
0
100
AcDbSpline
 62
7
  6
CONTINUOUS
 70
0
 71
3
 72
19
 73
15
 74
0
 42
0.0000001
 43
0.0000001
 44
0.0000000001
 40
0.0
 40
0.0
 40
0.0
 40
0.0
 40
0.1255916165
 40
0.2507124508
 40
0.3131278661
 40
0.3754661753
 40
0.437747264
 40
0.5000000224
 40
0.5622527831
 40
0.6245338701
 40
0.686872176
 40
0.7492875883
 40
0.8744083921
 40
1.0
 40
1.0
 40
1.0
 40
1.0
 10
4.2641106713
 20
7.0279114628
 30
0.0
 10
4.2577691787
 20
7.0485279904
 30
0.0
 10
4.2462152666
 20
7.0900366179
 30
0.0
 10
4.235207675
 20
7.1427268328
 30
0.0
 10
4.2288560946
 20
7.1851792146
 30
0.0
 10
4.2253961475
 20
7.2171241781
 30
0.0
 10
4.2232896488
 20
7.2491593685
 30
0.0
 10
4.2225889941
 20
7.2812417619
 30
0.0
 10
4.2232896554
 20
7.3133241545
 30
0.0
 10
4.2253961418
 20
7.3453593455
 30
0.0
 10
4.2288561054
 20
7.3773043058
 30
0.0
 10
4.2352076685
 20
7.4197566836
 30
0.0
 10
4.2462152735
 20
7.4724468889
 30
0.0
 10
4.2577691791
 20
7.5139555108
 30
0.0
 10
4.2641106713
 20
7.534572037
 30
0.0
  0
SPLINE
  5
31A
100
AcDbEntity
  8
0
100
AcDbSpline
 62
7
  6
CONTINUOUS
 70
0
 71
3
 72
19
 73
15
 74
0
 42
0.0000001
 43
0.0000001
 44
0.0000000001
 40
0.0
 40
0.0
 40
0.0
 40
0.0
 40
0.1255916165
 40
0.2507124508
 40
0.3131278661
 40
0.3754661753
 40
0.437747264
 40
0.5000000224
 40
0.5622527831
 40
0.6245338701
 40
0.686872176
 40
0.7492875883
 40
0.8744083921
 40
1.0
 40
1.0
 40
1.0
 40
1.0
 10
4.8510743742
 20
7.0279114628
 30
0.0
 10
4.8574158667
 20
7.0485279904
 30
0.0
 10
4.8689697788
 20
7.0900366179
 30
0.0
 10
4.8799773704
 20
7.1427268328
 30
0.0
 10
4.8863289508
 20
7.1851792146
 30
0.0
 10
4.8897888979
 20
7.2171241781
 30
0.0
 10
4.8918953967
 20
7.2491593685
 30
0.0
 10
4.8925960513
 20
7.2812417619
 30
0.0
 10
4.89189539
 20
7.3133241545
 30
0.0
 10
4.8897889036
 20
7.3453593455
 30
0.0
 10
4.88632894
 20
7.3773043058
 30
0.0
 10
4.8799773769
 20
7.4197566836
 30
0.0
 10
4.8689697719
 20
7.4724468889
 30
0.0
 10
4.8574158663
 20
7.5139555108
 30
0.0
 10
4.8510743742
 20
7.534572037
 30
0.0
  0
SPLINE
  5
31B
100
AcDbEntity
  8
0
100
AcDbSpline
 62
7
  6
CONTINUOUS
 70
0
 71
3
 72
19
 73
15
 74
0
 42
0.0000001
 43
0.0000001
 44
0.0000000001
 40
0.0
 40
0.0
 40
0.0
 40
0.0
 40
0.1255916165
 40
0.2507124508
 40
0.3131278661
 40
0.3754661753
 40
0.437747264
 40
0.5000000224
 40
0.5622527831
 40
0.6245338701
 40
0.686872176
 40
0.7492875883
 40
0.8744083921
 40
1.0
 40
1.0
 40
1.0
 40
1.0
 10
4.2641106713
 20
6.465427963
 30
0.0
 10
4.2577691787
 20
6.4860444906
 30
0.0
 10
4.2462152666
 20
6.5275531181
 30
0.0
 10
4.235207675
 20
6.5802433331
 30
0.0
 10
4.2288560946
 20
6.6226957148
 30
0.0
 10
4.2253961475
 20
6.6546406783
 30
0.0
 10
4.2232896488
 20
6.6866758688
 30
0.0
 10
4.2225889941
 20
6.7187582622
 30
0.0
 10
4.2232896554
 20
6.7508406548
 30
0.0
 10
4.2253961418
 20
6.7828758457
 30
0.0
 10
4.2288561054
 20
6.8148208061
 30
0.0
 10
4.2352076685
 20
6.8572731839
 30
0.0
 10
4.2462152735
 20
6.9099633892
 30
0.0
 10
4.2577691791
 20
6.951472011
 30
0.0
 10
4.2641106713
 20
6.9720885372
 30
0.0
  0
SPLINE
  5
31C
100
AcDbEntity
  8
0
100
AcDbSpline
 62
7
  6
CONTINUOUS
 70
0
 71
3
 72
19
 73
15
 74
0
 42
0.0000001
 43
0.0000001
 44
0.0000000001
 40
0.0
 40
0.0
 40
0.0
 40
0.0
 40
0.1255916165
 40
0.2507124508
 40
0.3131278661
 40
0.3754661753
 40
0.437747264
 40
0.5000000224
 40
0.5622527831
 40
0.6245338701
 40
0.686872176
 40
0.7492875883
 40
0.8744083921
 40
1.0
 40
1.0
 40
1.0
 40
1.0
 10
4.8510743742
 20
6.465427963
 30
0.0
 10
4.8574158667
 20
6.4860444906
 30
0.0
 10
4.8689697788
 20
6.5275531181
 30
0.0
 10
4.8799773704
 20
6.5802433331
 30
0.0
 10
4.8863289508
 20
6.6226957148
 30
0.0
 10
4.8897888979
 20
6.6546406783
 30
0.0
 10
4.8918953967
 20
6.6866758688
 30
0.0
 10
4.8925960513
 20
6.7187582622
 30
0.0
 10
4.89189539
 20
6.7508406548
 30
0.0
 10
4.8897889036
 20
6.7828758457
 30
0.0
 10
4.88632894
 20
6.8148208061
 30
0.0
 10
4.8799773769
 20
6.8572731839
 30
0.0
 10
4.8689697719
 20
6.9099633892
 30
0.0
 10
4.8574158663
 20
6.951472011
 30
0.0
 10
4.8510743742
 20
6.9720885372
 30
0.0
  0
ELLIPSE
  5
31D
100
AcDbEntity
  8
0
100
AcDbEllipse
 62
7
  6
CONTINUOUS
 10
6.9235
 20
6.5835
 30
0.0
 11
0.0
 21
0.035
 31
0.0
 40
1.0
 41
-4.7123889804
 42
-1.5707963268
  0
ELLIPSE
  5
31E
100
AcDbEntity
  8
0
100
AcDbEllipse
 62
7
  6
CONTINUOUS
 10
6.9235
 20
7.4165
 30
0.0
 11
0.035
 21
-0.0
 31
0.0
 40
1.0
 41
0.0
 42
3.1415926536
  0
ELLIPSE
  5
31F
100
AcDbEntity
  8
0
100
AcDbEllipse
 62
7
  6
CONTINUOUS
 10
5.8005
 20
6.507
 30
0.0
 11
-0.0
 21
0.035
 31
0.0
 40
1.0
 41
-4.7123889804
 42
-1.5707963268
  0
ELLIPSE
  5
320
100
AcDbEntity
  8
0
100
AcDbEllipse
 62
7
  6
CONTINUOUS
 10
5.8005
 20
7.493
 30
0.0
 11
0.035
 21
0.0
 31
0.0
 40
1.0
 41
6.2831853072
 42
9.4247779608
  0
ELLIPSE
  5
321
100
AcDbEntity
  8
0
100
AcDbEllipse
 62
7
  6
CONTINUOUS
 10
5.1785
 20
6.4825
 30
0.0
 11
0.0
 21
0.035
 31
0.0
 40
1.0
 41
-4.7123889804
 42
-1.5707963268
  0
ELLIPSE
  5
322
100
AcDbEntity
  8
0
100
AcDbEllipse
 62
7
  6
CONTINUOUS
 10
5.1785
 20
7.5175
 30
0.0
 11
0.035
 21
-0.0
 31
0.0
 40
1.0
 41
0.0
 42
3.1415926536
  0
ENDSEC
  0
SECTION
  2
OBJECTS
  0
DICTIONARY
  5
C
100
AcDbDictionary
280
0
281
1
  3
ACAD_GROUP
350
D
  3
ACAD_MLINESTYLE
350
17
  3
ACAD_LAYOUT
350
1A
  3
ACAD_PLOTSETTINGS
350
19
  3
ACAD_PLOTSTYLENAME
350
E
  0
DICTIONARY
  5
D
102
{ACAD_REACTORS
330
C
102
}
100
AcDbDictionary
280
0
281
1
  0
ACDBDICTIONARYWDFLT
  5
E
102
{ACAD_REACTORS
330
C
102
}
100
AcDbDictionary
281
1
  3
Normal
350
F
100
AcDbDictionaryWithDefault
340
F
  0
DICTIONARY
  5
17
102
{ACAD_REACTORS
330
C
102
}
100
AcDbDictionary
280
0
281
1
  3
Standard
350
18
  0
DICTIONARY
  5
19
102
{ACAD_REACTORS
330
C
102
}
100
AcDbDictionary
281
1
  0
DICTIONARY
  5
1A
102
{ACAD_REACTORS
330
C
102
}
100
AcDbDictionary
281
1
  3
Model
350
323
  3
Layout1
350
324
  0
ACDBPLACEHOLDER
  5
F
102
{ACAD_REACTORS
330
E
102
}
  0
MLINESTYLE
  5
18
102
{ACAD_REACTORS
330
17
102
}
100
AcDbMlineStyle
  2
STANDARD
 70
0
  3

 62
256
 51
90.0
 52
90.0
 71
2
 49
0.5
 62
256
  6
BYLAYER
 49
-0.5
 62
256
  6
BYLAYER
  0
LAYOUT
  5
323
102
{ACAD_REACTORS
330
1A
102
}
100
AcDbPlotSettings
  1

  2
none_device
  4
ANSI_B_(17.00_x_11.00_Inches)
  6

 40
0.0
 41
0.0
 42
0.0
 43
0.0
 44
431.8
 45
279.4
 46
0.0
 47
0.0
 48
0.0
 49
0.0
140
0.0
141
0.0
142
1.0
143
1.0
 70
1024
 72
0
 73
0
 74
0
  7

 75
0
147
1.0
148
0.0
149
0.0
100
AcDbLayout
  1
Model
 70
0
 71
0
 10
0.0
 20
0.0
 11
17.0
 21
11.0
 12
0.0
 22
0.0
 32
0.0
 14
0.0
 24
0.0
 34
0.0
 15
0.0
 25
0.0
 35
0.0
146
0.0
 13
0.0
 23
0.0
 33
0.0
 16
1.0
 26
0.0
 36
0.0
 17
0.0
 27
1.0
 37
0.0
 76
0
330
245
345
0
346
0
  0
LAYOUT
  5
324
102
{ACAD_REACTORS
330
1A
102
}
100
AcDbPlotSettings
  1

  2
none_device
  4
ANSI_B_(17.00_x_11.00_Inches)
  6

 40
0.0
 41
0.0
 42
0.0
 43
0.0
 44
431.8
 45
279.4
 46
0.0
 47
0.0
 48
0.0
 49
0.0
140
0.0
141
0.0
142
1.0
143
1.0
 70
0
 72
0
 73
0
 74
0
  7

 75
0
147
1.0
148
0.0
149
0.0
100
AcDbLayout
  1
Layout1
 70
0
 71
1
 10
0.0
 20
0.0
 11
17.0
 21
11.0
 12
0.0
 22
0.0
 32
0.0
 14
0.0
 24
0.0
 34
0.0
 15
0.0
 25
0.0
 35
0.0
146
0.0
 13
0.0
 23
0.0
 33
0.0
 16
1.0
 26
0.0
 36
0.0
 17
0.0
 27
1.0
 37
0.0
 76
0
330
246
345
0
346
0
  0
ENDSEC
  0
EOF
