999
DXF file: CKEBXCN.dxf
999
Pro/ENGINEER 2021072 by Parametric Technology Corporation
  0
SECTION
  2
HEADER
  9
$ACADVER
  1
AC1032
  9
$DWGCODEPAGE
  3
ANSI_1252
  9
$EXTMAX
 10
17.0
 20
11.0
 30
0.0
  9
$EXTMIN
 10
0.0
 20
0.0
 30
0.0
  9
$LIMMIN
 10
0.0
 20
0.0
  9
$LIMMAX
 10
17.0
 20
11.0
  9
$VIEWCTR
 10
8.5
 20
5.5
  9
$VIEWSIZE
 40
11.0
  9
$CLAYER
  8
0
  9
$LTSCALE
 40
0.935
  9
$CELTYPE
  6
BYLAYER
  9
$DIMSCALE
 40
1.0
  9
$DIMASZ
 40
0.1875
  9
$DIMEXO
 40
0.0625
  9
$DIMDLI
 40
0.646
  9
$DIMEXE
 40
0.125
  9
$DIMCEN
 40
0.153
  9
$DIMLFAC
 40
1.0
  9
$DIMBLK
  1
_FILLED
  9
$DIMALT
 70
0
  9
$DIMALTF
 40
25.4
  9
$DIMTXT
 40
0.125
  9
$DIMTOL
 70
0
  9
$DIMLIM
 70
0
  9
$DIMTFAC
 40
1.0
  9
$DIMGAP
 40
0.09
  9
$DIMDSEP
 70
46
  9
$AUNITS
 70
0
  9
$PDMODE
 70
3
  9
$PDSIZE
 40
0.3125
  9
$HANDSEED
  5
312
  9
$TILEMODE
 70
1
  9
$MEASUREMENT
 70
0
  9
$INSUNITS
 70
1
  0
ENDSEC
  0
SECTION
  2
CLASSES
  0
CLASS
  1
ACDBDICTIONARYWDFLT
  2
AcDbDictionaryWithDefault
  3
AutoCAD 2000
 90
0
 91
1
280
0
281
0
  0
CLASS
  1
ACDBPLACEHOLDER
  2
AcDbPlaceHolder
  3
AutoCAD 2000
 90
0
 91
1
280
0
281
0
  0
CLASS
  1
LAYOUT
  2
AcDbLayout
  3
AutoCAD 2000
 90
0
 91
0
280
0
281
0
  0
ENDSEC
  0
SECTION
  2
TABLES
  0
TABLE
  2
VPORT
  5
8
100
AcDbSymbolTable
 70
2
  0
VPORT
  5
1F4
100
AcDbSymbolTableRecord
100
AcDbViewportTableRecord
  2
*ACTIVE
 70
0
 10
0.0
 20
0.0
 11
1.0
 21
1.0
 12
8.5
 22
5.5
 13
0.0
 23
0.0
 14
1.0
 24
1.0
 15
0.0
 25
0.0
 16
0.0
 26
0.0
 36
1.0
 17
0.0
 27
0.0
 37
0.0
 40
11.0
 41
1.5454545455
 42
50.0
 43
0.0
 44
0.0
 50
0.0
 51
0.0
 71
0
 72
100
 73
1
 74
1
 75
0
 76
0
 77
0
 78
0
  0
ENDTAB
  0
TABLE
  2
LTYPE
  5
5
100
AcDbSymbolTable
 70
6
  0
LTYPE
  5
14
100
AcDbSymbolTableRecord
100
AcDbLinetypeTableRecord
  2
BYBLOCK
 70
0
  3

 72
65
 73
0
 40
0.0
  0
LTYPE
  5
15
100
AcDbSymbolTableRecord
100
AcDbLinetypeTableRecord
  2
BYLAYER
 70
0
  3

 72
65
 73
0
 40
0.0
  0
LTYPE
  5
16
100
AcDbSymbolTableRecord
100
AcDbLinetypeTableRecord
  2
CONTINUOUS
 70
64
  3
Solid line
 72
65
 73
0
 40
0.0
  0
LTYPE
  5
1F5
100
AcDbSymbolTableRecord
100
AcDbLinetypeTableRecord
  2
CENTER
 70
64
  3
____ _ ____ _ ____ _ ____ _ ____ _ ____ _ ____
 72
65
 73
4
 40
0.6
 49
0.375
 74
0
 49
-0.075
 74
0
 49
0.075
 74
0
 49
-0.075
 74
0
  0
LTYPE
  5
1F6
100
AcDbSymbolTableRecord
100
AcDbLinetypeTableRecord
  2
HIDDEN
 70
64
  3
- - - - - - - - - - - - - - - - - - - -
 72
65
 73
2
 40
0.2
 49
0.1
 74
0
 49
-0.1
 74
0
  0
LTYPE
  5
1F7
100
AcDbSymbolTableRecord
100
AcDbLinetypeTableRecord
  2
PHANTOM
 70
64
  3
_____ _ _ _____ _ _ _____ _ _ _____
 72
65
 73
6
 40
0.8
 49
0.45
 74
0
 49
-0.05
 74
0
 49
0.1
 74
0
 49
-0.05
 74
0
 49
0.1
 74
0
 49
-0.05
 74
0
  0
LTYPE
  5
1F8
100
AcDbSymbolTableRecord
100
AcDbLinetypeTableRecord
  2
DOT
 70
64
  3
. . . . . . . . . . . . . . . . . . . .
 72
65
 73
2
 40
0.2
 49
0.1
 74
0
 49
-0.1
 74
0
  0
LTYPE
  5
1F9
100
AcDbSymbolTableRecord
100
AcDbLinetypeTableRecord
  2
DASHED
 70
64
  3
- - - - - - - - - - - - - - - - - - - -
 72
65
 73
2
 40
0.2
 49
0.1
 74
0
 49
-0.1
 74
0
  0
ENDTAB
  0
TABLE
  2
LAYER
  5
2
100
AcDbSymbolTable
 70
36
  0
LAYER
  5
10
100
AcDbSymbolTableRecord
100
AcDbLayerTableRecord
  2
0
 70
0
 62
7
  6
CONTINUOUS
370
-3
390
F
  0
LAYER
  5
1FA
100
AcDbSymbolTableRecord
100
AcDbLayerTableRecord
  2
DEFAULT_1
 70
0
 62
7
  6
CENTER
370
-3
390
F
  0
LAYER
  5
1FB
100
AcDbSymbolTableRecord
100
AcDbLayerTableRecord
  2
DEFAULT_2
 70
0
 62
8
  6
HIDDEN
370
-3
390
F
  0
LAYER
  5
1FC
100
AcDbSymbolTableRecord
100
AcDbLayerTableRecord
  2
DEFAULT_3
 70
0
 62
7
  6
PHANTOM
370
-3
390
F
  0
LAYER
  5
1FD
100
AcDbSymbolTableRecord
100
AcDbLayerTableRecord
  2
01_ALL_DTM_PLN
 70
0
 62
7
  6
CONTINUOUS
370
-3
390
F
  0
LAYER
  5
1FE
100
AcDbSymbolTableRecord
100
AcDbLayerTableRecord
  2
01__ASM_ALL_DTM_PLN
 70
0
 62
7
  6
CONTINUOUS
370
-3
390
F
  0
LAYER
  5
1FF
100
AcDbSymbolTableRecord
100
AcDbLayerTableRecord
  2
01__ASM_DEF_DTM_PLN
 70
0
 62
7
  6
CONTINUOUS
370
-3
390
F
  0
LAYER
  5
200
100
AcDbSymbolTableRecord
100
AcDbLayerTableRecord
  2
01___PRT_ALL_DTM_PLN
 70
0
 62
7
  6
CONTINUOUS
370
-3
390
F
  0
LAYER
  5
201
100
AcDbSymbolTableRecord
100
AcDbLayerTableRecord
  2
01___PRT_DEF_DTM_PLN
 70
0
 62
7
  6
CONTINUOUS
370
-3
390
F
  0
LAYER
  5
202
100
AcDbSymbolTableRecord
100
AcDbLayerTableRecord
  2
02_ALL_AXES
 70
0
 62
7
  6
CONTINUOUS
370
-3
390
F
  0
LAYER
  5
203
100
AcDbSymbolTableRecord
100
AcDbLayerTableRecord
  2
02__ASM_ALL_AXES
 70
0
 62
7
  6
CONTINUOUS
370
-3
390
F
  0
LAYER
  5
204
100
AcDbSymbolTableRecord
100
AcDbLayerTableRecord
  2
02___PRT_ALL_AXES
 70
0
 62
7
  6
CONTINUOUS
370
-3
390
F
  0
LAYER
  5
205
100
AcDbSymbolTableRecord
100
AcDbLayerTableRecord
  2
03_ALL_CURVES
 70
0
 62
7
  6
CONTINUOUS
370
-3
390
F
  0
LAYER
  5
206
100
AcDbSymbolTableRecord
100
AcDbLayerTableRecord
  2
03__ASM_ALL_CURVES
 70
0
 62
7
  6
CONTINUOUS
370
-3
390
F
  0
LAYER
  5
207
100
AcDbSymbolTableRecord
100
AcDbLayerTableRecord
  2
03___PRT_ALL_CURVES
 70
0
 62
7
  6
CONTINUOUS
370
-3
390
F
  0
LAYER
  5
208
100
AcDbSymbolTableRecord
100
AcDbLayerTableRecord
  2
04_ALL_DTM_PNT
 70
0
 62
7
  6
CONTINUOUS
370
-3
390
F
  0
LAYER
  5
209
100
AcDbSymbolTableRecord
100
AcDbLayerTableRecord
  2
04__ASM_ALL_DTM_PNT
 70
0
 62
7
  6
CONTINUOUS
370
-3
390
F
  0
LAYER
  5
20A
100
AcDbSymbolTableRecord
100
AcDbLayerTableRecord
  2
04___PRT_ALL_DTM_PNT
 70
0
 62
7
  6
CONTINUOUS
370
-3
390
F
  0
LAYER
  5
20B
100
AcDbSymbolTableRecord
100
AcDbLayerTableRecord
  2
05_ALL_DTM_CSYS
 70
0
 62
7
  6
CONTINUOUS
370
-3
390
F
  0
LAYER
  5
20C
100
AcDbSymbolTableRecord
100
AcDbLayerTableRecord
  2
05__ASM_ALL_DTM_CSYS
 70
0
 62
7
  6
CONTINUOUS
370
-3
390
F
  0
LAYER
  5
20D
100
AcDbSymbolTableRecord
100
AcDbLayerTableRecord
  2
05__ASM_DEF_DTM_CSYS
 70
0
 62
7
  6
CONTINUOUS
370
-3
390
F
  0
LAYER
  5
20E
100
AcDbSymbolTableRecord
100
AcDbLayerTableRecord
  2
05___PRT_ALL_DTM_CSYS
 70
0
 62
7
  6
CONTINUOUS
370
-3
390
F
  0
LAYER
  5
20F
100
AcDbSymbolTableRecord
100
AcDbLayerTableRecord
  2
05___PRT_DEF_DTM_CSYS
 70
0
 62
7
  6
CONTINUOUS
370
-3
390
F
  0
LAYER
  5
210
100
AcDbSymbolTableRecord
100
AcDbLayerTableRecord
  2
06_ALL_SURFS
 70
0
 62
7
  6
CONTINUOUS
370
-3
390
F
  0
LAYER
  5
211
100
AcDbSymbolTableRecord
100
AcDbLayerTableRecord
  2
06__ASM_ALL_SURFS
 70
0
 62
7
  6
CONTINUOUS
370
-3
390
F
  0
LAYER
  5
212
100
AcDbSymbolTableRecord
100
AcDbLayerTableRecord
  2
06___PRT_ALL_SURFS
 70
0
 62
7
  6
CONTINUOUS
370
-3
390
F
  0
LAYER
  5
213
100
AcDbSymbolTableRecord
100
AcDbLayerTableRecord
  2
07__ASM_ALL_SKELETONS
 70
0
 62
7
  6
CONTINUOUS
370
-3
390
F
  0
LAYER
  5
214
100
AcDbSymbolTableRecord
100
AcDbLayerTableRecord
  2
125-021_FEATURES
 70
0
 62
7
  6
CONTINUOUS
370
-3
390
F
  0
LAYER
  5
215
100
AcDbSymbolTableRecord
100
AcDbLayerTableRecord
  2
125-021_REF_GEOMETRY
 70
0
 62
7
  6
CONTINUOUS
370
-3
390
F
  0
LAYER
  5
216
100
AcDbSymbolTableRecord
100
AcDbLayerTableRecord
  2
125-089_FEATURES
 70
0
 62
7
  6
CONTINUOUS
370
-3
390
F
  0
LAYER
  5
217
100
AcDbSymbolTableRecord
100
AcDbLayerTableRecord
  2
125-089_REF_GEOMETRY
 70
0
 62
7
  6
CONTINUOUS
370
-3
390
F
  0
LAYER
  5
218
100
AcDbSymbolTableRecord
100
AcDbLayerTableRecord
  2
125-094_FEATURES
 70
0
 62
7
  6
CONTINUOUS
370
-3
390
F
  0
LAYER
  5
219
100
AcDbSymbolTableRecord
100
AcDbLayerTableRecord
  2
125-094_REF_GEOMETRY
 70
0
 62
7
  6
CONTINUOUS
370
-3
390
F
  0
LAYER
  5
21A
100
AcDbSymbolTableRecord
100
AcDbLayerTableRecord
  2
127-310_FEATURES
 70
0
 62
7
  6
CONTINUOUS
370
-3
390
F
  0
LAYER
  5
21B
100
AcDbSymbolTableRecord
100
AcDbLayerTableRecord
  2
127-310_REF_GEOMETRY
 70
0
 62
7
  6
CONTINUOUS
370
-3
390
F
  0
LAYER
  5
21C
100
AcDbSymbolTableRecord
100
AcDbLayerTableRecord
  2
127-311_FEATURES
 70
0
 62
7
  6
CONTINUOUS
370
-3
390
F
  0
LAYER
  5
21D
100
AcDbSymbolTableRecord
100
AcDbLayerTableRecord
  2
127-311_REF_GEOMETRY
 70
0
 62
7
  6
CONTINUOUS
370
-3
390
F
  0
LAYER
  5
21E
100
AcDbSymbolTableRecord
100
AcDbLayerTableRecord
  2
127-312_FEATURES
 70
0
 62
7
  6
CONTINUOUS
370
-3
390
F
  0
LAYER
  5
21F
100
AcDbSymbolTableRecord
100
AcDbLayerTableRecord
  2
127-312_REF_GEOMETRY
 70
0
 62
7
  6
CONTINUOUS
370
-3
390
F
  0
LAYER
  5
220
100
AcDbSymbolTableRecord
100
AcDbLayerTableRecord
  2
COPY_GEO_FET
 70
0
 62
7
  6
CONTINUOUS
370
-3
390
F
  0
LAYER
  5
221
100
AcDbSymbolTableRecord
100
AcDbLayerTableRecord
  2
COSMETIC
 70
0
 62
7
  6
CONTINUOUS
370
-3
390
F
  0
LAYER
  5
222
100
AcDbSymbolTableRecord
100
AcDbLayerTableRecord
  2
CROSS_HOLE_DATUMS
 70
0
 62
7
  6
CONTINUOUS
370
-3
390
F
  0
LAYER
  5
223
100
AcDbSymbolTableRecord
100
AcDbLayerTableRecord
  2
CURVES
 70
0
 62
7
  6
CONTINUOUS
370
-3
390
F
  0
LAYER
  5
224
100
AcDbSymbolTableRecord
100
AcDbLayerTableRecord
  2
CUT_REF_SURF
 70
0
 62
7
  6
CONTINUOUS
370
-3
390
F
  0
LAYER
  5
225
100
AcDbSymbolTableRecord
100
AcDbLayerTableRecord
  2
DATUM
 70
0
 62
7
  6
CONTINUOUS
370
-3
390
F
  0
LAYER
  5
226
100
AcDbSymbolTableRecord
100
AcDbLayerTableRecord
  2
DATUMCURVES
 70
0
 62
7
  6
CONTINUOUS
370
-3
390
F
  0
LAYER
  5
227
100
AcDbSymbolTableRecord
100
AcDbLayerTableRecord
  2
DIMENSIONS
 70
0
 62
7
  6
CONTINUOUS
370
-3
390
F
  0
LAYER
  5
228
100
AcDbSymbolTableRecord
100
AcDbLayerTableRecord
  2
DRAWINGNOTES
 70
0
 62
7
  6
CONTINUOUS
370
-3
390
F
  0
LAYER
  5
229
100
AcDbSymbolTableRecord
100
AcDbLayerTableRecord
  2
DTM
 70
0
 62
7
  6
CONTINUOUS
370
-3
390
F
  0
LAYER
  5
22A
100
AcDbSymbolTableRecord
100
AcDbLayerTableRecord
  2
DTM230
 70
0
 62
7
  6
CONTINUOUS
370
-3
390
F
  0
LAYER
  5
22B
100
AcDbSymbolTableRecord
100
AcDbLayerTableRecord
  2
DTM_500001
 70
0
 62
7
  6
CONTINUOUS
370
-3
390
F
  0
LAYER
  5
22C
100
AcDbSymbolTableRecord
100
AcDbLayerTableRecord
  2
DTM_500002
 70
0
 62
7
  6
CONTINUOUS
370
-3
390
F
  0
LAYER
  5
22D
100
AcDbSymbolTableRecord
100
AcDbLayerTableRecord
  2
DTM_515002
 70
0
 62
7
  6
CONTINUOUS
370
-3
390
F
  0
LAYER
  5
22E
100
AcDbSymbolTableRecord
100
AcDbLayerTableRecord
  2
DTM_525001
 70
0
 62
7
  6
CONTINUOUS
370
-3
390
F
  0
LAYER
  5
22F
100
AcDbSymbolTableRecord
100
AcDbLayerTableRecord
  2
DTM_SPRING_LH
 70
0
 62
7
  6
CONTINUOUS
370
-3
390
F
  0
LAYER
  5
230
100
AcDbSymbolTableRecord
100
AcDbLayerTableRecord
  2
DTM_SPRING_RH
 70
0
 62
7
  6
CONTINUOUS
370
-3
390
F
  0
LAYER
  5
231
100
AcDbSymbolTableRecord
100
AcDbLayerTableRecord
  2
DTM_SP_LH_CONSTR
 70
0
 62
7
  6
CONTINUOUS
370
-3
390
F
  0
LAYER
  5
232
100
AcDbSymbolTableRecord
100
AcDbLayerTableRecord
  2
DTM_SP_RH_CONSTR
 70
0
 62
7
  6
CONTINUOUS
370
-3
390
F
  0
LAYER
  5
233
100
AcDbSymbolTableRecord
100
AcDbLayerTableRecord
  2
FLUTE_DATUMS
 70
0
 62
7
  6
CONTINUOUS
370
-3
390
F
  0
LAYER
  5
234
100
AcDbSymbolTableRecord
100
AcDbLayerTableRecord
  2
GEOMETRICTOLERANCES
 70
0
 62
7
  6
CONTINUOUS
370
-3
390
F
  0
LAYER
  5
235
100
AcDbSymbolTableRecord
100
AcDbLayerTableRecord
  2
HIDDEN
 70
0
 62
7
  6
CONTINUOUS
370
-3
390
F
  0
LAYER
  5
236
100
AcDbSymbolTableRecord
100
AcDbLayerTableRecord
  2
HIDDEN_DRW
 70
0
 62
7
  6
CONTINUOUS
370
-3
390
F
  0
LAYER
  5
237
100
AcDbSymbolTableRecord
100
AcDbLayerTableRecord
  2
HIDDEN_SKETCHES
 70
0
 62
7
  6
CONTINUOUS
370
-3
390
F
  0
LAYER
  5
238
100
AcDbSymbolTableRecord
100
AcDbLayerTableRecord
  2
PARAMETERDIMENSIONS
 70
0
 62
7
  6
CONTINUOUS
370
-3
390
F
  0
LAYER
  5
239
100
AcDbSymbolTableRecord
100
AcDbLayerTableRecord
  2
PLANE
 70
0
 62
7
  6
CONTINUOUS
370
-3
390
F
  0
LAYER
  5
23A
100
AcDbSymbolTableRecord
100
AcDbLayerTableRecord
  2
S-151_METRIC_ORING_BOSS_PORT
 70
0
 62
7
  6
CONTINUOUS
370
-3
390
F
  0
LAYER
  5
23B
100
AcDbSymbolTableRecord
100
AcDbLayerTableRecord
  2
S-164_NPTF_PORT
 70
0
 62
7
  6
CONTINUOUS
370
-3
390
F
  0
LAYER
  5
23C
100
AcDbSymbolTableRecord
100
AcDbLayerTableRecord
  2
S-186_BSPP_PORT
 70
0
 62
7
  6
CONTINUOUS
370
-3
390
F
  0
LAYER
  5
23D
100
AcDbSymbolTableRecord
100
AcDbLayerTableRecord
  2
SUN_STD_SAE-4_PORT
 70
0
 62
7
  6
CONTINUOUS
370
-3
390
F
  0
LAYER
  5
23E
100
AcDbSymbolTableRecord
100
AcDbLayerTableRecord
  2
T-8A_CAVITY
 70
0
 62
7
  6
CONTINUOUS
370
-3
390
F
  0
LAYER
  5
23F
100
AcDbSymbolTableRecord
100
AcDbLayerTableRecord
  2
T-8A_CAVITY-INCOMPLETE
 70
0
 62
7
  6
CONTINUOUS
370
-3
390
F
  0
LAYER
  5
240
100
AcDbSymbolTableRecord
100
AcDbLayerTableRecord
  2
T-8A_CAVITY-INCOMPLETE_REF_GEOM
 70
0
 62
7
  6
CONTINUOUS
370
-3
390
F
  0
LAYER
  5
241
100
AcDbSymbolTableRecord
100
AcDbLayerTableRecord
  2
T-8A_CAVITY_REF_GEOMETRY
 70
0
 62
7
  6
CONTINUOUS
370
-3
390
F
  0
LAYER
  5
242
100
AcDbSymbolTableRecord
100
AcDbLayerTableRecord
  2
TEXT
 70
0
 62
7
  6
CONTINUOUS
370
-3
390
F
  0
LAYER
  5
243
100
AcDbSymbolTableRecord
100
AcDbLayerTableRecord
  2
THREAD
 70
0
 62
7
  6
CONTINUOUS
370
-3
390
F
  0
ENDTAB
  0
TABLE
  2
STYLE
  5
3
100
AcDbSymbolTable
 70
1
  0
STYLE
  5
11
100
AcDbSymbolTableRecord
100
AcDbTextStyleTableRecord
  2
STANDARD
 70
0
 40
0.0
 41
0.8
 50
0.0
 71
0
 42
0.2
  3
txt
  4

  0
STYLE
  5
244
100
AcDbSymbolTableRecord
100
AcDbTextStyleTableRecord
  2
TEXTSTYLE_1
 70
0
 40
0.0
 41
0.8
 50
0.0
 71
0
 42
0.2
  3
gdt
  4

  0
ENDTAB
  0
TABLE
  2
VIEW
  5
6
100
AcDbSymbolTable
 70
0
  0
ENDTAB
  0
TABLE
  2
UCS
  5
7
100
AcDbSymbolTable
 70
0
  0
ENDTAB
  0
TABLE
  2
APPID
  5
9
100
AcDbSymbolTable
 70
1
  0
APPID
  5
245
100
AcDbSymbolTableRecord
100
AcDbRegAppTableRecord
  2
ACAD
 70
0
  0
ENDTAB
  0
TABLE
  2
BLOCK_RECORD
  5
1
100
AcDbSymbolTable
 70
0
  0
BLOCK_RECORD
  5
246
100
AcDbSymbolTableRecord
100
AcDbBlockTableRecord
  2
*Model_Space
  0
BLOCK_RECORD
  5
247
100
AcDbSymbolTableRecord
100
AcDbBlockTableRecord
  2
*Paper_Space
  0
BLOCK_RECORD
  5
248
100
AcDbSymbolTableRecord
100
AcDbBlockTableRecord
  2
_FILLED
  0
BLOCK_RECORD
  5
249
100
AcDbSymbolTableRecord
100
AcDbBlockTableRecord
  2
*D0
  0
ENDTAB
  0
TABLE
  2
DIMSTYLE
  5
A
100
AcDbSymbolTable
 70
1
100
AcDbDimStyleTable
 71
0
  0
DIMSTYLE
105
24A
100
AcDbSymbolTableRecord
100
AcDbDimStyleTableRecord
  2
STANDARD
 70
0
  3

  4

 40
1.0
 41
0.1875
 42
0.0625
 43
0.38
 44
0.125
 45
0.0
 46
0.0
 47
0.001
 48
0.001
140
0.125
141
0.09
142
0.0
143
25.4
144
1.0
145
0.0
146
1.0
147
0.09
 71
0
 72
0
 73
1
 74
1
 75
0
 76
0
 77
0
 78
4
 79
1
170
0
171
2
172
0
173
0
174
0
175
0
176
0
177
0
178
0
270
2
179
3
271
3
272
3
273
2
274
2
275
0
280
0
281
0
282
0
283
1
284
4
285
0
286
0
287
3
288
0
340
11
278
46
341
248
342
248
343
248
344
248
  0
DIMSTYLE
105
24B
100
AcDbSymbolTableRecord
100
AcDbDimStyleTableRecord
  2
DIMSTYLE_1
 70
0
  3

  4

 40
1.0
 41
0.1875
 42
0.0625
 43
0.38
 44
0.125
 45
0.0
 46
0.0
 47
0.0
 48
0.0
140
0.125
141
0.09
142
0.0
143
25.4
144
1.0
145
0.0
146
1.0
147
0.0625
 71
0
 72
0
 73
1
 74
1
 75
0
 76
0
 77
0
 78
4
 79
1
170
0
171
2
172
0
173
0
174
0
175
0
176
0
177
0
178
0
270
2
179
3
271
2
272
3
273
2
274
2
275
0
280
0
281
0
282
0
283
1
284
4
285
0
286
0
287
3
288
0
340
11
278
46
341
248
342
248
343
248
344
248
  0
ENDTAB
  0
ENDSEC
  0
SECTION
  2
BLOCKS
  0
BLOCK
  5
20
100
AcDbEntity
  8
0
100
AcDbBlockBegin
  2
*Model_Space
 70
0
 10
0.0
 20
0.0
 30
0.0
  3
*Model_Space
  1

  0
ENDBLK
  5
21
100
AcDbEntity
  8
0
100
AcDbBlockEnd
  0
BLOCK
  5
1C
100
AcDbEntity
  8
0
100
AcDbBlockBegin
  2
*Paper_Space
 70
0
 10
0.0
 20
0.0
 30
0.0
  3
*Paper_Space
  1

  0
ENDBLK
  5
1D
100
AcDbEntity
  8
0
100
AcDbBlockEnd
  0
BLOCK
  5
24C
100
AcDbEntity
  8
0
100
AcDbBlockBegin
  2
_FILLED
 70
64
 10
0.0
 20
0.0
  3
_FILLED
  1

  0
SOLID
  5
24D
100
AcDbEntity
  8
0
  6
BYBLOCK
 62
0
100
AcDbTrace
 10
0.0
 20
0.0
 11
-1.0
 21
0.1666666667
 12
-1.0
 22
-0.1666666667
 13
-1.0
 23
-0.1666666667
  0
ENDBLK
  5
24E
100
AcDbEntity
  8
0
  6
BYBLOCK
 62
0
100
AcDbBlockEnd
  0
BLOCK
  5
24F
100
AcDbEntity
  8
0
100
AcDbBlockBegin
 62
6
  6
CONTINUOUS
  2
*D0
 70
65
 10
0.0
 20
0.0
  3
*D0
  1

  0
MTEXT
  5
250
100
AcDbEntity
  8
0
100
AcDbMText
 62
6
  6
CONTINUOUS
  7
STANDARD
 71
1
 72
1
 10
5.25
 20
7.9755
 30
0.0
 11
1.0
 21
0.0
 31
0.0
 73
2
 44
0.9
  1
1.38 in (34,9 mm)
 40
0.125
 41
1.7
  0
LINE
  5
251
100
AcDbEntity
  8
0
100
AcDbLine
 62
6
  6
CONTINUOUS
 10
5.0
 20
7.6005
 11
5.0
 21
8.038
  0
LINE
  5
252
100
AcDbEntity
  8
0
100
AcDbLine
 62
6
  6
CONTINUOUS
 10
3.625
 20
7.0625
 11
3.625
 21
8.038
  0
LINE
  5
253
100
AcDbEntity
  8
0
100
AcDbLine
 62
6
  6
CONTINUOUS
 10
5.0
 20
7.913
 11
4.3125
 21
7.913
  0
LINE
  5
254
100
AcDbEntity
  8
0
100
AcDbLine
 62
6
  6
CONTINUOUS
 10
4.3125
 20
7.913
 11
5.1875
 21
7.913
  0
LINE
  5
255
100
AcDbEntity
  8
0
100
AcDbLine
 62
6
  6
CONTINUOUS
 10
3.625
 20
7.913
 11
4.3125
 21
7.913
  0
INSERT
  5
256
100
AcDbEntity
  8
0
100
AcDbBlockReference
 62
6
  6
CONTINUOUS
  2
_FILLED
 10
5.0
 20
7.913
 41
0.1875
 42
0.1875
 43
0.1875
  0
INSERT
  5
257
100
AcDbEntity
  8
0
100
AcDbBlockReference
 62
6
  6
CONTINUOUS
  2
_FILLED
 10
3.625
 20
7.913
 41
0.1875
 42
0.1875
 43
0.1875
 50
180.0
  0
ENDBLK
  5
258
100
AcDbEntity
  8
0
  6
BYBLOCK
 62
0
100
AcDbBlockEnd
  0
ENDSEC
  0
SECTION
  2
ENTITIES
  0
DIMENSION
  5
259
100
AcDbEntity
  8
0
100
AcDbDimension
 62
6
  6
CONTINUOUS
  2
*D0
 10
3.625
 20
7.913
 11
6.1
 21
7.913
 70
160
 71
1
 72
2
 41
0.9
 42
1.375
  1
<> in (34,9 mm)
  3
DIMSTYLE_1
100
AcDbAlignedDimension
 13
5.0
 23
7.538
 14
3.625
 24
7.0
 50
180.0
100
AcDbRotatedDimension
  0
MTEXT
  5
25A
100
AcDbEntity
  8
0
100
AcDbMText
 62
2
  6
CONTINUOUS
  7
STANDARD
 71
1
 72
1
 10
6.75
 20
7.0625
 30
0.0
 11
1.0
 21
0.0
 31
0.0
 73
2
 44
0.6
  1
Port 1
 40
0.125
 41
0.6
  0
MTEXT
  5
25B
100
AcDbEntity
  8
0
100
AcDbMText
 62
2
  6
CONTINUOUS
  7
STANDARD
 71
1
 72
1
 10
5.55
 20
6.3125
 30
0.0
 11
1.0
 21
0.0
 31
0.0
 73
2
 44
0.6
  1
Port 2
 40
0.125
 41
0.6
  0
MTEXT
  5
25C
100
AcDbEntity
  8
0
100
AcDbMText
 62
2
  6
CONTINUOUS
  7
STANDARD
 71
1
 72
1
 10
4.48
 20
6.3125
 30
0.0
 11
1.0
 21
0.0
 31
0.0
 73
2
 44
0.6
  1
Port 3
 40
0.125
 41
0.6
  0
MTEXT
  5
25D
100
AcDbEntity
  8
0
100
AcDbMText
 62
2
  6
CONTINUOUS
  7
STANDARD
 71
1
 72
1
 10
5.25
 20
7.7255
 30
0.0
 11
1.0
 21
0.0
 31
0.0
 73
2
 44
0.6
  1
 LOCATING SHOULDER
 40
0.125
 41
1.8
  0
LINE
  5
25E
100
AcDbEntity
  8
0
100
AcDbLine
 62
7
  6
CONTINUOUS
 10
3.625
 20
6.445
 11
3.625
 21
7.555
  0
LINE
  5
25F
100
AcDbEntity
  8
0
100
AcDbLine
 62
7
  6
CONTINUOUS
 10
3.6293215383
 20
7.562485124
 11
3.625
 21
7.555
  0
LINE
  5
260
100
AcDbEntity
  8
0
100
AcDbLine
 62
7
  6
CONTINUOUS
 10
3.6293215383
 20
6.437514876
 11
3.625
 21
6.445
  0
LINE
  5
261
100
AcDbEntity
  8
0
100
AcDbLine
 62
7
  6
CONTINUOUS
 10
3.6706106713
 20
6.4375165002
 11
3.6706106713
 21
6.465427963
  0
LINE
  5
262
100
AcDbEntity
  8
0
100
AcDbLine
 62
7
  6
CONTINUOUS
 10
3.6706106713
 20
6.9720885372
 11
3.6706106713
 21
7.0279114628
  0
LINE
  5
263
100
AcDbEntity
  8
0
100
AcDbLine
 62
7
  6
CONTINUOUS
 10
3.6706106713
 20
7.534572037
 11
3.6706106713
 21
7.5624834998
  0
LINE
  5
264
100
AcDbEntity
  8
0
100
AcDbLine
 62
7
  6
CONTINUOUS
 10
4.1325743742
 20
7.5624834998
 11
4.1325743742
 21
7.534572037
  0
LINE
  5
265
100
AcDbEntity
  8
0
100
AcDbLine
 62
7
  6
CONTINUOUS
 10
4.1325743742
 20
6.4375165002
 11
4.1325743742
 21
6.465427963
  0
LINE
  5
266
100
AcDbEntity
  8
0
100
AcDbLine
 62
7
  6
CONTINUOUS
 10
4.1325743742
 20
6.9720885372
 11
4.1325743742
 21
7.0279114628
  0
LINE
  5
267
100
AcDbEntity
  8
0
100
AcDbLine
 62
7
  6
CONTINUOUS
 10
4.188
 20
6.462
 11
4.188
 21
7.538
  0
LINE
  5
268
100
AcDbEntity
  8
0
100
AcDbLine
 62
7
  6
CONTINUOUS
 10
4.372
 20
7.538
 11
4.372
 21
6.462
  0
LINE
  5
269
100
AcDbEntity
  8
0
100
AcDbLine
 62
7
  6
CONTINUOUS
 10
4.375
 20
7.5365
 11
4.375
 21
6.4635
  0
LINE
  5
26A
100
AcDbEntity
  8
0
100
AcDbLine
 62
7
  6
CONTINUOUS
 10
4.425
 20
7.5365
 11
4.425
 21
6.4635
  0
LINE
  5
26B
100
AcDbEntity
  8
0
100
AcDbLine
 62
7
  6
CONTINUOUS
 10
4.495
 20
7.5175
 11
4.495
 21
6.4825
  0
LINE
  5
26C
100
AcDbEntity
  8
0
100
AcDbLine
 62
7
  6
CONTINUOUS
 10
4.506
 20
6.5175
 11
4.506
 21
7.4825
  0
LINE
  5
26D
100
AcDbEntity
  8
0
100
AcDbLine
 62
7
  6
CONTINUOUS
 10
4.516
 20
7.53475
 11
4.516
 21
6.46525
  0
LINE
  5
26E
100
AcDbEntity
  8
0
100
AcDbLine
 62
7
  6
CONTINUOUS
 10
3.6293206006
 20
6.4375165002
 11
4.1738644448
 21
6.4375165002
  0
LINE
  5
26F
100
AcDbEntity
  8
0
100
AcDbLine
 62
7
  6
CONTINUOUS
 10
4.997
 20
6.462
 11
4.937301981
 21
6.462
  0
LINE
  5
270
100
AcDbEntity
  8
0
100
AcDbLine
 62
7
  6
CONTINUOUS
 10
4.372
 20
6.462
 11
4.188
 21
6.462
  0
LINE
  5
271
100
AcDbEntity
  8
0
100
AcDbLine
 62
7
  6
CONTINUOUS
 10
4.558698019
 20
6.46225
 11
4.519
 21
6.46225
  0
LINE
  5
272
100
AcDbEntity
  8
0
100
AcDbLine
 62
7
  6
CONTINUOUS
 10
4.375
 20
6.4635
 11
4.425
 21
6.4635
  0
LINE
  5
273
100
AcDbEntity
  8
0
100
AcDbLine
 62
7
  6
CONTINUOUS
 10
4.1325743742
 20
6.465427963
 11
3.6706106713
 21
6.465427963
  0
LINE
  5
274
100
AcDbEntity
  8
THREAD
100
AcDbLine
 62
7
  6
CONTINUOUS
 10
5.044
 20
6.4855
 11
5.0238564065
 21
6.4855
  0
LINE
  5
275
100
AcDbEntity
  8
0
100
AcDbLine
 62
7
  6
CONTINUOUS
 10
5.117
 20
6.488
 11
5.167
 21
6.488
  0
LINE
  5
276
100
AcDbEntity
  8
THREAD
100
AcDbLine
 62
7
  6
CONTINUOUS
 10
5.481
 20
6.504
 11
5.2099393102
 21
6.504
  0
LINE
  5
277
100
AcDbEntity
  8
0
100
AcDbLine
 62
7
  6
CONTINUOUS
 10
4.506
 20
6.5175
 11
4.495
 21
6.5175
  0
LINE
  5
278
100
AcDbEntity
  8
0
100
AcDbLine
 62
7
  6
CONTINUOUS
 10
4.519
 20
7.53775
 11
4.519
 21
6.46225
  0
LINE
  5
279
100
AcDbEntity
  8
0
100
AcDbLine
 62
7
  6
CONTINUOUS
 10
4.558698019
 20
7.53775
 11
4.558698019
 21
6.46225
  0
LINE
  5
27A
100
AcDbEntity
  8
0
100
AcDbLine
 62
7
  6
CONTINUOUS
 10
4.5615957965
 20
7.5355264571
 11
4.5615957965
 21
6.4644735429
  0
LINE
  5
27B
100
AcDbEntity
  8
127-310_FEATURES
100
AcDbLine
 62
7
  6
CONTINUOUS
 10
4.5823689481
 20
6.542
 11
4.5823689481
 21
7.458
  0
LINE
  5
27C
100
AcDbEntity
  8
0
100
AcDbLine
 62
7
  6
CONTINUOUS
 10
4.188
 20
6.462
 11
4.1738635071
 21
6.437514876
  0
LINE
  5
27D
100
AcDbEntity
  8
THREAD
100
AcDbLine
 62
7
  6
CONTINUOUS
 10
5.1807831216
 20
6.542
 11
5.167
 21
6.542
  0
LINE
  5
27E
100
AcDbEntity
  8
0
100
AcDbLine
 62
7
  6
CONTINUOUS
 10
4.9135640646
 20
6.542
 11
4.5823689481
 21
6.542
  0
LINE
  5
27F
100
AcDbEntity
  8
THREAD
100
AcDbLine
 62
7
  6
CONTINUOUS
 10
5.609
 20
6.548
 11
5.525
 21
6.548
  0
LINE
  5
280
100
AcDbEntity
  8
0
100
AcDbLine
 62
7
  6
CONTINUOUS
 10
6.063
 20
6.56375
 11
6.1205
 21
6.56375
  0
LINE
  5
281
100
AcDbEntity
  8
0
100
AcDbLine
 62
7
  6
CONTINUOUS
 10
6.318
 20
6.56375
 11
6.36
 21
6.56375
  0
LINE
  5
282
100
AcDbEntity
  8
0
100
AcDbLine
 62
7
  6
CONTINUOUS
 10
6.1205
 20
6.5645
 11
6.1705
 21
6.5645
  0
LINE
  5
283
100
AcDbEntity
  8
0
100
AcDbLine
 62
7
  6
CONTINUOUS
 10
6.2405
 20
6.5645
 11
6.2905
 21
6.5645
  0
LINE
  5
284
100
AcDbEntity
  8
0
100
AcDbLine
 62
7
  6
CONTINUOUS
 10
5.626
 20
6.594
 11
5.718
 21
6.594
  0
LINE
  5
285
100
AcDbEntity
  8
0
100
AcDbLine
 62
7
  6
CONTINUOUS
 10
4.188
 20
7.538
 11
4.1738635071
 21
7.562485124
  0
LINE
  5
286
100
AcDbEntity
  8
0
100
AcDbLine
 62
7
  6
CONTINUOUS
 10
4.5823689481
 20
6.542
 11
4.5615957965
 21
6.4644735429
  0
LINE
  5
287
100
AcDbEntity
  8
0
100
AcDbLine
 62
7
  6
CONTINUOUS
 10
6.318
 20
6.618
 11
6.2905
 21
6.618
  0
LINE
  5
288
100
AcDbEntity
  8
0
100
AcDbLine
 62
7
  6
CONTINUOUS
 10
6.063
 20
6.626
 11
6.015
 21
6.626
  0
LINE
  5
289
100
AcDbEntity
  8
0
100
AcDbLine
 62
7
  6
CONTINUOUS
 10
5.995
 20
6.626
 11
5.75
 21
6.626
  0
LINE
  5
28A
100
AcDbEntity
  8
0
100
AcDbLine
 62
7
  6
CONTINUOUS
 10
5.626
 20
6.626
 11
5.625
 21
6.626
  0
LINE
  5
28B
100
AcDbEntity
  8
0
100
AcDbLine
 62
7
  6
CONTINUOUS
 10
4.5823689481
 20
7.458
 11
4.5615957965
 21
7.5355264571
  0
LINE
  5
28C
100
AcDbEntity
  8
0
100
AcDbLine
 62
7
  6
CONTINUOUS
 10
4.9344042035
 20
7.5357764571
 11
4.9135640646
 21
7.458
  0
LINE
  5
28D
100
AcDbEntity
  8
0
100
AcDbLine
 62
7
  6
CONTINUOUS
 10
4.9344042035
 20
6.4642235429
 11
4.9135640646
 21
6.542
  0
LINE
  5
28E
100
AcDbEntity
  8
0
100
AcDbLine
 62
7
  6
CONTINUOUS
 10
4.9135640646
 20
6.542
 11
4.9135640646
 21
7.458
  0
LINE
  5
28F
100
AcDbEntity
  8
0
100
AcDbLine
 62
7
  6
CONTINUOUS
 10
4.9344042035
 20
7.5357764571
 11
4.9344042035
 21
6.4642235429
  0
LINE
  5
290
100
AcDbEntity
  8
0
100
AcDbLine
 62
7
  6
CONTINUOUS
 10
4.937301981
 20
7.538
 11
4.937301981
 21
6.462
  0
LINE
  5
291
100
AcDbEntity
  8
0
100
AcDbLine
 62
7
  6
CONTINUOUS
 10
4.997
 20
7.538
 11
4.997
 21
6.462
  0
LINE
  5
292
100
AcDbEntity
  8
0
100
AcDbLine
 62
7
  6
CONTINUOUS
 10
5.0
 20
7.5350025579
 11
5.0
 21
6.4649974421
  0
LINE
  5
293
100
AcDbEntity
  8
0
100
AcDbLine
 62
7
  6
CONTINUOUS
 10
5.0025
 20
6.4739433757
 11
5.0025
 21
7.5260566243
  0
LINE
  5
294
100
AcDbEntity
  8
THREAD
100
AcDbLine
 62
7
  6
CONTINUOUS
 10
5.2099393102
 20
7.496
 11
5.1916084378
 21
7.4642499976
  0
LINE
  5
295
100
AcDbEntity
  8
0
100
AcDbLine
 62
7
  6
CONTINUOUS
 10
4.1325743742
 20
6.9720885372
 11
3.6706106713
 21
6.9720885372
  0
LINE
  5
296
100
AcDbEntity
  8
THREAD
100
AcDbLine
 62
7
  6
CONTINUOUS
 10
5.2099393102
 20
6.504
 11
5.1916084378
 21
6.5357500024
  0
LINE
  5
297
100
AcDbEntity
  8
0
100
AcDbLine
 62
7
  6
CONTINUOUS
 10
5.0213564065
 20
6.484830127
 11
5.0213564065
 21
7.515169873
  0
LINE
  5
298
100
AcDbEntity
  8
0
100
AcDbLine
 62
7
  6
CONTINUOUS
 10
5.0238564065
 20
6.4855
 11
5.0238564065
 21
7.5145
  0
LINE
  5
299
100
AcDbEntity
  8
0
100
AcDbLine
 62
7
  6
CONTINUOUS
 10
5.044
 20
7.5145
 11
5.044
 21
6.4855
  0
LINE
  5
29A
100
AcDbEntity
  8
0
100
AcDbLine
 62
7
  6
CONTINUOUS
 10
5.047
 20
7.5115
 11
5.047
 21
6.4885
  0
LINE
  5
29B
100
AcDbEntity
  8
0
100
AcDbLine
 62
7
  6
CONTINUOUS
 10
4.1325743742
 20
7.0279114628
 11
3.6706106713
 21
7.0279114628
  0
LINE
  5
29C
100
AcDbEntity
  8
0
100
AcDbLine
 62
7
  6
CONTINUOUS
 10
5.117
 20
7.512
 11
5.117
 21
6.488
  0
LINE
  5
29D
100
AcDbEntity
  8
0
100
AcDbLine
 62
7
  6
CONTINUOUS
 10
5.167
 20
7.512
 11
5.167
 21
6.488
  0
LINE
  5
29E
100
AcDbEntity
  8
THREAD
100
AcDbLine
 62
7
  6
CONTINUOUS
 10
5.1807831216
 20
6.5420000001
 11
5.1807831216
 21
7.4579999999
  0
LINE
  5
29F
100
AcDbEntity
  8
THREAD
100
AcDbLine
 62
7
  6
CONTINUOUS
 10
5.1916084381
 20
6.535750002
 11
5.1916084381
 21
7.464249998
  0
LINE
  5
2A0
100
AcDbEntity
  8
THREAD
100
AcDbLine
 62
7
  6
CONTINUOUS
 10
5.2099393102
 20
6.504
 11
5.2099393102
 21
7.496
  0
LINE
  5
2A1
100
AcDbEntity
  8
0
100
AcDbLine
 62
7
  6
CONTINUOUS
 10
6.063
 20
7.374
 11
6.015
 21
7.374
  0
LINE
  5
2A2
100
AcDbEntity
  8
0
100
AcDbLine
 62
7
  6
CONTINUOUS
 10
5.995
 20
7.374
 11
5.75
 21
7.374
  0
LINE
  5
2A3
100
AcDbEntity
  8
0
100
AcDbLine
 62
7
  6
CONTINUOUS
 10
5.626
 20
7.374
 11
5.625
 21
7.374
  0
LINE
  5
2A4
100
AcDbEntity
  8
0
100
AcDbLine
 62
7
  6
CONTINUOUS
 10
6.318
 20
7.382
 11
6.2905
 21
7.382
  0
LINE
  5
2A5
100
AcDbEntity
  8
0
100
AcDbLine
 62
7
  6
CONTINUOUS
 10
5.626
 20
7.406
 11
5.718
 21
7.406
  0
LINE
  5
2A6
100
AcDbEntity
  8
THREAD
100
AcDbLine
 62
7
  6
CONTINUOUS
 10
5.481
 20
6.504
 11
5.481
 21
7.496
  0
LINE
  5
2A7
100
AcDbEntity
  8
0
100
AcDbLine
 62
7
  6
CONTINUOUS
 10
6.015
 20
7.374
 11
6.0067071068
 21
7.3657071068
  0
LINE
  5
2A8
100
AcDbEntity
  8
THREAD
100
AcDbLine
 62
7
  6
CONTINUOUS
 10
5.0213564065
 20
6.484830127
 11
5.0025
 21
6.4739433757
  0
LINE
  5
2A9
100
AcDbEntity
  8
0
100
AcDbLine
 62
7
  6
CONTINUOUS
 10
5.5665
 20
7.4108581236
 11
5.5255
 21
7.4108581236
  0
LINE
  5
2AA
100
AcDbEntity
  8
0
100
AcDbLine
 62
7
  6
CONTINUOUS
 10
6.1205
 20
7.4355
 11
6.1705
 21
7.4355
  0
LINE
  5
2AB
100
AcDbEntity
  8
0
100
AcDbLine
 62
7
  6
CONTINUOUS
 10
6.2405
 20
7.4355
 11
6.2905
 21
7.4355
  0
LINE
  5
2AC
100
AcDbEntity
  8
0
100
AcDbLine
 62
7
  6
CONTINUOUS
 10
6.063
 20
7.43625
 11
6.1205
 21
7.43625
  0
LINE
  5
2AD
100
AcDbEntity
  8
0
100
AcDbLine
 62
7
  6
CONTINUOUS
 10
6.318
 20
7.43625
 11
6.36
 21
7.43625
  0
LINE
  5
2AE
100
AcDbEntity
  8
THREAD
100
AcDbLine
 62
7
  6
CONTINUOUS
 10
5.609
 20
7.452
 11
5.5665
 21
7.452
  0
LINE
  5
2AF
100
AcDbEntity
  8
THREAD
100
AcDbLine
 62
7
  6
CONTINUOUS
 10
5.5255
 20
7.452
 11
5.525
 21
7.452
  0
LINE
  5
2B0
100
AcDbEntity
  8
THREAD
100
AcDbLine
 62
7
  6
CONTINUOUS
 10
5.1807831216
 20
7.458
 11
5.167
 21
7.458
  0
LINE
  5
2B1
100
AcDbEntity
  8
0
100
AcDbLine
 62
7
  6
CONTINUOUS
 10
4.9135640646
 20
7.458
 11
4.5823689481
 21
7.458
  0
LINE
  5
2B2
100
AcDbEntity
  8
0
100
AcDbLine
 62
7
  6
CONTINUOUS
 10
4.506
 20
7.4825
 11
4.495
 21
7.4825
  0
LINE
  5
2B3
100
AcDbEntity
  8
THREAD
100
AcDbLine
 62
7
  6
CONTINUOUS
 10
5.481
 20
7.496
 11
5.2099393102
 21
7.496
  0
LINE
  5
2B4
100
AcDbEntity
  8
THREAD
100
AcDbLine
 62
7
  6
CONTINUOUS
 10
5.0213564065
 20
7.515169873
 11
5.0025
 21
7.5260566243
  0
LINE
  5
2B5
100
AcDbEntity
  8
0
100
AcDbLine
 62
7
  6
CONTINUOUS
 10
6.015
 20
6.626
 11
6.0067071068
 21
6.6342928932
  0
LINE
  5
2B6
100
AcDbEntity
  8
THREAD
100
AcDbLine
 62
7
  6
CONTINUOUS
 10
5.525
 20
6.548
 11
5.525
 21
7.452
  0
LINE
  5
2B7
100
AcDbEntity
  8
0
100
AcDbLine
 62
7
  6
CONTINUOUS
 10
5.5255
 20
7.4108581236
 11
5.5255
 21
7.452
  0
LINE
  5
2B8
100
AcDbEntity
  8
0
100
AcDbLine
 62
7
  6
CONTINUOUS
 10
5.5665
 20
7.4108581236
 11
5.5665
 21
7.452
  0
LINE
  5
2B9
100
AcDbEntity
  8
0
100
AcDbLine
 62
7
  6
CONTINUOUS
 10
5.117
 20
7.512
 11
5.167
 21
7.512
  0
LINE
  5
2BA
100
AcDbEntity
  8
THREAD
100
AcDbLine
 62
7
  6
CONTINUOUS
 10
5.044
 20
7.5145
 11
5.0238564065
 21
7.5145
  0
LINE
  5
2BB
100
AcDbEntity
  8
0
100
AcDbLine
 62
7
  6
CONTINUOUS
 10
4.1325743742
 20
7.534572037
 11
3.6706106713
 21
7.534572037
  0
LINE
  5
2BC
100
AcDbEntity
  8
0
100
AcDbLine
 62
7
  6
CONTINUOUS
 10
4.375
 20
7.5365
 11
4.425
 21
7.5365
  0
LINE
  5
2BD
100
AcDbEntity
  8
0
100
AcDbLine
 62
7
  6
CONTINUOUS
 10
4.558698019
 20
7.53775
 11
4.519
 21
7.53775
  0
LINE
  5
2BE
100
AcDbEntity
  8
0
100
AcDbLine
 62
7
  6
CONTINUOUS
 10
4.997
 20
7.538
 11
4.937301981
 21
7.538
  0
LINE
  5
2BF
100
AcDbEntity
  8
0
100
AcDbLine
 62
7
  6
CONTINUOUS
 10
4.372
 20
7.538
 11
4.188
 21
7.538
  0
LINE
  5
2C0
100
AcDbEntity
  8
0
100
AcDbLine
 62
7
  6
CONTINUOUS
 10
3.6293206006
 20
7.5624834998
 11
4.1738644448
 21
7.5624834998
  0
LINE
  5
2C1
100
AcDbEntity
  8
0
100
AcDbLine
 62
7
  6
CONTINUOUS
 10
5.609
 20
6.548
 11
5.609
 21
7.452
  0
LINE
  5
2C2
100
AcDbEntity
  8
0
100
AcDbLine
 62
7
  6
CONTINUOUS
 10
5.625
 20
6.564
 11
5.625
 21
7.436
  0
LINE
  5
2C3
100
AcDbEntity
  8
0
100
AcDbLine
 62
7
  6
CONTINUOUS
 10
5.626
 20
7.406
 11
5.626
 21
6.594
  0
LINE
  5
2C4
100
AcDbEntity
  8
THREAD
100
AcDbLine
 62
7
  6
CONTINUOUS
 10
5.525
 20
6.548
 11
5.481
 21
6.504
  0
LINE
  5
2C5
100
AcDbEntity
  8
THREAD
100
AcDbLine
 62
7
  6
CONTINUOUS
 10
5.525
 20
7.452
 11
5.481
 21
7.496
  0
LINE
  5
2C6
100
AcDbEntity
  8
0
100
AcDbLine
 62
7
  6
CONTINUOUS
 10
5.718
 20
7.406
 11
5.718
 21
6.594
  0
LINE
  5
2C7
100
AcDbEntity
  8
0
100
AcDbLine
 62
7
  6
CONTINUOUS
 10
5.75
 20
6.626
 11
5.75
 21
7.374
  0
LINE
  5
2C8
100
AcDbEntity
  8
0
100
AcDbLine
 62
7
  6
CONTINUOUS
 10
5.625
 20
6.564
 11
5.609
 21
6.548
  0
LINE
  5
2C9
100
AcDbEntity
  8
0
100
AcDbLine
 62
7
  6
CONTINUOUS
 10
5.718
 20
6.594
 11
5.75
 21
6.626
  0
LINE
  5
2CA
100
AcDbEntity
  8
0
100
AcDbLine
 62
7
  6
CONTINUOUS
 10
5.625
 20
7.436
 11
5.609
 21
7.452
  0
LINE
  5
2CB
100
AcDbEntity
  8
0
100
AcDbLine
 62
7
  6
CONTINUOUS
 10
5.718
 20
7.406
 11
5.75
 21
7.374
  0
LINE
  5
2CC
100
AcDbEntity
  8
0
100
AcDbLine
 62
7
  6
CONTINUOUS
 10
5.7942484579
 20
6.676106499
 11
5.7952217705
 21
6.6820743312
  0
LINE
  5
2CD
100
AcDbEntity
  8
0
100
AcDbLine
 62
7
  6
CONTINUOUS
 10
5.7952220304
 20
7.3179253955
 11
5.7942484579
 21
7.323893501
  0
LINE
  5
2CE
100
AcDbEntity
  8
0
100
AcDbLine
 62
7
  6
CONTINUOUS
 10
5.995
 20
6.626
 11
5.995
 21
7.374
  0
LINE
  5
2CF
100
AcDbEntity
  8
0
100
AcDbLine
 62
7
  6
CONTINUOUS
 10
6.0032928932
 20
6.6342928932
 11
6.0032928932
 21
7.3657071068
  0
LINE
  5
2D0
100
AcDbEntity
  8
0
100
AcDbLine
 62
7
  6
CONTINUOUS
 10
5.9557515421
 20
6.676106499
 11
5.9549101621
 21
6.6704875864
  0
LINE
  5
2D1
100
AcDbEntity
  8
0
100
AcDbLine
 62
7
  6
CONTINUOUS
 10
6.0032928932
 20
6.6342928932
 11
5.995
 21
6.626
  0
LINE
  5
2D2
100
AcDbEntity
  8
0
100
AcDbLine
 62
7
  6
CONTINUOUS
 10
6.0032928932
 20
7.3657071068
 11
5.995
 21
7.374
  0
LINE
  5
2D3
100
AcDbEntity
  8
0
100
AcDbLine
 62
7
  6
CONTINUOUS
 10
5.9549097544
 20
7.3295129162
 11
5.9557515421
 21
7.323893501
  0
LINE
  5
2D4
100
AcDbEntity
  8
0
100
AcDbLine
 62
7
  6
CONTINUOUS
 10
6.0067071068
 20
6.6342928932
 11
6.0067071068
 21
7.3657071068
  0
LINE
  5
2D5
100
AcDbEntity
  8
0
100
AcDbLine
 62
7
  6
CONTINUOUS
 10
6.015
 20
6.626
 11
6.015
 21
7.374
  0
LINE
  5
2D6
100
AcDbEntity
  8
0
100
AcDbLine
 62
7
  6
CONTINUOUS
 10
6.063
 20
7.43625
 11
6.063
 21
6.56375
  0
LINE
  5
2D7
100
AcDbEntity
  8
0
100
AcDbLine
 62
7
  6
CONTINUOUS
 10
6.1205
 20
7.43625
 11
6.1205
 21
6.56375
  0
LINE
  5
2D8
100
AcDbEntity
  8
0
100
AcDbLine
 62
7
  6
CONTINUOUS
 10
6.1705
 20
7.4355
 11
6.1705
 21
6.5645
  0
LINE
  5
2D9
100
AcDbEntity
  8
0
100
AcDbLine
 62
7
  6
CONTINUOUS
 10
6.2405
 20
7.4355
 11
6.2405
 21
6.5645
  0
LINE
  5
2DA
100
AcDbEntity
  8
0
100
AcDbLine
 62
7
  6
CONTINUOUS
 10
6.2905
 20
7.4355
 11
6.2905
 21
6.5645
  0
LINE
  5
2DB
100
AcDbEntity
  8
0
100
AcDbLine
 62
7
  6
CONTINUOUS
 10
6.36
 20
6.56375
 11
6.375
 21
6.57875
  0
LINE
  5
2DC
100
AcDbEntity
  8
0
100
AcDbLine
 62
7
  6
CONTINUOUS
 10
6.36
 20
7.43625
 11
6.375
 21
7.42125
  0
LINE
  5
2DD
100
AcDbEntity
  8
0
100
AcDbLine
 62
7
  6
CONTINUOUS
 10
6.318
 20
7.43625
 11
6.318
 21
6.56375
  0
LINE
  5
2DE
100
AcDbEntity
  8
0
100
AcDbLine
 62
7
  6
CONTINUOUS
 10
6.36
 20
7.43625
 11
6.36
 21
6.56375
  0
LINE
  5
2DF
100
AcDbEntity
  8
0
100
AcDbLine
 62
7
  6
CONTINUOUS
 10
6.375
 20
7.42125
 11
6.375
 21
6.57875
  0
ARC
  5
2E0
100
AcDbEntity
  8
THREAD
100
AcDbCircle
 62
7
  6
CONTINUOUS
 10
5.1807831216
 20
6.5295
 40
0.0125
100
AcDbArc
 50
30.0000125701
 51
90.0
  0
ARC
  5
2E1
100
AcDbEntity
  8
THREAD
100
AcDbCircle
 62
7
  6
CONTINUOUS
 10
5.1807831216
 20
7.4705
 40
0.0125
100
AcDbArc
 50
270.0
 51
329.9999874299
  0
ARC
  5
2E2
100
AcDbEntity
  8
0
100
AcDbCircle
 62
7
  6
CONTINUOUS
 10
4.506
 20
7.4925
 40
0.01
100
AcDbArc
 50
270.0
 51
360.0
  0
ARC
  5
2E3
100
AcDbEntity
  8
0
100
AcDbCircle
 62
7
  6
CONTINUOUS
 10
4.506
 20
6.5075
 40
0.01
100
AcDbArc
 50
0.0
 51
90.0
  0
ARC
  5
2E4
100
AcDbEntity
  8
0
100
AcDbCircle
 62
7
  6
CONTINUOUS
 10
5.005
 20
6.4696132487
 40
0.005
100
AcDbArc
 50
119.9999998441
 51
179.9999996888
  0
ARC
  5
2E5
100
AcDbEntity
  8
0
100
AcDbCircle
 62
7
  6
CONTINUOUS
 10
5.0238564065
 20
6.4805
 40
0.005
100
AcDbArc
 50
90.0
 51
119.9999999691
  0
ARC
  5
2E6
100
AcDbEntity
  8
0
100
AcDbCircle
 62
7
  6
CONTINUOUS
 10
5.005
 20
7.5303867513
 40
0.005
100
AcDbArc
 50
180.0000003112
 51
240.0000001559
  0
ARC
  5
2E7
100
AcDbEntity
  8
0
100
AcDbCircle
 62
7
  6
CONTINUOUS
 10
5.0238564065
 20
7.5195
 40
0.005
100
AcDbArc
 50
240.0000000309
 51
270.0
  0
ARC
  5
2E8
100
AcDbEntity
  8
0
100
AcDbCircle
 62
7
  6
CONTINUOUS
 10
5.044
 20
7.5115
 40
0.003
100
AcDbArc
 50
0.0
 51
90.0
  0
ARC
  5
2E9
100
AcDbEntity
  8
0
100
AcDbCircle
 62
7
  6
CONTINUOUS
 10
4.937301981
 20
7.535
 40
0.003
100
AcDbArc
 50
90.0
 51
165.0
  0
ARC
  5
2EA
100
AcDbEntity
  8
0
100
AcDbCircle
 62
7
  6
CONTINUOUS
 10
4.558698019
 20
7.53475
 40
0.003
100
AcDbArc
 50
14.9999999999
 51
90.0
  0
ARC
  5
2EB
100
AcDbEntity
  8
0
100
AcDbCircle
 62
7
  6
CONTINUOUS
 10
4.519
 20
7.53475
 40
0.003
100
AcDbArc
 50
90.0
 51
180.0
  0
ARC
  5
2EC
100
AcDbEntity
  8
0
100
AcDbCircle
 62
7
  6
CONTINUOUS
 10
4.372
 20
7.535
 40
0.003
100
AcDbArc
 50
0.0
 51
90.0
  0
ARC
  5
2ED
100
AcDbEntity
  8
0
100
AcDbCircle
 62
7
  6
CONTINUOUS
 10
4.997
 20
6.465
 40
0.003
100
AcDbArc
 50
270.0
 51
0.0000036201
  0
ARC
  5
2EE
100
AcDbEntity
  8
0
100
AcDbCircle
 62
7
  6
CONTINUOUS
 10
5.044
 20
6.4885
 40
0.003
100
AcDbArc
 50
270.0
 51
360.0
  0
ARC
  5
2EF
100
AcDbEntity
  8
0
100
AcDbCircle
 62
7
  6
CONTINUOUS
 10
4.937301981
 20
6.465
 40
0.003
100
AcDbArc
 50
195.0
 51
270.0
  0
ARC
  5
2F0
100
AcDbEntity
  8
0
100
AcDbCircle
 62
7
  6
CONTINUOUS
 10
4.558698019
 20
6.46525
 40
0.003
100
AcDbArc
 50
270.0
 51
345.0
  0
ARC
  5
2F1
100
AcDbEntity
  8
0
100
AcDbCircle
 62
7
  6
CONTINUOUS
 10
4.519
 20
6.46525
 40
0.003
100
AcDbArc
 50
180.0
 51
270.0
  0
ARC
  5
2F2
100
AcDbEntity
  8
0
100
AcDbCircle
 62
7
  6
CONTINUOUS
 10
4.372
 20
6.465
 40
0.003
100
AcDbArc
 50
270.0
 51
360.0
  0
ARC
  5
2F3
100
AcDbEntity
  8
0
100
AcDbCircle
 62
7
  6
CONTINUOUS
 10
4.997
 20
7.535
 40
0.003
100
AcDbArc
 50
359.9999963799
 51
90.0
  0
ARC
  5
2F4
100
AcDbEntity
  8
0
100
AcDbCircle
 62
7
  6
CONTINUOUS
 10
6.005
 20
6.6325857864
 40
0.0024142136
100
AcDbArc
 50
45.0
 51
135.0
  0
ARC
  5
2F5
100
AcDbEntity
  8
0
100
AcDbCircle
 62
7
  6
CONTINUOUS
 10
6.005
 20
7.3674142136
 40
0.0024142136
100
AcDbArc
 50
225.0
 51
315.0
  0
SPLINE
  5
2F6
100
AcDbEntity
  8
0
100
AcDbSpline
 62
7
  6
CONTINUOUS
 70
0
 71
3
 72
22
 73
18
 74
0
 42
0.0000001
 43
0.0000001
 44
0.0000000001
 40
0.0
 40
0.0
 40
0.0
 40
0.0
 40
0.0626766838
 40
0.1253269558
 40
0.1879344181
 40
0.2504800876
 40
0.3129602309
 40
0.3753771085
 40
0.4377450444
 40
0.5000853933
 40
0.5624235247
 40
0.6247880016
 40
0.6872013874
 40
0.7496732401
 40
0.812206698
 40
0.8748190611
 40
1.0
 40
1.0
 40
1.0
 40
1.0
 10
5.877203335
 20
7.0779999845
 30
0.0
 10
5.8797760917
 20
7.0779999051
 30
0.0
 10
5.8849237563
 20
7.0777616888
 30
0.0
 10
5.8925736076
 20
7.0766841357
 30
0.0
 10
5.9000812125
 20
7.074881406
 30
0.0
 10
5.9073731994
 20
7.0723642127
 30
0.0
 10
5.9143748553
 20
7.0691438674
 30
0.0
 10
5.9210172305
 20
7.0652498083
 30
0.0
 10
5.9272305429
 20
7.0607118088
 30
0.0
 10
5.932955838
 20
7.0555765882
 30
0.0
 10
5.9381342961
 20
7.0498905793
 30
0.0
 10
5.9427201862
 20
7.0437131296
 30
0.0
 10
5.9466680537
 20
7.0371033357
 30
0.0
 10
5.9499465031
 20
7.0301301506
 30
0.0
 10
5.9525245639
 20
7.0228588596
 30
0.0
 10
5.9549998121
 20
7.0128746354
 30
0.0
 10
5.9557515421
 20
7.0051384355
 30
0.0
 10
5.9557515421
 20
7.0
 30
0.0
  0
SPLINE
  5
2F7
100
AcDbEntity
  8
0
100
AcDbSpline
 62
7
  6
CONTINUOUS
 70
0
 71
3
 72
20
 73
16
 74
0
 42
0.0000001
 43
0.0000001
 44
0.0000000001
 40
0.0
 40
0.0
 40
0.0
 40
0.0
 40
0.1248072286
 40
0.2487929578
 40
0.3106468283
 40
0.3724655757
 40
0.4962060655
 40
0.5583311222
 40
0.6206870632
 40
0.6832899381
 40
0.7461767409
 40
0.8093402366
 40
0.8727630979
 40
0.9363832459
 40
1.0
 40
1.0
 40
1.0
 40
1.0
 10
5.9072732192
 20
7.0724687194
 30
0.0
 10
5.9034773952
 20
7.0710820237
 30
0.0
 10
5.8960816648
 20
7.0678236435
 30
0.0
 10
5.8874512438
 20
7.0626001417
 30
0.0
 10
5.8810311911
 20
7.0577857671
 30
0.0
 10
5.8749576815
 20
7.0525547646
 30
0.0
 10
5.8694353582
 20
7.0466937607
 30
0.0
 10
5.8646034601
 20
7.0402634532
 30
0.0
 10
5.8613446348
 20
7.0351493044
 30
0.0
 10
5.8584930605
 20
7.0297692675
 30
0.0
 10
5.8560892668
 20
7.0241456514
 30
0.0
 10
5.8541680867
 20
7.0183110122
 30
0.0
 10
5.8527671815
 20
7.0123049254
 30
0.0
 10
5.8519167561
 20
7.0061821267
 30
0.0
 10
5.8517235597
 20
7.002059875
 30
0.0
 10
5.8517235597
 20
7.0
 30
0.0
  0
SPLINE
  5
2F8
100
AcDbEntity
  8
0
100
AcDbSpline
 62
7
  6
CONTINUOUS
 70
0
 71
3
 72
36
 73
32
 74
0
 42
0.0000001
 43
0.0000001
 44
0.0000000001
 40
0.0
 40
0.0
 40
0.0
 40
0.0
 40
0.0215972142
 40
0.0330294348
 40
0.044906805
 40
0.0700243131
 40
0.0969769577
 40
0.1256919636
 40
0.1560452245
 40
0.1878945917
 40
0.2210820587
 40
0.2554485626
 40
0.2908361826
 40
0.3270876569
 40
0.3640501467
 40
0.4015716095
 40
0.4394924362
 40
0.4776541611
 40
0.515886816
 40
0.5918226008
 40
0.6658450825
 40
0.7364128886
 40
0.8020492237
 40
0.8326435256
 40
0.8615718345
 40
0.8887582559
 40
0.9141649612
 40
0.9378313829
 40
0.9598748083
 40
0.9804982739
 40
1.0
 40
1.0
 40
1.0
 40
1.0
 10
5.7952006426
 20
6.6820766159
 30
0.0
 10
5.7956176888
 20
6.6834151592
 30
0.0
 10
5.7964414055
 20
6.6854080092
 30
0.0
 10
5.7978450468
 20
6.6879644005
 30
0.0
 10
5.7995437524
 20
6.6906124648
 30
0.0
 10
5.8021150323
 20
6.6938846083
 30
0.0
 10
5.8057822023
 20
6.6976448713
 30
0.0
 10
5.8100382731
 20
6.7012708767
 30
0.0
 10
5.8148346609
 20
6.7047203065
 30
0.0
 10
5.8201206479
 20
6.7079558041
 30
0.0
 10
5.8258468863
 20
6.7109409862
 30
0.0
 10
5.8319640288
 20
6.7136422504
 30
0.0
 10
5.8384233793
 20
6.7160277529
 30
0.0
 10
5.8451763162
 20
6.718067258
 30
0.0
 10
5.8521731624
 20
6.7197344664
 30
0.0
 10
5.8593633626
 20
6.7210025133
 30
0.0
 10
5.8666932496
 20
6.7218526886
 30
0.0
 10
5.8741074801
 20
6.7222641436
 30
0.0
 10
5.8840009201
 20
6.7222155114
 30
0.0
 10
5.8961945608
 20
6.7210306021
 30
0.0
 10
5.9101919296
 20
6.7178424493
 30
0.0
 10
5.9230167045
 20
6.7130576341
 30
0.0
 10
5.9325633887
 20
6.7078528377
 30
0.0
 10
5.9391810016
 20
6.7031248435
 30
0.0
 10
5.9434701829
 20
6.6994680549
 30
0.0
 10
5.9471670256
 20
6.6956696622
 30
0.0
 10
5.9502416967
 20
6.6917771557
 30
0.0
 10
5.952669417
 20
6.6878366263
 30
0.0
 10
5.954428239
 20
6.6838898915
 30
0.0
 10
5.9554991409
 20
6.6799818763
 30
0.0
 10
5.9557515421
 20
6.6773724757
 30
0.0
 10
5.9557515421
 20
6.676106499
 30
0.0
  0
SPLINE
  5
2F9
100
AcDbEntity
  8
0
100
AcDbSpline
 62
7
  6
CONTINUOUS
 70
0
 71
3
 72
24
 73
20
 74
0
 42
0.0000001
 43
0.0000001
 44
0.0000000001
 40
0.0
 40
0.0
 40
0.0
 40
0.0
 40
0.0118804919
 40
0.0252167445
 40
0.0401303298
 40
0.0566677117
 40
0.0748281857
 40
0.0945813388
 40
0.1386484363
 40
0.1883845214
 40
0.2432829177
 40
0.3029306446
 40
0.3669509081
 40
0.506910319
 40
0.6611530886
 40
0.7429453117
 40
0.8271603279
 40
0.9131926799
 40
1.0
 40
1.0
 40
1.0
 40
1.0
 10
5.838292813
 20
6.961
 30
0.0
 10
5.8381070323
 20
6.961
 30
0.0
 10
5.8377124278
 20
6.9610393297
 30
0.0
 10
5.8371021891
 20
6.9611918811
 30
0.0
 10
5.8364450156
 20
6.9614375081
 30
0.0
 10
5.8357448123
 20
6.9617734101
 30
0.0
 10
5.8350053411
 20
6.9621968132
 30
0.0
 10
5.8339332895
 20
6.9629009397
 30
0.0
 10
5.8325302752
 20
6.9639941654
 30
0.0
 10
5.8308172435
 20
6.9655695729
 30
0.0
 10
5.8290537078
 20
6.967440416
 30
0.0
 10
5.8272767083
 20
6.9695969573
 30
0.0
 10
5.8248634375
 20
6.9729422559
 30
0.0
 10
5.8220456812
 20
6.9778036199
 30
0.0
 10
5.819805437
 20
6.9832628715
 30
0.0
 10
5.8184219227
 20
6.9880800543
 30
0.0
 10
5.8176265516
 20
6.9919446558
 30
0.0
 10
5.8171369727
 20
6.9959385742
 30
0.0
 10
5.8170241393
 20
6.9986425537
 30
0.0
 10
5.8170241393
 20
7.0
 30
0.0
  0
SPLINE
  5
2FA
100
AcDbEntity
  8
0
100
AcDbSpline
 62
7
  6
CONTINUOUS
 70
0
 71
3
 72
21
 73
17
 74
0
 42
0.0000001
 43
0.0000001
 44
0.0000000001
 40
0.0
 40
0.0
 40
0.0
 40
0.0
 40
0.1251995758
 40
0.250214175
 40
0.3126954607
 40
0.3751182233
 40
0.437492076
 40
0.4998395614
 40
0.5621892292
 40
0.6245664347
 40
0.6869925944
 40
0.7494820156
 40
0.8120370567
 40
0.8746539355
 40
0.9373137413
 40
1.0
 40
1.0
 40
1.0
 40
1.0
 10
5.9557515421
 20
7.0
 30
0.0
 10
5.9557515421
 20
6.9948615714
 30
0.0
 10
5.9547532875
 20
6.9845661996
 30
0.0
 10
5.9510386278
 20
6.9721922231
 30
0.0
 10
5.9466681605
 20
6.9628969878
 30
0.0
 10
5.9427201683
 20
6.9562867997
 30
0.0
 10
5.9381343126
 20
6.950109454
 30
0.0
 10
5.9329558471
 20
6.9444234186
 30
0.0
 10
5.9272305631
 20
6.9392882054
 30
0.0
 10
5.9210172576
 20
6.9347502103
 30
0.0
 10
5.9143748967
 20
6.9308561525
 30
0.0
 10
5.907373251
 20
6.9276358066
 30
0.0
 10
5.9000812699
 20
6.9251186127
 30
0.0
 10
5.8925736632
 20
6.9233158693
 30
0.0
 10
5.8849237992
 20
6.9222383225
 30
0.0
 10
5.8797761237
 20
6.92200009
 30
0.0
 10
5.8772033605
 20
6.9220000135
 30
0.0
  0
SPLINE
  5
2FB
100
AcDbEntity
  8
0
100
AcDbSpline
 62
7
  6
CONTINUOUS
 70
0
 71
3
 72
36
 73
32
 74
0
 42
0.0000001
 43
0.0000001
 44
0.0000000001
 40
0.0
 40
0.0
 40
0.0
 40
0.0
 40
0.0195016525
 40
0.0401249716
 40
0.0621682688
 40
0.0858345817
 40
0.1112411979
 40
0.1384274666
 40
0.167355663
 40
0.1979499032
 40
0.2635860408
 40
0.334153474
 40
0.4081756873
 40
0.4841114761
 40
0.5223442528
 40
0.5605061143
 40
0.5984271018
 40
0.6359487101
 40
0.6729112902
 40
0.709162806
 40
0.7445504123
 40
0.7789168579
 40
0.8121042504
 40
0.8439535383
 40
0.874306826
 40
0.9030219687
 40
0.9299748004
 40
0.9550925838
 40
0.9669701144
 40
0.9784024933
 40
1.0
 40
1.0
 40
1.0
 40
1.0
 10
5.9557515421
 20
7.323893501
 30
0.0
 10
5.9557515421
 20
7.322627531
 30
0.0
 10
5.9554991505
 20
7.3200181487
 30
0.0
 10
5.9544282646
 20
7.3161101584
 30
0.0
 10
5.9526694525
 20
7.3121634542
 30
0.0
 10
5.950241761
 20
7.3082229412
 30
0.0
 10
5.9471671204
 20
7.3043304497
 30
0.0
 10
5.9434703177
 20
7.3005320618
 30
0.0
 10
5.9391811633
 20
7.2968752877
 30
0.0
 10
5.9325635972
 20
7.2921472924
 30
0.0
 10
5.9230169816
 20
7.2869424913
 30
0.0
 10
5.9101922929
 20
7.2821576636
 30
0.0
 10
5.896194998
 20
7.2789694759
 30
0.0
 10
5.8840013908
 20
7.2777845236
 30
0.0
 10
5.8741079496
 20
7.2777358422
 30
0.0
 10
5.8666937021
 20
7.2781472744
 30
0.0
 10
5.8593637953
 20
7.2789974261
 30
0.0
 10
5.8521735759
 20
7.2802654462
 30
0.0
 10
5.845176718
 20
7.2819326345
 30
0.0
 10
5.8384237768
 20
7.2839721132
 30
0.0
 10
5.8319644301
 20
7.2863575887
 30
0.0
 10
5.8258472939
 20
7.2890588177
 30
0.0
 10
5.8201210638
 20
7.2920439632
 30
0.0
 10
5.8148350713
 20
7.2952794173
 30
0.0
 10
5.8100386693
 20
7.2987288205
 30
0.0
 10
5.8057825567
 20
7.3023547976
 30
0.0
 10
5.8021153307
 20
7.3061150489
 30
0.0
 10
5.7995439989
 20
7.3093871943
 30
0.0
 10
5.7978452417
 20
7.3120352653
 30
0.0
 10
5.7964415544
 20
7.3145916719
 30
0.0
 10
5.795617814
 20
7.3165845397
 30
0.0
 10
5.7952007449
 20
7.3179230935
 30
0.0
  0
SPLINE
  5
2FC
100
AcDbEntity
  8
0
100
AcDbSpline
 62
7
  6
CONTINUOUS
 70
0
 71
3
 72
20
 73
16
 74
0
 42
0.0000001
 43
0.0000001
 44
0.0000000001
 40
0.0
 40
0.0
 40
0.0
 40
0.0
 40
0.0636151412
 40
0.1272338008
 40
0.1906557507
 40
0.253818969
 40
0.3167057708
 40
0.379307914
 40
0.4416635542
 40
0.5037884808
 40
0.6275289144
 40
0.6893475184
 40
0.7512018365
 40
0.8751895289
 40
1.0
 40
1.0
 40
1.0
 40
1.0
 10
5.8517235597
 20
7.0
 30
0.0
 10
5.8517235597
 20
6.9979396603
 30
0.0
 10
5.8519168378
 20
6.9938164734
 30
0.0
 10
5.8527676483
 20
6.9876922892
 30
0.0
 10
5.8541692166
 20
6.9816848523
 30
0.0
 10
5.8560913039
 20
6.9758489273
 30
0.0
 10
5.8584961574
 20
6.9702241277
 30
0.0
 10
5.8613490207
 20
6.9648430771
 30
0.0
 10
5.8646093033
 20
6.9597280963
 30
0.0
 10
5.869443249
 20
6.9532968174
 30
0.0
 10
5.8749679454
 20
6.9474352754
 30
0.0
 10
5.8810438456
 20
6.9422039493
 30
0.0
 10
5.8874665567
 20
6.9373896397
 30
0.0
 10
5.8961003059
 20
6.9321663642
 30
0.0
 10
5.9034989196
 20
6.9289090407
 30
0.0
 10
5.9072961354
 20
6.9275228936
 30
0.0
  0
SPLINE
  5
2FD
100
AcDbEntity
  8
0
100
AcDbSpline
 62
7
  6
CONTINUOUS
 70
0
 71
3
 72
24
 73
20
 74
0
 42
0.0000001
 43
0.0000001
 44
0.0000000001
 40
0.0
 40
0.0
 40
0.0
 40
0.0
 40
0.0868060059
 40
0.1728353071
 40
0.2570503812
 40
0.3388449022
 40
0.4930897871
 40
0.6330498282
 40
0.6970701606
 40
0.7567180946
 40
0.8116165747
 40
0.8613524147
 40
0.9054193011
 40
0.9251723429
 40
0.9433326886
 40
0.9598699309
 40
0.9747833875
 40
0.988119546
 40
1.0
 40
1.0
 40
1.0
 40
1.0
 10
5.8170241393
 20
7.0
 30
0.0
 10
5.8170241393
 20
7.0013574258
 30
0.0
 10
5.817136921
 20
7.004061339
 30
0.0
 10
5.8176265261
 20
7.0080551891
 30
0.0
 10
5.8184219279
 20
7.0119197706
 30
0.0
 10
5.8198053755
 20
7.0167370452
 30
0.0
 10
5.8220456745
 20
7.022196365
 30
0.0
 10
5.8248634503
 20
7.0270577665
 30
0.0
 10
5.8272767329
 20
7.0304030747
 30
0.0
 10
5.8290537377
 20
7.0325596187
 30
0.0
 10
5.8308172746
 20
7.0344304621
 30
0.0
 10
5.8325303094
 20
7.0360058575
 30
0.0
 10
5.8339333161
 20
7.0370990781
 30
0.0
 10
5.8350053617
 20
7.0378032011
 30
0.0
 10
5.8357448284
 20
7.0382266001
 30
0.0
 10
5.8364450267
 20
7.0385624983
 30
0.0
 10
5.8371021953
 20
7.0388081221
 30
0.0
 10
5.8377124304
 20
7.0389606712
 30
0.0
 10
5.8381070329
 20
7.039
 30
0.0
 10
5.838292813
 20
7.039
 30
0.0
  0
SPLINE
  5
2FE
100
AcDbEntity
  8
0
100
AcDbSpline
 62
7
  6
CONTINUOUS
 70
0
 71
3
 72
28
 73
24
 74
0
 42
0.0000001
 43
0.0000001
 44
0.0000000001
 40
0.0
 40
0.0
 40
0.0
 40
0.0
 40
0.1894089722
 40
0.2818207103
 40
0.3715247928
 40
0.4576859297
 40
0.5394856295
 40
0.6161489833
 40
0.6869175496
 40
0.7510511875
 40
0.8078504252
 40
0.8333084491
 40
0.8567264558
 40
0.8780661175
 40
0.8973179616
 40
0.9145278665
 40
0.9298016123
 40
0.943327784
 40
0.9554203353
 40
0.9665455621
 40
0.9772818094
 40
0.9882464007
 40
1.0
 40
1.0
 40
1.0
 40
1.0
 10
5.8379241763
 20
7.0
 30
0.0
 10
5.8379241763
 20
6.9974522287
 30
0.0
 10
5.8380177364
 20
6.9936606106
 30
0.0
 10
5.8383166143
 20
6.9886718563
 30
0.0
 10
5.8386097782
 20
6.9850748686
 30
0.0
 10
5.8389556826
 20
6.9816261211
 30
0.0
 10
5.8393330712
 20
6.9783572648
 30
0.0
 10
5.839716143
 20
6.9752977109
 30
0.0
 10
5.8400760741
 20
6.972474748
 30
0.0
 10
5.8403817667
 20
6.969914311
 30
0.0
 10
5.840570483
 20
6.9679537623
 30
0.0
 10
5.8406554625
 20
6.9665346695
 30
0.0
 10
5.8406816567
 20
6.9655903406
 30
0.0
 10
5.840668827
 20
6.9647290866
 30
0.0
 10
5.8406126682
 20
6.9639530711
 30
0.0
 10
5.8405103178
 20
6.9632638746
 30
0.0
 10
5.840358826
 20
6.9626624645
 30
0.0
 10
5.840154683
 20
6.9621494145
 30
0.0
 10
5.8398925976
 20
6.9617265859
 30
0.0
 10
5.8395707163
 20
6.961396712
 30
0.0
 10
5.8391907732
 20
6.9611628117
 30
0.0
 10
5.8387577236
 20
6.9610263606
 30
0.0
 10
5.8384509126
 20
6.961
 30
0.0
 10
5.838292813
 20
6.961
 30
0.0
  0
SPLINE
  5
2FF
100
AcDbEntity
  8
0
100
AcDbSpline
 62
7
  6
CONTINUOUS
 70
0
 71
3
 72
15
 73
11
 74
0
 42
0.0000001
 43
0.0000001
 44
0.0000000001
 40
0.0
 40
0.0
 40
0.0
 40
0.0
 40
0.1253059985
 40
0.2504472332
 40
0.3753532988
 40
0.5000802094
 40
0.624778763
 40
0.7496247668
 40
0.8747133134
 40
1.0
 40
1.0
 40
1.0
 40
1.0
 10
5.8772033605
 20
6.9220000135
 30
0.0
 10
5.8719408118
 20
6.9219998571
 30
0.0
 10
5.8613975066
 20
6.9229981028
 30
0.0
 10
5.8461604809
 20
6.9273519124
 30
0.0
 10
5.8319770104
 20
6.9343766394
 30
0.0
 10
5.8193274396
 20
6.9438632008
 30
0.0
 10
5.8086878016
 20
6.9555666898
 30
0.0
 10
5.8005574178
 20
6.9691664824
 30
0.0
 10
5.7954218597
 20
6.9841867369
 30
0.0
 10
5.7942484579
 20
6.9947382624
 30
0.0
 10
5.7942484579
 20
7.0
 30
0.0
  0
SPLINE
  5
300
100
AcDbEntity
  8
0
100
AcDbSpline
 62
7
  6
CONTINUOUS
 70
0
 71
3
 72
43
 73
39
 74
0
 42
0.0000001
 43
0.0000001
 44
0.0000000001
 40
0.0
 40
0.0
 40
0.0
 40
0.0
 40
0.0100692494
 40
0.020260575
 40
0.0412789523
 40
0.0636009812
 40
0.0876273945
 40
0.1136253198
 40
0.1417423711
 40
0.1720166969
 40
0.2044000665
 40
0.238759991
 40
0.2749090527
 40
0.3126008876
 40
0.3515586065
 40
0.3914754762
 40
0.4320331451
 40
0.4729132742
 40
0.5137992114
 40
0.5543946393
 40
0.5944139293
 40
0.6335970411
 40
0.6717021914
 40
0.7085070277
 40
0.743811605
 40
0.7774348992
 40
0.8092225692
 40
0.839055035
 40
0.8668586309
 40
0.8926342856
 40
0.9164795307
 40
0.9386374617
 40
0.9492187958
 40
0.9595509914
 40
0.9697134642
 40
0.9797868773
 40
0.9898542165
 40
1.0
 40
1.0
 40
1.0
 40
1.0
 10
5.9549091874
 20
6.6704878414
 30
0.0
 10
5.9547284353
 20
6.6699041684
 30
0.0
 10
5.9543068997
 20
6.668746735
 30
0.0
 10
5.9532258311
 20
6.666483659
 30
0.0
 10
5.9514163847
 20
6.6637629795
 30
0.0
 10
5.9486045925
 20
6.6607737424
 30
0.0
 10
5.9451588312
 20
6.6580327607
 30
0.0
 10
5.9411107823
 20
6.6555451513
 30
0.0
 10
5.9364934181
 20
6.6533142616
 30
0.0
 10
5.9313461187
 20
6.6513379226
 30
0.0
 10
5.9257122367
 20
6.6496158479
 30
0.0
 10
5.9196418378
 20
6.6481422538
 30
0.0
 10
5.9131896692
 20
6.6469134013
 30
0.0
 10
5.9064152468
 20
6.6459216136
 30
0.0
 10
5.8993813621
 20
6.6451605594
 30
0.0
 10
5.8921527192
 20
6.6446231345
 30
0.0
 10
5.8847946001
 20
6.6443025552
 30
0.0
 10
5.8773715776
 20
6.6441942081
 30
0.0
 10
5.8699461619
 20
6.6442931469
 30
0.0
 10
5.8625786134
 20
6.6445982089
 30
0.0
 10
5.8553259039
 20
6.6451080297
 30
0.0
 10
5.8482424415
 20
6.6458248215
 30
0.0
 10
5.8413799296
 20
6.6467514718
 30
0.0
 10
5.8347882571
 20
6.6478928777
 30
0.0
 10
5.8285162961
 20
6.6492554396
 30
0.0
 10
5.8226122403
 20
6.6508457096
 30
0.0
 10
5.8171245651
 20
6.6526713418
 30
0.0
 10
5.8121020116
 20
6.6547392724
 30
0.0
 10
5.8075934569
 20
6.6570555864
 30
0.0
 10
5.8036488103
 20
6.6596264605
 30
0.0
 10
5.8003162892
 20
6.662451789
 30
0.0
 10
5.7980578687
 20
6.6650623924
 30
0.0
 10
5.7966355406
 20
6.6672593616
 30
0.0
 10
5.7957687471
 20
6.6689377816
 30
0.0
 10
5.7950914274
 20
6.6706682695
 30
0.0
 10
5.7946053626
 20
6.6724453958
 30
0.0
 10
5.7943127767
 20
6.6742632192
 30
0.0
 10
5.7942484579
 20
6.6754908347
 30
0.0
 10
5.7942484579
 20
6.676106499
 30
0.0
  0
SPLINE
  5
301
100
AcDbEntity
  8
0
100
AcDbSpline
 62
7
  6
CONTINUOUS
 70
0
 71
3
 72
15
 73
11
 74
0
 42
0.0000001
 43
0.0000001
 44
0.0000000001
 40
0.0
 40
0.0
 40
0.0
 40
0.0
 40
0.1252853229
 40
0.2503726975
 40
0.3752187593
 40
0.4999179617
 40
0.6246456834
 40
0.7495523434
 40
0.8746938761
 40
1.0
 40
1.0
 40
1.0
 40
1.0
 10
5.7942484579
 20
7.0
 30
0.0
 10
5.7942484579
 20
7.0052616792
 30
0.0
 10
5.7954218216
 20
7.0158130975
 30
0.0
 10
5.8005573157
 20
7.0308332576
 30
0.0
 10
5.8086876162
 20
7.0444330721
 30
0.0
 10
5.81932726
 20
7.0561366415
 30
0.0
 10
5.8319768752
 20
7.0656232837
 30
0.0
 10
5.8461604
 20
7.0726480595
 30
0.0
 10
5.8613974616
 20
7.077001885
 30
0.0
 10
5.8719407822
 20
7.0780001467
 30
0.0
 10
5.877203335
 20
7.0779999845
 30
0.0
  0
SPLINE
  5
302
100
AcDbEntity
  8
0
100
AcDbSpline
 62
7
  6
CONTINUOUS
 70
0
 71
3
 72
43
 73
39
 74
0
 42
0.0000001
 43
0.0000001
 44
0.0000000001
 40
0.0
 40
0.0
 40
0.0
 40
0.0
 40
0.0101457477
 40
0.0202129901
 40
0.030286235
 40
0.0404484741
 40
0.0507804361
 40
0.0613615861
 40
0.0835191996
 40
0.1073642164
 40
0.1331396381
 40
0.1609430535
 40
0.1907754281
 40
0.2225630137
 40
0.2561862777
 40
0.2914908069
 40
0.3282955773
 40
0.3664006534
 40
0.4055836321
 40
0.4456028137
 40
0.486198095
 40
0.5270839218
 40
0.5679639668
 40
0.6085216074
 40
0.6484385658
 40
0.687396436
 40
0.7250885001
 40
0.7612378426
 40
0.7955980487
 40
0.8279817306
 40
0.8582563364
 40
0.8863736819
 40
0.9123718796
 40
0.9363985499
 40
0.9587207756
 40
0.9797393019
 40
0.9899306949
 40
1.0
 40
1.0
 40
1.0
 40
1.0
 10
5.7942484579
 20
7.323893501
 30
0.0
 10
5.7942484579
 20
7.3245091613
 30
0.0
 10
5.7943127701
 20
7.3257367651
 30
0.0
 10
5.7946053358
 20
7.3275545676
 30
0.0
 10
5.7950913768
 20
7.3293316637
 30
0.0
 10
5.7957686842
 20
7.3310621099
 30
0.0
 10
5.7966354663
 20
7.3327404841
 30
0.0
 10
5.7980577359
 20
7.3349374276
 30
0.0
 10
5.8003160888
 20
7.3375480193
 30
0.0
 10
5.8036485455
 20
7.3403733295
 30
0.0
 10
5.8075931108
 20
7.3429442319
 30
0.0
 10
5.8121016207
 20
7.3452605353
 30
0.0
 10
5.8171241192
 20
7.3473284987
 30
0.0
 10
5.8226117595
 20
7.3491541444
 30
0.0
 10
5.8285157805
 20
7.3507444356
 30
0.0
 10
5.834787709
 20
7.3521070177
 30
0.0
 10
5.8413793476
 20
7.3532484363
 30
0.0
 10
5.8482418194
 20
7.354175108
 30
0.0
 10
5.8553252403
 20
7.3548919108
 30
0.0
 10
5.8625779031
 20
7.3554017536
 30
0.0
 10
5.8699454071
 20
7.3557068305
 30
0.0
 10
5.8773707799
 20
7.3558057926
 30
0.0
 10
5.8847937673
 20
7.3556974691
 30
0.0
 10
5.8921518642
 20
7.3553769139
 30
0.0
 10
5.8993805009
 20
7.3548395202
 30
0.0
 10
5.9064143961
 20
7.3540784927
 30
0.0
 10
5.9131888432
 20
7.353086737
 30
0.0
 10
5.9196410473
 20
7.3518579173
 30
0.0
 10
5.9257114889
 20
7.350384353
 30
0.0
 10
5.9313454205
 20
7.3486623189
 30
0.0
 10
5.9364927723
 20
7.3466860127
 30
0.0
 10
5.9411101992
 20
7.3444551696
 30
0.0
 10
5.9451583109
 20
7.3419675948
 30
0.0
 10
5.9486041514
 20
7.3392266638
 30
0.0
 10
5.951416024
 20
7.3362374696
 30
0.0
 10
5.9532255534
 20
7.3335168274
 30
0.0
 10
5.9543066853
 20
7.3312537713
 30
0.0
 10
5.9547282537
 20
7.3300963459
 30
0.0
 10
5.9549090229
 20
7.3295126766
 30
0.0
  0
SPLINE
  5
303
100
AcDbEntity
  8
0
100
AcDbSpline
 62
7
  6
CONTINUOUS
 70
0
 71
3
 72
28
 73
24
 74
0
 42
0.0000001
 43
0.0000001
 44
0.0000000001
 40
0.0
 40
0.0
 40
0.0
 40
0.0
 40
0.0117461399
 40
0.0227034028
 40
0.0334283667
 40
0.0445382647
 40
0.0566152288
 40
0.070126071
 40
0.0853820698
 40
0.1025719477
 40
0.1218032775
 40
0.1431255756
 40
0.1665300562
 40
0.1919766487
 40
0.2487548372
 40
0.3128791194
 40
0.3836488333
 40
0.4603259713
 40
0.5421355565
 40
0.6283028178
 40
0.8105204333
 40
0.9048743915
 40
1.0
 40
1.0
 40
1.0
 40
1.0
 10
5.838292813
 20
7.039
 30
0.0
 10
5.8384508136
 20
7.039
 30
0.0
 10
5.8387574182
 20
7.0389737684
 30
0.0
 10
5.8391902609
 20
7.0388378707
 30
0.0
 10
5.8395700831
 20
7.0386046361
 30
0.0
 10
5.8398917732
 20
7.0382753074
 30
0.0
 10
5.840153206
 20
7.0378527997
 30
0.0
 10
5.8403572821
 20
7.0373404651
 30
0.0
 10
5.8405090784
 20
7.0367398635
 30
0.0
 10
5.8406119281
 20
7.0360515309
 30
0.0
 10
5.8406686383
 20
7.0352763249
 30
0.0
 10
5.8406817893
 20
7.034415755
 30
0.0
 10
5.8406557534
 20
7.0334719818
 30
0.0
 10
5.8405709227
 20
7.0320534885
 30
0.0
 10
5.8403826552
 20
7.0300934481
 30
0.0
 10
5.8400774274
 20
7.0275333265
 30
0.0
 10
5.8397168957
 20
7.0247103381
 30
0.0
 10
5.8393344463
 20
7.0216503492
 30
0.0
 10
5.8389563961
 20
7.0183811212
 30
0.0
 10
5.8384863447
 20
7.013693949
 30
0.0
 10
5.8381380919
 20
7.0088252892
 30
0.0
 10
5.837956432
 20
7.0038284107
 30
0.0
 10
5.8379241763
 20
7.0012795611
 30
0.0
 10
5.8379241763
 20
7.0
 30
0.0
  0
SPLINE
  5
304
100
AcDbEntity
  8
0
100
AcDbSpline
 62
7
  6
CONTINUOUS
 70
0
 71
3
 72
15
 73
11
 74
0
 42
0.0000001
 43
0.0000001
 44
0.0000000001
 40
0.0
 40
0.0
 40
0.0
 40
0.0
 40
0.1256079893
 40
0.2507412784
 40
0.3754830329
 40
0.5000000146
 40
0.624516994
 40
0.7492587441
 40
0.8743920159
 40
1.0
 40
1.0
 40
1.0
 40
1.0
 10
3.6706106713
 20
7.0279114628
 30
0.0
 10
3.6642690454
 20
7.0485284237
 30
0.0
 10
3.6527156377
 20
7.090038899
 30
0.0
 10
3.6395159993
 20
7.1532078143
 30
0.0
 10
3.6312138988
 20
7.2170348586
 30
0.0
 10
3.6283748048
 20
7.281241757
 30
0.0
 10
3.6312139
 20
7.3454486546
 30
0.0
 10
3.6395160012
 20
7.4092756947
 30
0.0
 10
3.6527156392
 20
7.4724446052
 30
0.0
 10
3.6642690457
 20
7.5139550769
 30
0.0
 10
3.6706106713
 20
7.534572037
 30
0.0
  0
SPLINE
  5
305
100
AcDbEntity
  8
0
100
AcDbSpline
 62
7
  6
CONTINUOUS
 70
0
 71
3
 72
15
 73
11
 74
0
 42
0.0000001
 43
0.0000001
 44
0.0000000001
 40
0.0
 40
0.0
 40
0.0
 40
0.0
 40
0.1256079893
 40
0.2507412784
 40
0.3754830329
 40
0.5000000146
 40
0.624516994
 40
0.7492587441
 40
0.8743920159
 40
1.0
 40
1.0
 40
1.0
 40
1.0
 10
4.1325743742
 20
7.0279114628
 30
0.0
 10
4.138916
 20
7.0485284237
 30
0.0
 10
4.1504694078
 20
7.090038899
 30
0.0
 10
4.1636690461
 20
7.1532078143
 30
0.0
 10
4.1719711466
 20
7.2170348586
 30
0.0
 10
4.1748102406
 20
7.281241757
 30
0.0
 10
4.1719711454
 20
7.3454486546
 30
0.0
 10
4.1636690442
 20
7.4092756947
 30
0.0
 10
4.1504694062
 20
7.4724446052
 30
0.0
 10
4.1389159997
 20
7.5139550769
 30
0.0
 10
4.1325743742
 20
7.534572037
 30
0.0
  0
SPLINE
  5
306
100
AcDbEntity
  8
0
100
AcDbSpline
 62
7
  6
CONTINUOUS
 70
0
 71
3
 72
15
 73
11
 74
0
 42
0.0000001
 43
0.0000001
 44
0.0000000001
 40
0.0
 40
0.0
 40
0.0
 40
0.0
 40
0.1256079893
 40
0.2507412784
 40
0.3754830329
 40
0.5000000146
 40
0.624516994
 40
0.7492587441
 40
0.8743920159
 40
1.0
 40
1.0
 40
1.0
 40
1.0
 10
3.6706106713
 20
6.465427963
 30
0.0
 10
3.6642690454
 20
6.486044924
 30
0.0
 10
3.6527156377
 20
6.5275553993
 30
0.0
 10
3.6395159993
 20
6.5907243145
 30
0.0
 10
3.6312138988
 20
6.6545513588
 30
0.0
 10
3.6283748048
 20
6.7187582572
 30
0.0
 10
3.6312139
 20
6.7829651549
 30
0.0
 10
3.6395160012
 20
6.8467921949
 30
0.0
 10
3.6527156392
 20
6.9099611055
 30
0.0
 10
3.6642690457
 20
6.9514715771
 30
0.0
 10
3.6706106713
 20
6.9720885372
 30
0.0
  0
SPLINE
  5
307
100
AcDbEntity
  8
0
100
AcDbSpline
 62
7
  6
CONTINUOUS
 70
0
 71
3
 72
15
 73
11
 74
0
 42
0.0000001
 43
0.0000001
 44
0.0000000001
 40
0.0
 40
0.0
 40
0.0
 40
0.0
 40
0.1256079893
 40
0.2507412784
 40
0.3754830329
 40
0.5000000146
 40
0.624516994
 40
0.7492587441
 40
0.8743920159
 40
1.0
 40
1.0
 40
1.0
 40
1.0
 10
4.1325743742
 20
6.465427963
 30
0.0
 10
4.138916
 20
6.486044924
 30
0.0
 10
4.1504694078
 20
6.5275553993
 30
0.0
 10
4.1636690461
 20
6.5907243145
 30
0.0
 10
4.1719711466
 20
6.6545513588
 30
0.0
 10
4.1748102406
 20
6.7187582572
 30
0.0
 10
4.1719711454
 20
6.7829651549
 30
0.0
 10
4.1636690442
 20
6.8467921949
 30
0.0
 10
4.1504694062
 20
6.9099611055
 30
0.0
 10
4.1389159997
 20
6.9514715771
 30
0.0
 10
4.1325743742
 20
6.9720885372
 30
0.0
  0
ELLIPSE
  5
308
100
AcDbEntity
  8
0
100
AcDbEllipse
 62
7
  6
CONTINUOUS
 10
6.2055
 20
6.5835
 30
0.0
 11
-0.0
 21
0.035
 31
0.0
 40
1.0
 41
-4.7123889804
 42
-1.5707963268
  0
ELLIPSE
  5
309
100
AcDbEntity
  8
0
100
AcDbEllipse
 62
7
  6
CONTINUOUS
 10
6.2055
 20
7.4165
 30
0.0
 11
0.035
 21
-0.0
 31
0.0
 40
1.0
 41
0.0
 42
3.1415926536
  0
ELLIPSE
  5
30A
100
AcDbEntity
  8
0
100
AcDbEllipse
 62
7
  6
CONTINUOUS
 10
5.082
 20
6.507
 30
0.0
 11
0.035
 21
0.0
 31
0.0
 40
1.0
 41
-2.6516136893
 42
0.0
  0
ELLIPSE
  5
30B
100
AcDbEntity
  8
0
100
AcDbEllipse
 62
7
  6
CONTINUOUS
 10
5.082
 20
6.507
 30
0.0
 11
0.0
 21
0.035
 31
0.0
 40
1.0
 41
-4.3196898987
 42
-4.222410016
  0
ELLIPSE
  5
30C
100
AcDbEntity
  8
0
100
AcDbEllipse
 62
7
  6
CONTINUOUS
 10
5.082
 20
6.507
 30
0.0
 11
0.035
 21
0.0
 31
0.0
 40
1.0
 41
-3.1415926536
 42
-2.7488935719
  0
ELLIPSE
  5
30D
100
AcDbEntity
  8
0
100
AcDbEllipse
 62
7
  6
CONTINUOUS
 10
5.082
 20
7.493
 30
0.0
 11
0.035
 21
0.0
 31
0.0
 40
1.0
 41
6.2831853072
 42
9.4247779608
  0
ELLIPSE
  5
30E
100
AcDbEntity
  8
0
100
AcDbEllipse
 62
7
  6
CONTINUOUS
 10
4.46
 20
6.4825
 30
0.0
 11
-0.0
 21
0.035
 31
0.0
 40
1.0
 41
-4.7123889804
 42
-1.5707963268
  0
ELLIPSE
  5
30F
100
AcDbEntity
  8
0
100
AcDbEllipse
 62
7
  6
CONTINUOUS
 10
4.46
 20
7.5175
 30
0.0
 11
0.035
 21
-0.0
 31
0.0
 40
1.0
 41
0.0
 42
3.1415926536
  0
ENDSEC
  0
SECTION
  2
OBJECTS
  0
DICTIONARY
  5
C
100
AcDbDictionary
280
0
281
1
  3
ACAD_GROUP
350
D
  3
ACAD_MLINESTYLE
350
17
  3
ACAD_LAYOUT
350
1A
  3
ACAD_PLOTSETTINGS
350
19
  3
ACAD_PLOTSTYLENAME
350
E
  0
DICTIONARY
  5
D
102
{ACAD_REACTORS
330
C
102
}
100
AcDbDictionary
280
0
281
1
  0
ACDBDICTIONARYWDFLT
  5
E
102
{ACAD_REACTORS
330
C
102
}
100
AcDbDictionary
281
1
  3
Normal
350
F
100
AcDbDictionaryWithDefault
340
F
  0
DICTIONARY
  5
17
102
{ACAD_REACTORS
330
C
102
}
100
AcDbDictionary
280
0
281
1
  3
Standard
350
18
  0
DICTIONARY
  5
19
102
{ACAD_REACTORS
330
C
102
}
100
AcDbDictionary
281
1
  0
DICTIONARY
  5
1A
102
{ACAD_REACTORS
330
C
102
}
100
AcDbDictionary
281
1
  3
Model
350
310
  3
Layout1
350
311
  0
ACDBPLACEHOLDER
  5
F
102
{ACAD_REACTORS
330
E
102
}
  0
MLINESTYLE
  5
18
102
{ACAD_REACTORS
330
17
102
}
100
AcDbMlineStyle
  2
STANDARD
 70
0
  3

 62
256
 51
90.0
 52
90.0
 71
2
 49
0.5
 62
256
  6
BYLAYER
 49
-0.5
 62
256
  6
BYLAYER
  0
LAYOUT
  5
310
102
{ACAD_REACTORS
330
1A
102
}
100
AcDbPlotSettings
  1

  2
none_device
  4
ANSI_B_(17.00_x_11.00_Inches)
  6

 40
0.0
 41
0.0
 42
0.0
 43
0.0
 44
431.8
 45
279.4
 46
0.0
 47
0.0
 48
0.0
 49
0.0
140
0.0
141
0.0
142
1.0
143
1.0
 70
1024
 72
0
 73
0
 74
0
  7

 75
0
147
1.0
148
0.0
149
0.0
100
AcDbLayout
  1
Model
 70
0
 71
0
 10
0.0
 20
0.0
 11
17.0
 21
11.0
 12
0.0
 22
0.0
 32
0.0
 14
0.0
 24
0.0
 34
0.0
 15
0.0
 25
0.0
 35
0.0
146
0.0
 13
0.0
 23
0.0
 33
0.0
 16
1.0
 26
0.0
 36
0.0
 17
0.0
 27
1.0
 37
0.0
 76
0
330
246
345
0
346
0
  0
LAYOUT
  5
311
102
{ACAD_REACTORS
330
1A
102
}
100
AcDbPlotSettings
  1

  2
none_device
  4
ANSI_B_(17.00_x_11.00_Inches)
  6

 40
0.0
 41
0.0
 42
0.0
 43
0.0
 44
431.8
 45
279.4
 46
0.0
 47
0.0
 48
0.0
 49
0.0
140
0.0
141
0.0
142
1.0
143
1.0
 70
0
 72
0
 73
0
 74
0
  7

 75
0
147
1.0
148
0.0
149
0.0
100
AcDbLayout
  1
Layout1
 70
0
 71
1
 10
0.0
 20
0.0
 11
17.0
 21
11.0
 12
0.0
 22
0.0
 32
0.0
 14
0.0
 24
0.0
 34
0.0
 15
0.0
 25
0.0
 35
0.0
146
0.0
 13
0.0
 23
0.0
 33
0.0
 16
1.0
 26
0.0
 36
0.0
 17
0.0
 27
1.0
 37
0.0
 76
0
330
247
345
0
346
0
  0
ENDSEC
  0
EOF
