999
DXF file: CKCBXCN.dxf
999
Pro/ENGINEER 2021072 by Parametric Technology Corporation
  0
SECTION
  2
HEADER
  9
$ACADVER
  1
AC1032
  9
$DWGCODEPAGE
  3
ANSI_1252
  9
$EXTMAX
 10
17.0
 20
11.0
 30
0.0
  9
$EXTMIN
 10
0.0
 20
0.0
 30
0.0
  9
$LIMMIN
 10
0.0
 20
0.0
  9
$LIMMAX
 10
17.0
 20
11.0
  9
$VIEWCTR
 10
8.5
 20
5.5
  9
$VIEWSIZE
 40
11.0
  9
$CLAYER
  8
0
  9
$LTSCALE
 40
0.935
  9
$CELTYPE
  6
BYLAYER
  9
$DIMSCALE
 40
1.0
  9
$DIMASZ
 40
0.1875
  9
$DIMEXO
 40
0.0625
  9
$DIMDLI
 40
0.646
  9
$DIMEXE
 40
0.125
  9
$DIMCEN
 40
0.153
  9
$DIMLFAC
 40
1.0
  9
$DIMBLK
  1
_FILLED
  9
$DIMALT
 70
0
  9
$DIMALTF
 40
25.4
  9
$DIMTXT
 40
0.125
  9
$DIMTOL
 70
0
  9
$DIMLIM
 70
0
  9
$DIMTFAC
 40
1.0
  9
$DIMGAP
 40
0.09
  9
$DIMDSEP
 70
46
  9
$AUNITS
 70
0
  9
$PDMODE
 70
3
  9
$PDSIZE
 40
0.3125
  9
$HANDSEED
  5
313
  9
$TILEMODE
 70
1
  9
$MEASUREMENT
 70
0
  9
$INSUNITS
 70
1
  0
ENDSEC
  0
SECTION
  2
CLASSES
  0
CLASS
  1
ACDBDICTIONARYWDFLT
  2
AcDbDictionaryWithDefault
  3
AutoCAD 2000
 90
0
 91
1
280
0
281
0
  0
CLASS
  1
ACDBPLACEHOLDER
  2
AcDbPlaceHolder
  3
AutoCAD 2000
 90
0
 91
1
280
0
281
0
  0
CLASS
  1
LAYOUT
  2
AcDbLayout
  3
AutoCAD 2000
 90
0
 91
0
280
0
281
0
  0
ENDSEC
  0
SECTION
  2
TABLES
  0
TABLE
  2
VPORT
  5
8
100
AcDbSymbolTable
 70
2
  0
VPORT
  5
1F4
100
AcDbSymbolTableRecord
100
AcDbViewportTableRecord
  2
*ACTIVE
 70
0
 10
0.0
 20
0.0
 11
1.0
 21
1.0
 12
8.5
 22
5.5
 13
0.0
 23
0.0
 14
1.0
 24
1.0
 15
0.0
 25
0.0
 16
0.0
 26
0.0
 36
1.0
 17
0.0
 27
0.0
 37
0.0
 40
11.0
 41
1.5454545455
 42
50.0
 43
0.0
 44
0.0
 50
0.0
 51
0.0
 71
0
 72
100
 73
1
 74
1
 75
0
 76
0
 77
0
 78
0
  0
ENDTAB
  0
TABLE
  2
LTYPE
  5
5
100
AcDbSymbolTable
 70
6
  0
LTYPE
  5
14
100
AcDbSymbolTableRecord
100
AcDbLinetypeTableRecord
  2
BYBLOCK
 70
0
  3

 72
65
 73
0
 40
0.0
  0
LTYPE
  5
15
100
AcDbSymbolTableRecord
100
AcDbLinetypeTableRecord
  2
BYLAYER
 70
0
  3

 72
65
 73
0
 40
0.0
  0
LTYPE
  5
16
100
AcDbSymbolTableRecord
100
AcDbLinetypeTableRecord
  2
CONTINUOUS
 70
64
  3
Solid line
 72
65
 73
0
 40
0.0
  0
LTYPE
  5
1F5
100
AcDbSymbolTableRecord
100
AcDbLinetypeTableRecord
  2
CENTER
 70
64
  3
____ _ ____ _ ____ _ ____ _ ____ _ ____ _ ____
 72
65
 73
4
 40
0.6
 49
0.375
 74
0
 49
-0.075
 74
0
 49
0.075
 74
0
 49
-0.075
 74
0
  0
LTYPE
  5
1F6
100
AcDbSymbolTableRecord
100
AcDbLinetypeTableRecord
  2
HIDDEN
 70
64
  3
- - - - - - - - - - - - - - - - - - - -
 72
65
 73
2
 40
0.2
 49
0.1
 74
0
 49
-0.1
 74
0
  0
LTYPE
  5
1F7
100
AcDbSymbolTableRecord
100
AcDbLinetypeTableRecord
  2
PHANTOM
 70
64
  3
_____ _ _ _____ _ _ _____ _ _ _____
 72
65
 73
6
 40
0.8
 49
0.45
 74
0
 49
-0.05
 74
0
 49
0.1
 74
0
 49
-0.05
 74
0
 49
0.1
 74
0
 49
-0.05
 74
0
  0
LTYPE
  5
1F8
100
AcDbSymbolTableRecord
100
AcDbLinetypeTableRecord
  2
DOT
 70
64
  3
. . . . . . . . . . . . . . . . . . . .
 72
65
 73
2
 40
0.2
 49
0.1
 74
0
 49
-0.1
 74
0
  0
LTYPE
  5
1F9
100
AcDbSymbolTableRecord
100
AcDbLinetypeTableRecord
  2
DASHED
 70
64
  3
- - - - - - - - - - - - - - - - - - - -
 72
65
 73
2
 40
0.2
 49
0.1
 74
0
 49
-0.1
 74
0
  0
ENDTAB
  0
TABLE
  2
LAYER
  5
2
100
AcDbSymbolTable
 70
36
  0
LAYER
  5
10
100
AcDbSymbolTableRecord
100
AcDbLayerTableRecord
  2
0
 70
0
 62
7
  6
CONTINUOUS
370
-3
390
F
  0
LAYER
  5
1FA
100
AcDbSymbolTableRecord
100
AcDbLayerTableRecord
  2
DEFAULT_1
 70
0
 62
7
  6
CENTER
370
-3
390
F
  0
LAYER
  5
1FB
100
AcDbSymbolTableRecord
100
AcDbLayerTableRecord
  2
DEFAULT_2
 70
0
 62
8
  6
HIDDEN
370
-3
390
F
  0
LAYER
  5
1FC
100
AcDbSymbolTableRecord
100
AcDbLayerTableRecord
  2
DEFAULT_3
 70
0
 62
7
  6
PHANTOM
370
-3
390
F
  0
LAYER
  5
1FD
100
AcDbSymbolTableRecord
100
AcDbLayerTableRecord
  2
01_ALL_DTM_PLN
 70
0
 62
7
  6
CONTINUOUS
370
-3
390
F
  0
LAYER
  5
1FE
100
AcDbSymbolTableRecord
100
AcDbLayerTableRecord
  2
01__ASM_ALL_DTM_PLN
 70
0
 62
7
  6
CONTINUOUS
370
-3
390
F
  0
LAYER
  5
1FF
100
AcDbSymbolTableRecord
100
AcDbLayerTableRecord
  2
01__ASM_DEF_DTM_PLN
 70
0
 62
7
  6
CONTINUOUS
370
-3
390
F
  0
LAYER
  5
200
100
AcDbSymbolTableRecord
100
AcDbLayerTableRecord
  2
01___PRT_ALL_DTM_PLN
 70
0
 62
7
  6
CONTINUOUS
370
-3
390
F
  0
LAYER
  5
201
100
AcDbSymbolTableRecord
100
AcDbLayerTableRecord
  2
01___PRT_DEF_DTM_PLN
 70
0
 62
7
  6
CONTINUOUS
370
-3
390
F
  0
LAYER
  5
202
100
AcDbSymbolTableRecord
100
AcDbLayerTableRecord
  2
02_ALL_AXES
 70
0
 62
7
  6
CONTINUOUS
370
-3
390
F
  0
LAYER
  5
203
100
AcDbSymbolTableRecord
100
AcDbLayerTableRecord
  2
02__ASM_ALL_AXES
 70
0
 62
7
  6
CONTINUOUS
370
-3
390
F
  0
LAYER
  5
204
100
AcDbSymbolTableRecord
100
AcDbLayerTableRecord
  2
02___PRT_ALL_AXES
 70
0
 62
7
  6
CONTINUOUS
370
-3
390
F
  0
LAYER
  5
205
100
AcDbSymbolTableRecord
100
AcDbLayerTableRecord
  2
03_ALL_CURVES
 70
0
 62
7
  6
CONTINUOUS
370
-3
390
F
  0
LAYER
  5
206
100
AcDbSymbolTableRecord
100
AcDbLayerTableRecord
  2
03__ASM_ALL_CURVES
 70
0
 62
7
  6
CONTINUOUS
370
-3
390
F
  0
LAYER
  5
207
100
AcDbSymbolTableRecord
100
AcDbLayerTableRecord
  2
03___PRT_ALL_CURVES
 70
0
 62
7
  6
CONTINUOUS
370
-3
390
F
  0
LAYER
  5
208
100
AcDbSymbolTableRecord
100
AcDbLayerTableRecord
  2
04_ALL_DTM_PNT
 70
0
 62
7
  6
CONTINUOUS
370
-3
390
F
  0
LAYER
  5
209
100
AcDbSymbolTableRecord
100
AcDbLayerTableRecord
  2
04__ASM_ALL_DTM_PNT
 70
0
 62
7
  6
CONTINUOUS
370
-3
390
F
  0
LAYER
  5
20A
100
AcDbSymbolTableRecord
100
AcDbLayerTableRecord
  2
04___PRT_ALL_DTM_PNT
 70
0
 62
7
  6
CONTINUOUS
370
-3
390
F
  0
LAYER
  5
20B
100
AcDbSymbolTableRecord
100
AcDbLayerTableRecord
  2
05_ALL_DTM_CSYS
 70
0
 62
7
  6
CONTINUOUS
370
-3
390
F
  0
LAYER
  5
20C
100
AcDbSymbolTableRecord
100
AcDbLayerTableRecord
  2
05__ASM_ALL_DTM_CSYS
 70
0
 62
7
  6
CONTINUOUS
370
-3
390
F
  0
LAYER
  5
20D
100
AcDbSymbolTableRecord
100
AcDbLayerTableRecord
  2
05__ASM_DEF_DTM_CSYS
 70
0
 62
7
  6
CONTINUOUS
370
-3
390
F
  0
LAYER
  5
20E
100
AcDbSymbolTableRecord
100
AcDbLayerTableRecord
  2
05___PRT_ALL_DTM_CSYS
 70
0
 62
7
  6
CONTINUOUS
370
-3
390
F
  0
LAYER
  5
20F
100
AcDbSymbolTableRecord
100
AcDbLayerTableRecord
  2
05___PRT_DEF_DTM_CSYS
 70
0
 62
7
  6
CONTINUOUS
370
-3
390
F
  0
LAYER
  5
210
100
AcDbSymbolTableRecord
100
AcDbLayerTableRecord
  2
06_ALL_SURFS
 70
0
 62
7
  6
CONTINUOUS
370
-3
390
F
  0
LAYER
  5
211
100
AcDbSymbolTableRecord
100
AcDbLayerTableRecord
  2
06__ASM_ALL_SURFS
 70
0
 62
7
  6
CONTINUOUS
370
-3
390
F
  0
LAYER
  5
212
100
AcDbSymbolTableRecord
100
AcDbLayerTableRecord
  2
06___PRT_ALL_SURFS
 70
0
 62
7
  6
CONTINUOUS
370
-3
390
F
  0
LAYER
  5
213
100
AcDbSymbolTableRecord
100
AcDbLayerTableRecord
  2
07__ASM_ALL_SKELETONS
 70
0
 62
7
  6
CONTINUOUS
370
-3
390
F
  0
LAYER
  5
214
100
AcDbSymbolTableRecord
100
AcDbLayerTableRecord
  2
126-300_HEX_FEATURES
 70
0
 62
7
  6
CONTINUOUS
370
-3
390
F
  0
LAYER
  5
215
100
AcDbSymbolTableRecord
100
AcDbLayerTableRecord
  2
126-300_REF_GEOMETRY
 70
0
 62
7
  6
CONTINUOUS
370
-3
390
F
  0
LAYER
  5
216
100
AcDbSymbolTableRecord
100
AcDbLayerTableRecord
  2
126-301_HEX_FEATURES
 70
0
 62
7
  6
CONTINUOUS
370
-3
390
F
  0
LAYER
  5
217
100
AcDbSymbolTableRecord
100
AcDbLayerTableRecord
  2
126-301_REF_GEOMETRY
 70
0
 62
7
  6
CONTINUOUS
370
-3
390
F
  0
LAYER
  5
218
100
AcDbSymbolTableRecord
100
AcDbLayerTableRecord
  2
126-302_HEX_FEATURES
 70
0
 62
7
  6
CONTINUOUS
370
-3
390
F
  0
LAYER
  5
219
100
AcDbSymbolTableRecord
100
AcDbLayerTableRecord
  2
126-302_REF_GEOMETRY
 70
0
 62
7
  6
CONTINUOUS
370
-3
390
F
  0
LAYER
  5
21A
100
AcDbSymbolTableRecord
100
AcDbLayerTableRecord
  2
126-303_HEX_FEATURES
 70
0
 62
7
  6
CONTINUOUS
370
-3
390
F
  0
LAYER
  5
21B
100
AcDbSymbolTableRecord
100
AcDbLayerTableRecord
  2
126-303_REF_GEOMETRY
 70
0
 62
7
  6
CONTINUOUS
370
-3
390
F
  0
LAYER
  5
21C
100
AcDbSymbolTableRecord
100
AcDbLayerTableRecord
  2
BSPP_PORT_PER_S-186
 70
0
 62
7
  6
CONTINUOUS
370
-3
390
F
  0
LAYER
  5
21D
100
AcDbSymbolTableRecord
100
AcDbLayerTableRecord
  2
COPY_GEO_FET
 70
0
 62
7
  6
CONTINUOUS
370
-3
390
F
  0
LAYER
  5
21E
100
AcDbSymbolTableRecord
100
AcDbLayerTableRecord
  2
COSMETIC
 70
0
 62
7
  6
CONTINUOUS
370
-3
390
F
  0
LAYER
  5
21F
100
AcDbSymbolTableRecord
100
AcDbLayerTableRecord
  2
COSMETICS
 70
0
 62
7
  6
CONTINUOUS
370
-3
390
F
  0
LAYER
  5
220
100
AcDbSymbolTableRecord
100
AcDbLayerTableRecord
  2
CROSS_HOLE_DATUMS
 70
0
 62
7
  6
CONTINUOUS
370
-3
390
F
  0
LAYER
  5
221
100
AcDbSymbolTableRecord
100
AcDbLayerTableRecord
  2
CUT_REF_SURF
 70
0
 62
7
  6
CONTINUOUS
370
-3
390
F
  0
LAYER
  5
222
100
AcDbSymbolTableRecord
100
AcDbLayerTableRecord
  2
DATUM
 70
0
 62
7
  6
CONTINUOUS
370
-3
390
F
  0
LAYER
  5
223
100
AcDbSymbolTableRecord
100
AcDbLayerTableRecord
  2
DATUMCURVES
 70
0
 62
7
  6
CONTINUOUS
370
-3
390
F
  0
LAYER
  5
224
100
AcDbSymbolTableRecord
100
AcDbLayerTableRecord
  2
DIMENSIONS
 70
0
 62
7
  6
CONTINUOUS
370
-3
390
F
  0
LAYER
  5
225
100
AcDbSymbolTableRecord
100
AcDbLayerTableRecord
  2
DRAWINGNOTES
 70
0
 62
7
  6
CONTINUOUS
370
-3
390
F
  0
LAYER
  5
226
100
AcDbSymbolTableRecord
100
AcDbLayerTableRecord
  2
DTM
 70
0
 62
7
  6
CONTINUOUS
370
-3
390
F
  0
LAYER
  5
227
100
AcDbSymbolTableRecord
100
AcDbLayerTableRecord
  2
DTM230
 70
0
 62
7
  6
CONTINUOUS
370
-3
390
F
  0
LAYER
  5
228
100
AcDbSymbolTableRecord
100
AcDbLayerTableRecord
  2
DTM_500002
 70
0
 62
7
  6
CONTINUOUS
370
-3
390
F
  0
LAYER
  5
229
100
AcDbSymbolTableRecord
100
AcDbLayerTableRecord
  2
DTM_515002
 70
0
 62
7
  6
CONTINUOUS
370
-3
390
F
  0
LAYER
  5
22A
100
AcDbSymbolTableRecord
100
AcDbLayerTableRecord
  2
DTM_525001
 70
0
 62
7
  6
CONTINUOUS
370
-3
390
F
  0
LAYER
  5
22B
100
AcDbSymbolTableRecord
100
AcDbLayerTableRecord
  2
DTM_SPRING_RH
 70
0
 62
7
  6
CONTINUOUS
370
-3
390
F
  0
LAYER
  5
22C
100
AcDbSymbolTableRecord
100
AcDbLayerTableRecord
  2
DTM_SP_RH_CONSTR
 70
0
 62
7
  6
CONTINUOUS
370
-3
390
F
  0
LAYER
  5
22D
100
AcDbSymbolTableRecord
100
AcDbLayerTableRecord
  2
FLUTE_DATUMS
 70
0
 62
7
  6
CONTINUOUS
370
-3
390
F
  0
LAYER
  5
22E
100
AcDbSymbolTableRecord
100
AcDbLayerTableRecord
  2
GEOMETRICTOLERANCES
 70
0
 62
7
  6
CONTINUOUS
370
-3
390
F
  0
LAYER
  5
22F
100
AcDbSymbolTableRecord
100
AcDbLayerTableRecord
  2
HIDDEN
 70
0
 62
7
  6
CONTINUOUS
370
-3
390
F
  0
LAYER
  5
230
100
AcDbSymbolTableRecord
100
AcDbLayerTableRecord
  2
HIDDEN_DRW
 70
0
 62
7
  6
CONTINUOUS
370
-3
390
F
  0
LAYER
  5
231
100
AcDbSymbolTableRecord
100
AcDbLayerTableRecord
  2
HIDDEN_SKETCHES
 70
0
 62
7
  6
CONTINUOUS
370
-3
390
F
  0
LAYER
  5
232
100
AcDbSymbolTableRecord
100
AcDbLayerTableRecord
  2
LAY0001
 70
0
 62
7
  6
CONTINUOUS
370
-3
390
F
  0
LAYER
  5
233
100
AcDbSymbolTableRecord
100
AcDbLayerTableRecord
  2
NPTF_PORT_PER_S-164
 70
0
 62
7
  6
CONTINUOUS
370
-3
390
F
  0
LAYER
  5
234
100
AcDbSymbolTableRecord
100
AcDbLayerTableRecord
  2
PARAMETERDIMENSIONS
 70
0
 62
7
  6
CONTINUOUS
370
-3
390
F
  0
LAYER
  5
235
100
AcDbSymbolTableRecord
100
AcDbLayerTableRecord
  2
PLANE
 70
0
 62
7
  6
CONTINUOUS
370
-3
390
F
  0
LAYER
  5
236
100
AcDbSymbolTableRecord
100
AcDbLayerTableRecord
  2
STD_SAE-4_PORT
 70
0
 62
7
  6
CONTINUOUS
370
-3
390
F
  0
LAYER
  5
237
100
AcDbSymbolTableRecord
100
AcDbLayerTableRecord
  2
T-8A_CAVITY
 70
0
 62
7
  6
CONTINUOUS
370
-3
390
F
  0
LAYER
  5
238
100
AcDbSymbolTableRecord
100
AcDbLayerTableRecord
  2
T-8A_CAVITY_REF_GEOMETRY
 70
0
 62
7
  6
CONTINUOUS
370
-3
390
F
  0
LAYER
  5
239
100
AcDbSymbolTableRecord
100
AcDbLayerTableRecord
  2
TEXT
 70
0
 62
7
  6
CONTINUOUS
370
-3
390
F
  0
LAYER
  5
23A
100
AcDbSymbolTableRecord
100
AcDbLayerTableRecord
  2
THREAD
 70
0
 62
7
  6
CONTINUOUS
370
-3
390
F
  0
ENDTAB
  0
TABLE
  2
STYLE
  5
3
100
AcDbSymbolTable
 70
1
  0
STYLE
  5
11
100
AcDbSymbolTableRecord
100
AcDbTextStyleTableRecord
  2
STANDARD
 70
0
 40
0.0
 41
0.8
 50
0.0
 71
0
 42
0.2
  3
txt
  4

  0
STYLE
  5
23B
100
AcDbSymbolTableRecord
100
AcDbTextStyleTableRecord
  2
TEXTSTYLE_1
 70
0
 40
0.0
 41
0.8
 50
0.0
 71
0
 42
0.2
  3
gdt
  4

  0
ENDTAB
  0
TABLE
  2
VIEW
  5
6
100
AcDbSymbolTable
 70
0
  0
ENDTAB
  0
TABLE
  2
UCS
  5
7
100
AcDbSymbolTable
 70
0
  0
ENDTAB
  0
TABLE
  2
APPID
  5
9
100
AcDbSymbolTable
 70
1
  0
APPID
  5
23C
100
AcDbSymbolTableRecord
100
AcDbRegAppTableRecord
  2
ACAD
 70
0
  0
ENDTAB
  0
TABLE
  2
BLOCK_RECORD
  5
1
100
AcDbSymbolTable
 70
0
  0
BLOCK_RECORD
  5
23D
100
AcDbSymbolTableRecord
100
AcDbBlockTableRecord
  2
*Model_Space
  0
BLOCK_RECORD
  5
23E
100
AcDbSymbolTableRecord
100
AcDbBlockTableRecord
  2
*Paper_Space
  0
BLOCK_RECORD
  5
23F
100
AcDbSymbolTableRecord
100
AcDbBlockTableRecord
  2
_FILLED
  0
BLOCK_RECORD
  5
240
100
AcDbSymbolTableRecord
100
AcDbBlockTableRecord
  2
*D0
  0
ENDTAB
  0
TABLE
  2
DIMSTYLE
  5
A
100
AcDbSymbolTable
 70
1
100
AcDbDimStyleTable
 71
0
  0
DIMSTYLE
105
241
100
AcDbSymbolTableRecord
100
AcDbDimStyleTableRecord
  2
STANDARD
 70
0
  3

  4

 40
1.0
 41
0.1875
 42
0.0625
 43
0.38
 44
0.125
 45
0.0
 46
0.0
 47
0.001
 48
0.001
140
0.125
141
0.09
142
0.0
143
25.4
144
1.0
145
0.0
146
1.0
147
0.09
 71
0
 72
0
 73
1
 74
1
 75
0
 76
0
 77
0
 78
4
 79
1
170
0
171
2
172
0
173
0
174
0
175
0
176
0
177
0
178
0
270
2
179
3
271
3
272
3
273
2
274
2
275
0
280
0
281
0
282
0
283
1
284
4
285
0
286
0
287
3
288
0
340
11
278
46
341
23F
342
23F
343
23F
344
23F
  0
DIMSTYLE
105
242
100
AcDbSymbolTableRecord
100
AcDbDimStyleTableRecord
  2
DIMSTYLE_1
 70
0
  3

  4

 40
1.0
 41
0.1875
 42
0.0625
 43
0.38
 44
0.125
 45
0.0
 46
0.0
 47
0.0
 48
0.0
140
0.125
141
0.09
142
0.0
143
25.4
144
1.0
145
0.0
146
1.0
147
0.0625
 71
0
 72
0
 73
1
 74
1
 75
0
 76
0
 77
0
 78
4
 79
1
170
0
171
2
172
0
173
0
174
0
175
0
176
0
177
0
178
0
270
2
179
3
271
2
272
3
273
2
274
2
275
0
280
0
281
0
282
0
283
1
284
4
285
0
286
0
287
3
288
0
340
11
278
46
341
23F
342
23F
343
23F
344
23F
  0
ENDTAB
  0
ENDSEC
  0
SECTION
  2
BLOCKS
  0
BLOCK
  5
20
100
AcDbEntity
  8
0
100
AcDbBlockBegin
  2
*Model_Space
 70
0
 10
0.0
 20
0.0
 30
0.0
  3
*Model_Space
  1

  0
ENDBLK
  5
21
100
AcDbEntity
  8
0
100
AcDbBlockEnd
  0
BLOCK
  5
1C
100
AcDbEntity
  8
0
100
AcDbBlockBegin
  2
*Paper_Space
 70
0
 10
0.0
 20
0.0
 30
0.0
  3
*Paper_Space
  1

  0
ENDBLK
  5
1D
100
AcDbEntity
  8
0
100
AcDbBlockEnd
  0
BLOCK
  5
243
100
AcDbEntity
  8
0
100
AcDbBlockBegin
  2
_FILLED
 70
64
 10
0.0
 20
0.0
  3
_FILLED
  1

  0
SOLID
  5
244
100
AcDbEntity
  8
0
  6
BYBLOCK
 62
0
100
AcDbTrace
 10
0.0
 20
0.0
 11
-1.0
 21
0.1666666667
 12
-1.0
 22
-0.1666666667
 13
-1.0
 23
-0.1666666667
  0
ENDBLK
  5
245
100
AcDbEntity
  8
0
  6
BYBLOCK
 62
0
100
AcDbBlockEnd
  0
BLOCK
  5
246
100
AcDbEntity
  8
0
100
AcDbBlockBegin
 62
6
  6
CONTINUOUS
  2
*D0
 70
65
 10
0.0
 20
0.0
  3
*D0
  1

  0
MTEXT
  5
247
100
AcDbEntity
  8
0
100
AcDbMText
 62
6
  6
CONTINUOUS
  7
STANDARD
 71
1
 72
1
 10
5.1565
 20
7.8650954917
 30
0.0
 11
1.0
 21
0.0
 31
0.0
 73
2
 44
0.9
  1
1.19 in (30,1 mm)
 40
0.125
 41
1.7
  0
LINE
  5
248
100
AcDbEntity
  8
0
100
AcDbLine
 62
6
  6
CONTINUOUS
 10
4.9065
 20
7.4900954917
 11
4.9065
 21
7.9275954917
  0
LINE
  5
249
100
AcDbEntity
  8
0
100
AcDbLine
 62
6
  6
CONTINUOUS
 10
3.7194999638
 20
7.0625954917
 11
3.7194999638
 21
7.9275954917
  0
LINE
  5
24A
100
AcDbEntity
  8
0
100
AcDbLine
 62
6
  6
CONTINUOUS
 10
4.9065
 20
7.8025954917
 11
4.3129999819
 21
7.8025954917
  0
LINE
  5
24B
100
AcDbEntity
  8
0
100
AcDbLine
 62
6
  6
CONTINUOUS
 10
4.3129999819
 20
7.8025954917
 11
5.094
 21
7.8025954917
  0
LINE
  5
24C
100
AcDbEntity
  8
0
100
AcDbLine
 62
6
  6
CONTINUOUS
 10
3.7194999638
 20
7.8025954917
 11
4.3129999819
 21
7.8025954917
  0
INSERT
  5
24D
100
AcDbEntity
  8
0
100
AcDbBlockReference
 62
6
  6
CONTINUOUS
  2
_FILLED
 10
4.9065
 20
7.8025954917
 41
0.1875
 42
0.1875
 43
0.1875
  0
INSERT
  5
24E
100
AcDbEntity
  8
0
100
AcDbBlockReference
 62
6
  6
CONTINUOUS
  2
_FILLED
 10
3.7194999638
 20
7.8025954917
 41
0.1875
 42
0.1875
 43
0.1875
 50
180.0
  0
ENDBLK
  5
24F
100
AcDbEntity
  8
0
  6
BYBLOCK
 62
0
100
AcDbBlockEnd
  0
ENDSEC
  0
SECTION
  2
ENTITIES
  0
DIMENSION
  5
250
100
AcDbEntity
  8
0
100
AcDbDimension
 62
6
  6
CONTINUOUS
  2
*D0
 10
3.7194999638
 20
7.8025954917
 11
6.0065
 21
7.8025954917
 70
160
 71
1
 72
2
 41
0.9
 42
1.1870000362
  1
<> in (30,1 mm)
  3
DIMSTYLE_1
100
AcDbAlignedDimension
 13
4.9065
 23
7.4275954917
 14
3.7194999638
 24
7.0000954917
 50
180.0
100
AcDbRotatedDimension
  0
MTEXT
  5
251
100
AcDbEntity
  8
0
100
AcDbMText
 62
2
  6
CONTINUOUS
  7
STANDARD
 71
1
 72
1
 10
6.5415
 20
7.0625954917
 30
0.0
 11
1.0
 21
0.0
 31
0.0
 73
2
 44
0.6
  1
Port 1\PLoad
 40
0.125
 41
0.6
  0
MTEXT
  5
252
100
AcDbEntity
  8
0
100
AcDbMText
 62
2
  6
CONTINUOUS
  7
STANDARD
 71
1
 72
1
 10
5.6065
 20
6.4685954917
 30
0.0
 11
1.0
 21
0.0
 31
0.0
 73
2
 44
0.6
  1
Port 2\PValve
 40
0.125
 41
0.6
  0
MTEXT
  5
253
100
AcDbEntity
  8
0
100
AcDbMText
 62
2
  6
CONTINUOUS
  7
STANDARD
 71
1
 72
1
 10
4.3865
 20
6.4685954917
 30
0.0
 11
1.0
 21
0.0
 31
0.0
 73
2
 44
0.6
  1
Port 3\PPilot
 40
0.125
 41
0.6
  0
MTEXT
  5
254
100
AcDbEntity
  8
0
100
AcDbMText
 62
2
  6
CONTINUOUS
  7
STANDARD
 71
1
 72
1
 10
5.1565
 20
7.6151909834
 30
0.0
 11
1.0
 21
0.0
 31
0.0
 73
2
 44
0.6
  1
 LOCATING SHOULDER
 40
0.125
 41
1.8
  0
LINE
  5
255
100
AcDbEntity
  8
0
100
AcDbLine
 62
7
  6
CONTINUOUS
 10
3.7195
 20
6.57
 11
3.7195
 21
7.43
  0
LINE
  5
256
100
AcDbEntity
  8
0
100
AcDbLine
 62
7
  6
CONTINUOUS
 10
3.724466776
 20
7.4386027084
 11
3.7195
 21
7.43
  0
LINE
  5
257
100
AcDbEntity
  8
0
100
AcDbLine
 62
7
  6
CONTINUOUS
 10
3.724466776
 20
6.5613972916
 11
3.7195
 21
6.57
  0
LINE
  5
258
100
AcDbEntity
  8
0
100
AcDbLine
 62
7
  6
CONTINUOUS
 10
3.7535636659
 20
6.562483966
 11
3.7535636659
 21
6.5920977523
  0
LINE
  5
259
100
AcDbEntity
  8
0
100
AcDbLine
 62
7
  6
CONTINUOUS
 10
3.7535636659
 20
6.9703862137
 11
3.7535636659
 21
7.0296137863
  0
LINE
  5
25A
100
AcDbEntity
  8
0
100
AcDbLine
 62
7
  6
CONTINUOUS
 10
3.7535636659
 20
7.4079022477
 11
3.7535636659
 21
7.437516034
  0
LINE
  5
25B
100
AcDbEntity
  8
0
100
AcDbLine
 62
7
  6
CONTINUOUS
 10
4.127
 20
7.437516034
 11
4.127
 21
7.4079022477
  0
LINE
  5
25C
100
AcDbEntity
  8
0
100
AcDbLine
 62
7
  6
CONTINUOUS
 10
4.127
 20
6.562483966
 11
4.127
 21
6.5920977523
  0
LINE
  5
25D
100
AcDbEntity
  8
0
100
AcDbLine
 62
7
  6
CONTINUOUS
 10
4.127
 20
6.9703862137
 11
4.127
 21
7.0296137863
  0
LINE
  5
25E
100
AcDbEntity
  8
0
100
AcDbLine
 62
7
  6
CONTINUOUS
 10
4.1875
 20
6.5715
 11
4.1875
 21
7.4285
  0
LINE
  5
25F
100
AcDbEntity
  8
0
100
AcDbLine
 62
7
  6
CONTINUOUS
 10
4.2734074773
 20
7.4285
 11
4.2685
 21
7.42
  0
LINE
  5
260
100
AcDbEntity
  8
0
100
AcDbLine
 62
7
  6
CONTINUOUS
 10
4.2595
 20
7.4285
 11
4.250977962
 21
7.4191525475
  0
LINE
  5
261
100
AcDbEntity
  8
0
100
AcDbLine
 62
7
  6
CONTINUOUS
 10
4.2595
 20
6.5715
 11
4.250977962
 21
6.5808474525
  0
LINE
  5
262
100
AcDbEntity
  8
0
100
AcDbLine
 62
7
  6
CONTINUOUS
 10
4.2734074773
 20
6.5715
 11
4.2685
 21
6.58
  0
LINE
  5
263
100
AcDbEntity
  8
0
100
AcDbLine
 62
7
  6
CONTINUOUS
 10
4.2395
 20
6.5715
 11
4.2395
 21
7.4285
  0
LINE
  5
264
100
AcDbEntity
  8
0
100
AcDbLine
 62
7
  6
CONTINUOUS
 10
4.248022038
 20
7.4191525475
 11
4.248022038
 21
6.5808474525
  0
LINE
  5
265
100
AcDbEntity
  8
0
100
AcDbLine
 62
7
  6
CONTINUOUS
 10
4.250977962
 20
7.4191525475
 11
4.250977962
 21
6.5808474525
  0
LINE
  5
266
100
AcDbEntity
  8
0
100
AcDbLine
 62
7
  6
CONTINUOUS
 10
4.2595
 20
6.5715
 11
4.2595
 21
7.4285
  0
LINE
  5
267
100
AcDbEntity
  8
0
100
AcDbLine
 62
7
  6
CONTINUOUS
 10
4.2635925227
 20
6.5715
 11
4.2635925227
 21
7.4285
  0
LINE
  5
268
100
AcDbEntity
  8
0
100
AcDbLine
 62
7
  6
CONTINUOUS
 10
4.2685
 20
6.58
 11
4.2685
 21
7.42
  0
LINE
  5
269
100
AcDbEntity
  8
0
100
AcDbLine
 62
7
  6
CONTINUOUS
 10
4.2734074773
 20
6.5715
 11
4.2734074773
 21
7.4285
  0
LINE
  5
26A
100
AcDbEntity
  8
0
100
AcDbLine
 62
7
  6
CONTINUOUS
 10
4.3125
 20
6.5715074896
 11
4.3125
 21
7.4284925104
  0
LINE
  5
26B
100
AcDbEntity
  8
0
100
AcDbLine
 62
7
  6
CONTINUOUS
 10
4.3625
 20
7.428
 11
4.3625
 21
6.572
  0
LINE
  5
26C
100
AcDbEntity
  8
0
100
AcDbLine
 62
7
  6
CONTINUOUS
 10
4.4325
 20
7.409
 11
4.4325
 21
6.591
  0
LINE
  5
26D
100
AcDbEntity
  8
0
100
AcDbLine
 62
7
  6
CONTINUOUS
 10
4.4405
 20
6.626
 11
4.4405
 21
7.374
  0
LINE
  5
26E
100
AcDbEntity
  8
0
100
AcDbLine
 62
7
  6
CONTINUOUS
 10
4.4535
 20
6.5715
 11
4.4535
 21
7.4285
  0
LINE
  5
26F
100
AcDbEntity
  8
0
100
AcDbLine
 62
7
  6
CONTINUOUS
 10
4.5035
 20
6.5715
 11
4.5035
 21
7.4285
  0
LINE
  5
270
100
AcDbEntity
  8
126-300_HEX_FEATURES
100
AcDbLine
 62
7
  6
CONTINUOUS
 10
4.526409656
 20
6.657
 11
4.526409656
 21
7.343
  0
LINE
  5
271
100
AcDbEntity
  8
0
100
AcDbLine
 62
7
  6
CONTINUOUS
 10
4.526409656
 20
6.657
 11
4.5035
 21
6.5715
  0
LINE
  5
272
100
AcDbEntity
  8
0
100
AcDbLine
 62
7
  6
CONTINUOUS
 10
4.2685
 20
6.58
 11
4.2635925227
 21
6.5715
  0
LINE
  5
273
100
AcDbEntity
  8
0
100
AcDbLine
 62
7
  6
CONTINUOUS
 10
3.7238459498
 20
6.562483966
 11
4.1784839658
 21
6.562483966
  0
LINE
  5
274
100
AcDbEntity
  8
0
100
AcDbLine
 62
7
  6
CONTINUOUS
 10
4.5035
 20
6.5715
 11
4.4535
 21
6.5715
  0
LINE
  5
275
100
AcDbEntity
  8
0
100
AcDbLine
 62
7
  6
CONTINUOUS
 10
4.3125
 20
6.5715
 11
4.2734074773
 21
6.5715
  0
LINE
  5
276
100
AcDbEntity
  8
0
100
AcDbLine
 62
7
  6
CONTINUOUS
 10
4.2635925227
 20
6.5715
 11
4.2595
 21
6.5715
  0
LINE
  5
277
100
AcDbEntity
  8
0
100
AcDbLine
 62
7
  6
CONTINUOUS
 10
4.2395
 20
6.5715
 11
4.1875
 21
6.5715
  0
LINE
  5
278
100
AcDbEntity
  8
0
100
AcDbLine
 62
7
  6
CONTINUOUS
 10
4.3125
 20
6.572
 11
4.3625
 21
6.572
  0
LINE
  5
279
100
AcDbEntity
  8
0
100
AcDbLine
 62
7
  6
CONTINUOUS
 10
4.9035
 20
6.5725
 11
4.8515
 21
6.5725
  0
LINE
  5
27A
100
AcDbEntity
  8
0
100
AcDbLine
 62
7
  6
CONTINUOUS
 10
4.127
 20
6.5920977523
 11
3.7535636659
 21
6.5920977523
  0
LINE
  5
27B
100
AcDbEntity
  8
THREAD
100
AcDbLine
 62
7
  6
CONTINUOUS
 10
4.9535
 20
6.595
 11
4.9312224319
 21
6.595
  0
LINE
  5
27C
100
AcDbEntity
  8
0
100
AcDbLine
 62
7
  6
CONTINUOUS
 10
5.0235
 20
6.5955
 11
5.0735
 21
6.5955
  0
LINE
  5
27D
100
AcDbEntity
  8
THREAD
100
AcDbLine
 62
7
  6
CONTINUOUS
 10
5.362
 20
6.6125
 11
5.11486196
 21
6.6125
  0
LINE
  5
27E
100
AcDbEntity
  8
0
100
AcDbLine
 62
7
  6
CONTINUOUS
 10
4.4405
 20
6.626
 11
4.4325
 21
6.626
  0
LINE
  5
27F
100
AcDbEntity
  8
THREAD
100
AcDbLine
 62
7
  6
CONTINUOUS
 10
5.0859944465
 20
6.6495
 11
5.0735
 21
6.6495
  0
LINE
  5
280
100
AcDbEntity
  8
0
100
AcDbLine
 62
7
  6
CONTINUOUS
 10
4.2685
 20
7.42
 11
4.2635925227
 21
7.4285
  0
LINE
  5
281
100
AcDbEntity
  8
0
100
AcDbLine
 62
7
  6
CONTINUOUS
 10
4.526409656
 20
7.343
 11
4.5035
 21
7.4285
  0
LINE
  5
282
100
AcDbEntity
  8
0
100
AcDbLine
 62
7
  6
CONTINUOUS
 10
4.248022038
 20
6.5808474525
 11
4.2395
 21
6.5715
  0
LINE
  5
283
100
AcDbEntity
  8
0
100
AcDbLine
 62
7
  6
CONTINUOUS
 10
4.1875
 20
6.5715
 11
4.1784821994
 21
6.5624821994
  0
LINE
  5
284
100
AcDbEntity
  8
THREAD
100
AcDbLine
 62
7
  6
CONTINUOUS
 10
5.5845
 20
6.657
 11
5.4765
 21
6.657
  0
LINE
  5
285
100
AcDbEntity
  8
THREAD
100
AcDbLine
 62
7
  6
CONTINUOUS
 10
5.4565
 20
6.657
 11
5.4065
 21
6.657
  0
LINE
  5
286
100
AcDbEntity
  8
0
100
AcDbLine
 62
7
  6
CONTINUOUS
 10
4.8288582932
 20
6.657
 11
4.526409656
 21
6.657
  0
LINE
  5
287
100
AcDbEntity
  8
0
100
AcDbLine
 62
7
  6
CONTINUOUS
 10
6.0145
 20
6.6575
 11
6.0725
 21
6.6575
  0
LINE
  5
288
100
AcDbEntity
  8
0
100
AcDbLine
 62
7
  6
CONTINUOUS
 10
6.2135
 20
6.6575
 11
6.2655
 21
6.6575
  0
LINE
  5
289
100
AcDbEntity
  8
0
100
AcDbLine
 62
7
  6
CONTINUOUS
 10
6.0725
 20
6.6585
 11
6.1225
 21
6.6585
  0
LINE
  5
28A
100
AcDbEntity
  8
0
100
AcDbLine
 62
7
  6
CONTINUOUS
 10
6.2135
 20
6.712
 11
6.1925
 21
6.712
  0
LINE
  5
28B
100
AcDbEntity
  8
0
100
AcDbLine
 62
7
  6
CONTINUOUS
 10
5.9995
 20
6.7195
 11
5.9475
 21
6.7195
  0
LINE
  5
28C
100
AcDbEntity
  8
0
100
AcDbLine
 62
7
  6
CONTINUOUS
 10
5.9275
 20
6.7195
 11
5.9165
 21
6.7195
  0
LINE
  5
28D
100
AcDbEntity
  8
0
100
AcDbLine
 62
7
  6
CONTINUOUS
 10
5.8965
 20
6.7195
 11
5.5945
 21
6.7195
  0
LINE
  5
28E
100
AcDbEntity
  8
0
100
AcDbLine
 62
7
  6
CONTINUOUS
 10
4.1875
 20
7.4285
 11
4.1784821994
 21
7.4375178006
  0
LINE
  5
28F
100
AcDbEntity
  8
0
100
AcDbLine
 62
7
  6
CONTINUOUS
 10
4.248022038
 20
7.4191525475
 11
4.2395
 21
7.4285
  0
LINE
  5
290
100
AcDbEntity
  8
0
100
AcDbLine
 62
7
  6
CONTINUOUS
 10
4.8288582932
 20
6.657
 11
4.8288582932
 21
7.343
  0
LINE
  5
291
100
AcDbEntity
  8
0
100
AcDbLine
 62
7
  6
CONTINUOUS
 10
4.8515
 20
7.4275
 11
4.8288582932
 21
7.343
  0
LINE
  5
292
100
AcDbEntity
  8
0
100
AcDbLine
 62
7
  6
CONTINUOUS
 10
4.8515
 20
6.5725
 11
4.8288582932
 21
6.657
  0
LINE
  5
293
100
AcDbEntity
  8
0
100
AcDbLine
 62
7
  6
CONTINUOUS
 10
4.8515
 20
6.5725
 11
4.8515
 21
7.4275
  0
LINE
  5
294
100
AcDbEntity
  8
0
100
AcDbLine
 62
7
  6
CONTINUOUS
 10
4.9035
 20
7.4275
 11
4.9035
 21
6.5725
  0
LINE
  5
295
100
AcDbEntity
  8
0
100
AcDbLine
 62
7
  6
CONTINUOUS
 10
4.9065
 20
7.4244999977
 11
4.9065
 21
6.5755000023
  0
LINE
  5
296
100
AcDbEntity
  8
0
100
AcDbLine
 62
7
  6
CONTINUOUS
 10
4.909
 20
6.5829433757
 11
4.909
 21
7.4170566243
  0
LINE
  5
297
100
AcDbEntity
  8
THREAD
100
AcDbLine
 62
7
  6
CONTINUOUS
 10
5.11486196
 20
7.3875
 11
5.0972527725
 21
7.3569999927
  0
LINE
  5
298
100
AcDbEntity
  8
THREAD
100
AcDbLine
 62
7
  6
CONTINUOUS
 10
5.11486196
 20
6.6125
 11
5.0972527725
 21
6.6430000073
  0
LINE
  5
299
100
AcDbEntity
  8
0
100
AcDbLine
 62
7
  6
CONTINUOUS
 10
4.9287224319
 20
6.594330127
 11
4.9287224319
 21
7.405669873
  0
LINE
  5
29A
100
AcDbEntity
  8
0
100
AcDbLine
 62
7
  6
CONTINUOUS
 10
4.9312224319
 20
6.595
 11
4.9312224319
 21
7.405
  0
LINE
  5
29B
100
AcDbEntity
  8
0
100
AcDbLine
 62
7
  6
CONTINUOUS
 10
4.9535
 20
7.409
 11
4.9535
 21
6.591
  0
LINE
  5
29C
100
AcDbEntity
  8
0
100
AcDbLine
 62
7
  6
CONTINUOUS
 10
4.127
 20
6.9703862137
 11
3.7535636659
 21
6.9703862137
  0
LINE
  5
29D
100
AcDbEntity
  8
0
100
AcDbLine
 62
7
  6
CONTINUOUS
 10
5.0235
 20
7.409
 11
5.0235
 21
6.591
  0
LINE
  5
29E
100
AcDbEntity
  8
0
100
AcDbLine
 62
7
  6
CONTINUOUS
 10
5.0735
 20
7.4045
 11
5.0735
 21
6.5955
  0
LINE
  5
29F
100
AcDbEntity
  8
0
100
AcDbLine
 62
7
  6
CONTINUOUS
 10
5.0859944465
 20
6.6495
 11
5.0859944465
 21
7.3505
  0
LINE
  5
2A0
100
AcDbEntity
  8
0
100
AcDbLine
 62
7
  6
CONTINUOUS
 10
5.0972527725
 20
6.6430000073
 11
5.0972527725
 21
7.3569999927
  0
LINE
  5
2A1
100
AcDbEntity
  8
0
100
AcDbLine
 62
7
  6
CONTINUOUS
 10
5.4765
 20
7.343
 11
5.4665
 21
7.333
  0
LINE
  5
2A2
100
AcDbEntity
  8
0
100
AcDbLine
 62
7
  6
CONTINUOUS
 10
4.127
 20
7.0296137863
 11
3.7535636659
 21
7.0296137863
  0
LINE
  5
2A3
100
AcDbEntity
  8
0
100
AcDbLine
 62
7
  6
CONTINUOUS
 10
5.4765
 20
6.657
 11
5.4665
 21
6.667
  0
LINE
  5
2A4
100
AcDbEntity
  8
THREAD
100
AcDbLine
 62
7
  6
CONTINUOUS
 10
5.11486196
 20
6.6125
 11
5.11486196
 21
7.3875
  0
LINE
  5
2A5
100
AcDbEntity
  8
0
100
AcDbLine
 62
7
  6
CONTINUOUS
 10
5.9995
 20
7.2805
 11
5.9475
 21
7.2805
  0
LINE
  5
2A6
100
AcDbEntity
  8
0
100
AcDbLine
 62
7
  6
CONTINUOUS
 10
5.9275
 20
7.2805
 11
5.9165
 21
7.2805
  0
LINE
  5
2A7
100
AcDbEntity
  8
0
100
AcDbLine
 62
7
  6
CONTINUOUS
 10
5.8965
 20
7.2805
 11
5.5945
 21
7.2805
  0
LINE
  5
2A8
100
AcDbEntity
  8
THREAD
100
AcDbLine
 62
7
  6
CONTINUOUS
 10
5.362
 20
6.6125
 11
5.362
 21
7.3875
  0
LINE
  5
2A9
100
AcDbEntity
  8
THREAD
100
AcDbLine
 62
7
  6
CONTINUOUS
 10
4.9287224319
 20
6.594330127
 11
4.909
 21
6.5829433757
  0
LINE
  5
2AA
100
AcDbEntity
  8
0
100
AcDbLine
 62
7
  6
CONTINUOUS
 10
6.2135
 20
7.288
 11
6.1925
 21
7.288
  0
LINE
  5
2AB
100
AcDbEntity
  8
0
100
AcDbLine
 62
7
  6
CONTINUOUS
 10
5.5335
 20
7.3229149841
 11
5.4995
 21
7.3229149841
  0
LINE
  5
2AC
100
AcDbEntity
  8
0
100
AcDbLine
 62
7
  6
CONTINUOUS
 10
6.0725
 20
7.3415
 11
6.1225
 21
7.3415
  0
LINE
  5
2AD
100
AcDbEntity
  8
0
100
AcDbLine
 62
7
  6
CONTINUOUS
 10
6.0145
 20
7.3425
 11
6.0725
 21
7.3425
  0
LINE
  5
2AE
100
AcDbEntity
  8
0
100
AcDbLine
 62
7
  6
CONTINUOUS
 10
6.2135
 20
7.3425
 11
6.2655
 21
7.3425
  0
LINE
  5
2AF
100
AcDbEntity
  8
THREAD
100
AcDbLine
 62
7
  6
CONTINUOUS
 10
5.5845
 20
7.343
 11
5.5335
 21
7.343
  0
LINE
  5
2B0
100
AcDbEntity
  8
THREAD
100
AcDbLine
 62
7
  6
CONTINUOUS
 10
5.4995
 20
7.343
 11
5.4765
 21
7.343
  0
LINE
  5
2B1
100
AcDbEntity
  8
THREAD
100
AcDbLine
 62
7
  6
CONTINUOUS
 10
5.4565
 20
7.343
 11
5.4065
 21
7.343
  0
LINE
  5
2B2
100
AcDbEntity
  8
0
100
AcDbLine
 62
7
  6
CONTINUOUS
 10
4.8288582932
 20
7.343
 11
4.526409656
 21
7.343
  0
LINE
  5
2B3
100
AcDbEntity
  8
THREAD
100
AcDbLine
 62
7
  6
CONTINUOUS
 10
5.0859944465
 20
7.3505
 11
5.0735
 21
7.3505
  0
LINE
  5
2B4
100
AcDbEntity
  8
THREAD
100
AcDbLine
 62
7
  6
CONTINUOUS
 10
4.9287224319
 20
7.405669873
 11
4.909
 21
7.4170566243
  0
LINE
  5
2B5
100
AcDbEntity
  8
THREAD
100
AcDbLine
 62
7
  6
CONTINUOUS
 10
5.4065
 20
6.657
 11
5.4065
 21
7.343
  0
LINE
  5
2B6
100
AcDbEntity
  8
0
100
AcDbLine
 62
7
  6
CONTINUOUS
 10
5.4565
 20
6.657
 11
5.4565
 21
7.343
  0
LINE
  5
2B7
100
AcDbEntity
  8
0
100
AcDbLine
 62
7
  6
CONTINUOUS
 10
5.9065
 20
7.2705
 11
5.9165
 21
7.2805
  0
LINE
  5
2B8
100
AcDbEntity
  8
0
100
AcDbLine
 62
7
  6
CONTINUOUS
 10
4.4405
 20
7.374
 11
4.4325
 21
7.374
  0
LINE
  5
2B9
100
AcDbEntity
  8
THREAD
100
AcDbLine
 62
7
  6
CONTINUOUS
 10
5.362
 20
7.3875
 11
5.11486196
 21
7.3875
  0
LINE
  5
2BA
100
AcDbEntity
  8
0
100
AcDbLine
 62
7
  6
CONTINUOUS
 10
5.0235
 20
7.4045
 11
5.0735
 21
7.4045
  0
LINE
  5
2BB
100
AcDbEntity
  8
THREAD
100
AcDbLine
 62
7
  6
CONTINUOUS
 10
4.9535
 20
7.405
 11
4.9312224319
 21
7.405
  0
LINE
  5
2BC
100
AcDbEntity
  8
0
100
AcDbLine
 62
7
  6
CONTINUOUS
 10
4.127
 20
7.4079022477
 11
3.7535636659
 21
7.4079022477
  0
LINE
  5
2BD
100
AcDbEntity
  8
0
100
AcDbLine
 62
7
  6
CONTINUOUS
 10
4.9035
 20
7.4275
 11
4.8515
 21
7.4275
  0
LINE
  5
2BE
100
AcDbEntity
  8
0
100
AcDbLine
 62
7
  6
CONTINUOUS
 10
4.3125
 20
7.428
 11
4.3625
 21
7.428
  0
LINE
  5
2BF
100
AcDbEntity
  8
0
100
AcDbLine
 62
7
  6
CONTINUOUS
 10
4.5035
 20
7.4285
 11
4.4535
 21
7.4285
  0
LINE
  5
2C0
100
AcDbEntity
  8
0
100
AcDbLine
 62
7
  6
CONTINUOUS
 10
4.3125
 20
7.4285
 11
4.2734074773
 21
7.4285
  0
LINE
  5
2C1
100
AcDbEntity
  8
0
100
AcDbLine
 62
7
  6
CONTINUOUS
 10
4.2635925227
 20
7.4285
 11
4.2595
 21
7.4285
  0
LINE
  5
2C2
100
AcDbEntity
  8
0
100
AcDbLine
 62
7
  6
CONTINUOUS
 10
4.2395
 20
7.4285
 11
4.1875
 21
7.4285
  0
LINE
  5
2C3
100
AcDbEntity
  8
0
100
AcDbLine
 62
7
  6
CONTINUOUS
 10
3.7238459498
 20
7.437516034
 11
4.1784839658
 21
7.437516034
  0
LINE
  5
2C4
100
AcDbEntity
  8
0
100
AcDbLine
 62
7
  6
CONTINUOUS
 10
5.9065
 20
6.7295
 11
5.9165
 21
6.7195
  0
LINE
  5
2C5
100
AcDbEntity
  8
0
100
AcDbLine
 62
7
  6
CONTINUOUS
 10
5.4665
 20
7.333
 11
5.4665
 21
6.667
  0
LINE
  5
2C6
100
AcDbEntity
  8
0
100
AcDbLine
 62
7
  6
CONTINUOUS
 10
5.4765
 20
6.657
 11
5.4765
 21
7.343
  0
LINE
  5
2C7
100
AcDbEntity
  8
0
100
AcDbLine
 62
7
  6
CONTINUOUS
 10
5.4995
 20
7.3229149841
 11
5.4995
 21
7.342996725
  0
LINE
  5
2C8
100
AcDbEntity
  8
0
100
AcDbLine
 62
7
  6
CONTINUOUS
 10
5.5335
 20
7.3229149841
 11
5.5335
 21
7.342996725
  0
LINE
  5
2C9
100
AcDbEntity
  8
0
100
AcDbLine
 62
7
  6
CONTINUOUS
 10
5.9375
 20
7.2705
 11
5.9475
 21
7.2805
  0
LINE
  5
2CA
100
AcDbEntity
  8
0
100
AcDbLine
 62
7
  6
CONTINUOUS
 10
5.9995
 20
7.3275
 11
6.0145
 21
7.3425
  0
LINE
  5
2CB
100
AcDbEntity
  8
THREAD
100
AcDbLine
 62
7
  6
CONTINUOUS
 10
5.4065
 20
6.657
 11
5.362
 21
6.6125
  0
LINE
  5
2CC
100
AcDbEntity
  8
0
100
AcDbLine
 62
7
  6
CONTINUOUS
 10
5.9375
 20
6.7295
 11
5.9475
 21
6.7195
  0
LINE
  5
2CD
100
AcDbEntity
  8
0
100
AcDbLine
 62
7
  6
CONTINUOUS
 10
5.9995
 20
6.6725
 11
6.0145
 21
6.6575
  0
LINE
  5
2CE
100
AcDbEntity
  8
THREAD
100
AcDbLine
 62
7
  6
CONTINUOUS
 10
5.4065
 20
7.343
 11
5.362
 21
7.3875
  0
LINE
  5
2CF
100
AcDbEntity
  8
0
100
AcDbLine
 62
7
  6
CONTINUOUS
 10
5.5845
 20
6.657
 11
5.5845
 21
7.343
  0
LINE
  5
2D0
100
AcDbEntity
  8
0
100
AcDbLine
 62
7
  6
CONTINUOUS
 10
5.5945
 20
6.6670090766
 11
5.5945
 21
7.3329909234
  0
LINE
  5
2D1
100
AcDbEntity
  8
0
100
AcDbLine
 62
7
  6
CONTINUOUS
 10
5.4665
 20
6.667
 11
5.4565
 21
6.657
  0
LINE
  5
2D2
100
AcDbEntity
  8
0
100
AcDbLine
 62
7
  6
CONTINUOUS
 10
5.4665
 20
7.333
 11
5.4565
 21
7.343
  0
LINE
  5
2D3
100
AcDbEntity
  8
0
100
AcDbLine
 62
7
  6
CONTINUOUS
 10
5.5945
 20
6.667
 11
5.5845
 21
6.657
  0
LINE
  5
2D4
100
AcDbEntity
  8
0
100
AcDbLine
 62
7
  6
CONTINUOUS
 10
5.5945
 20
7.333
 11
5.5845
 21
7.343
  0
LINE
  5
2D5
100
AcDbEntity
  8
0
100
AcDbLine
 62
7
  6
CONTINUOUS
 10
5.8965
 20
6.7195
 11
5.8965
 21
7.2805
  0
LINE
  5
2D6
100
AcDbEntity
  8
0
100
AcDbLine
 62
7
  6
CONTINUOUS
 10
5.9065
 20
6.7295
 11
5.9065
 21
7.2705
  0
LINE
  5
2D7
100
AcDbEntity
  8
0
100
AcDbLine
 62
7
  6
CONTINUOUS
 10
5.8965
 20
6.7195
 11
5.9065
 21
6.7295
  0
LINE
  5
2D8
100
AcDbEntity
  8
0
100
AcDbLine
 62
7
  6
CONTINUOUS
 10
5.9275
 20
6.7195
 11
5.9375
 21
6.7295
  0
LINE
  5
2D9
100
AcDbEntity
  8
0
100
AcDbLine
 62
7
  6
CONTINUOUS
 10
5.8965
 20
7.2805
 11
5.9065
 21
7.2705
  0
LINE
  5
2DA
100
AcDbEntity
  8
0
100
AcDbLine
 62
7
  6
CONTINUOUS
 10
5.9275
 20
7.2805
 11
5.9375
 21
7.2705
  0
LINE
  5
2DB
100
AcDbEntity
  8
0
100
AcDbLine
 62
7
  6
CONTINUOUS
 10
5.9165
 20
6.7195
 11
5.9165
 21
7.2805
  0
LINE
  5
2DC
100
AcDbEntity
  8
0
100
AcDbLine
 62
7
  6
CONTINUOUS
 10
5.9275
 20
6.7195
 11
5.9275
 21
7.2805
  0
LINE
  5
2DD
100
AcDbEntity
  8
0
100
AcDbLine
 62
7
  6
CONTINUOUS
 10
5.9375
 20
6.7295
 11
5.9375
 21
7.2705
  0
LINE
  5
2DE
100
AcDbEntity
  8
0
100
AcDbLine
 62
7
  6
CONTINUOUS
 10
5.9475
 20
6.7195
 11
5.9475
 21
7.2805
  0
LINE
  5
2DF
100
AcDbEntity
  8
0
100
AcDbLine
 62
7
  6
CONTINUOUS
 10
5.9995
 20
7.3275
 11
5.9995
 21
6.6725
  0
LINE
  5
2E0
100
AcDbEntity
  8
0
100
AcDbLine
 62
7
  6
CONTINUOUS
 10
6.0145
 20
7.3425
 11
6.0145
 21
6.6575
  0
LINE
  5
2E1
100
AcDbEntity
  8
0
100
AcDbLine
 62
7
  6
CONTINUOUS
 10
6.0725
 20
7.3425
 11
6.0725
 21
6.6575
  0
LINE
  5
2E2
100
AcDbEntity
  8
0
100
AcDbLine
 62
7
  6
CONTINUOUS
 10
6.1225
 20
7.3415
 11
6.1225
 21
6.6585
  0
LINE
  5
2E3
100
AcDbEntity
  8
0
100
AcDbLine
 62
7
  6
CONTINUOUS
 10
6.2655
 20
6.6575
 11
6.2805
 21
6.6725
  0
LINE
  5
2E4
100
AcDbEntity
  8
0
100
AcDbLine
 62
7
  6
CONTINUOUS
 10
6.2655
 20
7.3425
 11
6.2805
 21
7.3275
  0
LINE
  5
2E5
100
AcDbEntity
  8
0
100
AcDbLine
 62
7
  6
CONTINUOUS
 10
6.1925
 20
7.3225
 11
6.1925
 21
6.6775
  0
LINE
  5
2E6
100
AcDbEntity
  8
0
100
AcDbLine
 62
7
  6
CONTINUOUS
 10
6.2135
 20
7.3425
 11
6.2135
 21
6.6575
  0
LINE
  5
2E7
100
AcDbEntity
  8
0
100
AcDbLine
 62
7
  6
CONTINUOUS
 10
6.2655
 20
7.3425
 11
6.2655
 21
6.6575
  0
LINE
  5
2E8
100
AcDbEntity
  8
0
100
AcDbLine
 62
7
  6
CONTINUOUS
 10
6.2805
 20
7.3275
 11
6.2805
 21
6.6725
  0
ARC
  5
2E9
100
AcDbEntity
  8
0
100
AcDbCircle
 62
7
  6
CONTINUOUS
 10
4.4405
 20
6.613
 40
0.013
100
AcDbArc
 50
0.0000148105
 51
90.0
  0
ARC
  5
2EA
100
AcDbEntity
  8
0
100
AcDbCircle
 62
7
  6
CONTINUOUS
 10
5.0859944465
 20
6.6365
 40
0.013
100
AcDbArc
 50
30.0000373581
 51
90.0
  0
ARC
  5
2EB
100
AcDbEntity
  8
0
100
AcDbCircle
 62
7
  6
CONTINUOUS
 10
4.4405
 20
7.387
 40
0.013
100
AcDbArc
 50
270.0
 51
359.9999851895
  0
ARC
  5
2EC
100
AcDbEntity
  8
0
100
AcDbCircle
 62
7
  6
CONTINUOUS
 10
5.0859944465
 20
7.3635
 40
0.013
100
AcDbArc
 50
270.0
 51
329.9999626419
  0
ARC
  5
2ED
100
AcDbEntity
  8
0
100
AcDbCircle
 62
7
  6
CONTINUOUS
 10
4.9115
 20
7.4213867513
 40
0.005
100
AcDbArc
 50
180.0000012478
 51
240.0000006308
  0
ARC
  5
2EE
100
AcDbEntity
  8
0
100
AcDbCircle
 62
7
  6
CONTINUOUS
 10
4.9312224319
 20
7.41
 40
0.005
100
AcDbArc
 50
240.0000000314
 51
270.0
  0
ARC
  5
2EF
100
AcDbEntity
  8
0
100
AcDbCircle
 62
7
  6
CONTINUOUS
 10
4.9312224319
 20
6.59
 40
0.005
100
AcDbArc
 50
90.0
 51
119.9999999686
  0
ARC
  5
2F0
100
AcDbEntity
  8
0
100
AcDbCircle
 62
7
  6
CONTINUOUS
 10
4.9115
 20
6.5786132487
 40
0.005
100
AcDbArc
 50
119.9999993692
 51
179.9999987522
  0
ARC
  5
2F1
100
AcDbEntity
  8
0
100
AcDbCircle
 62
7
  6
CONTINUOUS
 10
4.9035
 20
7.4245
 40
0.003
100
AcDbArc
 50
359.9999558847
 51
90.0
  0
ARC
  5
2F2
100
AcDbEntity
  8
0
100
AcDbCircle
 62
7
  6
CONTINUOUS
 10
4.9035
 20
6.5755
 40
0.003
100
AcDbArc
 50
270.0
 51
0.0000441153
  0
ARC
  5
2F3
100
AcDbEntity
  8
0
100
AcDbCircle
 62
7
  6
CONTINUOUS
 10
4.2495
 20
6.5795
 40
0.002
100
AcDbArc
 50
42.3553148142
 51
137.6446851858
  0
ARC
  5
2F4
100
AcDbEntity
  8
0
100
AcDbCircle
 62
7
  6
CONTINUOUS
 10
4.2495
 20
7.4205
 40
0.002
100
AcDbArc
 50
222.3553148142
 51
317.6446851858
  0
SPLINE
  5
2F5
100
AcDbEntity
  8
0
100
AcDbSpline
 62
7
  6
CONTINUOUS
 70
0
 71
3
 72
11
 73
7
 74
0
 42
0.0000001
 43
0.0000001
 44
0.0000000001
 40
0.0
 40
0.0
 40
0.0
 40
0.0
 40
0.2547765865
 40
0.5035881755
 40
0.750614489
 40
1.0
 40
1.0
 40
1.0
 40
1.0
 10
5.7881429185
 20
7.2511291602
 30
0.0
 10
5.7885535387
 20
7.2505139375
 30
0.0
 10
5.7892849949
 20
7.2492414039
 30
0.0
 10
5.7900844215
 20
7.2472055814
 30
0.0
 10
5.7905645191
 20
7.2450877832
 30
0.0
 10
5.7906687836
 20
7.2436441418
 30
0.0
 10
5.7906687836
 20
7.2429201258
 30
0.0
  0
SPLINE
  5
2F6
100
AcDbEntity
  8
0
100
AcDbSpline
 62
7
  6
CONTINUOUS
 70
0
 71
3
 72
15
 73
11
 74
0
 42
0.0000001
 43
0.0000001
 44
0.0000000001
 40
0.0
 40
0.0
 40
0.0
 40
0.0
 40
0.1253593922
 40
0.2505611007
 40
0.375497682
 40
0.5001927215
 40
0.6248159257
 40
0.7496030645
 40
0.8746847162
 40
1.0
 40
1.0
 40
1.0
 40
1.0
 10
5.7225501541
 20
7.0624999634
 30
0.0
 10
5.7268512599
 20
7.0625010461
 30
0.0
 10
5.7354654882
 20
7.061836525
 30
0.0
 10
5.7480295906
 20
7.0587176191
 30
0.0
 10
5.7598214833
 20
7.0533954125
 30
0.0
 10
5.7703489223
 20
7.0458918636
 30
0.0
 10
5.7791160154
 20
7.0363874129
 30
0.0
 10
5.7856887727
 20
7.0252314905
 30
0.0
 10
5.7897530311
 20
7.0129187289
 30
0.0
 10
5.7906687836
 20
7.0042995925
 30
0.0
 10
5.7906687836
 20
7.0
 30
0.0
  0
SPLINE
  5
2F7
100
AcDbEntity
  8
0
100
AcDbSpline
 62
7
  6
CONTINUOUS
 70
0
 71
3
 72
19
 73
15
 74
0
 42
0.0000001
 43
0.0000001
 44
0.0000000001
 40
0.0
 40
0.0
 40
0.0
 40
0.0
 40
0.1238046046
 40
0.2475877879
 40
0.3715653844
 40
0.4337068773
 40
0.4960003157
 40
0.6209527551
 40
0.683738102
 40
0.746712943
 40
0.8098551615
 40
0.8731897743
 40
0.9366248776
 40
1.0
 40
1.0
 40
1.0
 40
1.0
 10
5.7667887941
 20
7.0478908286
 30
0.0
 10
5.7646937111
 20
7.0465932137
 30
0.0
 10
5.7606068218
 20
7.0438264911
 30
0.0
 10
5.7548650794
 20
7.0391490169
 30
0.0
 10
5.7504735987
 20
7.0347994975
 30
0.0
 10
5.7472572634
 20
7.0310403656
 30
0.0
 10
5.7442529269
 20
7.0270860742
 30
0.0
 10
5.7416141473
 20
7.0228456449
 30
0.0
 10
5.7394378644
 20
7.0183505808
 30
0.0
 10
5.7380538258
 20
7.0148503166
 30
0.0
 10
5.736944583
 20
7.0112417694
 30
0.0
 10
5.7361371338
 20
7.0075440669
 30
0.0
 10
5.7356442818
 20
7.0037870286
 30
0.0
 10
5.7355318329
 20
7.001261508
 30
0.0
 10
5.7355318329
 20
7.0
 30
0.0
  0
SPLINE
  5
2F8
100
AcDbEntity
  8
0
100
AcDbSpline
 62
7
  6
CONTINUOUS
 70
0
 71
3
 72
11
 73
7
 74
0
 42
0.0000001
 43
0.0000001
 44
0.0000000001
 40
0.0
 40
0.0
 40
0.0
 40
0.0
 40
0.2493894511
 40
0.4964170135
 40
0.7452264348
 40
1.0
 40
1.0
 40
1.0
 40
1.0
 10
5.7906687836
 20
6.7570798742
 30
0.0
 10
5.7906687836
 20
6.7563559459
 30
0.0
 10
5.7905645527
 20
6.754912488
 30
0.0
 10
5.7900845955
 20
6.7527949548
 30
0.0
 10
5.7892853627
 20
6.7507593913
 30
0.0
 10
5.7885540933
 20
6.7494870022
 30
0.0
 10
5.7881435798
 20
6.7488718407
 30
0.0
  0
SPLINE
  5
2F9
100
AcDbEntity
  8
0
100
AcDbSpline
 62
7
  6
CONTINUOUS
 70
0
 71
3
 72
15
 73
11
 74
0
 42
0.0000001
 43
0.0000001
 44
0.0000000001
 40
0.0
 40
0.0
 40
0.0
 40
0.0
 40
0.1253144203
 40
0.250395738
 40
0.3751834687
 40
0.4998074893
 40
0.6245029018
 40
0.7494392991
 40
0.8746404977
 40
1.0
 40
1.0
 40
1.0
 40
1.0
 10
5.7906687836
 20
7.0
 30
0.0
 10
5.7906687836
 20
6.9957006084
 30
0.0
 10
5.7897531264
 20
6.987081857
 30
0.0
 10
5.7856891963
 20
6.9747695614
 30
0.0
 10
5.7791169526
 20
6.9636139012
 30
0.0
 10
5.7703504498
 20
6.9541095299
 30
0.0
 10
5.7598236801
 20
6.9466058785
 30
0.0
 10
5.74803249
 20
6.9412834054
 30
0.0
 10
5.7354690507
 20
6.938164053
 30
0.0
 10
5.7268552113
 20
6.9374991756
 30
0.0
 10
5.7225542731
 20
6.9375000367
 30
0.0
  0
SPLINE
  5
2FA
100
AcDbEntity
  8
0
100
AcDbSpline
 62
7
  6
CONTINUOUS
 70
0
 71
3
 72
33
 73
29
 74
0
 42
0.0000001
 43
0.0000001
 44
0.0000000001
 40
0.0
 40
0.0
 40
0.0
 40
0.0
 40
0.0188741735
 40
0.0389389932
 40
0.060509771
 40
0.0837850533
 40
0.1088642527
 40
0.1357443112
 40
0.1643524958
 40
0.1945677211
 40
0.2262323292
 40
0.2591714128
 40
0.3280728449
 40
0.3998382365
 40
0.4731574504
 40
0.5469462015
 40
0.6203082606
 40
0.6924463807
 40
0.7278197826
 40
0.762573752
 40
0.7965904265
 40
0.8297245117
 40
0.8618176072
 40
0.8926945472
 40
0.9221472693
 40
0.9499781186
 40
0.9759753418
 40
1.0
 40
1.0
 40
1.0
 40
1.0
 10
5.7906687836
 20
7.2429201258
 30
0.0
 10
5.7906687836
 20
7.2418836639
 30
0.0
 10
5.7904468687
 20
7.2397412011
 30
0.0
 10
5.78951089
 20
7.2365373923
 30
0.0
 10
5.7879774828
 20
7.2333049603
 30
0.0
 10
5.7858688809
 20
7.230083613
 30
0.0
 10
5.7832073462
 20
7.2269126401
 30
0.0
 10
5.7800219439
 20
7.2238320036
 30
0.0
 10
5.7763441522
 20
7.2208855649
 30
0.0
 10
5.7722139057
 20
7.2181131555
 30
0.0
 10
5.76767367
 20
7.2155537572
 30
0.0
 10
5.7610385436
 20
7.2124230037
 30
0.0
 10
5.7520151341
 20
7.2092560139
 30
0.0
 10
5.7405104547
 20
7.2067397394
 30
0.0
 10
5.7285311603
 20
7.2055019601
 30
0.0
 10
5.7164034063
 20
7.2055212688
 30
0.0
 10
5.7044036394
 20
7.2067291332
 30
0.0
 10
5.694644591
 20
7.2086638658
 30
0.0
 10
5.6871083824
 20
7.2107323939
 30
0.0
 10
5.6816716529
 20
7.2125147689
 30
0.0
 10
5.6764465463
 20
7.2145250614
 30
0.0
 10
5.6714686481
 20
7.2167503561
 30
0.0
 10
5.6667785599
 20
7.2191768094
 30
0.0
 10
5.662421887
 20
7.2217875441
 30
0.0
 10
5.6584508436
 20
7.2245646679
 30
0.0
 10
5.6549237701
 20
7.2274854324
 30
0.0
 10
5.6519035232
 20
7.2305214152
 30
0.0
 10
5.6502036797
 20
7.232691645
 30
0.0
 10
5.6494717901
 20
7.2337893163
 30
0.0
  0
SPLINE
  5
2FB
100
AcDbEntity
  8
0
100
AcDbSpline
 62
7
  6
CONTINUOUS
 70
0
 71
3
 72
33
 73
29
 74
0
 42
0.0000001
 43
0.0000001
 44
0.0000000001
 40
0.0
 40
0.0
 40
0.0
 40
0.0
 40
0.0240248744
 40
0.0500223593
 40
0.0778534738
 40
0.1073064722
 40
0.1381837551
 40
0.1702772123
 40
0.2034116079
 40
0.2374285702
 40
0.2721826088
 40
0.3075559468
 40
0.3796938244
 40
0.4530555708
 40
0.5268441599
 40
0.6001634559
 40
0.6719291065
 40
0.7408305991
 40
0.7737695337
 40
0.8054338768
 40
0.8356487478
 40
0.8642566508
 40
0.8911364841
 40
0.9162155207
 40
0.9394905937
 40
0.9610611804
 40
0.9811258812
 40
1.0
 40
1.0
 40
1.0
 40
1.0
 10
5.6494722392
 20
6.7662113786
 30
0.0
 10
5.6502041683
 20
6.76730903
 30
0.0
 10
5.6519040893
 20
6.7694792136
 30
0.0
 10
5.6549244141
 20
6.7725151442
 30
0.0
 10
5.6584515486
 20
6.7754358678
 30
0.0
 10
5.6624226504
 20
6.7782129505
 30
0.0
 10
5.6667793795
 20
6.7808236463
 30
0.0
 10
5.6714695196
 20
6.7832500629
 30
0.0
 10
5.6764474623
 20
6.7854753203
 30
0.0
 10
5.6816725966
 20
6.7874855649
 30
0.0
 10
5.6871093288
 20
6.7892678911
 30
0.0
 10
5.6946455041
 20
6.7913363435
 30
0.0
 10
5.7044044839
 20
6.7932709886
 30
0.0
 10
5.7164041589
 20
6.7944787675
 30
0.0
 10
5.7285318303
 20
6.7944980044
 30
0.0
 10
5.7405110687
 20
6.7932601633
 30
0.0
 10
5.7520156921
 20
6.7907438142
 30
0.0
 10
5.7610390581
 20
6.7875768096
 30
0.0
 10
5.7676740974
 20
6.7844460044
 30
0.0
 10
5.77221427
 20
6.7818866335
 30
0.0
 10
5.7763444292
 20
6.7791142268
 30
0.0
 10
5.7800221522
 20
6.7761678165
 30
0.0
 10
5.7832074908
 20
6.7730871988
 30
0.0
 10
5.7858689776
 20
6.7699162559
 30
0.0
 10
5.7879775371
 20
6.766694941
 30
0.0
 10
5.789510913
 20
6.763462546
 30
0.0
 10
5.7904468743
 20
6.7602587706
 30
0.0
 10
5.7906687836
 20
6.7581163279
 30
0.0
 10
5.7906687836
 20
6.7570798742
 30
0.0
  0
SPLINE
  5
2FC
100
AcDbEntity
  8
0
100
AcDbSpline
 62
7
  6
CONTINUOUS
 70
0
 71
3
 72
23
 73
19
 74
0
 42
0.0000001
 43
0.0000001
 44
0.0000000001
 40
0.0
 40
0.0
 40
0.0
 40
0.0
 40
0.0412289147
 40
0.0860388065
 40
0.1343288328
 40
0.1858783767
 40
0.2404253191
 40
0.2977350061
 40
0.3576189254
 40
0.4199447087
 40
0.5515707707
 40
0.6209558417
 40
0.6927082962
 40
0.766799738
 40
0.8430358145
 40
0.8818613079
 40
0.9210635385
 40
1.0
 40
1.0
 40
1.0
 40
1.0
 10
5.7092391198
 20
6.969
 30
0.0
 10
5.7086227732
 20
6.969
 30
0.0
 10
5.7073356749
 20
6.9691141846
 30
0.0
 10
5.7053721248
 20
6.9695537638
 30
0.0
 10
5.7033202696
 20
6.9702472836
 30
0.0
 10
5.7012056314
 20
6.9711784361
 30
0.0
 10
5.6990521721
 20
6.9723366187
 30
0.0
 10
5.6968840872
 20
6.9737157512
 30
0.0
 10
5.6947254297
 20
6.9753143562
 30
0.0
 10
5.6918427016
 20
6.9777854799
 30
0.0
 10
5.689146828
 20
6.9806810693
 30
0.0
 10
5.6867583861
 20
6.9839913013
 30
0.0
 10
5.6851231558
 20
6.9867685335
 30
0.0
 10
5.6837373319
 20
6.9897922073
 30
0.0
 10
5.6828536136
 20
6.9924857836
 30
0.0
 10
5.6823359545
 20
6.9947345181
 30
0.0
 10
5.681955663
 20
6.9970511274
 30
0.0
 10
5.6818382579
 20
6.9988199491
 30
0.0
 10
5.6818382579
 20
7.0
 30
0.0
  0
SPLINE
  5
2FD
100
AcDbEntity
  8
0
100
AcDbSpline
 62
7
  6
CONTINUOUS
 70
0
 71
3
 72
20
 73
16
 74
0
 42
0.0000001
 43
0.0000001
 44
0.0000000001
 40
0.0
 40
0.0
 40
0.0
 40
0.0
 40
0.0633716122
 40
0.12680447
 40
0.1901387673
 40
0.2532807579
 40
0.3162561538
 40
0.3790438838
 40
0.5039903604
 40
0.5662828458
 40
0.6284234328
 40
0.7523921841
 40
0.8143149631
 40
0.8762040146
 40
1.0
 40
1.0
 40
1.0
 40
1.0
 10
5.7355318329
 20
7.0
 30
0.0
 10
5.7355318329
 20
6.9987382812
 30
0.0
 10
5.7356443364
 20
6.9962123122
 30
0.0
 10
5.7361374079
 20
6.9924545749
 30
0.0
 10
5.7369451038
 20
6.9887561199
 30
0.0
 10
5.7380548197
 20
6.9851468334
 30
0.0
 10
5.7394395046
 20
6.9816458674
 30
0.0
 10
5.7416165153
 20
6.9771499889
 30
0.0
 10
5.7442561804
 20
6.9729089037
 30
0.0
 10
5.747261673
 20
6.9689542608
 30
0.0
 10
5.7504789139
 20
6.9651948976
 30
0.0
 10
5.7539950922
 20
6.9617125991
 30
0.0
 10
5.7577451736
 20
6.9585052689
 30
0.0
 10
5.7616362774
 20
6.9554760421
 30
0.0
 10
5.7647028046
 20
6.9534006644
 30
0.0
 10
5.7667984002
 20
6.9521031615
 30
0.0
  0
SPLINE
  5
2FE
100
AcDbEntity
  8
0
100
AcDbSpline
 62
7
  6
CONTINUOUS
 70
0
 71
3
 72
24
 73
20
 74
0
 42
0.0000001
 43
0.0000001
 44
0.0000000001
 40
0.0
 40
0.0
 40
0.0
 40
0.0
 40
0.0789394297
 40
0.1181645281
 40
0.1570002161
 40
0.2332482196
 40
0.3073294821
 40
0.3790797173
 40
0.4484562068
 40
0.5154757782
 40
0.5801534657
 40
0.6424643019
 40
0.7023321505
 40
0.7596273807
 40
0.8141617417
 40
0.8656978407
 40
0.9139773802
 40
0.9587802993
 40
1.0
 40
1.0
 40
1.0
 40
1.0
 10
5.6818382579
 20
7.0
 30
0.0
 10
5.6818382579
 20
7.0011802152
 30
0.0
 10
5.6819564189
 20
7.0029495333
 30
0.0
 10
5.6823361429
 20
7.0052670125
 30
0.0
 10
5.6828541644
 20
7.0075166122
 30
0.0
 10
5.6837383216
 20
7.0102105266
 30
0.0
 10
5.6851248182
 20
7.013234308
 30
0.0
 10
5.6867599043
 20
7.0160113897
 30
0.0
 10
5.6885836227
 20
7.0185379996
 30
0.0
 10
5.6905451663
 20
7.0208204676
 30
0.0
 10
5.6926041507
 20
7.0228674605
 30
0.0
 10
5.6947271787
 20
7.0246870575
 30
0.0
 10
5.6968854776
 20
7.0262851231
 30
0.0
 10
5.6990532875
 20
7.0276640601
 30
0.0
 10
5.7012064612
 20
7.0288220014
 30
0.0
 10
5.703320867
 20
7.0297529072
 30
0.0
 10
5.7053724852
 20
7.0304463682
 30
0.0
 10
5.7073358645
 20
7.0308858226
 30
0.0
 10
5.7086228483
 20
7.031
 30
0.0
 10
5.7092391198
 20
7.031
 30
0.0
  0
SPLINE
  5
2FF
100
AcDbEntity
  8
0
100
AcDbSpline
 62
7
  6
CONTINUOUS
 70
0
 71
3
 72
25
 73
21
 74
0
 42
0.0000001
 43
0.0000001
 44
0.0000000001
 40
0.0
 40
0.0
 40
0.0
 40
0.0
 40
0.0428366305
 40
0.0830933605
 40
0.1026794773
 40
0.1221799732
 40
0.1418533974
 40
0.1619692323
 40
0.2044945999
 40
0.2515677365
 40
0.3042827826
 40
0.3630868961
 40
0.4279276068
 40
0.4984169703
 40
0.5739591465
 40
0.6538328572
 40
0.7372374891
 40
0.8233183412
 40
0.9112183533
 40
1.0
 40
1.0
 40
1.0
 40
1.0
 10
5.7092391198
 20
7.031
 30
0.0
 10
5.7097420445
 20
7.031
 30
0.0
 10
5.7107201477
 20
7.0309293267
 30
0.0
 10
5.7118937741
 20
7.0306152319
 30
0.0
 10
5.7127417972
 20
7.0302251673
 30
0.0
 10
5.7133318848
 20
7.0298645871
 30
0.0
 10
5.7138794473
 20
7.0294321129
 30
0.0
 10
5.7145641502
 20
7.0287472763
 30
0.0
 10
5.7153113038
 20
7.0276854339
 30
0.0
 10
5.7160083847
 20
7.0261595797
 30
0.0
 10
5.7165433818
 20
7.0243716764
 30
0.0
 10
5.7169384624
 20
7.0223368405
 30
0.0
 10
5.7172174194
 20
7.0200735084
 30
0.0
 10
5.7174036331
 20
7.0176041703
 30
0.0
 10
5.7175193726
 20
7.0149541732
 30
0.0
 10
5.7175847069
 20
7.0121509428
 30
0.0
 10
5.7176169592
 20
7.0092234733
 30
0.0
 10
5.7176299647
 20
7.0062016497
 30
0.0
 10
5.7176336285
 20
7.0031166797
 30
0.0
 10
5.7176339746
 20
7.0010423435
 30
0.0
 10
5.7176339746
 20
7.0
 30
0.0
  0
SPLINE
  5
300
100
AcDbEntity
  8
0
100
AcDbSpline
 62
7
  6
CONTINUOUS
 70
0
 71
3
 72
11
 73
7
 74
0
 42
0.0000001
 43
0.0000001
 44
0.0000000001
 40
0.0
 40
0.0
 40
0.0
 40
0.0
 40
0.2297539801
 40
0.4710045157
 40
0.7270385062
 40
1.0
 40
1.0
 40
1.0
 40
1.0
 10
5.6463312164
 20
6.7570798742
 30
0.0
 10
5.6463312164
 20
6.7578295195
 30
0.0
 10
5.6464767263
 20
6.7593689533
 30
0.0
 10
5.6470918301
 20
6.7616694921
 30
0.0
 10
5.6480936297
 20
6.7639829457
 30
0.0
 10
5.6489781346
 20
6.7654703854
 30
0.0
 10
5.6494722392
 20
6.7662113786
 30
0.0
  0
SPLINE
  5
301
100
AcDbEntity
  8
0
100
AcDbSpline
 62
7
  6
CONTINUOUS
 70
0
 71
3
 72
24
 73
20
 74
0
 42
0.0000001
 43
0.0000001
 44
0.0000000001
 40
0.0
 40
0.0
 40
0.0
 40
0.0
 40
0.0626566522
 40
0.0940415814
 40
0.1254008367
 40
0.1879881031
 40
0.219265663
 40
0.2505176327
 40
0.3129543719
 40
0.3753362782
 40
0.4376871714
 40
0.5000278081
 40
0.5623852331
 40
0.6247739861
 40
0.7495976858
 40
0.8121353833
 40
0.8747243509
 40
0.9373503508
 40
1.0
 40
1.0
 40
1.0
 40
1.0
 10
5.6463312164
 20
7.0
 30
0.0
 10
5.6463312164
 20
7.0022713043
 30
0.0
 10
5.6465744664
 20
7.0056861428
 30
0.0
 10
5.6473600018
 20
7.0101660073
 30
0.0
 10
5.6484480846
 20
7.0145802456
 30
0.0
 10
5.6499769309
 20
7.018870437
 30
0.0
 10
5.651893905
 20
7.0229832243
 30
0.0
 10
5.6540548546
 20
7.0269674779
 30
0.0
 10
5.6571848188
 20
7.0316960899
 30
0.0
 10
5.6615270209
 20
7.0369250855
 30
0.0
 10
5.6663698151
 20
7.0416875301
 30
0.0
 10
5.671634323
 20
7.0459752562
 30
0.0
 10
5.6772571035
 20
7.0497828045
 30
0.0
 10
5.6851522092
 20
7.0542163664
 30
0.0
 10
5.6935636105
 20
7.0576842046
 30
0.0
 10
5.7022888813
 20
7.0601503995
 30
0.0
 10
5.7089687105
 20
7.0614930185
 30
0.0
 10
5.7157358311
 20
7.0623127418
 30
0.0
 10
5.7202791038
 20
7.0624993918
 30
0.0
 10
5.7225501541
 20
7.0624999634
 30
0.0
  0
SPLINE
  5
302
100
AcDbEntity
  8
0
100
AcDbSpline
 62
7
  6
CONTINUOUS
 70
0
 71
3
 72
43
 73
39
 74
0
 42
0.0000001
 43
0.0000001
 44
0.0000000001
 40
0.0
 40
0.0
 40
0.0
 40
0.0
 40
0.0097148379
 40
0.0193799133
 40
0.0291083021
 40
0.0390051367
 40
0.0491669444
 40
0.0596801222
 40
0.0706095344
 40
0.081998967
 40
0.106242107
 40
0.1325054751
 40
0.1607120845
 40
0.1907369116
 40
0.2224064159
 40
0.2555560808
 40
0.2900137636
 40
0.3256164775
 40
0.3622097216
 40
0.3996361264
 40
0.4377438433
 40
0.4763757137
 40
0.5153620044
 40
0.5545277464
 40
0.5936767688
 40
0.6325972555
 40
0.6710638087
 40
0.7088240829
 40
0.7456249227
 40
0.7811992673
 40
0.8152896892
 40
0.8476607736
 40
0.8781103485
 40
0.9064996624
 40
0.9327697205
 40
0.9569663746
 40
0.9792668721
 40
1.0
 40
1.0
 40
1.0
 40
1.0
 10
5.6463312164
 20
7.2429201258
 30
0.0
 10
5.6463312164
 20
7.2434231396
 30
0.0
 10
5.646394914
 20
7.2444278176
 30
0.0
 10
5.6466829575
 20
7.2459111872
 30
0.0
 10
5.6471587727
 20
7.2473553852
 30
0.0
 10
5.6478181398
 20
7.2487537172
 30
0.0
 10
5.6486567827
 20
7.2501001128
 30
0.0
 10
5.6496650385
 20
7.2513924337
 30
0.0
 10
5.6508340061
 20
7.2526298377
 30
0.0
 10
5.6526329527
 20
7.2542384533
 30
0.0
 10
5.6552582098
 20
7.2560951001
 30
0.0
 10
5.6588390569
 20
7.2580546138
 30
0.0
 10
5.6628551163
 20
7.2598021795
 30
0.0
 10
5.6672488801
 20
7.2613487837
 30
0.0
 10
5.6719700268
 20
7.2627086439
 30
0.0
 10
5.6769739298
 20
7.2638922876
 30
0.0
 10
5.6822209277
 20
7.2649123016
 30
0.0
 10
5.6876759153
 20
7.2657780366
 30
0.0
 10
5.6933068635
 20
7.2664978807
 30
0.0
 10
5.6990840172
 20
7.2670794687
 30
0.0
 10
5.7049789267
 20
7.2675263546
 30
0.0
 10
5.7109630867
 20
7.2678431397
 30
0.0
 10
5.7170075212
 20
7.268029412
 30
0.0
 10
5.7230813427
 20
7.2680851625
 30
0.0
 10
5.7291515498
 20
7.2680071673
 30
0.0
 10
5.7351822021
 20
7.2677899968
 30
0.0
 10
5.7411339607
 20
7.2674279666
 30
0.0
 10
5.7469642895
 20
7.2669114242
 30
0.0
 10
5.7526272728
 20
7.2662316844
 30
0.0
 10
5.7580747361
 20
7.2653779373
 30
0.0
 10
5.7632566714
 20
7.2643389935
 30
0.0
 10
5.768123197
 20
7.2631055896
 30
0.0
 10
5.7726252913
 20
7.2616675731
 30
0.0
 10
5.7767169467
 20
7.2600180127
 30
0.0
 10
5.7803559794
 20
7.2581515341
 30
0.0
 10
5.7835040644
 20
7.2560638352
 30
0.0
 10
5.78612762
 20
7.2537577395
 30
0.0
 10
5.7875469642
 20
7.2520220648
 30
0.0
 10
5.7881429185
 20
7.2511291602
 30
0.0
  0
SPLINE
  5
303
100
AcDbEntity
  8
0
100
AcDbSpline
 62
7
  6
CONTINUOUS
 70
0
 71
3
 72
24
 73
20
 74
0
 42
0.0000001
 43
0.0000001
 44
0.0000000001
 40
0.0
 40
0.0
 40
0.0
 40
0.0
 40
0.0626490695
 40
0.1252750897
 40
0.1878640012
 40
0.2504017796
 40
0.3752255452
 40
0.437614313
 40
0.4999713712
 40
0.56231185
 40
0.6246622024
 40
0.6870440467
 40
0.7494802718
 40
0.7807323428
 40
0.8120101089
 40
0.8745979131
 40
0.9059578453
 40
0.9373432491
 40
1.0
 40
1.0
 40
1.0
 40
1.0
 10
5.7225542731
 20
6.9375000367
 30
0.0
 10
5.7202831579
 20
6.9375004914
 30
0.0
 10
5.7157397234
 20
6.9376869272
 30
0.0
 10
5.7089723365
 20
6.938506407
 30
0.0
 10
5.702292192
 20
6.9398487749
 30
0.0
 10
5.6935665051
 20
6.9423147754
 30
0.0
 10
5.6851546618
 20
6.9457824572
 30
0.0
 10
5.6772591243
 20
6.9502159309
 30
0.0
 10
5.6716360461
 20
6.9540234642
 30
0.0
 10
5.666371245
 20
6.9583111751
 30
0.0
 10
5.6615281664
 20
6.963073659
 30
0.0
 10
5.6571857092
 20
6.9683027223
 30
0.0
 10
5.6540555018
 20
6.9730314113
 30
0.0
 10
5.6518944152
 20
6.9770157774
 30
0.0
 10
5.6499772703
 20
6.9811287069
 30
0.0
 10
5.6484482557
 20
6.9854190806
 30
0.0
 10
5.6473601303
 20
6.989833549
 30
0.0
 10
5.6465745154
 20
6.9943136185
 30
0.0
 10
5.6463312164
 20
6.9977286063
 30
0.0
 10
5.6463312164
 20
7.0
 30
0.0
  0
SPLINE
  5
304
100
AcDbEntity
  8
0
100
AcDbSpline
 62
7
  6
CONTINUOUS
 70
0
 71
3
 72
43
 73
39
 74
0
 42
0.0000001
 43
0.0000001
 44
0.0000000001
 40
0.0
 40
0.0
 40
0.0
 40
0.0
 40
0.0207325408
 40
0.0430323974
 40
0.0672282989
 40
0.0934977007
 40
0.1218863329
 40
0.1523353343
 40
0.1847057936
 40
0.218795601
 40
0.2543693992
 40
0.2911695825
 40
0.3289293317
 40
0.367395421
 40
0.4063154823
 40
0.4454645842
 40
0.4846303249
 40
0.5236169979
 40
0.562249359
 40
0.6003575522
 40
0.6377845643
 40
0.6743784102
 40
0.7099815892
 40
0.7444398498
 40
0.7775898478
 40
0.8092598251
 40
0.8392849709
 40
0.867491978
 40
0.8937557558
 40
0.9179992567
 40
0.9293889731
 40
0.9403186475
 40
0.9508320737
 40
0.9609941628
 40
0.9708912994
 40
0.9806199098
 40
0.9902851114
 40
1.0
 40
1.0
 40
1.0
 40
1.0
 10
5.7881435798
 20
6.7488718407
 30
0.0
 10
5.7875477038
 20
6.7479789104
 30
0.0
 10
5.7861285126
 20
6.7462431679
 30
0.0
 10
5.7835051306
 20
6.7439369883
 30
0.0
 10
5.7803572223
 20
6.7418491598
 30
0.0
 10
5.7767183036
 20
6.7399826238
 30
0.0
 10
5.7726267686
 20
6.7383329407
 30
0.0
 10
5.7681247564
 20
6.7368948633
 30
0.0
 10
5.7632583113
 20
6.7356613693
 30
0.0
 10
5.7580764407
 20
6.7346223641
 30
0.0
 10
5.7526290384
 20
6.7337685641
 30
0.0
 10
5.7469661091
 20
6.7330887572
 30
0.0
 10
5.741135824
 20
6.7325721766
 30
0.0
 10
5.7351840962
 20
6.7322101016
 30
0.0
 10
5.7291534416
 20
6.731992865
 30
0.0
 10
5.7230832063
 20
6.7319148622
 30
0.0
 10
5.7170093137
 20
6.7319705303
 30
0.0
 10
5.7109647874
 20
6.7321567997
 30
0.0
 10
5.7049805094
 20
6.7324735386
 30
0.0
 10
5.6990854703
 20
6.7329203954
 30
0.0
 10
5.6933081842
 20
6.7335019801
 30
0.0
 10
5.6876770987
 20
6.7342217785
 30
0.0
 10
5.6822219838
 20
6.7350875234
 30
0.0
 10
5.6769748646
 20
6.736107501
 30
0.0
 10
5.6719708475
 20
6.7372911455
 30
0.0
 10
5.6672495963
 20
6.7386509867
 30
0.0
 10
5.6628557231
 20
6.7401975752
 30
0.0
 10
5.6588395689
 20
6.7419451509
 30
0.0
 10
5.6552586037
 20
6.7439046395
 30
0.0
 10
5.6526332611
 20
6.7457613044
 30
0.0
 10
5.650834245
 20
6.7473699396
 30
0.0
 10
5.6496652102
 20
6.7486073542
 30
0.0
 10
5.6486568943
 20
6.7498996975
 30
0.0
 10
5.6478182272
 20
6.7512461445
 30
0.0
 10
5.6471588474
 20
6.7526445288
 30
0.0
 10
5.6466829974
 20
6.7540887621
 30
0.0
 10
5.646394924
 20
6.755572159
 30
0.0
 10
5.6463312164
 20
6.7565768539
 30
0.0
 10
5.6463312164
 20
6.7570798742
 30
0.0
  0
SPLINE
  5
305
100
AcDbEntity
  8
0
100
AcDbSpline
 62
7
  6
CONTINUOUS
 70
0
 71
3
 72
11
 73
7
 74
0
 42
0.0000001
 43
0.0000001
 44
0.0000000001
 40
0.0
 40
0.0
 40
0.0
 40
0.0
 40
0.272961765
 40
0.5289949285
 40
0.7702446321
 40
1.0
 40
1.0
 40
1.0
 40
1.0
 10
5.6494717901
 20
7.2337893163
 30
0.0
 10
5.6489777512
 20
7.2345302644
 30
0.0
 10
5.6480933661
 20
7.2360176025
 30
0.0
 10
5.6470916888
 20
7.238330873
 30
0.0
 10
5.6464766918
 20
7.2406312329
 30
0.0
 10
5.6463312164
 20
7.242170539
 30
0.0
 10
5.6463312164
 20
7.2429201258
 30
0.0
  0
SPLINE
  5
306
100
AcDbEntity
  8
0
100
AcDbSpline
 62
7
  6
CONTINUOUS
 70
0
 71
3
 72
26
 73
22
 74
0
 42
0.0000001
 43
0.0000001
 44
0.0000000001
 40
0.0
 40
0.0
 40
0.0
 40
0.0
 40
0.1766781301
 40
0.262761108
 40
0.3461578677
 40
0.426030556
 40
0.5015676235
 40
0.5720487168
 40
0.6368800073
 40
0.6956732261
 40
0.748379469
 40
0.7725816237
 40
0.7954833606
 40
0.8172407424
 40
0.8380568223
 40
0.858169082
 40
0.8778391703
 40
0.897337711
 40
0.9169208581
 40
0.9571759569
 40
1.0
 40
1.0
 40
1.0
 40
1.0
 10
5.7176339746
 20
7.0
 30
0.0
 10
5.7176339746
 20
6.9979255124
 30
0.0
 10
5.7176342396
 20
6.9948402646
 30
0.0
 10
5.7176170373
 20
6.9907758345
 30
0.0
 10
5.7175847656
 20
6.9878481705
 30
0.0
 10
5.7175192825
 20
6.9850448507
 30
0.0
 10
5.7174036363
 20
6.9823947634
 30
0.0
 10
5.7172172877
 20
6.9799254988
 30
0.0
 10
5.7169383632
 20
6.9776622029
 30
0.0
 10
5.7165431291
 20
6.9756278148
 30
0.0
 10
5.7160852899
 20
6.9740971146
 30
0.0
 10
5.7156311878
 20
6.9730155935
 30
0.0
 10
5.7152588476
 20
6.9722967474
 30
0.0
 10
5.7148430165
 20
6.9716486675
 30
0.0
 10
5.7143831118
 20
6.9710722096
 30
0.0
 10
5.7138793157
 20
6.9705675434
 30
0.0
 10
5.7133316789
 20
6.9701352248
 30
0.0
 10
5.712741495
 20
6.9697748822
 30
0.0
 10
5.7118935589
 20
6.9693846195
 30
0.0
 10
5.7107199499
 20
6.9690707166
 30
0.0
 10
5.7097419434
 20
6.969
 30
0.0
 10
5.7092391198
 20
6.969
 30
0.0
  0
SPLINE
  5
307
100
AcDbEntity
  8
0
100
AcDbSpline
 62
7
  6
CONTINUOUS
 70
0
 71
3
 72
19
 73
15
 74
0
 42
0.0000001
 43
0.0000001
 44
0.0000000001
 40
0.0
 40
0.0
 40
0.0
 40
0.0
 40
0.1255570989
 40
0.2506679576
 40
0.3130877084
 40
0.3754357534
 40
0.4377309837
 40
0.5000000179
 40
0.5622690537
 40
0.6245642827
 40
0.6869123252
 40
0.7493320735
 40
0.8744429083
 40
1.0
 40
1.0
 40
1.0
 40
1.0
 10
3.7535636659
 20
7.0296137863
 30
0.0
 10
3.7489742637
 20
7.0450270202
 30
0.0
 10
3.7406315149
 20
7.0760520362
 30
0.0
 10
3.7327173624
 20
7.1154008268
 30
0.0
 10
3.7281611242
 20
7.1470876627
 30
0.0
 10
3.7256823816
 20
7.1709256404
 30
0.0
 10
3.7241749663
 20
7.1948256555
 30
0.0
 10
3.7236735152
 20
7.2187580241
 30
0.0
 10
3.72417497
 20
7.2426903924
 30
0.0
 10
3.7256823784
 20
7.2665904077
 30
0.0
 10
3.7281611304
 20
7.2904283836
 30
0.0
 10
3.7327173586
 20
7.3221152171
 30
0.0
 10
3.7406315188
 20
7.3614640021
 30
0.0
 10
3.748974264
 20
7.3924890146
 30
0.0
 10
3.7535636659
 20
7.4079022477
 30
0.0
  0
SPLINE
  5
308
100
AcDbEntity
  8
0
100
AcDbSpline
 62
7
  6
CONTINUOUS
 70
0
 71
3
 72
21
 73
17
 74
0
 42
0.0000001
 43
0.0000001
 44
0.0000000001
 40
0.0
 40
0.0
 40
0.0
 40
0.0
 40
0.1264560126
 40
0.1892875349
 40
0.2518383053
 40
0.3141389815
 40
0.3762244014
 40
0.4381542655
 40
0.5000000641
 40
0.5618458488
 40
0.6237757087
 40
0.6858611075
 40
0.7481617721
 40
0.8107125085
 40
0.8735439971
 40
1.0
 40
1.0
 40
1.0
 40
1.0
 10
4.127
 20
7.0296137863
 30
0.0
 10
4.1346471373
 20
7.0444415588
 30
0.0
 10
4.1452575359
 20
7.0670957235
 30
0.0
 10
4.1570954699
 20
7.0981539187
 30
0.0
 10
4.1646354262
 20
7.1217545486
 30
0.0
 10
4.1706966695
 20
7.1456780355
 30
0.0
 10
4.1751517738
 20
7.1698717309
 30
0.0
 10
4.17786939
 20
7.1942632535
 30
0.0
 10
4.1787910459
 20
7.2187580407
 30
0.0
 10
4.1778693877
 20
7.2432528272
 30
0.0
 10
4.1751517688
 20
7.2676443444
 30
0.0
 10
4.1706966631
 20
7.2918380346
 30
0.0
 10
4.164635417
 20
7.3157615116
 30
0.0
 10
4.1570954668
 20
7.3393621325
 30
0.0
 10
4.1452575302
 20
7.3704203158
 30
0.0
 10
4.1346471367
 20
7.3930744763
 30
0.0
 10
4.127
 20
7.4079022477
 30
0.0
  0
SPLINE
  5
309
100
AcDbEntity
  8
0
100
AcDbSpline
 62
7
  6
CONTINUOUS
 70
0
 71
3
 72
19
 73
15
 74
0
 42
0.0000001
 43
0.0000001
 44
0.0000000001
 40
0.0
 40
0.0
 40
0.0
 40
0.0
 40
0.1255570989
 40
0.2506679576
 40
0.3130877084
 40
0.3754357534
 40
0.4377309837
 40
0.5000000179
 40
0.5622690537
 40
0.6245642827
 40
0.6869123252
 40
0.7493320735
 40
0.8744429083
 40
1.0
 40
1.0
 40
1.0
 40
1.0
 10
3.7535636659
 20
6.5920977523
 30
0.0
 10
3.7489742637
 20
6.6075109862
 30
0.0
 10
3.7406315149
 20
6.6385360022
 30
0.0
 10
3.7327173624
 20
6.6778847928
 30
0.0
 10
3.7281611242
 20
6.7095716287
 30
0.0
 10
3.7256823816
 20
6.7334096064
 30
0.0
 10
3.7241749663
 20
6.7573096215
 30
0.0
 10
3.7236735152
 20
6.7812419901
 30
0.0
 10
3.72417497
 20
6.8051743584
 30
0.0
 10
3.7256823784
 20
6.8290743737
 30
0.0
 10
3.7281611304
 20
6.8529123496
 30
0.0
 10
3.7327173586
 20
6.8845991831
 30
0.0
 10
3.7406315188
 20
6.9239479681
 30
0.0
 10
3.748974264
 20
6.9549729807
 30
0.0
 10
3.7535636659
 20
6.9703862137
 30
0.0
  0
SPLINE
  5
30A
100
AcDbEntity
  8
0
100
AcDbSpline
 62
7
  6
CONTINUOUS
 70
0
 71
3
 72
21
 73
17
 74
0
 42
0.0000001
 43
0.0000001
 44
0.0000000001
 40
0.0
 40
0.0
 40
0.0
 40
0.0
 40
0.1264560126
 40
0.1892875349
 40
0.2518383053
 40
0.3141389815
 40
0.3762244014
 40
0.4381542655
 40
0.5000000641
 40
0.5618458488
 40
0.6237757087
 40
0.6858611075
 40
0.7481617721
 40
0.8107125085
 40
0.8735439971
 40
1.0
 40
1.0
 40
1.0
 40
1.0
 10
4.127
 20
6.5920977523
 30
0.0
 10
4.1346471373
 20
6.6069255248
 30
0.0
 10
4.1452575359
 20
6.6295796895
 30
0.0
 10
4.1570954699
 20
6.6606378847
 30
0.0
 10
4.1646354262
 20
6.6842385146
 30
0.0
 10
4.1706966695
 20
6.7081620015
 30
0.0
 10
4.1751517738
 20
6.7323556969
 30
0.0
 10
4.17786939
 20
6.7567472195
 30
0.0
 10
4.1787910459
 20
6.7812420067
 30
0.0
 10
4.1778693877
 20
6.8057367933
 30
0.0
 10
4.1751517688
 20
6.8301283104
 30
0.0
 10
4.1706966631
 20
6.8543220006
 30
0.0
 10
4.164635417
 20
6.8782454777
 30
0.0
 10
4.1570954668
 20
6.9018460985
 30
0.0
 10
4.1452575302
 20
6.9329042818
 30
0.0
 10
4.1346471367
 20
6.9555584424
 30
0.0
 10
4.127
 20
6.9703862137
 30
0.0
  0
ELLIPSE
  5
30B
100
AcDbEntity
  8
0
100
AcDbEllipse
 62
7
  6
CONTINUOUS
 10
6.1575
 20
6.6775
 30
0.0
 11
-0.0
 21
0.035
 31
0.0
 40
1.0
 41
-4.7123889804
 42
-1.5707963268
  0
ELLIPSE
  5
30C
100
AcDbEntity
  8
0
100
AcDbEllipse
 62
7
  6
CONTINUOUS
 10
6.1575
 20
7.3225
 30
0.0
 11
0.035
 21
-0.0
 31
0.0
 40
1.0
 41
0.0
 42
3.1415926536
  0
ELLIPSE
  5
30D
100
AcDbEntity
  8
0
100
AcDbEllipse
 62
7
  6
CONTINUOUS
 10
4.9885
 20
6.591
 30
0.0
 11
-0.0
 21
0.035
 31
0.0
 40
1.0
 41
-4.7123889804
 42
-1.5707963268
  0
ELLIPSE
  5
30E
100
AcDbEntity
  8
0
100
AcDbEllipse
 62
7
  6
CONTINUOUS
 10
4.9885
 20
7.409
 30
0.0
 11
0.035
 21
0.0
 31
0.0
 40
1.0
 41
0.0
 42
3.1415926536
  0
ELLIPSE
  5
30F
100
AcDbEntity
  8
0
100
AcDbEllipse
 62
7
  6
CONTINUOUS
 10
4.3975
 20
6.591
 30
0.0
 11
0.0
 21
0.035
 31
0.0
 40
1.0
 41
-4.7123889804
 42
-1.5707963268
  0
ELLIPSE
  5
310
100
AcDbEntity
  8
0
100
AcDbEllipse
 62
7
  6
CONTINUOUS
 10
4.3975
 20
7.409
 30
0.0
 11
0.035
 21
-0.0
 31
0.0
 40
1.0
 41
0.0
 42
3.1415926536
  0
ENDSEC
  0
SECTION
  2
OBJECTS
  0
DICTIONARY
  5
C
100
AcDbDictionary
280
0
281
1
  3
ACAD_GROUP
350
D
  3
ACAD_MLINESTYLE
350
17
  3
ACAD_LAYOUT
350
1A
  3
ACAD_PLOTSETTINGS
350
19
  3
ACAD_PLOTSTYLENAME
350
E
  0
DICTIONARY
  5
D
102
{ACAD_REACTORS
330
C
102
}
100
AcDbDictionary
280
0
281
1
  0
ACDBDICTIONARYWDFLT
  5
E
102
{ACAD_REACTORS
330
C
102
}
100
AcDbDictionary
281
1
  3
Normal
350
F
100
AcDbDictionaryWithDefault
340
F
  0
DICTIONARY
  5
17
102
{ACAD_REACTORS
330
C
102
}
100
AcDbDictionary
280
0
281
1
  3
Standard
350
18
  0
DICTIONARY
  5
19
102
{ACAD_REACTORS
330
C
102
}
100
AcDbDictionary
281
1
  0
DICTIONARY
  5
1A
102
{ACAD_REACTORS
330
C
102
}
100
AcDbDictionary
281
1
  3
Model
350
311
  3
Layout1
350
312
  0
ACDBPLACEHOLDER
  5
F
102
{ACAD_REACTORS
330
E
102
}
  0
MLINESTYLE
  5
18
102
{ACAD_REACTORS
330
17
102
}
100
AcDbMlineStyle
  2
STANDARD
 70
0
  3

 62
256
 51
90.0
 52
90.0
 71
2
 49
0.5
 62
256
  6
BYLAYER
 49
-0.5
 62
256
  6
BYLAYER
  0
LAYOUT
  5
311
102
{ACAD_REACTORS
330
1A
102
}
100
AcDbPlotSettings
  1

  2
none_device
  4
ANSI_B_(17.00_x_11.00_Inches)
  6

 40
0.0
 41
0.0
 42
0.0
 43
0.0
 44
431.8
 45
279.4
 46
0.0
 47
0.0
 48
0.0
 49
0.0
140
0.0
141
0.0
142
1.0
143
1.0
 70
1024
 72
0
 73
0
 74
0
  7

 75
0
147
1.0
148
0.0
149
0.0
100
AcDbLayout
  1
Model
 70
0
 71
0
 10
0.0
 20
0.0
 11
17.0
 21
11.0
 12
0.0
 22
0.0
 32
0.0
 14
0.0
 24
0.0
 34
0.0
 15
0.0
 25
0.0
 35
0.0
146
0.0
 13
0.0
 23
0.0
 33
0.0
 16
1.0
 26
0.0
 36
0.0
 17
0.0
 27
1.0
 37
0.0
 76
0
330
23D
345
0
346
0
  0
LAYOUT
  5
312
102
{ACAD_REACTORS
330
1A
102
}
100
AcDbPlotSettings
  1

  2
none_device
  4
ANSI_B_(17.00_x_11.00_Inches)
  6

 40
0.0
 41
0.0
 42
0.0
 43
0.0
 44
431.8
 45
279.4
 46
0.0
 47
0.0
 48
0.0
 49
0.0
140
0.0
141
0.0
142
1.0
143
1.0
 70
0
 72
0
 73
0
 74
0
  7

 75
0
147
1.0
148
0.0
149
0.0
100
AcDbLayout
  1
Layout1
 70
0
 71
1
 10
0.0
 20
0.0
 11
17.0
 21
11.0
 12
0.0
 22
0.0
 32
0.0
 14
0.0
 24
0.0
 34
0.0
 15
0.0
 25
0.0
 35
0.0
146
0.0
 13
0.0
 23
0.0
 33
0.0
 16
1.0
 26
0.0
 36
0.0
 17
0.0
 27
1.0
 37
0.0
 76
0
330
23E
345
0
346
0
  0
ENDSEC
  0
EOF
